osu file format v14

[General]
AudioFilename: audio.mp3
AudioLeadIn: 0
PreviewTime: 77414
Countdown: 1
SampleSet: Normal
StackLeniency: 0.3
Mode: 0
LetterboxInBreaks: 0
WidescreenStoryboard: 1

[Editor]
Bookmarks: 16566,31328,46980,60893,71328,74806,78284,85241,94371
DistanceSpacing: 1.4
BeatDivisor: 4
GridSize: 8
TimelineZoom: 1

[Metadata]
Title:Snow Song Show
TitleUnicode:Snow Song Show
Artist:sasakure.UK x DECO*27
ArtistUnicode:sasakure.UK x DECO*27
Creator:Lokidoki
Version:Collab Hard
Source:
Tags:christmas xmas santa claus hatsune miku vocaloid ezek rizen
BeatmapID:1128502
BeatmapSetID:530295

[Difficulty]
HPDrainRate:4
CircleSize:3.5
OverallDifficulty:6
ApproachRate:7.5
SliderMultiplier:1.5
SliderTickRate:1

[Events]
//Background and Video events
0,0,"Snow.Song.Show.full.1380319.jpg",0,0
//Break Periods
//Storyboard Layer 0 (Background)
//Storyboard Layer 1 (Fail)
//Storyboard Layer 2 (Pass)
//Storyboard Layer 3 (Foreground)
//Storyboard Sound Samples

[TimingPoints]
561,352.941176470588,6,2,0,25,1,0
561,-200,6,2,0,25,0,0
737,352.941176470588,6,2,0,25,1,0
737,-200,6,2,0,25,0,0
16089,-200,6,2,0,5,0,0
16266,600,4,1,0,40,1,0
16566,434.782608695652,4,1,0,40,1,0
16566,-100,4,1,0,40,0,0
17415,434.782608695652,4,1,0,50,1,0
17435,-100,4,1,0,50,0,0
60893,-100,4,1,0,50,0,0
71328,-200,4,1,0,50,0,0
76545,-100,4,1,0,50,0,0
78284,-100,4,1,0,50,0,1
92197,-100,4,1,0,50,0,0
93284,-100,4,1,0,30,0,0
93719,-100,4,1,0,20,0,0
172215,326.086956521739,6,1,0,60,1,0
179290,352.941176470588,7,2,0,40,1,0
180348,352.941176470588,6,2,0,40,1,0
195171,434.782608695652,4,2,0,50,1,0

[Colours]
Combo1 : 37,185,239
Combo2 : 255,203,151

[HitObjects]
152,160,561,5,0,0:0:0:0:
152,160,649,1,0,0:0:0:0:
152,160,737,2,0,P|160:200|144:248,1,75,8|0,0:0|0:0,0:0:0:0:
108,308,1442,1,0,0:0:0:0:
212,288,1795,2,0,L|296:264,1,75,8|0,0:0|0:0,0:0:0:0:
308,164,2501,1,0,0:0:0:0:
308,164,2854,2,0,L|220:188,1,75,8|0,0:0|0:0,0:0:0:0:
204,84,3560,5,0,0:0:0:0:
292,60,3913,1,0,0:0:0:0:
376,40,4266,2,0,L|452:52,1,75,8|0,0:0|0:0,0:0:0:0:
420,152,4972,6,0,L|432:240,1,75,8|0,0:0|0:0,0:0:0:0:
360,304,5678,1,0,0:0:0:0:
360,304,6031,2,0,P|316:320|272:320,1,75,8|0,0:0|0:0,0:0:0:0:
300,216,6736,1,0,0:0:0:0:
248,124,7089,2,0,P|292:112|328:112,2,75,8|0|8,0:0|0:0|0:0,0:0:0:0:
164,196,8148,2,0,P|120:212|80:208,2,75,8|0|8,0:0|0:0|0:0,0:0:0:0:
208,168,9031,5,0,0:0:0:0:
232,180,9119,1,0,0:0:0:0:
256,192,9207,2,0,L|232:272,1,75,0|8,0:0|0:0,0:0:0:0:
200,360,9913,1,0,0:0:0:0:
96,344,10266,2,0,P|60:336|28:312,1,75,8|0,0:0|0:0,0:0:0:0:
16,224,10972,1,0,0:0:0:0:
88,176,11148,1,0,0:0:0:0:
88,176,11236,1,0,0:0:0:0:
88,176,11325,2,0,L|104:88,1,75,8|0,0:0|0:0,0:0:0:0:
168,24,12031,6,0,L|252:8,1,75,8|0,0:0|0:0,0:0:0:0:
320,72,12736,1,0,0:0:0:0:
248,148,13089,1,4,0:0:0:0:
320,72,13442,2,0,L|400:52,2,75,8|0|8,0:0|0:0|0:0,0:0:0:0:
224,108,14501,1,0,0:0:0:0:
192,208,14854,2,4,L|212:288,1,75,4|0,0:0|0:0,0:0:0:0:
316,268,15560,1,0,0:0:0:0:
340,260,15648,1,0,0:0:0:0:
364,248,15736,2,0,L|436:208,1,75,0|4,0:0|0:0,0:0:0:0:
320,88,16566,6,2,B|272:62|211:76|211:76|153:87|103:51,1,225,0|0,0:0|0:0,0:0:0:0:
11,72,17415,6,0,L|13:146,1,75,8|0,0:0|0:0,0:0:0:0:
91,217,17849,2,0,L|93:142,1,75,8|0,0:0|0:0,0:0:0:0:
186,192,18284,2,0,P|222:199|259:192,1,75,8|0,0:0|0:0,0:0:0:0:
341,256,18719,2,0,P|377:249|414:257,1,75,8|0,0:0|0:0,0:0:0:0:
497,192,19154,6,0,L|494:117,1,75,8|0,0:0|0:0,0:0:0:0:
395,152,19588,2,0,L|354:88,1,75,8|0,0:0|3:0,3:0:0:0:
285,167,20023,1,8,2:2:0:0:
208,239,20241,1,8,2:2:0:0:
191,342,20458,1,8,2:2:0:0:
293,363,20675,1,8,2:2:0:0:
376,295,20893,6,0,P|347:271|312:259,1,75,8|0,0:0|0:0,0:0:0:0:
208,239,21328,1,0,0:0:0:0:
182,137,21545,1,0,0:0:0:0:
257,63,21762,2,0,P|311:50|365:63,1,112.5,8|0,0:0|0:0,0:0:0:0:
403,100,22197,1,0,0:0:0:0:
413,204,22415,1,0,0:0:0:0:
312,228,22632,6,0,L|312:153,1,75,8|0,0:0|0:0,0:0:0:0:
219,203,23067,2,0,L|219:278,1,75,4|0,0:0|0:0,0:0:0:0:
125,325,23501,2,0,L|125:212,2,112.5,8|0|8,0:0|0:0|0:0,0:0:0:0:
40,262,24371,6,0,P|27:226|27:189,1,75,8|0,0:0|0:0,0:0:0:0:
54,87,24806,2,0,P|86:67|110:40,1,75,8|0,0:0|0:0,0:0:0:0:
214,21,25241,2,0,P|245:40|282:46,1,75,8|0,0:0|0:0,0:0:0:0:
342,132,25675,2,0,P|354:167|354:204,1,75,8|0,0:0|0:0,0:0:0:0:
261,254,26110,6,0,P|260:216|273:181,1,75,8|0,0:0|0:0,0:0:0:0:
183,125,26545,2,0,P|183:162|170:197,1,75,8|0,0:0|0:0,0:0:0:0:
79,249,26980,1,8,2:2:0:0:
80,144,27197,1,8,2:2:0:0:
171,198,27414,1,8,2:2:0:0:
264,144,27632,1,8,2:2:0:0:
354,204,27849,6,0,L|345:91,1,112.5,8|0,0:0|0:0,0:0:0:0:
359,41,28284,1,4,0:0:0:0:
450,92,28501,2,0,L|441:204,1,112.5,8|0,0:0|0:0,0:0:0:0:
427,254,28936,1,4,0:0:0:0:
367,340,29154,1,0,0:0:0:0:
281,279,29371,1,0,0:0:0:0:
342,192,29588,6,0,P|357:158|359:121,1,75,4|0,0:0|0:0,0:0:0:0:
255,136,30023,2,4,P|251:98|234:65,1,75,4|4,3:0|3:0,3:0:0:0:
152,131,30458,2,0,P|130:100|99:80,2,75,4|0|4,3:0|3:0|3:0,3:0:0:0:
58,178,31110,1,0,0:0:0:0:
58,178,31328,6,0,L|38:286,1,75,8|0,0:0|0:0,0:0:0:0:
104,337,31762,1,0,0:0:0:0:
152,244,31980,1,0,0:0:0:0:
152,244,32088,1,0,0:0:0:0:
152,244,32197,2,0,P|192:248|232:240,1,75,8|0,0:0|0:0,0:0:0:0:
292,156,32632,1,8,0:0:0:0:
216,84,32849,1,8,0:0:0:0:
216,84,33067,6,0,P|264:72|296:40,1,75,8|0,0:0|0:0,0:0:0:0:
384,20,33501,1,8,0:0:0:0:
372,124,33719,1,0,0:0:0:0:
372,124,33828,1,0,0:0:0:0:
372,124,33936,2,0,P|392:160|432:184,1,75,8|0,0:0|0:0,0:0:0:0:
492,260,34371,1,8,0:0:0:0:
404,320,34588,1,8,0:0:0:0:
404,320,34806,6,0,P|368:336|320:328,1,75,8|0,0:0|0:0,0:0:0:0:
228,360,35241,1,0,0:0:0:0:
136,308,35458,1,0,0:0:0:0:
136,308,35567,1,0,0:0:0:0:
136,308,35675,2,0,P|120:272|128:224,1,75,8|0,0:0|0:0,0:0:0:0:
144,136,36110,1,8,0:0:0:0:
44,164,36328,1,8,0:0:0:0:
44,164,36545,6,0,P|50:125|29:80,1,75,8|0,0:0|0:0,0:0:0:0:
120,24,36980,1,0,0:0:0:0:
220,56,37197,1,0,0:0:0:0:
220,56,37306,1,0,0:0:0:0:
220,56,37414,2,0,L|284:48,2,37.5,4|0|0,0:0|0:0|0:0,0:0:0:0:
144,136,37849,1,8,0:0:0:0:
240,180,38067,1,8,0:0:0:0:
240,180,38284,6,0,P|224:224|232:256,1,75,8|0,0:0|0:0,0:0:0:0:
228,360,38719,1,0,0:0:0:0:
316,304,38936,1,0,0:0:0:0:
316,304,39045,1,0,0:0:0:0:
316,304,39154,2,0,P|360:304|392:288,1,75,8|0,0:0|0:0,0:0:0:0:
336,200,39588,1,8,0:0:0:0:
400,124,39806,1,8,0:0:0:0:
400,124,40023,6,0,P|424:96|432:48,1,75,8|0,0:0|0:0,0:0:0:0:
328,56,40458,1,0,0:0:0:0:
288,148,40675,1,0,0:0:0:0:
288,148,40784,1,0,0:0:0:0:
288,148,40893,2,0,P|256:152|208:144,1,75,8|0,0:0|0:0,0:0:0:0:
192,60,41328,1,8,0:0:0:0:
112,128,41545,1,8,0:0:0:0:
112,128,41762,6,0,P|96:168|96:208,1,75,8|0,0:0|0:0,0:0:0:0:
88,308,42197,1,0,0:0:0:0:
180,260,42414,1,0,0:0:0:0:
180,260,42523,1,0,0:0:0:0:
180,260,42632,2,0,L|216:316,3,37.5,4|0|0|0,0:0|0:0|0:0|0:0,0:0:0:0:
252,304,43067,2,0,L|284:344,3,37.5,4|0|4|0,0:0|0:0|0:0|0:0,0:0:0:0:
256,192,43501,12,0,46545,0:0:0:0:
100,85,46980,5,0,0:0:0:0:
191,135,47197,1,0,0:0:0:0:
287,95,47414,2,0,P|324:90|361:96,1,75,8|0,0:0|0:0,0:0:0:0:
428,177,47849,2,0,L|438:288,2,112.5
324,196,48719,5,0,0:0:0:0:
274,288,48936,1,0,0:0:0:0:
168,313,49154,2,0,P|165:275|179:241,1,75,8|0,0:0|0:0,0:0:0:0:
229,149,49588,2,0,L|218:37,2,112.5
178,241,50458,5,0,0:0:0:0:
124,150,50675,1,0,0:0:0:0:
229,149,50893,2,0,P|257:172|275:205,1,75,8|0,0:0|0:0,0:0:0:0:
259,309,51328,2,0,L|370:319,2,112.5
178,241,52197,5,4,0:0:0:0:
178,241,52632,1,4,0:0:0:0:
375,167,53067,1,4,0:0:0:0:
375,167,53501,1,4,0:0:0:0:
196,56,53936,5,0,0:0:0:0:
138,144,54154,1,0,0:0:0:0:
178,240,54371,2,0,P|215:237|251:245,1,75,8|0,0:0|0:0,0:0:0:0:
298,341,54806,2,0,B|355:353|355:353|407:340,2,112.5
352,251,55675,5,0,0:0:0:0:
352,145,55893,1,0,0:0:0:0:
453,126,56110,2,0,P|452:163|440:198,1,75,8|0,0:0|0:0,0:0:0:0:
352,251,56545,2,0,L|242:227,2,112.5
443,303,57414,5,0,0:0:0:0:
353,358,57632,1,0,0:0:0:0:
250,334,57849,2,0,L|176:318,1,75,8|0,0:0|0:0,0:0:0:0:
125,226,58284,2,0,L|15:249,2,112.5
214,170,59154,6,0,B|225:96|225:96|213:21,1,150,2|0,0:0|0:0,0:0:0:0:
358,173,60023,2,0,B|347:247|347:247|359:322,1,150,2|0,0:0|0:0,0:0:0:0:
487,154,60893,6,0,L|476:229,1,75
462,332,61328,1,0,0:0:0:0:
358,321,61545,1,0,0:0:0:0:
358,321,61654,1,0,0:0:0:0:
358,321,61762,2,0,L|283:313,1,75,8|0,0:0|0:0,0:0:0:0:
210,237,62197,1,4,0:0:0:0:
64,86,62632,5,0,0:0:0:0:
32,186,62849,1,0,0:0:0:0:
136,166,63067,1,0,0:0:0:0:
184,74,63284,1,0,0:0:0:0:
184,74,63393,1,0,0:0:0:0:
184,74,63501,2,0,L|264:50,2,75,8|0|0,0:0|0:0|0:0,0:0:0:0:
100,266,64371,5,0,0:0:0:0:
32,186,64588,1,0,0:0:0:0:
136,170,64806,1,0,0:0:0:0:
208,246,65023,1,0,0:0:0:0:
208,246,65132,1,0,0:0:0:0:
208,246,65241,2,0,L|288:270,2,75,8|0|0,0:0|0:0|0:0,0:0:0:0:
100,266,65893,1,4,0:0:0:0:
40,352,66110,6,0,B|128:336|96:376|200:344,1,150
296,352,66762,1,0,0:0:0:0:
400,360,66980,2,0,P|440:336|456:304,1,75
448,216,67414,1,0,0:0:0:0:
368,144,67632,1,0,0:0:0:0:
368,40,67849,5,8,0:0:0:0:
272,106,68067,1,0,0:0:0:0:
180,54,68284,1,0,0:0:0:0:
184,158,68501,1,0,0:0:0:0:
184,158,68610,1,0,0:0:0:0:
184,158,68719,2,0,L|140:234,1,75,8|0,0:0|0:0,0:0:0:0:
88,310,69154,1,4,0:0:0:0:
80,102,69588,5,0,0:0:0:0:
180,66,69806,1,0,0:0:0:0:
280,102,70023,1,0,0:0:0:0:
380,70,70241,1,0,0:0:0:0:
380,70,70349,1,0,0:0:0:0:
380,70,70458,2,0,L|464:82,2,75,8|0|0,0:0|0:0|0:0,0:0:0:0:
280,102,71110,1,0,0:0:0:0:
180,66,71328,6,2,L|105:76,1,75,0|0,0:0|0:0,0:0:0:0:
51,166,72197,2,2,L|125:155,1,75,0|0,0:0|0:0,0:0:0:0:
203,225,73067,2,2,L|128:235,1,75,0|0,0:0|0:0,0:0:0:0:
74,325,73936,2,2,L|148:314,1,75,0|0,0:0|0:0,0:0:0:0:
253,313,74806,6,2,L|327:324,1,75,0|0,0:0|0:0,0:0:0:0:
274,233,75675,2,2,L|348:222,1,75,0|0,0:0|0:0,0:0:0:0:
249,157,76545,5,8,0:0:0:0:
253,313,76871,1,8,0:0:0:0:
379,219,77197,1,8,0:0:0:0:
378,218,78284,6,0,P|374:181|384:145,1,75,8|0,0:0|0:0,0:0:0:0:
307,73,78719,2,0,P|337:50|372:40,1,75,8|0,0:0|0:0,0:0:0:0:
469,84,79154,1,8,0:0:0:0:
384,145,79371,1,0,0:0:0:0:
286,183,79588,2,0,P|250:172|220:150,1,75,8|0,0:0|0:0,0:0:0:0:
127,100,80023,6,0,P|136:136|132:173,1,75,8|0,0:0|0:0,0:0:0:0:
135,278,80458,2,0,P|161:252|195:237,1,75,8|0,0:0|0:0,0:0:0:0:
286,183,80893,1,8,0:0:0:0:
232,92,81110,1,0,0:0:0:0:
127,100,81328,1,8,0:0:0:0:
78,192,81545,1,0,0:0:0:0:
135,279,81762,6,0,P|142:315|139:352,1,75,8|0,0:0|0:0,0:0:0:0:
232,303,82197,2,0,P|222:339|225:376,1,75,8|0,0:0|0:0,0:0:0:0:
326,347,82632,2,0,L|318:234,1,112.5,4|0,0:0|0:0,0:0:0:0:
312,182,83067,1,0,0:0:0:0:
407,225,83284,1,0,0:0:0:0:
480,150,83501,5,8,0:0:0:0:
433,55,83719,1,0,0:0:0:0:
330,77,83936,2,0,P|292:81|256:73,1,75,8|0,0:0|0:0,0:0:0:0:
206,164,84371,2,0,L|217:275,2,112.5
150,74,85241,6,0,L|258:54,1,75,8|0,0:0|0:0,0:0:0:0:
182,154,85675,2,0,L|90:174,1,75,8|0,0:0|0:0,0:0:0:0:
194,234,86110,2,0,L|270:214,1,75,8|0,0:0|0:0,0:0:0:0:
218,310,86545,2,0,L|130:334,1,75,8|0,0:0|0:0,0:0:0:0:
62,266,86980,1,8,0:0:0:0:
108,169,87197,1,0,0:0:0:0:
42,94,87414,2,8,P|50:46|70:10,1,75
150,78,87849,5,8,0:0:0:0:
254,54,88067,1,0,0:0:0:0:
358,78,88284,2,0,L|442:62,1,75,8|0,0:0|0:0,0:0:0:0:
410,166,88719,1,4,0:0:0:0:
354,254,88936,1,0,0:0:0:0:
458,258,89154,1,0,0:0:0:0:
354,254,89371,6,0,L|314:322,2,75,8|0|8,0:0|0:0|0:0,0:0:0:0:
254,226,90023,1,0,0:0:0:0:
286,126,90241,1,0,0:0:0:0:
182,146,90458,1,4,0:0:0:0:
94,90,90675,2,0,L|74:182,1,75,8|0,0:0|0:0,0:0:0:0:
82,270,91110,1,8,0:0:0:0:
182,247,91328,2,0,L|274:219,1,75
352,192,91762,1,8,0:0:0:0:
328,296,91980,1,4,0:0:0:0:
256,192,92197,12,0,93719,0:0:0:0:
