osu file format v14

[General]
AudioFilename: audio.mp3
AudioLeadIn: 0
PreviewTime: 46538
Countdown: 0
SampleSet: Normal
StackLeniency: 0.7
Mode: 2
LetterboxInBreaks: 1
WidescreenStoryboard: 0

[Editor]
Bookmarks: 80309,102252,121452,145795,200995,215909
DistanceSpacing: 1
BeatDivisor: 4
GridSize: 8
TimelineZoom: 1

[Metadata]
Title:39 feat. Hatsune Miku
TitleUnicode:39 feat. Hatsune Miku
Artist:sasakure.UK x DECO*27
ArtistUnicode:sasakure.UK x DECO*27
Creator:brenkip
Version:San-Kyuu
Source:
Tags:
BeatmapID:1268681
BeatmapSetID:600384

[Difficulty]
HPDrainRate:6
CircleSize:4.2
OverallDifficulty:9.1
ApproachRate:9.1
SliderMultiplier:1.55
SliderTickRate:2

[Events]
//Background and Video events
0,0,"thumb-1920-672758.png",0,0
//Break Periods
2,4566,6182
2,66109,68754
2,69538,72868
2,73652,76297
2,77081,79725
2,145824,146925
//Storyboard Layer 0 (Background)
//Storyboard Layer 1 (Fail)
//Storyboard Layer 2 (Pass)
//Storyboard Layer 3 (Foreground)
//Storyboard Sound Samples

[TimingPoints]
424,342.857142857143,4,2,0,69,1,0
3681,-100,4,3,0,69,0,0
4366,-100,4,3,0,60,0,0
6938,-100,4,2,0,69,0,0
7109,-100,4,3,0,69,0,0
7281,-100,4,2,0,69,0,0
7624,-100,4,2,0,69,0,0
9338,-100,4,3,0,69,0,0
9509,-100,4,2,0,69,0,0
10195,-100,4,3,0,69,0,0
10709,-100,4,2,0,80,0,0
13795,-100,4,3,0,69,0,0
14309,-100,4,2,0,69,0,0
17052,-100,4,3,0,69,0,0
17224,-100,4,2,0,69,0,0
18081,-100,4,3,0,69,0,0
19966,-100,4,2,0,69,0,0
23052,-100,4,3,0,69,0,0
23566,-100,4,2,0,69,0,0
23738,-100,4,3,0,69,0,0
24081,-100,4,2,0,69,0,0
33852,-100,4,3,0,69,0,0
34709,-100,4,2,0,69,0,0
36424,-100,4,1,0,40,0,0
44309,-100,4,2,0,40,0,0
44652,-100,4,2,0,70,0,0
44995,-100,4,2,0,80,0,0
45338,-100,4,2,0,100,0,0
45509,-100,4,3,0,100,0,0
45852,-100,4,2,0,100,0,0
46195,-100,4,3,0,100,0,0
46538,-100,4,2,0,100,0,1
55109,-100,4,2,0,55,0,1
57338,-100,4,2,0,80,0,1
57681,-100,4,2,0,100,0,1
65138,-100,4,2,0,30,0,1
65909,-100,4,3,0,100,0,0
80309,-100,4,2,0,40,0,0
80309,-100,4,2,0,65,0,0
80995,-100,4,2,0,70,0,0
86052,-100,4,2,0,41,0,0
86481,-100,4,2,0,60,0,0
89224,-100,4,3,0,100,0,0
89395,-100,4,2,0,100,0,0
89566,-100,4,2,0,100,0,0
91281,-100,4,1,0,100,0,0
97795,-100,4,1,0,42,0,0
98481,-100,4,1,0,80,0,0
98824,-100,4,1,0,50,0,0
99509,-100,4,2,0,100,0,0
100195,-100,4,2,0,45,0,0
102252,-90.9090909090909,4,2,0,69,0,1
102252,-90.9090909090909,4,1,0,90,0,0
102766,-90.9090909090909,4,1,0,75,0,1
104309,-90.9090909090909,4,1,0,50,0,1
104995,-90.9090909090909,4,2,0,80,0,1
105338,-90.9090909090909,4,1,0,80,0,1
107395,-90.9090909090909,4,2,0,80,0,1
108081,-90.9090909090909,4,1,0,80,0,1
109966,-90.9090909090909,4,1,0,80,0,1
121024,-90.9090909090909,4,2,0,35,0,1
122138,-125,4,2,0,90,0,0
122138,-125,4,2,0,80,0,0
124195,-83.3333333333333,4,2,0,100,0,0
125566,-100,4,2,0,100,0,0
135166,-100,4,3,0,100,0,0
140481,-100,4,1,0,100,0,0
143224,-100,4,1,0,50,0,0
143566,-100,4,1,0,70,0,0
143738,-100,4,1,0,90,0,0
144166,-100,4,1,0,40,0,0
144766,-100,4,1,0,100,0,0
147509,-90.9090909090909,4,3,0,20,0,0
158138,-90.9090909090909,4,2,0,80,0,0
158481,-100,4,1,0,69,0,0
165766,-100,4,1,0,29,0,0
166709,-76.9230769230769,4,1,0,100,0,1
167052,-76.9230769230769,4,1,0,69,0,1
176481,-76.9230769230769,4,2,0,10,0,1
177338,-66.6666666666667,4,2,0,100,0,1
177681,-66.6666666666667,4,3,0,100,0,1
182481,-90.9090909090909,4,2,0,69,0,1
183166,-125,4,2,0,69,0,1
185224,-125,4,2,0,10,0,1
185566,-100,4,2,0,10,0,0
185909,-111.111111111111,4,2,0,69,0,0
188995,-111.111111111111,4,3,0,69,0,0
189338,-111.111111111111,4,2,0,69,0,0
192938,-111.111111111111,4,3,0,69,0,0
193452,-111.111111111111,4,2,0,100,0,0
193795,-111.111111111111,4,2,0,60,0,0
194481,-111.111111111111,4,2,0,8,0,0
195424,-111.111111111111,4,2,0,8,0,0
195509,-111.111111111111,4,2,0,70,0,0
196366,-111.111111111111,4,3,0,70,0,0
196881,-111.111111111111,4,2,0,70,0,0
200306,-100,4,2,0,10,0,0
209566,-100,4,2,0,15,0,0
209909,-100,4,2,0,30,0,0
210424,-100,4,2,0,45,0,0
211281,-100,4,2,0,60,0,0
212138,-100,4,2,0,70,0,0
212995,-100,4,2,0,75,0,0
213852,-100,4,2,0,80,0,0
214195,-100,4,2,0,85,0,0
214709,-100,4,2,0,95,0,0
215224,-100,4,2,0,100,0,0
215909,-100,4,2,0,100,0,0

[HitObjects]
200,192,3338,5,0,0:0:0:0:
312,192,3509,1,0,0:0:0:0:
188,196,3681,1,8,0:0:0:0:
324,196,3852,1,8,0:0:0:0:
172,196,4024,1,8,0:0:0:0:
340,196,4195,1,8,0:0:0:0:
160,196,4366,1,4,0:0:0:0:
328,192,6766,5,0,0:0:0:0:
184,192,6938,1,2,0:0:0:0:
376,196,7109,1,2,0:0:0:0:
136,196,7281,6,0,P|116:144|104:100,1,77.5,4|0,0:0|0:0,0:0:0:0:
232,112,7624,2,0,P|276:88|312:56,1,77.5,2|0,0:0|0:0,0:0:0:0:
424,64,7966,2,0,P|472:84|528:104,1,77.5,2|0,0:0|0:0,0:0:0:0:
320,144,8309,1,2,0:0:0:0:
456,184,8481,1,0,0:0:0:0:
284,216,8652,2,0,P|236:256|196:268,1,77.5,0|2,0:0|0:0,0:0:0:0:
64,312,8995,2,0,P|44:260|76:156,1,155,0|8,0:0|0:0,0:0:0:0:
228,144,9509,5,0,0:0:0:0:
388,112,9681,1,0,0:0:0:0:
244,80,9852,1,0,0:0:0:0:
376,80,10024,2,0,P|312:60|284:56,3,77.5,0|8|8|8,0:0|0:0|0:0|0:0,0:0:0:0:
48,72,10709,6,0,P|100:124|116:216,1,155,4|2,0:0|0:0,0:0:0:0:
12,204,11224,2,0,P|0:260|4:300,1,77.5,0|2,0:0|0:0,0:0:0:0:
312,284,11566,2,0,L|396:260,2,77.5,0|2|0,0:0|0:0|0:0,0:0:0:0:
484,296,12081,2,0,P|508:224|484:148,1,155,2|0,0:0|0:0,0:0:0:0:
320,88,12595,2,0,P|384:76|420:88,1,77.5,0|2,0:0|0:0,0:0:0:0:
216,68,12938,5,0,0:0:0:0:
352,104,13109,1,0,0:0:0:0:
224,136,13281,1,2,0:0:0:0:
360,176,13452,1,2,0:0:0:0:
208,208,13624,1,8,0:0:0:0:
384,208,13795,6,8,L|304:208,3,77.5,8|8|8|4,0:0|0:0|0:0|0:0,0:0:0:0:
84,264,14824,6,0,P|68:224|60:184,1,77.5,2|0,0:0|0:0,0:0:0:0:
240,260,15166,2,0,P|248:220|244:180,1,77.5,2|0,0:0|0:0,0:0:0:0:
120,152,15509,2,0,P|172:140|212:144,1,77.5,2|0,0:0|0:0,0:0:0:0:
368,144,15852,2,0,P|416:164|476:256,1,155,2|0,0:0|0:0,0:0:0:0:
296,296,16366,1,0,0:0:0:0:
448,308,16538,2,0,P|468:272|484:224,1,77.5,2|0,0:0|0:0,0:0:0:0:
312,224,16881,2,0,L|216:224,2,77.5,2|8|4,0:0|0:0|0:0,0:0:0:0:
432,256,17395,5,0,0:0:0:0:
496,196,17566,1,2,0:0:0:0:
440,124,17738,1,0,0:0:0:0:
352,108,17909,1,2,0:0:0:0:
488,104,18081,6,0,L|472:184,1,77.5,0|8,0:0|0:0,0:0:0:0:
104,280,18424,2,0,L|84:192,1,77.5,0|8,0:0|0:0,0:0:0:0:
264,252,18766,2,0,L|360:248,1,77.5,0|8,0:0|0:0,0:0:0:0:
192,208,19109,2,0,L|284:200,1,77.5,0|8,0:0|0:0,0:0:0:0:
76,264,19452,2,0,P|48:220|44:188,1,77.5,0|8,0:0|0:0,0:0:0:0:
304,196,19795,1,0,0:0:0:0:
160,192,19966,2,0,P|232:176|328:164,1,155,2|4,0:0|0:0,0:0:0:0:
64,168,20481,6,0,P|52:212|52:248,1,77.5,2|0,0:0|0:0,0:0:0:0:
328,272,20824,2,0,P|336:216|336:176,1,77.5,2|0,0:0|0:0,0:0:0:0:
188,180,21166,1,0,0:0:0:0:
320,168,21338,2,0,P|372:176|428:172,1,77.5,2|0,0:0|0:0,0:0:0:0:
224,168,21681,2,0,P|172:172|132:184,1,77.5,2|0,0:0|0:0,0:0:0:0:
32,184,22024,2,0,P|8:264|8:320,1,116.25,2|0,0:0|0:0,0:0:0:0:
96,328,22366,2,0,P|128:307|153:277,1,77.5,4|0,0:0|0:0,0:0:0:0:
432,320,22709,6,0,P|384:292|356:252,1,77.5
492,264,23052,1,8,0:0:0:0:
356,276,23224,1,8,0:0:0:0:
508,264,23395,1,8,0:0:0:0:
136,308,23566,2,8,P|80:292|60:276,2,77.5,4|8|8,0:0|0:0|0:0,0:0:0:0:
336,304,24081,2,0,P|388:280|428:180,1,155,4|0,0:0|0:0,0:0:0:0:
112,300,24595,2,0,P|56:276|4:268,1,77.5,4|0,0:0|0:0,0:0:0:0:
440,112,24938,2,0,P|448:160|448:276,1,155,4|0,0:0|0:0,0:0:0:0:
296,200,25452,6,0,P|288:264|288:288,1,77.5,2|0,0:0|0:0,0:0:0:0:
160,288,25795,2,0,P|144:340|144:372,1,77.5,2|0,0:0|0:0,0:0:0:0:
464,340,26138,2,2,P|480:296|488:256,1,77.5,2|0,0:0|0:0,0:0:0:0:
360,264,26481,2,0,P|364:204|368:176,1,77.5,2|0,0:0|0:0,0:0:0:0:
196,184,26824,2,0,P|152:192|28:224,2,155,0|2|0,0:0|0:0|0:0,0:0:0:0:
360,204,27681,5,0,0:0:0:0:
200,136,27852,2,0,L|88:152,1,77.5,2|0,0:0|0:0,0:0:0:0:
360,144,28195,1,0,0:0:0:0:
200,92,28366,2,0,L|304:88,1,77.5,2|0,0:0|0:0,0:0:0:0:
420,92,28709,1,2,0:0:0:0:
76,100,28881,1,0,0:0:0:0:
208,176,29052,2,0,P|224:232|232:260,1,77.5,2|0,0:0|0:0,0:0:0:0:
52,300,29395,2,0,L|28:220,1,77.5,2|0,0:0|0:0,0:0:0:0:
408,296,29738,2,0,L|420:200,1,77.5,8|0,0:0|0:0,0:0:0:0:
176,196,30081,2,2,L|280:200,2,77.5
332,172,30595,6,0,P|276:132|232:120,1,77.5,8|0,0:0|0:0,0:0:0:0:
120,136,30938,2,0,P|80:152|48:188,1,77.5,2|0,0:0|0:0,0:0:0:0:
292,256,31281,2,0,P|344:268|376:268,1,77.5,2|0,0:0|0:0,0:0:0:0:
220,324,31624,2,0,P|204:284|212:252,1,77.5,2|0,0:0|0:0,0:0:0:0:
380,248,31966,2,0,P|392:204|384:164,1,77.5,2|0,0:0|0:0,0:0:0:0:
240,144,32309,1,0,0:0:0:0:
112,144,32481,1,8,0:0:0:0:
232,120,32652,2,0,L|324:144,1,77.5,2|0,0:0|0:0,0:0:0:0:
160,104,32995,2,0,P|148:168|144:196,1,77.5,2|0,0:0|0:0,0:0:0:0:
444,96,33338,6,0,P|480:164|472:260,1,155,4|0,0:0|0:0,0:0:0:0:
100,304,33852,2,0,P|60:288|44:188,1,155,8|0,0:0|0:0,0:0:0:0:
164,196,34366,2,0,P|192:160|200:128,1,77.5,8|0,0:0|0:0,0:0:0:0:
72,96,34709,1,2,0:0:0:0:
212,108,34881,1,0,0:0:0:0:
64,48,35052,2,0,P|144:36|232:40,1,155,8|0,0:0|0:0,0:0:0:0:
8,80,35738,6,0,P|-8:172|12:256,1,155,4|0,0:0|0:0,0:0:0:0:
256,296,36424,2,0,B|376:256|376:256|400:208,1,155,2|0,0:0|0:0,0:0:0:0:
168,252,37109,2,0,P|92:280|8:320,1,155,2|0,0:0|0:0,0:0:0:0:
216,332,37795,2,0,P|256:280|272:164,1,155,2|0,0:0|0:0,0:0:0:0:
440,276,38481,6,0,P|416:200|464:128,1,155,8|0,0:0|0:0,0:0:0:0:
184,112,39166,2,0,P|216:168|176:264,1,155,2|0,0:0|0:0,0:0:0:0:
48,152,39852,2,0,P|40:228|84:296,1,155,8|0,0:0|0:0,0:0:0:0:
216,280,40538,2,0,P|276:320|384:340,2,155,4|2|4,0:0|0:0|0:0,0:0:0:0:
400,312,41395,5,8,0:0:0:0:
272,296,41566,2,0,P|244:224|252:136,1,155,2|0,0:0|0:0,0:0:0:0:
432,88,42252,2,0,P|492:116|488:224,1,155,0|2,0:0|0:0,0:0:0:0:
208,88,42938,2,0,P|156:96|52:160,1,155,0|2,0:0|0:0,0:0:0:0:
280,192,43624,2,0,P|452:192|452:192,1,155,4|2,0:0|0:0,0:0:0:0:
152,300,44309,6,0,P|120:264|112:224,1,77.5,2|0,0:0|0:0,0:0:0:0:
396,296,44652,2,0,P|420:248|420:220,1,77.5,2|0,0:0|0:0,0:0:0:0:
68,272,44995,2,0,P|56:232|68:168,1,77.5,2|0,0:0|0:0,0:0:0:0:
460,268,45338,2,0,P|472:228|476:192,1,77.5,2|8,0:0|0:0,0:0:0:0:
260,108,45852,6,0,L|260:280,1,155,4|8,0:0|0:0,0:0:0:0:
16,192,46538,6,0,L|100:192,2,77.5,2|0|0,0:0|0:0|0:0,0:0:0:0:
160,144,47052,2,0,L|268:160,1,77.5,2|0,0:0|0:0,0:0:0:0:
380,184,47395,2,0,P|416:232|424:268,1,77.5,2|0,0:0|0:0,0:0:0:0:
132,304,47738,2,0,P|116:256|112:228,1,77.5,8|0,0:0|0:0,0:0:0:0:
456,128,48081,2,0,P|448:184|440:220,1,77.5,2|0,0:0|0:0,0:0:0:0:
52,136,48424,2,0,P|32:196|24:232,1,77.5,2|0,0:0|0:0,0:0:0:0:
296,128,48766,6,0,P|232:136|112:120,1,155,2|8,0:0|0:0,0:0:0:0:
320,136,49281,2,0,P|316:176|304:232,1,77.5,2|0,0:0|0:0,0:0:0:0:
152,216,49624,2,0,P|120:252|92:280,1,77.5,2|0,0:0|0:0,0:0:0:0:
456,248,49966,2,0,P|480:204|492:172,1,77.5,2|0,0:0|0:0,0:0:0:0:
84,272,50309,2,0,P|60:232|48:192,1,77.5,8|0,0:0|0:0,0:0:0:0:
320,168,50652,2,0,L|420:176,2,77.5,2|0|0,0:0|0:0|0:0,0:0:0:0:
168,164,51166,1,8,0:0:0:0:
436,96,51338,6,0,P|464:136|480:192,1,77.5
328,192,51681,2,0,P|332:256|328:280,1,77.5,8|0,0:0|0:0,0:0:0:0:
48,184,52024,1,0,0:0:0:0:
184,160,52195,2,0,P|144:164|96:164,1,77.5,4|0,0:0|0:0,0:0:0:0:
280,144,52538,2,0,P|304:208|312:232,1,77.5,2|0,0:0|0:0,0:0:0:0:
440,208,52881,2,0,P|444:272|432:312,1,77.5,2|0,0:0|0:0,0:0:0:0:
276,316,53224,1,0,0:0:0:0:
424,320,53395,5,8,0:0:0:0:
160,272,53566,2,0,L|348:292,2,155,4|2|0,0:0|0:0|0:0,0:0:0:0:
300,236,54424,1,0,0:0:0:0:
112,264,54595,2,0,P|68:208|32:124,1,155,2|0,0:0|0:0,0:0:0:0:
284,68,55109,5,0,0:0:0:0:
336,88,55195,1,0,0:0:0:0:
376,128,55281,1,0,0:0:0:0:
392,172,55366,1,0,0:0:0:0:
184,304,55452,1,0,0:0:0:0:
128,280,55538,1,0,0:0:0:0:
100,244,55624,1,0,0:0:0:0:
120,200,55709,1,0,0:0:0:0:
376,300,55795,5,0,0:0:0:0:
424,284,55881,1,0,0:0:0:0:
468,248,55966,1,0,0:0:0:0:
436,232,56052,1,0,0:0:0:0:
408,236,56138,1,0,0:0:0:0:
164,240,56224,1,0,0:0:0:0:
120,232,56309,1,0,0:0:0:0:
180,212,56395,1,0,0:0:0:0:
224,212,56481,1,0,0:0:0:0:
244,168,56566,1,0,0:0:0:0:
196,192,56652,5,0,0:0:0:0:
148,192,56738,1,0,0:0:0:0:
100,176,56824,1,0,0:0:0:0:
108,128,56909,1,0,0:0:0:0:
380,200,56995,1,0,0:0:0:0:
440,176,57081,1,0,0:0:0:0:
428,144,57166,1,0,0:0:0:0:
392,128,57252,1,0,0:0:0:0:
152,104,57338,6,0,L|44:92,1,77.5,4|0,0:0|0:0,0:0:0:0:
424,88,57681,2,0,P|469:152|488:226,1,155,4|0,0:0|0:0,0:0:0:0:
320,284,58195,2,0,L|432:308,1,77.5,2|0,0:0|0:0,0:0:0:0:
244,344,58538,1,0,0:0:0:0:
436,348,58709,2,0,P|464:296|460:176,1,155,2|0,0:0|0:0,0:0:0:0:
340,184,59224,1,8,0:0:0:0:
160,184,59395,1,0,0:0:0:0:
272,144,59566,5,8,0:0:0:0:
32,152,59738,2,0,P|76:156|208:132,1,155,2|0,0:0|0:0,0:0:0:0:
96,88,60252,2,0,P|32:108|4:128,1,77.5,8|0,0:0|0:0,0:0:0:0:
208,128,60595,1,0,0:0:0:0:
52,148,60766,2,0,P|40:188|40:248,1,77.5,2|0,0:0|0:0,0:0:0:0:
288,232,61109,2,0,P|336:224|372:224,1,77.5,2|0,0:0|0:0,0:0:0:0:
208,296,61452,6,0,P|168:304|120:300,1,77.5,2|0,0:0|0:0,0:0:0:0:
376,288,61795,2,0,P|420:296|468:312,1,77.5,8|0,0:0|0:0,0:0:0:0:
128,252,62138,2,0,P|64:276|20:288,1,77.5,8|0,0:0|0:0,0:0:0:0:
420,236,62481,2,0,L|504:248,1,77.5,8|0,0:0|0:0,0:0:0:0:
256,200,62824,2,0,L|352:184,1,77.5,2|0,0:0|0:0,0:0:0:0:
56,208,63166,2,0,L|24:108,1,77.5,4|0,0:0|0:0,0:0:0:0:
224,84,63509,6,0,P|296:92|400:132,1,155,2|0,0:0|0:0,0:0:0:0:
204,164,64024,1,0,0:0:0:0:
376,180,64195,2,0,P|400:252|404:268,1,77.5,2|0,0:0|0:0,0:0:0:0:
128,292,64538,2,0,P|120:244|124:200,1,77.5,2|0,0:0|0:0,0:0:0:0:
464,216,64881,2,0,P|476:164|472:128,1,77.5,8|0,0:0|0:0,0:0:0:0:
268,96,65138,5,0,0:0:0:0:
204,100,65224,1,0,0:0:0:0:
172,132,65309,1,0,0:0:0:0:
404,216,65395,1,0,0:0:0:0:
460,188,65481,1,0,0:0:0:0:
460,136,65566,1,0,0:0:0:0:
92,220,65652,1,0,0:0:0:0:
76,176,65738,1,0,0:0:0:0:
84,140,65824,1,0,0:0:0:0:
132,120,65909,1,4,0:0:0:0:
256,192,69338,5,4,0:0:0:0:
256,192,73452,5,4,0:0:0:0:
256,192,76881,5,4,0:0:0:0:
352,312,80309,5,0,0:0:0:0:
400,304,80395,1,0,0:0:0:0:
440,284,80481,1,0,0:0:0:0:
456,240,80566,1,0,0:0:0:0:
448,204,80652,1,0,0:0:0:0:
424,164,80738,1,0,0:0:0:0:
392,136,80824,1,0,0:0:0:0:
352,128,80909,1,0,0:0:0:0:
56,64,80995,6,0,P|128:76|192:140,1,155,4|0,0:0|0:0,0:0:0:0:
40,160,81681,2,0,P|4:216|-12:252,1,77.5,2|0,0:0|0:0,0:0:0:0:
144,320,82024,2,0,P|196:336|304:304,1,155,2|0,0:0|0:0,0:0:0:0:
256,288,82709,2,0,P|208:256|112:244,1,155,0|2,0:0|0:0,0:0:0:0:
332,288,83395,2,0,P|388:264|464:184,1,155,2|0,0:0|0:0,0:0:0:0:
320,172,83909,1,8,0:0:0:0:
464,108,84081,6,0,P|484:164|456:284,1,155,2|0,0:0|0:0,0:0:0:0:
304,300,84595,2,0,P|256:288|116:272,2,155,8|0|0,0:0|0:0|0:0,0:0:0:0:
96,320,85624,2,0,P|36:292|68:208,1,155,2|0,0:0|0:0,0:0:0:0:
88,224,86052,1,0,0:0:0:0:
128,220,86138,1,0,0:0:0:0:
80,208,86224,1,0,0:0:0:0:
32,168,86309,1,0,0:0:0:0:
64,120,86395,1,0,0:0:0:0:
376,136,86481,6,0,P|435:95|410:27,1,155,2|0,0:0|0:0,0:0:0:0:
204,132,87166,2,0,P|176:200|240:252,1,155,2|0,0:0|0:0,0:0:0:0:
416,304,87681,1,8,0:0:0:0:
256,312,88024,2,0,P|212:320|104:296,2,155,2|0|0,0:0|0:0|0:0,0:0:0:0:
16,336,88881,6,0,L|8:172,1,155,4|8,0:0|0:0,0:0:0:0:
192,160,89395,1,2,0:0:0:0:
68,148,89566,1,0,0:0:0:0:
304,96,89738,2,0,P|376:112|464:172,1,155,2|0,0:0|0:0,0:0:0:0:
176,320,90252,2,0,P|120:316|0:268,1,155,2|0,0:0|0:0,0:0:0:0:
316,336,90766,2,4,P|392:320|392:320,1,77.5,4|0,0:0|0:0,0:0:0:0:
152,296,91109,2,2,L|160:216,2,77.5,2|0|0,0:0|0:0|0:0,0:0:0:0:
488,184,91624,6,2,L|472:288,2,77.5
340,316,92138,2,0,P|276:344|240:340,1,77.5,2|0,0:0|0:0,0:0:0:0:
136,336,92481,2,0,P|72:332|40:320,1,77.5
340,316,92824,2,0,P|404:332|448:344,1,77.5,2|0,0:0|0:0,0:0:0:0:
144,280,93166,2,0,L|116:196,1,77.5,2|0,0:0|0:0,0:0:0:0:
0,208,93509,2,0,P|4:164|28:120,2,77.5
256,288,94024,6,0,P|208:264|80:240,1,155,4|0,0:0|0:0,0:0:0:0:
8,232,94538,1,0,0:0:0:0:
440,292,94709,2,0,P|384:332|276:348,1,155,2|0,0:0|0:0,0:0:0:0:
464,352,95224,2,0,P|480:284|480:248,1,77.5,2|0,0:0|0:0,0:0:0:0:
360,271,95566,2,0,P|392:235|440:199,1,77.5,2|0,0:0|0:0,0:0:0:0:
184,264,95909,2,0,P|120:276|76:272,1,77.5,2|0,0:0|0:0,0:0:0:0:
284,264,96252,2,0,P|340:272|384:268,2,77.5,2|0|8,0:0|0:0|0:0,0:0:0:0:
48,272,96766,6,4,P|12:200|44:132,1,155,4|0,0:0|0:0,0:0:0:0:
168,104,97281,1,0,0:0:0:0:
328,120,97452,2,0,P|376:152|408:168,1,77.5,2|0,0:0|0:0,0:0:0:0:
236,192,97795,1,0,0:0:0:0:
196,232,97881,1,0,0:0:0:0:
188,280,97966,1,0,0:0:0:0:
212,320,98052,1,0,0:0:0:0:
456,332,98138,5,0,0:0:0:0:
496,300,98224,1,0,0:0:0:0:
508,252,98309,1,0,0:0:0:0:
476,204,98395,1,0,0:0:0:0:
180,116,98481,6,0,P|128:112|96:176,1,116.25,4|0,0:0|0:0,0:0:0:0:
168,184,98824,2,0,P|224:224|176:288,1,155
64,288,99338,1,0,0:0:0:0:
424,224,99509,2,0,P|384:208|252:192,1,155,4|0,0:0|0:0,0:0:0:0:
424,160,100024,5,0,0:0:0:0:
252,128,100195,1,0,0:0:0:0:
192,148,100281,1,0,0:0:0:0:
160,192,100366,1,0,0:0:0:0:
176,224,100452,1,0,0:0:0:0:
216,236,100538,1,0,0:0:0:0:
392,164,100624,1,0,0:0:0:0:
424,200,100709,1,0,0:0:0:0:
460,228,100795,1,0,0:0:0:0:
512,244,100881,1,0,0:0:0:0:
488,300,100966,1,0,0:0:0:0:
428,320,101052,1,0,0:0:0:0:
380,280,101138,1,0,0:0:0:0:
184,336,101224,5,0,0:0:0:0:
132,308,101309,1,0,0:0:0:0:
88,272,101395,1,0,0:0:0:0:
144,264,101481,1,0,0:0:0:0:
184,256,101566,1,0,0:0:0:0:
232,224,101652,1,0,0:0:0:0:
192,176,101738,1,0,0:0:0:0:
136,176,101824,1,0,0:0:0:0:
384,168,101909,5,0,0:0:0:0:
456,128,101995,1,0,0:0:0:0:
432,56,102081,1,0,0:0:0:0:
360,28,102166,1,0,0:0:0:0:
156,116,102252,6,0,L|344:116,1,170.500005203247,4|0,0:0|0:0,0:0:0:0:
208,104,102766,2,0,P|104:88|104:88,1,85.2500026016236,2|0,0:0|0:0,0:0:0:0:
296,56,103109,1,0,0:0:0:0:
24,152,103281,2,0,P|0:248|0:248,1,85.2500026016236,2|0,0:0|0:0,0:0:0:0:
240,312,103624,2,0,L|348:284,2,85.2500026016236,2|0|0,0:0|0:0|0:0,0:0:0:0:
104,292,104138,1,8,0:0:0:0:
216,272,104309,2,0,P|280:280|328:216,1,127.875003902435,2|0,0:0|0:0,0:0:0:0:
232,216,104652,2,0,P|200:184|232:136,1,85.2500026016236
496,176,104995,6,0,L|508:260,1,85.2500026016236,4|0,0:0|0:0,0:0:0:0:
368,320,105338,2,0,P|408:336|472:336,1,85.2500026016236,2|0,0:0|0:0,0:0:0:0:
296,280,105681,2,0,P|240:288|184:288,1,85.2500026016236,2|0,0:0|0:0,0:0:0:0:
360,272,106024,1,0,0:0:0:0:
232,232,106195,1,8,0:0:0:0:
360,208,106366,2,0,L|464:208,2,85.2500026016236,2|0|0,0:0|0:0|0:0,0:0:0:0:
184,168,106881,1,8,0:0:0:0:
424,160,107052,2,0,P|336:176|232:168,1,170.500005203247,0|2,0:0|0:0,0:0:0:0:
96,152,107566,6,0,L|88:248,1,85.2500026016236,2|0,0:0|0:0,0:0:0:0:
232,264,107909,1,0,0:0:0:0:
80,328,108081,2,0,P|144:336|192:344,1,85.2500026016236,2|0,0:0|0:0,0:0:0:0:
304,336,108424,2,0,P|360:328|424:320,1,85.2500026016236,2|0,0:0|0:0,0:0:0:0:
128,344,108766,2,0,P|72:304|104:200,1,170.500005203247
320,168,109281,1,0,0:0:0:0:
176,144,109452,2,0,P|128:136|72:144,2,85.2500026016236,2|0|2,0:0|0:0|0:0,0:0:0:0:
48,176,109966,5,0,0:0:0:0:
176,208,110138,1,0,0:0:0:0:
96,272,110309,2,0,P|152:272|216:288,1,85.2500026016236,2|0,0:0|0:0,0:0:0:0:
320,288,110652,1,0,0:0:0:0:
144,336,110824,2,0,P|96:272|152:208,1,170.500005203247,2|0,0:0|0:0,0:0:0:0:
272,208,111338,1,2,0:0:0:0:
160,144,111509,2,0,L|264:144,2,85.2500026016236
312,144,112024,1,2,0:0:0:0:
184,96,112195,2,0,L|88:96,2,85.2500026016236,0|2|0,0:0|0:0|0:0,0:0:0:0:
360,104,112709,2,0,P|408:152|376:256,1,170.500005203247,4|0,0:0|0:0,0:0:0:0:
280,296,113224,6,0,P|336:304|392:304,1,85.2500026016236,2|0,0:0|0:0,0:0:0:0:
112,344,113566,2,0,P|80:304|64:272,1,85.2500026016236,2|0,0:0|0:0,0:0:0:0:
352,288,113909,2,0,P|400:232|408:192,1,85.2500026016236,2|0,0:0|0:0,0:0:0:0:
504,184,114252,2,0,P|448:152|416:128,2,85.2500026016236
240,208,114766,6,0,L|136:224,1,85.2500026016236,2|0,0:0|0:0,0:0:0:0:
40,224,115109,2,0,L|0:144,1,85.2500026016236
320,144,115452,2,0,P|368:184|400:216,1,85.2500026016236,2|0,0:0|0:0,0:0:0:0:
208,192,115795,2,0,P|184:296|184:296,1,85.2500026016236
464,272,116138,2,0,P|488:224|488:176,1,85.2500026016236,2|0,0:0|0:0,0:0:0:0:
368,176,116481,2,2,P|312:168|264:168,1,85.2500026016236,0|0,0:0|0:0,0:0:0:0:
432,160,116824,2,0,P|456:112|464:72,1,85.2500026016236,2|0,0:0|0:0,0:0:0:0:
288,120,117166,2,0,P|224:120|176:128,1,85.2500026016236
504,160,117509,2,0,L|512:72,1,85.2500026016236,2|0,0:0|0:0,0:0:0:0:
32,184,117852,6,0,L|48:280,1,85.2500026016236,2|0,0:0|0:0,0:0:0:0:
152,272,118195,1,0,0:0:0:0:
32,280,118366,2,0,L|136:272,1,85.2500026016236,2|0,0:0|0:0,0:0:0:0:
272,288,118709,2,0,P|312:232|320:216,1,85.2500026016236
184,160,119052,2,0,P|128:208|176:280,1,170.500005203247,2|0,0:0|0:0,0:0:0:0:
352,280,119566,2,0,P|424:240|360:184,1,170.500005203247,2|0,0:0|0:0,0:0:0:0:
256,184,120081,2,0,L|352:208,2,85.2500026016236,0|2|0,0:0|0:0|0:0,0:0:0:0:
160,152,120595,2,0,B|104:216|104:216|216:240,1,170.500005203247,2|4,0:0|0:0,0:0:0:0:
360,320,121024,5,0,0:0:0:0:
408,312,121109,1,0,0:0:0:0:
448,288,121195,1,0,0:0:0:0:
464,248,121281,1,0,0:0:0:0:
440,200,121366,1,0,0:0:0:0:
400,176,121452,1,0,0:0:0:0:
184,256,121538,5,0,0:0:0:0:
144,248,121624,1,0,0:0:0:0:
112,232,121709,1,0,0:0:0:0:
88,200,121795,1,0,0:0:0:0:
88,168,121881,1,0,0:0:0:0:
112,144,121966,1,0,0:0:0:0:
152,128,122052,1,0,0:0:0:0:
487,103,122138,6,0,P|495:165|491:227,1,124,4|0,0:0|0:0,0:0:0:0:
136,240,122824,2,0,P|120:184|136:104,1,124
336,56,123509,2,0,P|328:136|304:160,1,93,2|0,0:0|0:0,0:0:0:0:
120,168,123852,2,0,P|80:200|56:240,1,93,2|0,0:0|0:0,0:0:0:0:
424,280,124195,6,2,L|512:224,2,92.9999971618653,0|2|0,0:0|0:0|0:0,0:0:0:0:
248,280,124709,2,0,L|144:264,2,92.9999971618653
88,216,125224,2,0,P|32:264|24:304,1,92.9999971618653
264,216,125566,2,0,L|424:200,1,155,2|0,0:0|0:0,0:0:0:0:
168,208,126252,2,0,L|0:176,1,155,2|0,0:0|0:0,0:0:0:0:
352,160,126938,2,0,L|512:112,1,155,2|0,0:0|0:0,0:0:0:0:
192,48,127624,2,0,P|128:64|32:104,1,155,2|0,0:0|0:0,0:0:0:0:
368,320,128309,2,0,P|448:280|496:208,2,155,2|0|2,0:0|0:0|0:0,0:0:0:0:
200,312,129338,2,0,P|176:256|184:152,1,155,0|2,0:0|0:0,0:0:0:0:
336,112,130024,6,0,P|344:168|312:296,1,155,0|2,0:0|0:0,0:0:0:0:
128,120,130709,2,0,P|112:176|136:288,1,155,0|2,0:0|0:0,0:0:0:0:
424,312,131395,2,0,L|432:128,1,155,0|2,0:0|0:0,0:0:0:0:
88,128,132081,2,0,L|64:304,2,155,0|2|0,0:0|0:0|0:0,0:0:0:0:
280,320,133109,6,0,P|232:336|192:336,1,77.5,2|0,0:0|0:0,0:0:0:0:
368,344,133452,2,0,P|408:328|432:200,1,155,2|0,0:0|0:0,0:0:0:0:
288,224,133966,2,0,L|200:224,2,77.5,2|0|2,0:0|0:0|0:0,0:0:0:0:
96,232,134481,2,0,L|24:168,1,77.5,0|2,0:0|0:0,0:0:0:0:
408,248,134824,2,0,L|448:168,1,77.5,4|0,0:0|0:0,0:0:0:0:
264,80,135166,5,0,0:0:0:0:
144,112,135338,1,0,0:0:0:0:
264,144,135509,1,0,0:0:0:0:
120,168,135681,2,8,P|64:168|24:160,3,77.5
200,216,136366,5,0,0:0:0:0:
336,240,136538,1,0,0:0:0:0:
208,272,136709,1,0,0:0:0:0:
360,320,136881,2,8,P|424:320|464:312,3,77.5
280,264,137566,5,0,0:0:0:0:
416,264,137738,1,0,0:0:0:0:
280,208,137909,1,0,0:0:0:0:
416,208,138081,1,0,0:0:0:0:
64,216,138252,1,0,0:0:0:0:
184,216,138424,1,0,0:0:0:0:
64,280,138595,1,0,0:0:0:0:
184,280,138766,1,0,0:0:0:0:
56,320,138938,6,0,P|16:288|24:200,1,116.25
352,336,139281,2,0,P|424:328|448:272,1,116.25,2|0,0:0|0:0,0:0:0:0:
368,272,139624,2,0,P|304:240|312:160,2,155,4|0|0,0:0|0:0|0:0,0:0:0:0:
152,280,140481,6,0,P|176:184|176:184,1,77.5,2|0,0:0|0:0,0:0:0:0:
32,224,140824,2,0,P|24:136|24:136,1,77.5,2|0,0:0|0:0,0:0:0:0:
160,136,141166,1,0,0:0:0:0:
24,128,141338,1,0,0:0:0:0:
200,120,141509,2,0,L|296:160,1,77.5,2|0,0:0|0:0,0:0:0:0:
400,200,141852,1,0,0:0:0:0:
248,232,142024,1,0,0:0:0:0:
416,256,142195,2,0,P|448:312|456:352,1,77.5,2|0,0:0|0:0,0:0:0:0:
144,272,142538,2,0,P|128:216|128:184,1,77.5,2|0,0:0|0:0,0:0:0:0:
344,176,142881,2,0,P|344:224|328:272,1,77.5
200,144,143224,5,0,0:0:0:0:
296,144,143395,1,0,0:0:0:0:
200,144,143566,1,0,0:0:0:0:
312,144,143738,1,0,0:0:0:0:
176,144,143909,1,0,0:0:0:0:
336,144,144081,1,0,0:0:0:0:
128,128,144166,5,0,0:0:0:0:
96,136,144252,1,0,0:0:0:0:
64,160,144338,1,0,0:0:0:0:
48,192,144424,1,0,0:0:0:0:
56,224,144509,1,0,0:0:0:0:
88,248,144595,1,0,0:0:0:0:
128,248,144681,1,0,0:0:0:0:
400,256,144766,6,0,L|416:152,1,77.5,8|0,0:0|0:0,0:0:0:0:
96,176,145281,2,0,L|80:256,1,77.5,8|0,0:0|0:0,0:0:0:0:
256,200,145624,1,4,0:0:0:0:
408,100,147509,6,0,B|488:128|456:224|456:228|388:308|388:304|120:240|96:216|80:216|32:248|32:248|-8:324,1,639.375019512177
352,156,148881,6,0,B|420:336|552:384|492:252|544:320|532:108|440:140|476:48|624:240|600:260|332:224,1,639.375019512177
192,276,150252,6,0,B|60:228|36:264|36:264|140:192|184:228|256:244|252:260|-32:300|-24:244|-12:200|40:284|8:328|8:328|72:280,1,639.375019512177
364,324,151624,6,0,B|272:304|60:136|60:136|148:80|148:80|84:272,1,639.375019512177
376,328,152995,6,0,B|460:256|448:64|448:64|396:196|208:192|196:96|196:96|200:144,1,639.375019512177
448,32,154366,6,0,P|500:104|384:248,1,298.375009105683
132,344,155052,6,0,P|76:320|76:112,1,298.375009105683
324,320,155738,6,0,B|464:240|448:144|448:144|444:144|244:248|168:128|304:76|308:72|328:100|344:156|412:264,1,639.375019512177
188,360,157109,6,0,B|152:300|0:368|84:132,1,298.375009105683
224,164,157795,2,0,P|328:180|384:168,1,127.875003902435
448,176,158138,2,0,P|508:204|476:276,1,127.875003902435,4|0,0:0|0:0,0:0:0:0:
256,312,158481,6,0,P|180:304|156:312,1,77.5,4|0,0:0|0:0,0:0:0:0:
56,328,158824,2,0,P|36:292|32:244,1,77.5,2|0,0:0|0:0,0:0:0:0:
216,280,159166,2,0,P|248:192|248:192,1,77.5,2|0,0:0|0:0,0:0:0:0:
40,112,159509,2,0,P|16:160|16:208,1,77.5,8|0,0:0|0:0,0:0:0:0:
152,232,159852,1,0,0:0:0:0:
280,232,160024,2,0,L|357:232,2,77.5
512,288,160538,2,0,P|528:240|456:160,1,155,2|0,0:0|0:0,0:0:0:0:
224,160,161052,6,0,L|112:152,2,77.5,2|0|0,0:0|0:0|0:0,0:0:0:0:
88,112,161566,2,0,P|32:160|24:240,1,155,8|0,0:0|0:0,0:0:0:0:
192,288,162081,2,2,P|240:288|280:272,1,77.5,0|0,0:0|0:0,0:0:0:0:
400,272,162424,2,0,P|464:248|488:248,1,77.5
168,232,162766,2,0,P|112:240|80:232,1,77.5,2|0,0:0|0:0,0:0:0:0:
384,168,163109,2,0,P|432:168|496:184,1,77.5,2|0,0:0|0:0,0:0:0:0:
224,120,163452,2,0,L|200:200,1,77.5,2|0,0:0|0:0,0:0:0:0:
80,208,163795,2,0,P|0:184|0:184,2,77.5
240,248,164309,6,0,P|208:288|104:312,1,155,8|0,0:0|0:0,0:0:0:0:
248,320,164824,1,0,0:0:0:0:
120,328,164995,2,0,L|40:336,1,77.5,2|0,0:0|0:0,0:0:0:0:
352,320,165338,2,0,P|448:328|504:272,1,155,4|0,0:0|0:0,0:0:0:0:
128,304,165766,5,0,0:0:0:0:
88,280,165852,1,0,0:0:0:0:
72,240,165938,1,0,0:0:0:0:
400,112,166024,1,0,0:0:0:0:
440,144,166109,1,0,0:0:0:0:
464,184,166195,1,0,0:0:0:0:
464,224,166281,1,0,0:0:0:0:
432,256,166366,1,0,0:0:0:0:
112,112,166452,1,0,0:0:0:0:
80,136,166538,1,0,0:0:0:0:
56,176,166624,1,0,0:0:0:0:
104,200,166709,6,0,P|176:208|240:192,2,100.749995388031,4|0|0,0:0|0:0|0:0,0:0:0:0:
264,152,167224,2,0,P|296:208|312:256,1,100.749995388031,2|0,0:0|0:0,0:0:0:0:
448,240,167566,2,0,L|416:336,1,100.749995388031,2|0,0:0|0:0,0:0:0:0:
240,344,167909,2,0,L|344:336,2,100.749995388031
96,312,168424,2,0,P|56:256|40:224,1,100.749995388031,2|0,0:0|0:0,0:0:0:0:
224,200,168766,2,0,P|288:208|344:224,1,100.749995388031,2|0,0:0|0:0,0:0:0:0:
152,144,169109,6,0,L|24:152,2,100.749995388031
32,104,169624,2,0,P|8:168|16:240,1,100.749995388031,2|0,0:0|0:0,0:0:0:0:
320,112,169966,2,0,P|392:128|440:128,2,100.749995388031,2|0|0,0:0|0:0|0:0,0:0:0:0:
472,80,170481,2,0,P|488:144|472:200,1,100.749995388031,2|0,0:0|0:0,0:0:0:0:
328,192,170824,1,2,0:0:0:0:
464,272,170995,2,0,P|400:272|328:288,2,100.749995388031
304,272,171509,1,0,0:0:0:0:
48,120,171681,6,0,P|64:176|48:240,1,100.749995388031,4|0,0:0|0:0,0:0:0:0:
160,248,172024,1,2,0:0:0:0:
24,288,172195,2,0,P|80:304|144:312,2,100.749995388031,2|0|0,0:0|0:0|0:0,0:0:0:0:
176,296,172709,1,2,0:0:0:0:
344,224,172881,2,0,P|264:224|160:160,1,201.499990776062,8|0,0:0|0:0,0:0:0:0:
312,144,173395,1,0,0:0:0:0:
192,96,173566,2,0,P|144:128|120:264,1,201.499990776062
416,288,174081,6,0,P|472:248|480:216,1,100.749995388031,2|0,0:0|0:0,0:0:0:0:
304,192,174424,1,0,0:0:0:0:
160,128,174595,2,2,P|120:184|112:240,1,100.749995388031,2|0,0:0|0:0,0:0:0:0:
296,264,174938,1,0,0:0:0:0:
56,184,175109,2,0,P|24:224|0:296,1,100.749995388031,2|0,0:0|0:0,0:0:0:0:
392,304,175452,2,0,P|440:240|448:176,1,100.749995388031
72,176,175795,2,0,P|32:224|24:272,1,100.749995388031,2|0,0:0|0:0,0:0:0:0:
392,304,176138,2,0,P|432:256|448:200,1,100.749995388031,2|0,0:0|0:0,0:0:0:0:
112,144,176481,5,0,0:0:0:0:
72,160,176566,1,0,0:0:0:0:
48,200,176652,1,0,0:0:0:0:
56,240,176738,1,0,0:0:0:0:
88,272,176824,1,0,0:0:0:0:
432,296,176909,1,0,0:0:0:0:
464,280,176995,1,0,0:0:0:0:
488,224,177081,1,0,0:0:0:0:
464,192,177166,1,0,0:0:0:0:
424,168,177252,1,0,0:0:0:0:
192,112,177338,6,0,P|264:96|328:96,1,116.250004434586,4|0,0:0|0:0,0:0:0:0:
40,112,177681,2,0,L|16:248,1,116.250004434586,8|0,0:0|0:0,0:0:0:0:
176,296,178024,2,0,L|192:176,1,116.250004434586,8|0,0:0|0:0,0:0:0:0:
48,112,178366,2,0,L|48:240,1,116.250004434586,8|0,0:0|0:0,0:0:0:0:
312,176,178709,2,0,L|296:312,1,116.250004434586,8|0,0:0|0:0,0:0:0:0:
56,112,179052,2,0,L|56:232,1,116.250004434586,8|0,0:0|0:0,0:0:0:0:
440,256,179395,2,0,L|448:120,1,116.250004434586,8|0,0:0|0:0,0:0:0:0:
264,136,179738,2,0,L|112:120,2,116.250004434586
88,160,180252,1,0,0:0:0:0:
224,208,180424,6,0,P|320:224|352:224,1,116.250004434586,8|0,0:0|0:0,0:0:0:0:
160,200,180766,2,0,P|136:256|120:352,1,116.250004434586,8|0,0:0|0:0,0:0:0:0:
392,328,181109,2,0,P|440:232|448:208,1,116.250004434586,8|0,0:0|0:0,0:0:0:0:
112,128,181452,2,0,P|64:200|40:264,1,116.250004434586,8|0,0:0|0:0,0:0:0:0:
440,176,181795,2,0,P|368:168|288:176,2,116.250004434586,0|8|0,0:0|0:0|0:0,0:0:0:0:
280,176,182309,1,0,0:0:0:0:
448,104,182481,6,0,P|480:160|448:256,1,170.500005203247,2|0,0:0|0:0,0:0:0:0:
304,264,182995,1,0,0:0:0:0:
144,312,183166,2,0,P|208:328|288:320,1,124,2|0,0:0|0:0,0:0:0:0:
384,328,183681,1,2,0:0:0:0:
192,312,183852,2,0,P|160:280|120:184,1,124
312,176,184366,1,2,0:0:0:0:
176,112,184538,2,0,P|248:96|360:112,1,186,2|0,0:0|0:0,0:0:0:0:
184,104,185224,5,0,0:0:0:0:
144,120,185309,1,0,0:0:0:0:
120,144,185395,1,0,0:0:0:0:
112,184,185481,1,0,0:0:0:0:
128,224,185566,1,0,0:0:0:0:
160,256,185652,1,0,0:0:0:0:
200,256,185738,1,0,0:0:0:0:
440,256,185909,6,0,P|384:256|288:248,1,139.499995742798,4|0,0:0|0:0,0:0:0:0:
120,192,186424,1,0,0:0:0:0:
264,168,186595,2,0,P|296:144|344:112,1,69.749997871399,2|0,0:0|0:0,0:0:0:0:
456,104,186938,2,0,P|480:168|448:248,1,139.499995742798,2|0,0:0|0:0,0:0:0:0:
296,240,187452,1,0,0:0:0:0:
432,288,187624,1,0,0:0:0:0:
296,328,187795,2,0,P|240:344|200:336,3,69.749997871399
96,328,188481,2,0,P|56:304|80:208,1,139.499995742798,8|0,0:0|0:0,0:0:0:0:
200,200,188995,5,8,0:0:0:0:
64,176,189166,1,8,0:0:0:0:
240,192,189338,2,0,B|304:192|328:208|368:264,1,139.499995742798,4|0,0:0|0:0,0:0:0:0:
152,240,189852,2,0,P|112:288|16:312,1,139.499995742798
192,336,190366,1,0,0:0:0:0:
288,304,190538,1,0,0:0:0:0:
320,216,190709,1,0,0:0:0:0:
256,144,190881,1,0,0:0:0:0:
416,136,191052,5,2,0:0:0:0:
304,184,191224,1,2,0:0:0:0:
176,200,191395,1,2,0:0:0:0:
328,256,191566,1,2,0:0:0:0:
184,256,191738,1,2,0:0:0:0:
360,328,191909,2,0,P|416:312|448:240,1,139.499995742798,8|0,0:0|0:0,0:0:0:0:
288,240,192424,1,0,0:0:0:0:
168,208,192595,1,2,0:0:0:0:
336,192,192766,1,2,0:0:0:0:
184,176,192938,2,8,L|96:176,2,69.749997871399
32,144,193452,6,0,P|0:200|32:264,1,139.499995742798,4|0,0:0|0:0,0:0:0:0:
312,304,193966,2,0,P|384:288|424:216,1,139.499995742798
296,232,194481,2,0,P|216:208|208:136,1,139.499995742798
344,160,194995,2,0,P|408:144|432:64,1,139.499995742798
208,112,195509,6,0,P|144:104|64:160,1,139.499995742798,4|0,0:0|0:0,0:0:0:0:
256,160,196024,2,0,P|264:216|256:256,1,69.749997871399,2|0,0:0|0:0,0:0:0:0:
40,288,196366,2,0,P|32:240|40:208,2,69.749997871399,8|0|8,0:0|0:0|0:0,0:0:0:0:
448,112,196881,6,0,P|448:176|424:280,1,139.499995742798,4|0,0:0|0:0,0:0:0:0:
288,296,197395,1,0,0:0:0:0:
136,296,197566,2,2,P|88:280|48:264,1,69.749997871399,2|0,0:0|0:0,0:0:0:0:
208,280,197909,2,0,P|248:248|200:168,1,139.499995742798,2|0,0:0|0:0,0:0:0:0:
88,136,198424,1,0,0:0:0:0:
224,104,198595,1,2,0:0:0:0:
368,152,198766,1,2,0:0:0:0:
216,184,198938,1,2,0:0:0:0:
352,232,199109,1,2,0:0:0:0:
184,264,199281,1,2,0:0:0:0:
352,312,199452,6,0,P|480:248|464:104,1,278.999991485596,6|0,0:0|0:0,0:0:0:0:
152,312,200309,5,0,0:0:0:0:
120,304,200395,1,0,0:0:0:0:
96,280,200481,1,0,0:0:0:0:
80,256,200566,1,0,0:0:0:0:
72,224,200652,1,0,0:0:0:0:
80,200,200738,1,0,0:0:0:0:
104,176,200824,1,0,0:0:0:0:
128,160,200909,1,0,0:0:0:0:
256,192,200995,12,0,209224,0:0:0:0:
328,192,209566,5,0,0:0:0:0:
432,192,209738,1,2,0:0:0:0:
288,224,209909,1,0,0:0:0:0:
408,232,210081,1,2,0:0:0:0:
256,256,210252,1,0,0:0:0:0:
376,264,210424,1,2,0:0:0:0:
224,280,210595,1,0,0:0:0:0:
336,288,210766,1,2,0:0:0:0:
176,312,210938,1,0,0:0:0:0:
296,320,211109,1,2,0:0:0:0:
144,336,211281,5,0,0:0:0:0:
256,336,211452,1,2,0:0:0:0:
128,320,211624,1,0,0:0:0:0:
240,320,211795,1,2,0:0:0:0:
104,296,211966,1,0,0:0:0:0:
224,288,212138,1,2,0:0:0:0:
128,256,212309,1,0,0:0:0:0:
248,256,212481,1,2,0:0:0:0:
136,240,212652,1,0,0:0:0:0:
272,240,212824,1,2,0:0:0:0:
168,192,212995,5,0,0:0:0:0:
328,192,213166,1,2,0:0:0:0:
224,192,213338,1,0,0:0:0:0:
328,192,213509,1,2,0:0:0:0:
248,192,213681,1,0,0:0:0:0:
376,192,213852,1,2,0:0:0:0:
224,192,214024,1,0,0:0:0:0:
392,192,214195,1,2,0:0:0:0:
224,192,214366,1,0,0:0:0:0:
400,192,214538,1,2,0:0:0:0:
80,192,214709,5,0,0:0:0:0:
240,192,214881,1,2,0:0:0:0:
80,272,215052,1,0,0:0:0:0:
432,280,215224,1,2,0:0:0:0:
64,296,215395,1,0,0:0:0:0:
448,304,215566,1,2,0:0:0:0:
56,312,215738,1,0,0:0:0:0:
304,192,215909,5,6,0:0:0:0:
