osu file format v14

[General]
AudioFilename: sankyuu.mp3
AudioLeadIn: 1500
PreviewTime: 166733
Countdown: 0
SampleSet: Soft
StackLeniency: 0.7
Mode: 0
LetterboxInBreaks: 0
WidescreenStoryboard: 0

[Editor]
Bookmarks: 106781
DistanceSpacing: 1.1
BeatDivisor: 4
GridSize: 4
TimelineZoom: 1

[Metadata]
Title:39
TitleUnicode:39
Artist:sasakure.UK x DECO*27
ArtistUnicode:sasakure.UK x DECO*27
Creator:L_P
Version:Normal
Source:
Tags:vocaloid hatsune miku thank you sankyuu san kyuu
BeatmapID:268668
BeatmapSetID:85731

[Difficulty]
HPDrainRate:4
CircleSize:3
OverallDifficulty:4
ApproachRate:5
SliderMultiplier:1.09999990463257
SliderTickRate:1

[Events]
//Background and Video events
0,0,"39.jpg",0,0
Video,0,"39.avi"
//Break Periods
2,66135,72278
//Storyboard Layer 0 (Background)
//Storyboard Layer 1 (Fail)
//Storyboard Layer 2 (Pass)
//Storyboard Layer 3 (Foreground)
//Storyboard Layer 4 (Overlay)
//Storyboard Sound Samples

[TimingPoints]
450,342.857142857143,4,2,1,25,1,0
14850,342.857142857143,4,2,1,45,1,0
25135,342.857142857143,4,2,1,53,1,0
35764,342.857142857143,4,2,1,60,1,0
35764,-133.333333333333,4,2,1,60,0,0
46564,-100,4,2,1,70,0,1
55992,-66.6666666666667,4,2,1,75,0,1
56164,-133.333333333333,4,2,1,75,0,1
56849,-100,4,2,1,80,0,1
64906,-100,4,2,1,31,0,1
65935,-100,4,2,1,66,0,0
73478,342.857142857143,4,2,1,25,1,0
81020,342.857142857143,4,2,1,45,1,0
81534,-100,4,2,1,30,0,0
89248,-100,4,2,1,45,0,0
91305,342.857142857143,4,2,1,45,1,0
100219,-100,4,2,1,17,0,0
101933,-100,4,2,1,17,0,0
102276,-100,4,2,1,45,0,0
121476,-100,4,2,1,55,0,0
140676,-100,4,2,1,65,0,0
147533,-200,4,2,1,47,0,0
153019,-200,4,2,1,55,0,0
156105,-133.333333333333,4,2,1,45,0,0
156447,-100,4,2,1,55,0,0
156790,-66.6666666666667,4,2,1,65,0,0
156962,-133.333333333333,4,2,1,70,0,0
158505,-100,4,2,1,65,0,1
158590,-100,4,2,1,65,0,0
163305,-100,4,2,1,47,0,0
163990,-100,4,2,1,65,0,0
164676,-133.333333333333,4,2,1,75,0,0
166047,-133.333333333333,4,2,1,55,0,0
166390,-100,4,2,1,68,0,0
166476,-100,4,2,1,71,0,0
166562,-100,4,2,1,75,0,0
166648,-100,4,2,1,79,0,0
166733,-100,4,2,1,87,0,1
177705,-100,4,2,1,74,0,1
180447,-100,4,2,1,83,0,1
180962,-100,4,2,1,67,0,1
181047,-100,4,2,1,83,0,1
183190,-100,4,2,1,85,0,1
184562,-200,4,2,1,30,0,0

[Colours]
Combo1 : 251,248,185
Combo2 : 73,104,248
Combo3 : 243,175,224
Combo4 : 128,220,240

[HitObjects]
92,108,450,6,0,P|176:60|256:80,1,164.999985694885
412,124,1478,2,0,P|344:176|248:160,1,164.999985694885
92,108,2507,2,0,P|164:60|224:112,1,164.999985694885
232,220,3364,6,0,P|312:240|376:192,2,164.999985694885,2|2|2,0:0|0:0|0:0,0:0:0:0:
128,68,4907,2,0,P|32:100|28:160,1,164.999985694885
204,128,5935,2,0,P|252:184|348:179,1,164.999985694885
284,292,6792,2,0,L|100:300,1,164.999985694885,2|4,0:0|0:0,0:0:0:0:
144,180,7650,5,0,0:0:0:0:
264,180,7992,1,0,1:0:0:0:
352,264,8335,2,0,P|424:256|376:60,1,329.999971389771,0|0,0:0|1:0,0:0:0:0:
156,84,10050,6,0,L|40:112,1,109.999990463257,0|8,0:0|0:0,0:0:0:0:
52,232,10735,2,0,P|128:268|240:196,1,219.999980926514,4|0,0:0|1:0,0:0:0:0:
252,84,11764,2,0,P|352:80|416:184,1,219.999980926514,0|0,0:0|1:0,0:0:0:0:
336,264,12792,2,0,L|224:308,1,109.999990463257,0|0,1:0|0:0,0:0:0:0:
112,320,13478,2,0,P|36:224|100:164,1,219.999980926514,0|0,0:0|1:0,0:0:0:0:
316,92,14850,6,0,P|416:116|508:52,1,219.999980926514,4|2,0:0|0:0,0:0:0:0:
492,172,15878,1,0,0:0:0:0:
412,260,16221,2,0,L|276:268,1,109.999990463257,0|2,0:0|0:0,0:0:0:0:
196,328,16907,2,0,P|136:328|76:296,1,109.999990463257,0|2,0:0|0:0,0:0:0:0:
84,188,17592,6,0,P|96:116|236:80,1,219.999980926514,0|2,0:0|0:0,0:0:0:0:
300,168,18621,1,0,0:0:0:0:
396,92,18964,2,0,L|436:196,1,109.999990463257,0|2,0:0|0:0,0:0:0:0:
464,312,19650,2,0,P|420:348|356:340,1,109.999990463257,0|2,0:0|0:0,0:0:0:0:
260,292,20335,6,0,P|168:256|88:344,1,219.999980926514,0|2,0:0|0:0,0:0:0:0:
68,212,21364,1,0,0:0:0:0:
80,92,21707,2,0,L|188:108,1,109.999990463257,0|2,0:0|0:0,0:0:0:0:
280,32,22392,2,0,P|336:52|392:52,1,109.999990463257
476,132,23078,6,0,P|476:208|416:272,3,164.999985694885,4|4|4|4,0:0|0:0|0:0|0:0,0:0:0:0:
316,208,24964,2,0,L|248:168,1,54.9999952316285,0|4,1:0|0:0,0:0:0:0:
116,88,25649,6,0,P|64:192|132:264,1,219.999980926514,0|2,0:0|0:0,0:0:0:0:
200,168,26677,1,0,0:0:0:0:
308,224,27020,2,0,P|348:164|448:164,1,164.999985694885,0|2,0:0|0:0,0:0:0:0:
420,276,27877,6,0,P|376:348|192:268,1,329.999971389771,0|2,0:0|0:0,0:0:0:0:
84,208,29249,2,0,L|48:84,1,109.999990463257,0|2,0:0|0:0,0:0:0:0:
168,140,29935,2,0,L|136:28,1,109.999990463257,0|2,0:0|0:0,0:0:0:0:
256,68,30620,6,0,P|372:72|384:256,1,329.999971389771,0|2,0:0|0:0,0:0:0:0:
288,320,31992,2,0,P|228:340|168:324,1,109.999990463257,0|2,0:0|0:0,0:0:0:0:
104,244,32677,2,0,P|160:224|228:244,1,109.999990463257,0|2,0:0|0:0,0:0:0:0:
156,124,33363,5,4,0:0:0:0:
384,44,34049,1,2,0:0:0:0:
460,208,34563,2,0,P|444:284|344:304,1,164.999985694885,0|0,0:0|1:0,0:0:0:0:
268,244,35420,2,0,P|216:212|164:208,1,109.999990463257,0|4,1:0|0:0,0:0:0:0:
44,340,36449,5,0,1:0:0:0:
8,160,37135,2,0,P|64:92|136:100,1,164.999991989136,0|0,0:0|1:0,0:0:0:0:
216,260,38506,1,0,0:0:0:0:
44,320,39192,2,0,P|88:344|100:256,1,164.999991989136,0|0,1:0|0:0,0:0:0:0:
60,84,40564,5,0,1:0:0:0:
148,60,40906,1,0,1:0:0:0:
232,96,41249,2,0,P|316:128|388:92,1,164.999991989136,12|0,0:0|1:0,0:0:0:0:
460,264,42621,2,0,P|372:232|304:276,1,164.999991989136,8|0,0:0|1:0,0:0:0:0:
140,308,43992,6,0,L|124:228,1,82.4999959945678,8|8,0:0|0:0,0:0:0:0:
208,260,44678,2,0,L|212:172,1,82.4999959945678,8|8,0:0|0:0,0:0:0:0:
292,216,45364,2,0,L|332:84,1,123.749993991852,0|4,0:0|0:0,0:0:0:0:
88,132,46564,6,0,P|156:152|236:100,1,164.999985694885,4|0,0:0|1:0,0:0:0:0:
412,88,47592,2,0,L|440:156,1,54.9999952316285,8|0,0:0|1:0,0:0:0:0:
432,260,48106,2,0,P|348:276|328:360,1,164.999985694885,8|0,0:0|0:0,0:0:0:0:
208,312,48964,2,0,L|136:324,1,54.9999952316285,8|0,0:0|1:0,0:0:0:0:
92,216,49478,6,0,P|184:208|192:128,1,164.999985694885,8|0,0:0|0:0,0:0:0:0:
92,88,50335,2,0,L|128:156,1,54.9999952316285,8|0,0:0|1:0,0:0:0:0:
208,60,50849,2,0,P|288:40|360:72,1,164.999985694885,8|2,0:0|0:0,0:0:0:0:
440,164,51706,2,0,L|372:164,1,54.9999952316285,0|2,0:0|1:2,0:0:0:0:
260,164,52221,6,0,P|172:196|100:164,1,164.999985694885,4|0,0:0|0:0,0:0:0:0:
60,284,53078,2,0,L|80:360,1,54.9999952316285,8|0,0:0|1:0,0:0:0:0:
192,308,53592,2,0,P|252:272|312:280,1,109.999990463257,8|0,0:0|1:0,0:0:0:0:
384,336,54278,2,0,P|444:324|468:280,1,109.999990463257,8|0,0:0|1:0,0:0:0:0:
452,164,54964,6,0,P|360:96|408:248,1,384.999966621399,8|4,0:0|0:0,0:0:0:0:
208,92,56849,2,0,L|28:124,1,164.999985694885,4|0,0:0|1:0,0:0:0:0:
60,240,57706,6,0,P|140:284|236:208,1,219.999980926514,4|2,0:0|0:0,0:0:0:0:
264,100,58735,1,2,1:2:0:0:
372,152,59078,2,0,P|451:240|399:300,1,219.999980926514,0|2,0:0|0:0,0:0:0:0:
296,240,60106,1,2,1:2:0:0:
216,332,60449,6,0,P|136:243|188:183,1,219.999980926514,0|2,0:0|0:0,0:0:0:0:
212,64,61478,1,2,1:2:0:0:
332,88,61821,2,0,P|284:188|404:124,1,329.999971389771,0|4,0:0|0:0,0:0:0:0:
464,240,63192,6,0,L|460:356,1,109.999990463257,0|0,0:0|1:0,0:0:0:0:
344,320,63878,2,0,L|228:332,1,109.999990463257,0|0,0:0|1:0,0:0:0:0:
144,252,64564,2,0,P|84:232|120:108,2,219.999980926514,0|2|4,1:0|0:0|0:0,0:0:0:0:
4,100,73478,6,0,P|100:64|76:224,1,329.999971389771,4|0,0:0|0:0,0:0:0:0:
236,324,75020,2,0,P|314:307|360:240,1,164.999985694885,0|0,1:0|1:0,0:0:0:0:
180,248,76049,2,0,P|72:260|28:216,1,164.999985694885,0|2,1:0|0:0,0:0:0:0:
40,108,76906,6,0,P|132:40|248:184,1,329.999971389771,4|0,0:0|0:0,0:0:0:0:
388,76,78449,2,0,P|344:176|376:224,3,164.999985694885,2|2|2|2,0:0|0:0|0:0|0:0,0:0:0:0:
236,344,80506,2,0,P|136:300|72:316,1,164.999985694885,0|4,0:0|0:0,0:0:0:0:
84,128,81534,5,0,0:0:0:0:
192,276,82048,2,0,P|280:264|220:88,1,329.999971389771
472,64,83762,2,0,P|463:154|472:232,1,164.999985694885
308,304,84791,2,0,L|136:292,1,164.999985694885
52,212,85648,2,0,P|32:144|68:52,1,164.999985694885
184,76,86505,6,0,P|284:104|380:20,1,219.999980926514
476,188,87705,1,0,0:0:0:0:
244,256,88391,1,0,0:0:0:0:
24,48,89248,6,0,L|148:48,1,109.999990463257,4|0,0:0|1:0,0:0:0:0:
88,160,89934,2,0,L|212:160,1,109.999990463257,0|0,0:0|1:0,0:0:0:0:
340,48,90791,2,0,P|412:108|416:188,1,164.999985694885,0|4,0:0|0:0,0:0:0:0:
224,316,91990,5,2,1:2:0:0:
72,216,92505,2,0,P|124:136|196:136,1,164.999985694885
292,192,93362,2,0,L|408:176,1,109.999990463257,0|0,1:0|0:0,0:0:0:0:
448,64,94047,5,8,0:0:0:0:
444,308,94733,1,0,1:0:0:0:
264,292,95247,2,0,P|172:312|108:264,1,164.999985694885
72,164,96105,2,0,L|112:40,1,109.999990463257,0|0,1:0|0:0,0:0:0:0:
224,44,96790,5,12,0:0:0:0:
448,136,97476,1,0,1:0:0:0:
416,316,97990,2,0,P|336:336|256:308,1,164.999985694885
176,224,98847,2,0,L|52:256,1,109.999990463257,0|0,1:0|0:0,0:0:0:0:
24,140,99533,5,4,0:0:0:0:
260,88,100219,2,0,P|364:92|424:40,1,164.999985694885,2|0,0:0|0:0,0:0:0:0:
488,152,101076,2,0,L|464:272,1,109.999990463257
296,324,101933,1,2,0:0:0:0:
212,236,102276,6,0,P|148:228|100:264,1,109.999990463257,4|0,0:0|1:0,0:0:0:0:
60,360,102962,1,0,0:0:0:0:
136,132,103647,2,0,P|220:128|248:100,1,109.999990463257,0|0,0:0|1:0,0:0:0:0:
296,8,104333,1,0,0:0:0:0:
440,204,105019,6,0,P|412:260|368:292,1,109.999990463257,0|0,0:0|1:0,0:0:0:0:
256,308,105705,1,0,0:0:0:0:
40,200,106390,2,0,L|36:80,1,109.999990463257,0|2,0:0|1:2,0:0:0:0:
156,104,107076,2,0,L|160:224,1,109.999990463257,0|2,0:0|1:2,0:0:0:0:
248,296,107762,6,0,P|308:304|368:280,1,109.999990463257,0|0,0:0|1:0,0:0:0:0:
436,200,108447,1,0,0:0:0:0:
220,92,109133,2,0,P|144:100|108:124,1,109.999990463257,0|0,0:0|1:0,0:0:0:0:
44,216,109819,1,0,0:0:0:0:
276,280,110505,6,0,P|292:180|404:208,1,219.999980926514,4|0,0:0|0:0,0:0:0:0:
452,292,111533,1,0,1:0:0:0:
340,340,111876,2,0,P|296:368|228:348,1,109.999990463257,8|0,0:0|1:0,0:0:0:0:
160,268,112562,2,0,L|44:252,1,109.999990463257,8|0,0:0|1:0,0:0:0:0:
44,132,113247,6,0,P|96:48|212:68,1,219.999980926514,8|0,0:0|0:0,0:0:0:0:
448,84,114619,2,0,P|452:208|360:264,1,219.999980926514,0|2,0:0|0:0,0:0:0:0:
272,216,115647,1,2,1:2:0:0:
212,320,115990,6,0,P|128:344|88:160,1,329.999971389771,8|2,0:0|1:2,0:0:0:0:
196,108,117362,2,0,L|328:84,1,109.999990463257,0|0,0:0|1:0,0:0:0:0:
424,64,118047,2,0,P|468:172|436:292,1,219.999980926514,2|8,0:0|0:0,0:0:0:0:
212,316,119419,1,2,0:0:0:0:
44,140,120105,6,0,P|128:144|184:64,2,164.999985694885,0|2|0,0:0|0:0|1:0,0:0:0:0:
60,260,121476,2,0,P|172:256|264:168,2,219.999980926514,4|0|4,0:0|1:0|0:0,0:0:0:0:
212,72,123533,6,0,L|84:104,1,109.999990463257,0|0,1:0|1:0,0:0:0:0:
76,220,124219,1,4,1:0:0:0:
312,268,124905,1,0,1:0:0:0:
368,160,125247,1,0,0:0:0:0:
248,140,125590,2,0,P|352:140|384:40,1,219.999980926514,8|0,0:0|1:0,0:0:0:0:
500,256,126962,6,0,L|372:284,1,109.999990463257,8|0,0:0|0:0,0:0:0:0:
280,328,127647,2,0,P|156:344|96:268,1,219.999980926514,0|8,1:0|0:0,0:0:0:0:
64,164,128676,1,8,0:0:0:0:
132,56,129019,2,0,P|188:40|264:48,1,109.999990463257,0|0,1:0|1:0,0:0:0:0:
348,96,129705,6,0,P|376:196|480:180,1,219.999980926514,4|0,0:0|1:0,0:0:0:0:
264,304,131076,2,0,P|124:308|60:368,1,219.999980926514,0|0,0:0|1:0,0:0:0:0:
60,116,132447,2,0,P|136:136|140:12,1,219.999980926514,0|0,0:0|1:0,0:0:0:0:
276,60,133476,1,0,0:0:0:0:
392,24,133819,2,0,L|428:264,1,219.999980926514,0|0,0:0|1:0,0:0:0:0:
372,352,134847,1,0,1:0:0:0:
292,260,135190,6,0,P|224:248|172:272,1,109.999990463257,4|0,0:0|0:0,0:0:0:0:
104,348,135876,1,0,1:0:0:0:
60,108,136562,2,0,P|124:100|156:60,1,109.999990463257
272,72,137247,1,0,1:0:0:0:
432,252,137933,6,0,P|376:288|376:348,1,109.999990463257
256,284,138619,2,0,P|208:316|140:308,1,109.999990463257,0|0,1:0|0:0,0:0:0:0:
68,232,139305,2,0,P|56:124|88:76,1,164.999985694885,0|2,0:0|0:0,0:0:0:0:
200,40,140162,1,2,0:0:0:0:
380,44,140676,6,0,L|412:160,1,109.999990463257,4|0,0:0|1:0,0:0:0:0:
440,268,141362,1,0,0:0:0:0:
384,376,141705,1,0,1:0:0:0:
280,316,142047,2,0,L|152:344,1,109.999990463257,0|0,0:0|1:0,0:0:0:0:
52,360,142733,1,0,0:0:0:0:
104,252,143076,1,0,1:0:0:0:
44,148,143419,6,8,P|132:136|136:20,2,219.999980926514,12|8|8,0:0|0:0|0:0,0:0:0:0:
208,224,145305,2,8,L|328:208,1,109.999990463257
56,184,147533,6,0,P|136:208|188:152,1,164.999985694885,4|0,0:0|0:0,0:0:0:0:
192,96,148905,2,0,P|240:32|308:72,1,164.999985694885,4|0,0:0|0:0,0:0:0:0:
356,100,150276,6,0,P|336:180|332:272,1,164.999985694885,4|0,0:0|0:0,0:0:0:0:
376,300,151647,2,0,L|208:320,1,164.999985694885,4|0,0:0|0:0,0:0:0:0:
168,280,153019,6,0,P|100:292|64:208,1,164.999985694885,4|0,0:0|0:0,0:0:0:0:
92,164,154390,2,0,P|160:160|180:128,1,109.999990463257,4|4,0:0|0:0,0:0:0:0:
112,28,155762,5,6,0:0:0:0:
200,44,156105,2,0,L|292:32,2,82.4999959945678,0|2|0,0:0|0:0|0:0,0:0:0:0:
228,132,157133,2,0,P|304:136|252:252,1,247.499987983704,2|2,0:2|0:0,1:0:0:0:
152,228,158505,6,8,P|96:224|36:248,1,109.999990463257,12|8,0:0|0:0,0:0:0:0:
116,356,159190,1,10,0:0:0:0:
144,116,159876,2,8,P|196:132|260:124,1,109.999990463257
348,56,160562,1,10,0:0:0:0:
428,284,161247,6,8,P|372:268|304:264,1,109.999990463257
216,328,161933,1,2,0:0:0:0:
100,116,162619,2,0,P|148:164|204:184,1,109.999990463257
304,184,163305,2,8,P|392:200|476:104,1,219.999980926514,10|12,0:0|0:0,0:0:0:0:
300,64,164676,6,0,P|219:76|140:36,2,164.999991989136,0|2|8,0:0|1:2|0:0,0:0:0:0:
408,120,166390,2,0,P|440:176|432:228,1,109.999990463257,0|4,1:0|0:0,0:0:0:0:
340,296,167076,1,0,1:0:0:0:
160,316,167590,2,0,L|108:264,1,54.9999952316285,8|0,0:0|1:0,0:0:0:0:
84,160,168105,6,0,P|80:72|96:60,1,109.999990463257,8|0,0:0|1:0,0:0:0:0:
268,44,168962,2,0,L|344:40,1,54.9999952316285,8|0,0:0|1:0,0:0:0:0:
400,136,169476,2,0,P|368:196|384:244,1,109.999990463257,8|0,0:0|1:0,0:0:0:0:
212,304,170333,2,0,L|136:328,1,54.9999952316285,8|0,0:0|1:0,0:0:0:0:
48,276,170847,6,0,P|72:224|56:152,1,109.999990463257,8|0,0:0|1:0,0:0:0:0:
40,56,171533,2,0,P|92:72|152:56,1,109.999990463257,0|0,0:0|1:0,0:0:0:0:
236,140,172219,2,0,P|308:84|372:108,1,164.999985694885,4|0,0:0|0:0,0:0:0:0:
416,220,173076,2,0,L|440:288,1,54.9999952316285,8|0,0:0|1:0,0:0:0:0:
316,304,173590,6,0,P|196:328|100:160,1,329.999971389771,8|0,0:2|1:0,1:0:0:0:
220,188,174962,2,0,P|224:132|192:80,1,109.999990463257,8|0,0:0|1:0,0:0:0:0:
96,24,175647,2,0,L|28:20,2,54.9999952316285,0|8|0,0:0|0:0|1:0,0:0:0:0:
96,144,176333,5,0,1:0:0:0:
36,248,176676,1,0,1:0:0:0:
156,252,177019,2,0,P|148:304|168:356,1,109.999990463257,0|8,1:0|0:0,0:0:0:0:
288,344,177705,6,0,L|397:332,1,109.999990463257,4|0,0:0|1:0,0:0:0:0:
324,236,178390,2,0,L|434:225,1,109.999990463257,0|0,1:0|1:0,0:0:0:0:
368,124,179076,2,0,P|288:52|92:108,1,329.999971389771,2|2,0:2|0:0,1:0:0:0:
124,224,180447,6,0,P|72:272|56:320,1,109.999990463257,4|0,0:0|1:0,0:0:0:0:
172,352,181133,2,0,P|224:304|240:256,1,109.999990463257,0|0,1:0|1:0,0:0:0:0:
244,148,181819,2,0,P|224:108|368:132,1,329.999971389771,2|2,0:2|0:0,1:0:0:0:
352,244,183190,6,0,P|392:344|439:295,1,219.999980926514,4|2,0:0|0:0,0:0:0:0:
464,176,184219,1,0,1:0:0:0:
464,176,184562,1,12,0:0:0:0:
348,316,185590,6,0,L|292:336,1,54.9999952316285,2|4,0:0|0:0,0:0:0:0:
