osu file format v14

[General]
AudioFilename: sankyuu.mp3
AudioLeadIn: 1500
PreviewTime: 166733
Countdown: 0
SampleSet: Soft
StackLeniency: 0.7
Mode: 0
LetterboxInBreaks: 0
WidescreenStoryboard: 0

[Editor]
Bookmarks: 106781
DistanceSpacing: 1.4
BeatDivisor: 4
GridSize: 4
TimelineZoom: 1

[Metadata]
Title:39
TitleUnicode:39
Artist:sasakure.UK x DECO*27
ArtistUnicode:sasakure.UK x DECO*27
Creator:L_P
Version:Hard
Source:
Tags:vocaloid hatsune miku thank you sankyuu san kyuu
BeatmapID:257988
BeatmapSetID:85731

[Difficulty]
HPDrainRate:6
CircleSize:4
OverallDifficulty:6
ApproachRate:8
SliderMultiplier:1.39999990463257
SliderTickRate:1

[Events]
//Background and Video events
0,0,"39.jpg",0,0
Video,0,"39.avi"
//Break Periods
2,65935,72728
2,145847,146783
//Storyboard Layer 0 (Background)
//Storyboard Layer 1 (Fail)
//Storyboard Layer 2 (Pass)
//Storyboard Layer 3 (Foreground)
//Storyboard Layer 4 (Overlay)
//Storyboard Sound Samples

[TimingPoints]
450,342.857142857143,4,2,1,45,1,0
7307,-100,4,2,1,55,0,0
14850,342.857142857143,4,2,1,50,1,0
25135,342.857142857143,4,2,1,53,1,0
25135,-100,4,2,1,53,0,0
35764,342.857142857143,4,2,1,60,1,0
35764,-133.333333333333,4,2,1,60,0,0
46564,-100,4,2,1,70,0,1
55992,-66.6666666666667,4,2,1,75,0,1
56164,-100,4,2,1,75,0,1
56849,-100,4,2,1,80,0,1
64906,-100,4,2,1,45,0,1
65935,-100,4,2,1,66,0,0
73478,342.857142857143,4,2,1,45,1,0
73478,-100,4,2,1,45,0,0
81020,342.857142857143,4,2,1,45,1,0
81534,-100,4,2,1,45,0,0
89248,-100,4,2,1,45,0,0
91305,342.857142857143,4,2,1,45,1,0
100219,-100,4,2,1,17,0,0
101933,-133.333333333333,4,2,1,17,0,0
102276,-100,4,2,1,45,0,0
121476,-100,4,2,1,55,0,0
140676,-100,4,2,1,65,0,0
147533,-200,4,2,1,47,0,0
153019,-200,4,2,1,55,0,0
156105,-133.333333333333,4,2,1,45,0,0
156447,-100,4,2,1,55,0,0
156790,-66.6666666666667,4,2,1,65,0,0
156962,-100,4,2,1,70,0,0
157476,-100,4,2,1,45,0,0
157819,-100,4,2,1,52,0,0
157990,-100,4,2,1,57,0,0
158162,-100,4,2,1,62,0,0
158333,-100,4,2,1,67,0,0
158505,-100,4,2,1,65,0,1
158590,-100,4,2,1,65,0,0
163305,-100,4,2,1,47,0,0
163990,-100,4,2,1,65,0,0
164676,-200,4,2,1,75,0,0
165362,-100,4,2,1,75,0,0
166390,-100,4,2,1,68,0,0
166476,-100,4,2,1,71,0,0
166562,-100,4,2,1,75,0,0
166648,-100,4,2,1,79,0,0
166733,-100,4,2,1,87,0,1
177705,-100,4,2,1,74,0,1
180447,-100,4,2,1,83,0,1
180962,-100,4,2,1,67,0,1
181047,-100,4,2,1,83,0,1
183190,-100,4,2,1,85,0,1
184562,-200,4,2,1,30,0,0

[Colours]
Combo1 : 251,248,185
Combo2 : 73,104,248
Combo3 : 243,175,224
Combo4 : 128,220,240

[HitObjects]
72,124,450,6,0,P|176:136|260:60,1,209.999985694885
108,192,1478,2,0,P|188:180|252:64,1,209.999985694885
180,248,2507,2,0,P|256:184|256:76,1,209.999985694885
376,204,3364,2,0,L|464:192,2,69.9999952316285,0|2|0,0:0|0:0|0:0,0:0:0:0:
384,108,3878,6,0,P|296:64|196:120,1,209.999985694885
388,120,4907,2,0,B|304:140|336:232|232:260,1,209.999985694885
416,156,5935,2,0,B|368:232|368:232|364:248|364:248|304:336,1,209.999985694885
124,276,6792,2,0,L|208:280,2,69.9999952316285,0|2|0,0:0|0:0|0:0,0:0:0:0:
12,152,7307,6,0,P|88:160|120:96,1,139.999990463257,4|0,0:0|0:0,0:0:0:0:
66,30,7821,1,0,0:0:0:0:
162,45,7992,2,0,L|238:41,1,69.9999952316285,0|0,1:0|0:0,0:0:0:0:
311,98,8335,2,0,L|411:94,2,69.9999952316285,0|0|0,0:0|1:0|0:0,0:0:0:0:
245,171,8850,5,2,0:2:0:0:
241,175,9021,1,0,0:0:0:0:
237,179,9192,1,0,0:0:0:0:
160,240,9364,2,0,L|80:248,2,69.9999952316285,2|0|0,1:2|0:0|0:0,0:0:0:0:
242,290,9878,1,0,0:0:0:0:
246,294,10050,1,0,0:0:0:0:
250,298,10221,2,2,L|338:298,2,69.9999952316285,2|0|2,0:0|0:0|0:0,0:0:0:0:
164,346,10735,6,0,P|108:346|60:254,1,139.999990463257,4|0,0:0|0:0,0:0:0:0:
107,198,11250,1,0,0:0:0:0:
75,105,11421,2,0,P|151:101|187:37,1,139.999990463257,0|0,1:0|0:0,0:0:0:0:
281,33,11935,2,0,L|373:41,1,69.9999952316285,2|0,0:3|0:0,0:0:0:0:
412,115,12278,2,0,L|500:111,2,69.9999952316285,0|8|0,1:2|0:0|0:0,0:0:0:0:
345,187,12792,6,0,P|297:239|153:199,1,209.999985694885,0|0,1:2|0:0,0:0:0:0:
201,127,13478,2,0,L|281:119,1,69.9999952316285,0|0,0:0|1:0,0:0:0:0:
347,181,13821,2,8,L|447:189,1,69.9999952316285
472,267,14164,1,4,1:3:0:0:
472,267,14335,1,4,1:2:0:0:
184,328,14850,5,4,0:0:0:0:
184,328,15192,1,2,0:0:0:0:
120,253,15364,2,0,L|48:273,1,69.9999952316285
42,173,15707,2,0,L|136:168,1,69.9999952316285,0|0,0:0|0:0,0:0:0:0:
164,84,16050,2,0,L|316:78,1,139.999990463257,0|2,0:0|0:0,0:0:0:0:
389,33,16564,2,0,P|437:85|513:73,2,139.999990463257,0|0|0,0:0|0:0|0:0,0:0:0:0:
309,90,17421,1,2,0:0:0:0:
367,168,17592,6,0,L|351:260,1,69.9999952316285
263,274,17935,2,0,P|187:270|123:330,1,139.999990463257,2|0,0:0|0:0,0:0:0:0:
65,374,18450,1,0,0:0:0:0:
7,294,18621,2,0,L|31:214,1,69.9999952316285,2|0,0:0|0:0,0:0:0:0:
27,128,18964,2,0,P|115:132|147:88,1,139.999990463257,0|2,0:0|0:0,0:0:0:0:
87,16,19478,1,0,0:0:0:0:
183,35,19650,2,0,L|263:27,1,69.9999952316285
350,25,19992,2,0,L|334:189,1,139.999990463257,2|4,0:0|0:0,0:0:0:0:
336,164,20678,5,2,0:0:0:0:
428,196,20850,1,0,0:0:0:0:
336,164,21021,2,0,L|320:232,1,69.9999952316285
256,308,21364,1,2,0:0:0:0:
179,243,21535,2,0,P|104:256|60:204,2,139.999990463257,0|0|0,0:0|0:0|0:0,0:0:0:0:
144,150,22392,2,0,L|160:66,1,69.9999952316285,0|2,0:0|0:0,0:0:0:0:
244,125,22735,2,0,L|256:205,1,69.9999952316285,0|2,0:0|0:0,0:0:0:0:
327,259,23078,5,4,0:0:0:0:
327,259,23250,2,0,L|419:243,1,69.9999952316285,0|0,0:0|1:0,0:0:0:0:
393,149,23592,1,4,0:0:0:0:
393,149,23764,2,0,L|492:134,1,69.9999952316285,0|0,0:0|1:0,0:0:0:0:
448,40,24107,2,0,L|288:56,1,139.999990463257,4|0,0:0|0:0,0:0:0:0:
227,108,24621,2,0,L|139:104,1,69.9999952316285
82,168,24964,1,0,1:0:0:0:
82,168,25135,1,4,0:0:0:0:
192,332,25477,6,0,L|280:299,1,69.9999952316285,2|0,0:0|0:0,0:0:0:0:
277,209,25820,2,0,L|365:221,1,69.9999952316285
425,159,26163,1,2,0:0:0:0:
366,80,26335,2,0,P|294:100|234:60,1,139.999990463257
143,86,26849,2,0,L|67:66,1,69.9999952316285,2|0,0:0|0:0,0:0:0:0:
45,161,27192,2,0,L|29:229,1,69.9999952316285
110,284,27535,2,0,P|158:264|246:292,1,139.999990463257,2|0,0:0|0:0,0:0:0:0:
301,362,28049,1,0,0:0:0:0:
372,294,28220,6,0,L|348:214,1,69.9999952316285,2|0,0:0|0:0,0:0:0:0:
408,146,28563,2,0,P|336:142|312:78,1,139.999990463257,0|2,0:0|0:0,0:0:0:0:
382,19,29077,1,0,0:0:0:0:
283,17,29249,2,0,L|195:45,1,69.9999952316285
234,134,29592,2,0,P|158:146|86:110,1,139.999990463257,2|0,0:0|0:0,0:0:0:0:
27,57,30106,1,0,0:0:0:0:
3,151,30277,2,0,L|27:227,1,69.9999952316285,2|0,0:0|0:0,0:0:0:0:
28,315,30620,6,0,P|100:275|168:291,1,139.999990463257,4|2,0:0|0:0,0:0:0:0:
226,351,31135,1,0,0:0:0:0:
272,264,31306,2,0,L|364:264,1,69.9999952316285
418,326,31649,1,2,0:0:0:0:
418,326,31820,5,0,0:0:0:0:
481,140,32163,1,0,0:1:0:0:
321,26,32506,1,0,0:0:0:0:
158,135,32849,1,2,0:0:0:0:
158,135,33020,2,0,L|62:139,1,69.9999952316285
78,235,33363,6,0,L|226:223,1,139.999990463257,4|0,0:0|1:0,0:0:0:0:
222,321,33877,2,0,L|374:301,1,139.999990463257,4|0,0:0|1:0,0:0:0:0:
435,237,34392,2,0,P|407:185|423:105,1,139.999990463257,4|0,0:0|1:0,0:0:0:0:
490,38,34906,1,0,0:0:0:0:
394,17,35077,2,0,L|310:29,1,69.9999952316285,0|0,1:0|0:0,0:0:0:0:
286,117,35420,2,0,L|190:113,1,69.9999952316285,0|8,1:0|0:0,0:0:0:0:
104,88,35764,6,0,P|136:132|128:196,1,104.999996852875,4|0,0:0|0:0,0:0:0:0:
43,335,36449,2,0,P|100:356|145:353,1,104.999996852875
234,220,37135,2,0,L|310:212,1,52.4999984264374,8|0,0:0|0:0,0:0:0:0:
260,69,37649,1,8,0:0:0:0:
321,132,37821,2,0,L|397:136,1,52.4999984264374,0|0,1:0|0:0,0:0:0:0:
448,181,38164,2,0,B|444:245|444:245|437:276|420:285,1,104.999996852875,0|12,1:0|0:0,0:0:0:0:
288,334,38849,5,0,0:0:0:0:
162,258,39192,2,0,L|94:278,2,52.4999984264374,0|0|0,1:0|0:0|0:0,0:0:0:0:
59,152,39878,2,0,P|127:164|195:96,1,157.499995279312,8|0,0:0|0:0,0:0:0:0:
164,41,40564,2,0,P|96:29|28:97,1,157.499995279312,0|0,1:0|0:0,0:0:0:0:
37,156,41249,6,0,L|53:284,1,104.999996852875,12|0,0:0|0:0,0:0:0:0:
103,311,41764,2,0,L|227:299,1,104.999996852875,8|0,0:0|0:0,0:0:0:0:
266,166,42449,1,0,0:0:0:0:
337,219,42621,2,0,L|409:219,2,52.4999984264374,2|0|0,1:2|0:0|1:0,0:2:0:0:
257,274,43135,2,0,L|197:286,1,52.4999984264374,2|0,0:0|1:0,0:0:0:0:
137,344,43478,2,0,L|81:356,1,52.4999984264374,0|2,0:0|1:2,0:0:0:0:
16,289,43821,1,0,0:0:0:0:
56,196,43992,6,0,L|132:212,1,52.4999984264374,4|8,0:0|0:0,0:0:0:0:
120,120,44335,2,0,L|176:144,1,52.4999984264374,8|8,0:0|0:0,0:0:0:0:
204,64,44678,2,0,L|256:108,1,52.4999984264374,8|8,0:0|0:0,0:0:0:0:
304,32,45021,2,0,L|328:92,1,52.4999984264374,8|8,0:0|0:0,0:0:0:0:
352,164,45364,5,12,0:0:0:0:
304,220,45535,1,8,0:0:0:0:
356,356,45878,1,14,0:0:0:0:
216,312,46221,1,8,0:0:0:0:
216,312,46564,5,4,0:0:0:0:
216,312,46735,2,0,L|124:328,1,69.9999952316285
80,251,47078,1,0,1:0:0:0:
106,156,47249,2,0,P|174:168|234:108,1,139.999990463257,0|8,0:0|0:0,0:0:0:0:
281,44,47764,2,0,L|365:56,1,69.9999952316285,0|0,1:0|0:0,0:0:0:0:
431,107,48106,6,0,P|459:167|439:243,1,139.999990463257,8|0,0:0|1:0,0:0:0:0:
373,306,48621,2,0,L|289:326,1,69.9999952316285
214,284,48964,2,0,L|138:276,2,69.9999952316285,8|0|0,0:0|1:0|0:0,0:0:0:0:
274,206,49478,6,0,P|274:130|198:102,1,139.999990463257,8|0,0:0|1:0,0:0:0:0:
144,43,49992,2,0,P|80:71|12:31,1,139.999990463257,0|8,0:0|0:0,0:0:0:0:
49,141,50506,2,0,L|37:213,1,69.9999952316285,0|0,1:0|0:0,0:0:0:0:
94,290,50849,1,8,0:0:0:0:
94,290,51021,2,0,L|174:278,1,69.9999952316285,0|0,0:0|1:0,0:0:0:0:
260,280,51364,1,0,0:0:0:0:
260,280,51706,6,0,L|292:204,1,69.9999952316285,8|0,0:0|1:0,0:0:0:0:
200,168,52049,1,0,0:0:0:0:
220,72,52221,2,0,L|140:76,2,69.9999952316285,8|0|0,0:0|0:0|1:0,0:0:0:0:
316,84,52735,2,0,P|308:160|232:172,1,139.999990463257,0|8,0:0|0:0,0:0:0:0:
156,188,53249,2,0,L|88:260,1,69.9999952316285,0|0,1:0|0:0,0:0:0:0:
108,336,53592,6,0,P|164:296|248:316,1,139.999990463257,2|0,0:0|1:0,0:0:0:0:
324,336,54106,2,0,P|384:320|420:240,1,139.999990463257,2|0,0:0|0:0,0:0:0:0:
364,176,54621,2,0,L|376:92,1,69.9999952316285,2|0,1:2|0:0,0:0:0:0:
296,48,54964,1,4,0:0:0:0:
148,52,55306,2,0,P|124:84|116:136,1,69.9999952316285,2|0,1:2|3:0,0:0:0:0:
32,176,55649,2,0,P|16:212|31:272,1,69.9999952316285,0|0,0:0|3:0,0:0:0:0:
96,304,55992,6,0,B|149:311|149:311|144:316|144:316|220:324,1,104.999996852875,0|4,1:0|0:0,0:0:0:0:
156,72,56506,5,8,0:0:0:0:
104,156,56678,1,0,1:0:0:0:
128,248,56849,2,0,P|192:268|272:156,1,209.999985694885,4|4,0:0|1:2,0:0:0:0:
412,44,57706,6,0,L|428:144,1,69.9999952316285,8|0,0:0|0:0,0:0:0:0:
470,199,58049,1,0,1:0:0:0:
326,332,58392,2,0,L|334:240,1,69.9999952316285,0|8,0:0|0:0,0:0:0:0:
294,171,58735,1,0,1:0:0:0:
169,19,59078,5,8,0:0:0:0:
128,107,59249,2,0,L|140:195,1,69.9999952316285,0|0,0:0|1:0,0:0:0:0:
99,369,59764,1,0,0:0:0:0:
47,286,59935,2,0,L|67:210,1,69.9999952316285,8|0,0:0|1:0,0:0:0:0:
0,37,60449,6,0,L|80:25,1,69.9999952316285,8|0,0:0|0:0,0:0:0:0:
162,56,60792,1,0,1:0:0:0:
348,117,61135,2,0,L|268:125,1,69.9999952316285,0|8,0:0|0:0,0:0:0:0:
215,199,61478,1,0,1:0:0:0:
46,299,61821,6,0,L|122:303,1,69.9999952316285,8|0,0:0|0:0,0:0:0:0:
206,341,62164,2,0,L|282:333,1,69.9999952316285,2|0,1:2|0:0,0:0:0:0:
353,274,62506,1,0,0:0:0:0:
346,78,62849,1,2,1:2:0:0:
172,168,63192,6,0,P|72:180|24:84,1,209.999985694885,4|0,0:0|0:0,0:0:0:0:
121,89,63878,2,0,P|217:69|273:169,1,209.999985694885
269,249,64564,5,0,1:0:0:0:
344,168,64906,1,0,0:0:0:0:
276,252,65249,1,0,0:0:0:0:
340,164,65592,1,0,0:0:0:0:
128,84,73478,6,0,P|208:60|264:76,1,139.999990463257,4|0,0:0|0:0,0:0:0:0:
336,136,73992,2,0,L|432:128,2,69.9999952316285,0|0|0,0:0|1:0|0:0,0:0:0:0:
316,232,74506,2,0,P|284:260|292:360,1,139.999990463257
376,312,75020,2,0,L|448:304,2,69.9999952316285,0|0|0,1:0|0:0|2:0,0:0:0:0:
316,232,75535,6,0,P|232:252|164:216,1,139.999990463257,0|0,1:0|0:0,0:0:0:0:
156,140,76049,2,0,L|168:56,1,69.9999952316285,0|0,1:0|0:0,0:0:0:0:
264,68,76392,2,0,L|276:152,2,69.9999952316285,0|0|0,1:0|0:0|2:0,0:0:0:0:
360,52,76906,6,0,P|368:128|432:172,1,139.999990463257,4|0,0:0|0:0,0:0:0:0:
468,248,77420,2,0,P|400:268|376:344,1,139.999990463257
280,296,77935,2,0,L|200:316,2,69.9999952316285
272,200,78449,2,0,L|360:212,2,69.9999952316285,0|0|0,1:0|0:0|2:0,0:0:0:0:
216,120,78963,2,0,P|148:112|84:152,1,139.999990463257,0|0,1:0|0:0,0:0:0:0:
80,244,79478,6,0,P|116:332|184:268,1,209.999985694886,0|0,1:0|1:0,0:0:0:0:
352,176,80335,2,0,P|316:88|220:192,1,279.999980926514,0|4,1:0|0:0,0:0:0:0:
496,256,81534,6,0,L|429:278,1,69.9999952316285
356,216,81877,1,0,0:0:0:0:
184,312,82220,2,0,P|268:244|256:368,1,279.999980926514
472,140,83420,2,0,P|416:188|324:192,1,139.999990463257
68,128,84277,6,0,L|156:124,2,69.9999952316285
264,64,84962,2,0,P|376:128|468:28,1,279.999980926514
416,224,85991,2,0,P|452:324|348:348,1,209.999985694886
288,124,87191,5,0,0:0:0:0:
260,296,87705,2,0,P|194:324|108:168,1,279.999980926514
244,64,88905,1,2,0:0:0:0:
392,96,89248,6,0,L|384:184,2,69.9999952316285,4|0|0,0:0|0:0|1:0,0:0:0:0:
308,148,89762,2,0,L|308:228,2,69.9999952316285,0|0|0,0:0|0:0|1:0,0:0:0:0:
218,189,90277,2,0,L|224:272,2,69.9999952316285,4|0|0,0:0|0:0|1:0,0:0:0:0:
109,203,90791,2,0,L|105:123,1,69.9999952316285,0|0,1:0|0:0,0:0:0:0:
116,36,91134,1,0,1:0:0:0:
116,36,91305,6,0,P|216:76|312:36,1,209.999985694886,4|0,0:0|0:0,0:0:0:0:
416,32,91990,2,0,B|396:100|404:144|404:144|424:168,1,139.999990463257,0|0,1:0|0:0,0:0:0:0:
492,240,92505,2,0,P|432:288|420:352,1,139.999990463257,0|0,0:0|1:0,0:0:0:0:
324,300,93019,2,0,L|184:316,1,139.999990463257,0|0,0:0|1:0,0:0:0:0:
112,252,93533,2,0,P|80:232|40:192,1,69.9999952316285,0|2,0:0|0:0,0:0:0:0:
168,52,94047,6,0,L|332:68,1,139.999990463257,4|0,0:0|0:0,0:0:0:0:
354,154,94562,2,0,L|434:142,1,69.9999952316285,0|0,0:0|1:0,0:0:0:0:
489,216,94905,1,0,0:0:0:0:
352,328,95247,6,0,P|276:300|208:344,1,139.999990463257,0|0,0:0|1:0,0:0:0:0:
156,184,95933,2,0,P|96:196|40:132,1,139.999990463257
68,52,96447,2,0,L|208:44,1,139.999990463257,0|4,0:0|0:0,0:0:0:0:
383,129,97133,5,0,0:0:0:0:
432,213,97305,2,0,L|440:285,1,69.9999952316285,0|0,0:0|1:0,0:0:0:0:
346,311,97647,2,0,P|274:283|210:303,1,139.999990463257
167,213,98162,2,0,L|71:225,1,69.9999952316285,0|0,0:0|1:0,0:0:0:0:
61,130,98505,2,0,L|225:126,2,139.999990463257,0|0|0,0:0|1:0|0:0,0:0:0:0:
230,30,99533,6,0,L|302:50,1,69.9999952316285,4|0,0:0|0:0,0:0:0:0:
414,156,100219,2,0,P|410:224|466:264,1,139.999990463257,2|0,0:0|0:0,0:0:0:0:
366,281,100733,1,0,0:0:0:0:
366,281,101076,2,0,L|270:269,1,69.9999952316285
233,197,101419,2,0,P|157:213|73:201,1,139.999990463257,2|0,0:0|0:0,0:0:0:0:
22,197,101933,6,0,P|86:237|86:273,1,104.999996852875,2|4,0:0|0:0,0:0:0:0:
254,365,102619,1,0,1:0:0:0:
404,236,102962,2,0,L|412:155,1,69.9999952316285
334,105,103305,2,0,P|442:113|470:89,2,139.999990463257,0|0|0,1:0|0:0|1:0,0:0:0:0:
144,53,104333,2,0,L|52:77,1,69.9999952316285,2|0,0:0|0:0,0:0:0:0:
134,149,104676,2,0,L|58:169,1,69.9999952316285,2|0,1:2|0:0,0:0:0:0:
40,261,105019,6,0,P|116:261|184:301,1,139.999990463257,4|0,0:0|1:0,0:0:0:0:
365,256,105705,2,0,P|461:264|505:216,1,139.999990463257,0|0,0:0|1:0,0:0:0:0:
409,61,106390,1,0,0:0:0:0:
409,61,106733,2,0,L|325:81,1,69.9999952316285,0|0,1:0|0:0,0:0:0:0:
259,132,107076,2,0,P|215:120|175:124,1,69.9999952316285,2|0,0:0|0:0,0:0:0:0:
114,209,107419,2,0,P|159:213|198:203,1,69.9999952316285,2|0,1:2|0:0,0:0:0:0:
181,110,107762,6,0,P|249:102|285:30,1,139.999990463257,0|0,0:0|1:0,0:0:0:0:
453,144,108447,2,0,L|481:216,1,69.9999952316285
410,280,108790,1,0,1:0:0:0:
220,332,109133,2,0,P|128:332|84:360,1,139.999990463257,0|0,0:0|1:0,0:0:0:0:
51,162,109819,2,0,L|139:166,1,69.9999952316285
162,75,110162,2,0,P|230:83|302:19,1,139.999990463257,0|0,1:0|0:0,0:0:0:0:
386,214,110847,5,0,1:0:0:0:
471,165,111019,2,0,P|484:228|439:297,1,139.999990463257
348,288,111533,2,0,P|324:302|272:312,1,69.9999952316285,0|0,1:0|0:0,0:0:0:0:
188,284,111876,1,8,0:0:0:0:
104,232,112047,2,0,P|144:208|172:176,1,69.9999952316285,0|0,0:0|1:0,0:0:0:0:
144,99,112390,2,0,P|192:136|284:127,1,139.999990463257
368,90,112905,2,0,B|400:150|400:150|376:234,1,139.999990463257,0|4,1:0|0:0,0:0:0:0:
497,376,113590,5,0,1:0:0:0:
311,311,113933,2,0,L|239:323,1,69.9999952316285
173,251,114276,1,0,1:0:0:0:
200,157,114447,2,0,L|352:173,2,139.999990463257
146,73,115305,1,2,0:0:0:0:
291,41,115647,1,2,1:2:0:0:
456,16,115990,6,0,P|432:92|460:152,1,139.999990463257,4|0,0:0|1:0,0:0:0:0:
337,303,116676,2,0,L|361:227,2,69.9999952316285,0|0|0,0:0|0:0|1:0,0:0:0:0:
245,266,117190,2,0,P|173:294|101:258,1,139.999990463257,0|2,0:0|0:0,0:0:0:0:
76,184,117705,1,0,1:0:0:0:
76,81,117876,2,0,P|156:101|152:165,1,139.999990463257,2|0,0:0|0:0,0:0:0:0:
252,180,118390,2,0,P|328:176|424:188,1,139.999990463257,0|4,1:0|0:0,0:0:0:0:
260,36,119076,5,0,1:0:0:0:
184,100,119247,2,0,L|180:256,1,139.999990463257
280,236,119762,2,0,L|276:316,1,69.9999952316285,0|0,1:0|0:0,0:0:0:0:
180,328,120105,2,0,P|112:348|44:328,1,139.999990463257,0|0,0:0|1:0,0:0:0:0:
84,136,120790,5,12,1:2:0:0:
84,136,120962,1,8,0:0:0:0:
84,136,121133,1,8,1:3:0:0:
84,136,121305,1,8,0:3:0:0:
84,136,121476,1,4,0:0:0:0:
292,40,122162,5,0,1:0:0:0:
448,128,122847,2,0,L|444:216,1,69.9999952316285
382,274,123190,5,0,1:0:0:0:
382,274,123533,1,0,0:0:0:0:
382,274,123876,1,0,1:0:0:0:
382,274,124219,6,0,P|310:294|230:258,1,139.999990463257,4|0,0:0|0:0,0:0:0:0:
63,336,124905,2,0,L|133:330,1,69.9999952316285,0|0,1:0|0:0,0:0:0:0:
136,236,125247,1,0,0:0:0:0:
268,76,125590,6,0,L|356:92,1,69.9999952316285,0|0,0:0|1:0,0:0:0:0:
343,186,125933,1,0,0:0:0:0:
464,336,126276,2,0,L|380:348,1,69.9999952316285,0|0,1:0|0:0,0:0:0:0:
303,309,126619,2,0,L|219:317,1,69.9999952316285,0|0,0:0|1:0,0:0:0:0:
143,355,126962,6,0,P|147:271|139:199,1,139.999990463257
72,31,127647,2,0,L|52:123,1,69.9999952316285,0|0,1:0|0:0,0:0:0:0:
119,175,127990,1,0,0:0:0:0:
280,64,128333,6,0,P|368:104|424:12,1,209.999985694886,8|8,0:0|0:0,0:0:0:0:
328,8,129019,2,0,P|349:91|332:168,1,139.999990463257,0|0,1:0|1:0,0:0:0:0:
376,336,129705,5,4,0:0:0:0:
195,298,130047,1,2,0:0:0:0:
143,108,130390,2,0,L|63:132,2,69.9999952316285,0|0|0,1:0|0:0|0:0,0:0:0:0:
325,35,131076,5,0,0:0:0:0:
470,166,131419,2,0,L|462:238,1,69.9999952316285,2|0,0:0|0:0,0:0:0:0:
381,292,131762,2,0,P|305:268|225:288,1,139.999990463257,0|2,1:0|0:0,0:0:0:0:
89,159,132447,6,0,P|185:191|249:107,1,209.999985694886,4|0,0:0|0:0,0:0:0:0:
155,84,133133,2,0,P|147:168|171:248,1,139.999990463257,0|0,1:0|0:0,0:0:0:0:
333,313,133819,1,0,0:0:0:0:
457,161,134162,2,0,P|463:113|456:77,1,69.9999952316285,2|0,1:2|0:0,0:0:0:0:
375,42,134505,2,0,P|342:43|303:58,2,69.9999952316285,10|8|2,0:0|0:0|1:2,0:0:0:0:
361,139,135019,1,0,0:0:0:0:
310,222,135190,6,0,P|222:214|182:158,1,139.999990463257,4|0,0:0|0:0,0:0:0:0:
144,80,135705,2,0,L|60:104,1,69.9999952316285,0|0,0:0|1:0,0:0:0:0:
43,292,136219,1,0,1:0:0:0:
238,304,136562,2,0,P|298:272|390:288,1,139.999990463257,4|0,0:0|0:0,0:0:0:0:
419,193,137076,2,0,L|383:113,1,69.9999952316285,0|0,0:0|1:0,0:0:0:0:
218,35,137590,1,0,1:0:0:0:
78,173,137933,6,0,P|70:221|74:253,1,69.9999952316285,4|0,0:0|0:0,0:0:0:0:
144,312,138276,1,0,0:0:0:0:
236,276,138447,1,0,0:0:0:0:
232,176,138619,2,0,P|268:164|304:164,1,69.9999952316285,0|0,1:0|0:0,0:0:0:0:
296,64,138962,2,0,P|380:92|440:64,2,139.999990463257
200,48,139819,2,0,L|48:72,1,139.999990463257,2|0,0:0|0:0,0:0:0:0:
52,168,140333,1,0,1:0:0:0:
108,244,140505,1,2,0:0:0:0:
200,272,140676,6,0,P|244:272|268:264,1,69.9999952316285,4|0,0:0|0:0,0:0:0:0:
316,180,141019,1,0,1:0:0:0:
412,192,141190,2,0,P|452:192|484:176,1,69.9999952316285
432,96,141533,2,0,P|367:79|295:91,1,139.999990463257,2|0,0:0|0:0,0:0:0:0:
204,56,142047,6,0,L|132:68,1,69.9999952316285,8|0,0:0|0:0,0:0:0:0:
192,148,142390,2,0,P|240:164|256:184,1,69.9999952316285,0|0,1:0|0:0,0:0:0:0:
176,240,142733,2,0,P|132:248|96:244,1,69.9999952316285
68,152,143076,2,0,P|43:150|0:158,1,69.9999952316285,0|0,1:0|0:0,0:0:0:0:
8,264,143419,6,0,P|28:328|116:348,1,139.999990463257,6|0,0:0|0:0,0:0:0:0:
256,308,144105,2,0,L|336:304,1,69.9999952316285,8|8,0:0|0:0,0:0:0:0:
328,208,144447,2,0,P|368:218|420:216,1,69.9999952316285,8|8,0:0|0:0,0:0:0:0:
472,160,144790,5,0,1:0:0:0:
472,160,144962,1,0,0:0:0:0:
320,96,145305,1,2,1:2:0:0:
464,32,145647,1,4,0:3:0:0:
48,112,147533,6,0,P|124:128|184:52,1,174.999988079071,4|0,0:0|0:0,0:0:0:0:
464,112,148905,6,0,P|388:128|328:52,1,174.999988079071,4|0,0:0|0:0,0:0:0:0:
40,288,150276,6,0,L|224:264,1,174.999988079071,4|0,0:0|0:0,0:0:0:0:
472,96,151647,6,0,L|288:120,1,174.999988079071,4|0,0:0|0:0,0:0:0:0:
192,292,153019,6,0,P|112:288|64:208,1,174.999988079071,4|0,0:0|0:0,0:0:0:0:
92,72,154390,6,0,P|132:80|168:76,1,69.9999952316285,4|2,0:0|0:0,0:0:0:0:
256,132,155076,2,0,P|292:128|328:132,1,69.9999952316285,4|2,0:0|0:0,0:0:0:0:
420,216,155762,5,0,1:0:0:0:
420,216,156105,1,0,1:0:0:0:
420,216,156447,1,0,1:0:0:0:
420,216,156790,1,0,1:0:0:0:
340,160,156962,6,0,P|304:168|256:168,1,69.9999952316285,4|0,0:0|0:0,0:0:0:0:
264,268,157305,2,0,P|232:264|180:272,1,69.9999952316285,0|2,0:0|0:0,0:0:0:0:
136,188,157647,2,0,P|100:184|44:192,1,69.9999952316285,0|0,0:0|1:0,0:0:0:0:
92,92,157990,2,0,P|56:84|24:84,2,69.9999952316285,0|2|0,1:0|1:2|1:0,0:0:0:0:
176,40,158505,6,0,P|240:84|312:72,1,139.999990463257,12|10,1:2|0:0,0:0:0:0:
384,172,159019,1,0,0:0:0:0:
288,172,159190,2,0,P|184:192|176:232,1,139.999990463257,8|10,0:0|0:0,0:0:0:0:
40,120,159876,2,0,P|112:132|164:96,1,139.999990463257,8|10,0:0|0:0,0:0:0:0:
296,96,160390,1,0,0:0:0:0:
360,24,160562,2,0,P|348:80|408:136,1,139.999990463257,8|10,0:0|0:0,0:0:0:0:
224,224,161247,6,0,L|376:212,1,139.999990463257,8|10,0:0|0:0,0:0:0:0:
260,140,161762,1,0,0:0:0:0:
252,48,161933,2,0,L|104:64,1,139.999990463257,8|10,0:0|0:0,0:0:0:0:
152,268,162619,2,0,P|228:268|280:232,1,139.999990463257,8|10,0:0|0:0,0:0:0:0:
252,72,163305,2,0,P|176:72|124:108,1,139.999990463257,8|10,0:0|0:0,0:0:0:0:
80,212,163819,1,0,0:0:0:0:
132,308,163990,6,0,P|212:304|196:140,1,279.999980926514,4|2,0:0|0:0,0:0:0:0:
428,264,165362,6,0,P|384:296|316:288,2,104.999992847443,0|0|0,1:0|1:0|1:0,0:0:0:0:
400,152,166047,2,0,L|312:156,1,69.9999952316285,4|0,1:0|0:0,0:0:0:0:
256,80,166390,2,2,L|196:88,3,34.9999976158143,0|0|0|0,1:0|1:0|1:0|1:0,1:0:0:0:
176,100,166733,6,0,P|156:148|156:252,1,139.999990463257,4|0,1:0|1:0,0:0:0:0:
256,320,167247,2,0,P|272:248|264:168,1,139.999990463257,0|8,0:0|0:0,0:0:0:0:
360,92,167762,2,0,L|368:188,1,69.9999952316285,0|0,1:0|0:0,0:0:0:0:
344,252,168105,6,0,L|200:288,1,139.999990463257,8|0,0:0|1:0,0:0:0:0:
136,220,168619,2,0,L|284:232,1,139.999990463257,0|8,0:0|0:0,0:0:0:0:
300,328,169133,2,0,L|376:304,1,69.9999952316285,0|0,1:0|0:0,0:0:0:0:
432,212,169476,6,0,P|444:144|432:64,1,139.999990463257,8|0,0:0|1:0,0:0:0:0:
336,32,169990,2,0,P|280:52|180:48,1,139.999990463257,0|8,0:0|0:0,0:0:0:0:
104,16,170505,2,0,L|64:104,1,69.9999952316285,0|0,1:0|0:0,0:0:0:0:
124,172,170847,5,8,0:0:0:0:
40,240,171019,2,0,L|24:328,1,69.9999952316285,0|0,0:0|1:0,0:0:0:0:
132,336,171362,2,0,P|188:344|264:296,1,139.999990463257,0|8,0:0|0:0,0:0:0:0:
200,216,171876,2,0,L|300:208,1,69.9999952316285,0|0,1:0|0:0,0:0:0:0:
332,128,172219,6,0,P|368:200|356:256,1,139.999990463257,12|0,0:0|1:0,0:0:0:0:
420,332,172733,2,0,L|264:352,1,139.999990463257,0|8,0:0|0:0,0:0:0:0:
224,260,173247,2,0,L|136:276,1,69.9999952316285,0|0,1:0|0:0,0:0:0:0:
104,168,173590,6,0,L|248:160,1,139.999990463257,8|0,0:0|1:0,0:0:0:0:
388,32,174276,2,0,L|244:40,1,139.999990463257,8|0,0:0|1:0,0:0:0:0:
100,172,174962,6,0,L|180:176,1,69.9999952316285,4|0,0:0|0:0,0:0:0:0:
232,260,175305,1,0,1:0:0:0:
220,364,175476,2,0,P|288:352|332:276,1,139.999990463257,4|8,0:0|0:0,0:0:0:0:
300,200,175990,1,0,1:0:0:0:
392,144,176162,6,0,L|388:64,1,69.9999952316285,0|4,0:0|1:2,0:0:0:0:
300,32,176505,2,0,L|212:32,1,69.9999952316285,0|0,0:0|1:0,0:0:0:0:
144,80,176847,1,0,0:0:0:0:
76,152,177019,2,0,P|64:224|84:300,1,139.999990463257,0|0,1:0|1:0,0:0:0:0:
200,132,177705,6,0,L|284:120,1,69.9999952316285,4|0,0:0|0:0,0:0:0:0:
324,204,178047,1,0,1:0:0:0:
324,204,178219,1,0,0:0:0:0:
324,204,178390,2,0,L|416:212,1,69.9999952316285,0|0,1:0|0:0,0:0:0:0:
400,308,178733,5,0,1:0:0:0:
400,308,178905,1,0,0:0:0:0:
400,308,179076,2,0,L|312:316,1,69.9999952316285,4|0,1:0|0:0,0:0:0:0:
232,296,179419,2,0,L|140:308,1,69.9999952316285,0|0,1:0|0:0,0:0:0:0:
124,216,179762,2,0,P|204:224|252:168,1,139.999990463257,4|0,1:0|1:0,0:0:0:0:
380,48,180447,6,0,L|360:132,1,69.9999952316285,4|0,1:2|0:0,0:0:0:0:
336,212,180790,1,0,1:0:0:0:
424,256,180962,2,0,L|420:340,1,69.9999952316285,0|0,0:2|1:0,0:0:0:0:
324,352,181305,1,0,0:0:0:0:
232,315,181476,6,0,P|168:331|92:303,2,139.999990463257,0|4|0,1:2|1:0|1:2,0:0:0:0:
276,228,182333,1,0,0:0:0:0:
284,128,182505,2,0,L|372:124,1,69.9999952316285,4|2,1:0|0:0,0:0:0:0:
424,56,182847,6,0,P|448:124|428:188,2,139.999990463257,0|4|2,1:0|1:2|1:2,0:0:0:0:
304,212,183876,2,0,P|284:292|320:356,1,139.999990463257,4|2,0:0|1:2,0:0:0:0:
380,276,184562,1,4,0:0:0:0:
92,340,185590,6,0,L|8:348,1,69.9999952316285,2|4,0:0|0:0,0:0:0:0:
