osu file format v14

[General]
AudioFilename: sankyuu.mp3
AudioLeadIn: 1500
PreviewTime: 166733
Countdown: 0
SampleSet: Soft
StackLeniency: 0.7
Mode: 0
LetterboxInBreaks: 0
WidescreenStoryboard: 0

[Editor]
Bookmarks: 106781
DistanceSpacing: 1.1
BeatDivisor: 4
GridSize: 4
TimelineZoom: 1

[Metadata]
Title:39
TitleUnicode:39
Artist:sasakure.UK x DECO*27
ArtistUnicode:sasakure.UK x DECO*27
Creator:L_P
Version:Easy
Source:
Tags:vocaloid hatsune miku thank you sankyuu san kyuu
BeatmapID:280181
BeatmapSetID:85731

[Difficulty]
HPDrainRate:2
CircleSize:3
OverallDifficulty:2
ApproachRate:3
SliderMultiplier:0.79999990463257
SliderTickRate:1

[Events]
//Background and Video events
0,0,"39.jpg",0,0
Video,0,"39.avi"
//Break Periods
2,66135,72038
//Storyboard Layer 0 (Background)
//Storyboard Layer 1 (Fail)
//Storyboard Layer 2 (Pass)
//Storyboard Layer 3 (Foreground)
//Storyboard Layer 4 (Overlay)
//Storyboard Sound Samples

[TimingPoints]
450,342.857142857143,4,2,1,25,1,0
14850,342.857142857143,4,2,1,45,1,0
25135,342.857142857143,4,2,1,53,1,0
35764,342.857142857143,4,2,1,60,1,0
35764,-133.333333333333,4,2,1,60,0,0
46564,-100,4,2,1,70,0,1
55992,-66.6666666666667,4,2,1,75,0,1
56164,-100,4,2,1,75,0,1
56849,-100,4,2,1,80,0,1
64906,-100,4,2,1,31,0,1
65935,-100,4,2,1,66,0,0
73478,342.857142857143,4,2,1,25,1,0
81020,342.857142857143,4,2,1,45,1,0
81534,-100,4,2,1,30,0,0
89248,-100,4,2,1,45,0,0
91305,342.857142857143,4,2,1,45,1,0
100219,-100,4,2,1,17,0,0
101933,-100,4,2,1,17,0,0
102276,-100,4,2,1,45,0,0
121476,-100,4,2,1,55,0,0
140676,-100,4,2,1,65,0,0
147533,-100,4,2,1,47,0,0
153019,-100,4,2,1,55,0,0
156105,-100,4,2,1,45,0,0
156447,-100,4,2,1,55,0,0
156790,-100,4,2,1,65,0,0
156962,-100,4,2,1,70,0,0
157476,-100,4,2,1,45,0,0
157819,-100,4,2,1,52,0,0
157990,-100,4,2,1,57,0,0
158162,-100,4,2,1,62,0,0
158333,-100,4,2,1,67,0,0
158505,-100,4,2,1,65,0,1
158590,-100,4,2,1,65,0,0
163305,-100,4,2,1,47,0,0
163990,-100,4,2,1,65,0,0
164676,-100,4,2,1,75,0,0
166390,-100,4,2,1,68,0,0
166476,-100,4,2,1,71,0,0
166562,-100,4,2,1,75,0,0
166648,-100,4,2,1,79,0,0
166733,-100,4,2,1,87,0,1
177705,-100,4,2,1,74,0,1
180447,-100,4,2,1,83,0,1
180962,-100,4,2,1,67,0,1
181047,-100,4,2,1,83,0,1
183190,-100,4,2,1,85,0,1
184562,-133.333333333333,4,2,1,30,0,0

[Colours]
Combo1 : 251,248,185
Combo2 : 73,104,248
Combo3 : 243,175,224
Combo4 : 128,220,240

[HitObjects]
64,300,450,6,0,P|157:320|144:208,1,239.999971389771,0|2,0:0|0:0,0:0:0:0:
388,100,2507,2,0,P|300:76|308:192,1,239.999971389771,0|2,0:0|0:0,0:0:0:0:
384,228,3878,6,0,P|378:324|244:332,1,239.999971389771,2|2,0:0|0:0,0:0:0:0:
56,164,5935,2,0,P|64:68|196:60,1,239.999971389771,0|2,0:0|0:0,0:0:0:0:
256,108,7307,6,0,L|420:88,1,159.999980926514,4|2,0:0|1:2,0:0:0:0:
456,164,8335,2,0,P|488:236|432:300,1,159.999980926514,0|2,0:0|0:0,0:0:0:0:
356,276,9364,2,0,P|284:276|216:344,1,159.999980926514,0|0,1:2|0:0,0:0:0:0:
136,316,10392,1,2,0:0:0:0:
88,240,10735,6,0,L|80:72,1,159.999980926514,4|0,0:0|1:0,0:0:0:0:
164,108,11764,2,0,P|248:124|324:88,1,159.999980926514,0|2,0:0|0:0,0:0:0:0:
352,176,12792,2,0,P|356:260|312:328,1,159.999980926514,0|0,1:0|0:0,0:0:0:0:
172,228,14164,1,2,0:0:0:0:
24,132,14850,6,0,P|80:168|164:120,1,159.999980926514,4|0,0:0|0:0,0:0:0:0:
284,92,16050,2,0,L|304:178,2,79.999990463257,0|2|0,0:0|0:0|0:0,0:0:0:0:
416,96,17250,1,2,0:0:0:0:
404,184,17592,1,4,0:0:0:0:
252,272,18278,6,0,P|184:320|104:296,1,159.999980926514
72,228,19307,2,0,L|-16:248,2,79.999990463257,0|2|0,0:0|0:0|0:0,0:0:0:0:
156,204,20335,2,0,P|204:164|296:184,1,159.999980926514,0|2,0:0|0:0,0:0:0:0:
420,60,21707,2,0,P|312:92|196:24,1,239.999971389771,0|2,0:0|0:0,0:0:0:0:
120,64,23078,5,4,0:0:0:0:
60,180,23592,1,0,0:0:0:0:
180,232,24107,1,4,0:0:0:0:
240,116,24621,2,0,P|320:112|360:136,1,119.999985694885,0|4,0:0|0:0,0:0:0:0:
360,260,25649,6,0,P|300:324|220:320,1,159.999980926514,0|2,0:0|0:0,0:0:0:0:
72,248,27020,2,0,L|52:120,1,119.999985694885,0|2,0:0|0:0,0:0:0:0:
108,60,27877,2,0,P|212:48|304:148,1,239.999971389771,0|2,0:0|0:0,0:0:0:0:
252,212,29249,2,0,P|292:288|364:264,1,159.999980926514,0|2,0:0|0:0,0:0:0:0:
432,120,30620,5,4,0:0:0:0:
268,56,31306,1,2,0:0:0:0:
104,124,31992,1,0,0:0:0:0:
264,200,32677,1,2,0:0:0:0:
140,324,33363,6,0,P|224:288|364:344,1,239.999971389771,4|4,0:0|0:0,0:0:0:0:
416,172,35077,1,0,1:0:0:0:
340,212,35420,2,0,L|248:200,1,79.999990463257,0|4,1:0|0:0,0:0:0:0:
128,180,36449,5,0,1:0:0:0:
48,76,37135,2,0,P|148:40|248:116,1,239.999980545044
248,248,39192,1,0,1:0:0:0:
360,320,39878,2,0,P|424:296|352:184,1,239.999980545044,0|4,0:0|0:0,0:0:0:0:
320,56,41935,5,0,1:0:0:0:
216,136,42621,2,0,P|168:164|104:152,1,119.999990272522,0|0,0:0|1:0,0:0:0:0:
76,280,43992,2,0,L|144:280,3,59.9999951362609,0|0|0|0,0:0|1:0|0:0|1:0,0:0:0:0:
200,292,45364,2,0,P|288:312|360:224,1,209.999982976913,0|4,1:0|0:0,0:0:0:0:
348,96,47078,6,0,P|300:84|260:88,2,79.999990463257,0|0|0,1:0|0:0|1:0,0:0:0:0:
364,184,48106,1,0,0:0:0:0:
276,200,48449,2,0,B|216:224|216:224|204:272|256:324,1,159.999980926514,0|0,1:0|1:0,0:0:0:0:
328,284,49478,5,0,0:0:0:0:
412,308,49821,2,0,P|468:320|496:316,2,79.999990463257,0|0|0,1:0|0:0|1:0,0:0:0:0:
460,236,50849,2,0,P|456:136|352:32,1,239.999971389771,2|0,0:0|1:0,0:0:0:0:
280,56,52221,6,0,P|216:92|128:68,1,159.999980926514,4|0,0:0|0:0,0:0:0:0:
76,240,53592,2,0,P|148:196|272:272,1,239.999971389771,0|0,0:0|1:0,0:0:0:0:
344,316,54964,2,0,P|440:348|472:296,1,159.999980926514,0|4,0:0|0:0,0:0:0:0:
368,228,56164,6,0,L|380:64,1,159.999980926514,4|0,0:0|1:0,0:0:0:0:
252,100,57364,1,0,1:0:0:0:
196,168,57706,6,0,P|120:200|32:184,1,159.999980926514,4|8,0:0|0:0,0:0:0:0:
196,280,59078,2,0,P|256:248|344:272,1,159.999980926514,8|0,0:0|1:0,0:0:0:0:
436,120,60449,2,0,P|360:132|288:80,1,159.999980926514,8|0,0:0|1:0,0:0:0:0:
120,64,61821,2,0,L|88:232,1,159.999980926514,8|0,1:2|1:0,0:0:0:0:
220,340,63192,5,12,0:0:0:0:
344,216,63878,1,0,1:0:0:0:
172,176,64564,2,0,P|168:104|244:124,1,159.999980926514,0|0,1:0|0:0,0:0:0:0:
160,268,65935,1,4,0:0:0:0:
80,132,73478,6,0,P|140:164|204:96,1,159.999980926514,4|0,0:0|1:0,0:0:0:0:
240,28,74506,1,0,0:0:0:0:
300,144,75020,2,0,P|352:88|468:172,1,239.999971389771,0|0,1:0|1:0,0:0:0:0:
460,252,76392,1,0,1:0:0:0:
332,280,76906,6,0,P|124:220|224:40,1,479.999942779542,4|0,0:0|1:0,0:0:0:0:
248,172,79478,1,0,1:0:0:0:
376,208,79992,2,0,P|444:188|444:104,1,159.999980926514,0|0,1:0|0:0,0:0:0:0:
372,68,81020,1,4,0:0:0:0:
228,288,82048,6,0,P|160:268|204:128,1,239.999971389771,2|2,0:0|0:0,0:0:0:0:
336,40,83762,2,0,P|388:80|268:188,1,279.999966621399,4|0,0:0|0:0,0:0:0:0:
132,92,85648,2,0,L|140:176,1,79.999990463257,0|0,1:0|0:0,0:0:0:0:
92,296,86505,6,0,P|160:280|248:312,1,159.999980926514,4|0,0:0|0:0,0:0:0:0:
316,260,87534,2,0,P|296:174|392:124,1,199.999976158142
488,200,88905,2,0,L|412:236,1,79.999990463257,0|8,0:0|0:0,0:0:0:0:
336,268,89591,5,0,0:0:0:0:
180,184,90277,2,0,P|94:202|60:188,1,119.999985694885,0|0,1:0|0:0,0:0:0:0:
40,108,91134,2,0,L|92:100,1,39.9999952316285,0|4,1:0|0:0,0:0:0:0:
248,72,91990,6,0,P|340:56|400:144,1,199.999976158142,0|0,1:0|0:0,0:0:0:0:
452,204,93190,2,0,L|440:292,1,79.999990463257
308,296,94047,2,0,P|224:344|152:280,1,199.999976158142
88,228,95247,2,0,L|96:140,1,79.999990463257,0|0,0:0|1:0,0:0:0:0:
164,92,95933,2,0,P|248:44|320:108,1,199.999976158142
164,188,97476,5,0,1:0:0:0:
252,176,97819,2,0,P|320:208|376:188,2,119.999985694885,0|0|0,0:0|1:0|1:0,0:0:0:0:
144,36,99533,1,4,0:0:0:0:
68,196,100219,6,0,P|108:232|84:292,1,119.999985694885
172,320,101076,2,0,P|264:328|324:232,1,199.999976158142,0|8,0:0|0:3,0:0:0:0:
304,164,102276,6,0,L|396:132,1,79.999990463257,4|0,0:0|1:0,0:0:0:0:
464,108,102962,1,0,0:0:0:0:
296,56,103647,2,0,P|220:96|148:60,1,159.999980926514,2|2,0:0|0:0,0:0:0:0:
72,224,105019,6,0,L|140:284,1,79.999990463257,0|0,0:0|1:0,0:0:0:0:
200,332,105705,1,0,0:0:0:0:
368,284,106390,2,0,P|340:216|380:128,1,159.999980926514,2|2,0:0|0:0,0:0:0:0:
212,60,107762,6,0,L|124:84,1,79.999990463257,0|0,0:0|1:0,0:0:0:0:
48,100,108447,1,0,0:0:0:0:
60,276,109133,2,0,P|128:232|192:268,1,159.999980926514,2|2,0:0|0:0,0:0:0:0:
360,312,110505,6,0,P|304:280|360:168,1,199.999976158142,4|0,0:0|0:0,0:0:0:0:
428,168,111705,2,0,B|448:112|448:112|416:48,1,119.999985694885,0|0,0:0|1:0,0:0:0:0:
248,80,112905,2,0,L|168:104,1,79.999990463257,0|4,1:0|0:0,0:0:0:0:
84,124,113590,5,0,1:0:0:0:
48,296,114276,2,0,P|84:276|136:272,1,79.999990463257,0|0,1:0|0:0,0:0:0:0:
204,308,114962,2,0,P|248:308|296:288,1,79.999990463257,0|0,1:0|0:0,0:0:0:0:
316,216,115647,1,0,1:0:0:0:
228,216,115990,5,4,0:0:0:0:
72,136,116676,2,0,P|112:88|172:96,1,119.999985694885
248,124,117533,1,0,0:0:0:0:
328,88,117876,2,0,P|380:84|420:132,1,119.999985694885,0|0,0:0|1:0,0:0:0:0:
460,212,118733,6,0,L|448:308,1,79.999990463257,0|0,0:0|1:0,0:0:0:0:
276,268,119762,1,0,1:0:0:0:
112,328,120447,1,0,1:0:0:0:
60,256,120790,2,0,P|52:212|56:160,1,79.999990463257,0|0,0:0|1:0,0:0:0:0:
84,96,121476,5,4,0:0:0:0:
224,204,122162,1,0,1:0:0:0:
312,52,122847,2,0,P|384:96|396:176,2,159.999980926514,0|0|4,0:0|1:0|0:0,0:0:0:0:
148,120,124905,6,0,L|160:216,1,79.999990463257,0|0,1:0|0:0,0:0:0:0:
168,288,125590,2,0,P|216:312|348:200,1,239.999971389771
332,128,126962,1,0,0:0:0:0:
160,92,127647,6,0,P|116:108|84:140,1,79.999990463257,0|0,1:0|0:0,0:0:0:0:
48,208,128333,2,0,P|52:296|184:284,1,239.999971389771,0|0,0:0|1:0,0:0:0:0:
224,220,129705,6,0,L|392:216,1,159.999980926514,4|0,0:0|1:0,0:0:0:0:
448,52,131076,2,0,L|280:56,1,159.999980926514,0|0,0:0|1:0,0:0:0:0:
204,84,132105,1,0,1:0:0:0:
152,156,132447,2,0,P|128:224|180:296,1,159.999980926514,0|0,0:0|1:0,0:0:0:0:
340,352,133819,2,0,P|364:284|312:212,1,159.999980926514,0|0,0:0|1:0,0:0:0:0:
236,184,134847,1,0,1:0:0:0:
256,96,135190,6,0,P|184:52|128:104,1,159.999980926514,4|0,0:0|1:0,0:0:0:0:
8,216,136562,2,0,P|80:260|136:208,1,159.999980926514,0|0,0:0|1:0,0:0:0:0:
196,280,137590,1,0,1:0:0:0:
256,344,137933,6,0,P|308:304|380:348,1,159.999980926514,0|0,0:0|1:0,0:0:0:0:
452,296,138962,1,0,0:0:0:0:
452,208,139305,2,0,P|440:136|284:88,1,239.999971389771,0|0,0:0|1:0,0:0:0:0:
296,168,140676,6,0,L|216:188,1,79.999990463257,4|0,0:0|1:0,0:0:0:0:
108,116,141533,2,0,P|76:180|96:240,1,119.999985694885
128,300,142390,2,0,L|288:296,1,159.999980926514,0|0,1:0|1:0,0:0:0:0:
376,292,143419,5,0,0:0:0:0:
424,220,143762,1,0,1:0:0:0:
416,132,144105,1,0,1:0:0:0:
356,68,144447,2,0,L|276:56,1,79.999990463257,0|4,1:0|0:3,0:0:0:0:
172,136,145305,2,0,P|137:145|93:145,1,79.999990463257,4|8,0:3|0:2,0:0:0:0:
56,160,147533,6,0,P|116:84|232:156,1,239.999971389771,4|0,0:0|0:0,0:0:0:0:
144,172,148905,2,0,P|136:252|268:252,1,239.999971389771,4|0,0:0|0:0,0:0:0:0:
324,320,150276,6,0,B|360:264|408:268|408:268|432:116,1,239.999971389771,4|0,0:0|0:0,0:0:0:0:
368,68,151647,2,0,P|244:52|164:140,1,239.999971389771,4|0,0:0|0:0,0:0:0:0:
96,80,153019,6,0,P|88:168|148:216,1,159.999980926514,4|0,0:0|0:0,0:0:0:0:
300,280,154390,2,0,P|308:192|248:144,1,159.999980926514,4|2,0:0|0:0,0:0:0:0:
100,72,155762,5,2,0:0:0:0:
184,48,156105,2,0,L|268:28,2,79.999990463257
164,132,157133,2,0,P|120:220|152:264,1,159.999980926514,4|8,0:0|0:0,0:0:0:0:
236,284,158162,1,8,0:3:0:0:
312,244,158505,5,4,0:0:0:0:
432,116,159190,1,0,1:0:0:0:
260,80,159876,2,0,P|220:132|132:104,1,159.999980926514,0|0,0:0|1:0,0:0:0:0:
100,284,161247,1,0,0:0:0:0:
268,236,161933,1,0,1:0:0:0:
292,60,162619,6,0,P|416:124|416:300,1,319.999961853028,0|4,0:0|0:0,0:0:0:0:
248,284,164676,2,0,L|156:304,1,79.999990463257,0|0,1:0|0:0,0:0:0:0:
84,312,165362,2,0,P|8:240|76:136,1,239.999971389771,0|8,1:0|0:0,0:0:0:0:
152,156,166733,6,0,P|230:140|248:92,2,119.999985694885,4|0|0,0:0|0:0|1:0,0:0:0:0:
88,216,168105,2,0,P|84:292|132:316,1,119.999985694885,0|2,0:0|0:0,0:0:0:0:
200,296,168962,2,0,L|328:312,1,119.999985694885,2|0,0:0|1:0,0:0:0:0:
436,248,169990,6,0,P|456:196|420:132,1,119.999985694885,0|0,0:0|1:0,0:0:0:0:
376,72,170847,2,0,L|248:64,1,119.999985694885,0|0,0:0|0:0,0:0:0:0:
128,92,171876,1,0,1:0:0:0:
80,164,172219,6,0,P|60:228|128:304,1,159.999980926514,4|0,0:0|0:0,0:0:0:0:
188,256,173247,1,0,1:0:0:0:
272,280,173590,2,0,P|350:286|436:272,1,159.999980926514,0|0,0:0|0:0,0:0:0:0:
460,192,174619,1,0,1:0:0:0:
424,112,174962,6,0,P|352:72|280:192,1,239.999971389771,4|0,0:0|1:0,0:0:0:0:
188,184,176333,2,0,L|96:220,1,79.999990463257,0|0,1:0|1:0,0:0:0:0:
144,296,177019,2,0,L|236:260,1,79.999990463257,0|4,1:0|1:3,0:0:0:0:
296,220,177705,6,0,P|316:136|448:172,1,239.999971389771,4|2,0:0|0:0,0:0:0:0:
456,244,179076,2,0,L|424:332,1,79.999990463257,0|2,0:0|1:2,0:0:0:0:
344,344,179762,2,0,L|256:352,1,79.999990463257,0|2,0:0|1:2,0:0:0:0:
196,296,180447,6,0,P|124:280|136:132,1,239.999971389771,4|2,0:0|0:0,0:0:0:0:
148,52,181819,2,0,L|236:56,1,79.999990463257,0|2,0:0|1:2,0:0:0:0:
300,104,182505,2,0,L|388:100,1,79.999990463257,0|2,0:0|1:2,0:0:0:0:
468,104,183190,6,0,P|500:200|480:272,1,159.999980926514,4|4,0:0|1:0,0:0:0:0:
408,296,184219,2,0,L|316:316,1,79.999990463257,0|4,1:0|0:0,0:0:0:0:
132,288,185590,6,0,P|168:284|196:292,1,59.9999951362609,2|4,0:0|0:0,0:0:0:0:
