osu file format v14

[General]
AudioFilename: audio.mp3
AudioLeadIn: 0
PreviewTime: 166653
Countdown: 0
SampleSet: Soft
StackLeniency: 0.5
Mode: 0
LetterboxInBreaks: 0
WidescreenStoryboard: 1

[Editor]
DistanceSpacing: 1
BeatDivisor: 2
GridSize: 16
TimelineZoom: 1.7

[Metadata]
Title:39
TitleUnicode:39
Artist:sasakure.UK x DECO*27
ArtistUnicode:sasakure.UK x DECO*27
Creator:Finshie
Version:Normal
Source:初音ミク Project DIVA Arcade
Tags:hatsune miku sankyuu vocaloid Akitoshi Lince Chekito RVMathew
BeatmapID:1418362
BeatmapSetID:667433

[Difficulty]
HPDrainRate:4
CircleSize:3.5
OverallDifficulty:4
ApproachRate:5
SliderMultiplier:1
SliderTickRate:1

[Events]
//Background and Video events
0,0,"bggggggasd_waifu2x_art_noise3_scale_tta_1.jpg",0,0
Video,0,"finishe+39+23.avi"
//Break Periods
2,81223,87934
//Storyboard Layer 0 (Background)
//Storyboard Layer 1 (Fail)
//Storyboard Layer 2 (Pass)
//Storyboard Layer 3 (Foreground)
//Storyboard Sound Samples

[TimingPoints]
457,342.857142857143,10,2,1,45,1,0
7313,342.857142857143,10,2,1,50,1,0
10741,342.857142857143,12,2,1,50,1,0
14855,342.857142857143,4,2,1,40,1,0
23083,342.857142857143,6,2,1,50,1,0
25140,342.857142857143,4,2,1,40,1,0
33368,342.857142857143,7,2,1,50,1,0
35768,342.857142857143,4,2,1,40,1,0
46568,-100,4,2,1,60,0,1
64568,-100,4,2,1,50,0,1
65939,342.857142857143,10,2,1,50,1,0
69367,342.857142857143,12,2,1,50,1,0
73481,342.857142857143,10,2,1,50,1,0
76909,342.857142857143,12,2,1,50,1,0
81023,342.857142857143,4,2,1,40,1,0
89254,342.857142857143,6,2,1,50,1,0
91311,342.857142857143,4,2,1,40,1,0
100225,-100,4,2,1,30,0,0
102282,-100,4,2,1,40,0,0
147539,342.857142857143,4,2,1,40,1,0
165368,-100,4,2,1,50,0,0
166739,342.857142857143,4,2,1,60,1,1
184567,-100,4,2,1,50,0,0
185939,342.857142857143,10,2,1,50,1,0
189367,342.857142857143,12,2,1,50,1,0
193481,342.857142857143,10,2,1,50,1,0
196909,342.857142857143,12,2,1,50,1,0
201023,342.857142857143,10,2,1,50,1,0
204451,342.857142857143,12,2,1,50,1,0
208566,342.857142857143,10,2,1,50,1,0
211994,342.857142857143,12,2,1,50,1,0

[Colours]
Combo1 : 139,103,121
Combo2 : 111,133,88
Combo3 : 204,187,85
Combo4 : 187,51,68

[HitObjects]
94,316,457,6,0,P|83:236|24:175,1,150,0|0,0:0|0:0,0:0:0:0:
6,38,1485,2,0,P|79:68|162:48,1,150,0|0,0:0|0:0,0:0:0:0:
290,101,2514,2,0,P|226:149|202:231,1,150,0|0,0:0|0:0,0:0:0:0:
144,294,3371,2,0,L|80:285,2,50,0|0|0,0:0|0:0|0:0,0:0:0:0:
180,328,3885,6,0,L|346:323,1,150,0|0,0:0|0:0,0:0:0:0:
427,210,4914,2,0,L|277:213,1,150,0|0,0:0|0:0,0:0:0:0:
175,105,5942,2,0,L|341:100,1,150,0|0,0:0|0:0,0:0:0:0:
422,120,6799,2,0,P|426:79|420:54,2,50,0|0|0,0:0|0:0|0:0,0:0:0:0:
390,159,7314,6,0,P|380:240|394:289,1,100,6|2,0:0|0:0,0:0:0:0:
394,305,7827,1,0,0:0:0:0:
417,348,7998,2,0,P|366:334|298:344,1,100,8|0,0:0|0:0,0:0:0:0:
273,357,8513,1,0,0:0:0:0:
178,382,8855,2,0,L|156:255,1,100,8|0,0:0|0:0,0:0:0:0:
148,234,9370,2,0,P|212:246|323:233,1,150,8|0,0:0|0:0,0:0:0:0:
394,257,10227,2,0,P|399:281|396:306,2,50,8|8|2,0:0|0:3|0:0,0:0:0:0:
376,209,10741,6,0,P|366:129|385:73,1,100,6|2,0:0|0:0,0:0:0:0:
384,64,11255,1,0,0:0:0:0:
397,16,11426,2,0,P|355:29|271:23,1,100,8|0,0:0|0:0,0:0:0:0:
260,56,11941,2,0,P|214:47|160:50,1,100,0|8,0:0|0:0,0:0:0:0:
112,61,12455,1,0,0:0:0:0:
106,160,12798,2,0,B|98:260|98:260|176:288,1,150,8|0,0:0|0:0,0:0:0:0:
239,255,13655,2,0,P|241:279|234:322,2,50,8|8|2,0:0|0:0|0:0,0:0:0:0:
243,205,14169,2,0,L|295:201,1,50,8|6,0:0|0:0,0:0:0:0:
406,102,14855,6,0,P|396:177|415:218,1,100,6|2,0:0|0:0,0:0:0:0:
505,207,15540,2,0,P|514:255|502:303,1,100,2|2,0:0|0:0,0:0:0:0:
427,370,16226,2,0,L|317:364,1,100,2|2,0:0|0:0,0:0:0:0:
293,269,16912,2,0,L|193:274,1,100,2|2,0:0|0:0,0:0:0:0:
98,305,17597,6,0,P|93:280|111:204,1,100,2|2,0:0|0:0,0:0:0:0:
175,132,18283,1,2,0:0:0:0:
96,69,18626,1,2,0:0:0:0:
170,2,18969,2,0,L|281:9,1,100,2|2,0:0|0:0,0:0:0:0:
306,101,19655,2,0,L|405:94,1,100,2|2,0:0|0:0,0:0:0:0:
480,28,20340,6,0,P|454:118|476:192,1,150,2|0,0:0|0:0,0:0:0:0:
489,215,21026,1,2,0:0:0:0:
434,299,21369,1,2,0:0:0:0:
379,383,21712,2,0,L|271:374,1,100,2|2,0:0|0:0,0:0:0:0:
247,279,22397,2,0,L|147:287,1,100,2|2,0:0|0:0,0:0:0:0:
71,221,23083,6,0,P|60:141|76:87,1,100,6|8,0:0|0:0,0:0:0:0:
80,75,23597,1,6,0:0:0:0:
170,26,23940,1,8,0:0:0:0:
170,26,24111,2,0,P|254:10|334:27,1,150,4|6,0:0|0:0,0:0:0:0:
412,51,24968,1,8,0:0:0:0:
412,51,25140,6,0,L|406:165,1,100,6|2,0:0|0:0,0:0:0:0:
501,182,25825,2,0,L|506:281,1,100,2|2,0:0|0:0,0:0:0:0:
443,360,26511,2,0,P|385:372|345:359,1,100,2|2,0:0|0:0,0:0:0:0:
269,298,27197,2,0,P|221:285|173:299,1,100,2|2,0:0|0:0,0:0:0:0:
84,345,27882,6,0,L|80:234,1,100,2|2,0:0|0:0,0:0:0:0:
0,180,28568,1,2,0:0:0:0:
3,80,28910,1,2,0:0:0:0:
86,23,29254,2,0,P|140:19|197:33,1,100,2|2,0:0|0:0,0:0:0:0:
243,109,29940,2,0,P|292:113|341:103,1,100,2|2,0:0|0:0,0:0:0:0:
405,26,30625,6,0,L|394:197,1,150,2|0,0:0|0:0,0:0:0:0:
390,225,31311,1,2,0:0:0:0:
452,302,31654,1,2,0:0:0:0:
379,370,31997,2,0,P|316:375|269:366,1,100,2|2,0:0|0:0,0:0:0:0:
214,293,32682,2,0,P|164:286|114:292,1,100,2|2,0:0|0:0,0:0:0:0:
24,334,33368,6,0,P|33:285|25:222,1,100,6|8,0:0|0:0,0:0:0:0:
4,191,33882,2,0,P|0:141|8:92,1,100,6|8,0:0|0:0,0:0:0:0:
43,56,34396,2,0,L|158:64,1,100,6|0,0:0|0:0,0:0:0:0:
184,91,34910,1,2,0:0:0:0:
225,119,35082,2,0,L|340:111,1,100,8|8,0:0|0:0,0:0:0:0:
403,49,35768,6,0,P|376:127|393:195,1,150,6|0,0:0|0:0,0:0:0:0:
352,222,36453,2,0,P|379:300|362:368,1,150,8|0,0:0|0:0,0:0:0:0:
314,366,37139,2,0,L|134:357,1,150,2|0,0:0|0:0,0:0:0:0:
114,359,37825,1,8,0:0:0:0:
61,270,38168,1,0,0:0:0:0:
10,183,38510,6,0,L|199:191,1,150,2|0,0:0|0:0,0:0:0:0:
209,194,39196,1,8,0:0:0:0:
301,150,39539,1,0,0:0:0:0:
394,113,39882,2,0,P|414:197|392:270,1,150,2|0,0:0|0:0,0:0:0:0:
372,299,40568,1,8,0:0:0:0:
272,323,40910,1,8,0:0:0:0:
182,278,41253,6,0,P|173:203|187:164,1,100,4|0,0:0|0:0,0:0:0:0:
224,157,41768,1,0,0:0:0:0:
267,132,41939,2,0,P|275:83|264:34,1,100,8|0,0:0|0:0,0:0:0:0:
168,13,42625,2,0,L|52:8,1,100,2|0,0:0|0:0,0:0:0:0:
21,96,43310,1,8,0:0:0:0:
121,101,43653,1,8,0:0:0:0:
179,180,43996,6,0,L|328:187,1,150,6|0,0:0|0:0,0:0:0:0:
378,191,44682,1,0,0:0:0:0:
443,266,45025,1,8,0:0:0:0:
387,349,45368,1,8,0:0:0:0:
387,349,45539,2,0,L|275:343,1,100,8|8,0:0|0:0,0:0:0:0:
193,379,46225,1,8,0:0:0:0:
101,339,46568,6,0,P|91:269|104:223,1,100,4|2,0:0|0:0,0:0:0:0:
113,193,47082,1,8,0:0:0:0:
137,149,47253,2,0,L|246:144,1,100,0|2,0:0|0:0,0:0:0:0:
287,141,47768,1,8,0:0:0:0:
362,75,48110,2,0,P|414:66|470:79,1,100,0|8,0:0|0:0,0:0:0:0:
495,110,48625,2,0,P|504:162|491:218,1,100,0|2,0:0|0:0,0:0:0:0:
476,254,49139,1,8,0:0:0:0:
429,342,49482,6,0,L|500:345,2,50,2|0|8,0:0|0:0|0:0,0:0:0:0:
387,313,49996,2,0,L|266:318,1,100,0|2,0:0|0:0,0:0:0:0:
237,325,50510,1,8,0:0:0:0:
148,371,50853,2,0,P|144:288|164:247,1,100,2|8,0:0|0:0,0:0:0:0:
173,229,51368,2,0,P|81:229|35:202,2,100,0|2|0,0:0|0:0|0:0,0:0:0:0:
214,200,52225,6,0,P|224:151|216:102,1,100,6|8,0:0|0:0,0:0:0:0:
194,56,52739,2,0,P|286:56|332:29,1,100,0|0,0:0|0:0,0:0:0:0:
339,38,53253,1,8,0:0:0:0:
436,13,53596,2,0,L|423:135,1,100,6|8,0:0|0:0,0:0:0:0:
331,144,54282,2,0,L|344:266,1,100,6|8,0:0|0:0,0:0:0:0:
315,340,54968,6,0,P|379:338|412:318,2,100,6|8|0,0:0|0:0|0:0,0:0:0:0:
245,267,55996,1,8,0:0:0:0:
245,267,56168,2,0,P|200:245|150:247,1,100,6|2,0:0|0:0,0:0:0:0:
104,267,56682,1,8,0:0:0:0:
62,294,56853,2,0,L|64:172,1,100,6|2,0:0|0:0,0:0:0:0:
32,154,57368,1,8,0:0:0:0:
67,60,57710,6,0,P|117:49|195:77,1,100,6|8,0:0|0:0,0:0:0:0:
250,110,58396,2,0,P|298:119|347:108,1,100,0|8,0:0|0:0,0:0:0:0:
395,93,58910,1,0,0:0:0:0:
439,69,59083,2,0,L|430:168,1,100,6|8,0:0|0:0,0:0:0:0:
342,217,59768,2,0,L|330:350,1,100,0|8,0:0|0:0,0:0:0:0:
237,348,60453,6,0,P|147:352|105:335,1,100,4|8,0:0|0:0,0:0:0:0:
92,329,60968,1,0,0:0:0:0:
55,294,61139,2,0,P|51:204|68:162,1,100,0|8,0:0|0:0,0:0:0:0:
77,151,61653,1,0,0:0:0:0:
112,115,61825,2,0,L|217:108,1,100,2|8,0:0|0:0,0:0:0:0:
248,15,62510,2,0,L|347:21,1,100,0|8,0:0|0:0,0:0:0:0:
447,30,63196,6,0,P|426:90|431:135,1,100,4|8,0:0|0:0,0:0:0:0:
448,171,63710,1,0,0:0:0:0:
484,205,63882,2,0,P|503:250|502:300,1,100,0|8,0:0|0:0,0:0:0:0:
483,346,64396,1,0,0:0:0:0:
438,370,64568,2,0,L|313:368,1,100,8|0,0:0|0:0,0:0:0:0:
268,296,65253,2,0,L|143:294,1,100,0|0,0:0|0:0,0:0:0:0:
73,260,65939,6,0,P|58:183|75:123,1,100,6|2,0:0|0:0,0:0:0:0:
71,113,66453,1,0,0:0:0:0:
93,68,66624,2,0,L|210:68,1,100,8|0,0:0|0:0,0:0:0:0:
243,70,67139,1,0,0:0:0:0:
331,24,67481,2,0,L|448:24,1,100,8|0,0:0|0:0,0:0:0:0:
481,26,67996,2,0,P|445:107|456:203,1,150,8|0,0:0|0:0,0:0:0:0:
439,266,68853,2,0,L|500:258,2,50,8|8|2,0:0|0:3|0:0,0:0:0:0:
429,315,69367,6,0,L|307:309,1,100,6|2,0:0|0:0,0:0:0:0:
282,291,69881,1,0,0:0:0:0:
238,266,70052,2,0,L|116:260,1,100,8|2,0:0|0:0,0:0:0:0:
87,259,70567,1,0,0:0:0:0:
1,207,70909,2,0,P|-4:137|6:95,1,100,8|0,0:0|0:0,0:0:0:0:
29,67,71424,2,0,L|153:64,1,100,8|0,0:0|0:0,0:0:0:0:
154,21,71938,2,0,L|253:23,1,100,8|8,0:0|0:0,0:0:0:0:
304,24,72452,1,0,0:0:0:0:
392,70,72795,1,8,0:0:0:0:
392,70,72967,2,0,P|402:16|398:0,2,50,0|0|0,0:0|0:0|0:0,0:0:0:0:
373,116,73481,6,0,P|372:165|385:214,1,100,6|2,0:0|0:0,0:0:0:0:
399,262,73995,1,0,0:0:0:0:
421,306,74166,2,0,P|368:303|300:319,1,100,8|0,0:0|0:0,0:0:0:0:
273,325,74681,1,0,0:0:0:0:
176,349,75023,2,0,L|159:235,1,100,8|0,0:0|0:0,0:0:0:0:
149,201,75538,2,0,P|222:188|283:200,1,100,8|0,0:0|0:0,0:0:0:0:
295,202,76052,1,8,0:0:0:0:
384,247,76395,2,0,L|381:313,2,50,8|0|0,0:0|0:0|0:0,0:0:0:0:
428,224,76909,6,0,L|439:105,1,100,6|2,0:0|0:0,0:0:0:0:
439,74,77423,1,0,0:0:0:0:
449,25,77594,2,0,P|371:47|312:30,1,100,8|0,0:0|0:0,0:0:0:0:
311,72,78109,2,0,P|233:50|174:67,1,100,0|8,0:0|0:0,0:0:0:0:
167,64,78623,1,0,0:0:0:0:
72,97,78966,2,0,B|62:197|62:197|109:258,1,150,8|8,0:0|0:0,0:0:0:0:
125,273,79651,1,0,0:0:0:0:
195,344,79994,2,0,L|315:338,1,100,8|8,0:0|0:0,0:0:0:0:
342,320,80509,1,8,0:3:0:0:
389,301,80680,2,0,L|479:305,1,50,8|8,0:3|0:3,0:0:0:0:
489,309,81023,5,14,0:0:0:0:
7,324,89254,6,0,P|80:333|124:325,1,100,6|8,0:0|0:0,0:0:0:0:
152,312,89768,1,6,0:0:0:0:
237,260,90111,1,8,0:0:0:0:
237,260,90282,2,0,P|286:256|335:265,1,100,6|8,0:0|0:0,0:0:0:0:
382,284,90796,2,0,P|382:187|397:156,1,100,6|8,0:0|0:0,0:0:0:0:
397,137,91311,6,0,L|500:127,1,100,6|0,0:0|0:0,0:0:0:0:
458,34,91996,1,8,0:0:0:0:
358,42,92338,1,2,0:0:0:0:
309,130,92682,2,0,L|209:120,1,100,0|0,0:0|0:0,0:0:0:0:
134,53,93368,1,8,0:0:0:0:
46,102,93711,1,0,0:0:0:0:
121,169,94053,6,0,P|130:229|115:279,1,100,2|0,0:0|0:0,0:0:0:0:
68,353,94739,1,8,0:0:0:0:
167,367,95082,1,2,0:0:0:0:
266,378,95425,2,0,P|341:377|396:361,1,100,0|0,0:0|0:0,0:0:0:0:
443,309,96111,2,0,P|442:234|426:179,1,100,8|0,0:0|0:0,0:0:0:0:
398,117,96796,6,0,L|224:109,1,150,6|2,0:0|0:0,0:0:0:0:
198,108,97482,1,8,0:0:0:0:
108,62,97825,1,2,0:0:0:0:
18,108,98168,1,0,0:0:0:0:
18,108,98339,2,0,L|15:238,1,100,8|2,0:0|0:0,0:0:0:0:
14,258,98853,1,8,0:0:0:0:
104,304,99196,1,0,0:0:0:0:
194,258,99539,5,6,0:0:0:0:
194,258,100225,2,0,P|282:238|319:254,1,100,0|0,0:0|0:0,0:0:0:0:
327,271,100739,2,0,P|372:291|421:289,1,100,0|0,0:0|0:0,0:0:0:0:
495,225,101425,2,0,L|491:86,1,100,0|0,0:0|0:0,0:0:0:0:
452,93,101939,2,0,L|450:43,1,50,0|0,0:0|0:0,0:0:0:0:
409,14,102282,6,0,P|305:16|283:24,1,100,6|8,0:0|0:0,0:0:0:0:
273,49,102796,1,0,0:0:0:0:
226,70,102968,2,0,P|176:76|127:70,1,100,0|8,0:0|0:0,0:0:0:0:
39,21,103653,2,0,L|55:161,1,100,0|8,0:0|0:0,0:0:0:0:
86,156,104168,1,0,0:0:0:0:
78,205,104339,2,0,L|62:345,1,100,0|8,0:0|0:0,0:0:0:0:
133,378,105025,6,0,P|209:384|241:373,1,100,2|8,0:0|0:0,0:0:0:0:
262,338,105539,1,0,0:0:0:0:
291,297,105711,2,0,P|339:287|388:296,1,100,0|8,0:0|0:0,0:0:0:0:
474,347,106396,2,0,L|471:234,1,100,0|8,0:0|0:0,0:0:0:0:
492,201,106911,1,0,0:0:0:0:
509,154,107082,2,0,L|506:41,1,100,0|8,0:0|0:0,0:0:0:0:
414,12,107768,6,0,P|340:33|280:27,1,100,2|8,0:0|0:0,0:0:0:0:
304,81,108282,1,0,0:0:0:0:
284,126,108453,2,0,P|209:107|160:71,1,100,0|8,0:0|0:0,0:0:0:0:
102,42,109139,2,0,L|104:172,1,100,0|8,0:0|0:0,0:0:0:0:
147,166,109653,1,0,0:0:0:0:
189,193,109825,2,0,L|191:323,1,100,0|8,0:0|0:0,0:0:0:0:
135,376,110511,6,0,P|72:383|29:369,1,100,6|8,0:0|0:0,0:0:0:0:
4,334,111025,2,0,P|-4:271|10:228,1,100,0|0,0:0|0:0,0:0:0:0:
26,189,111539,1,8,0:0:0:0:
77,104,111882,2,0,L|216:99,1,100,2|8,0:0|0:0,0:0:0:0:
216,69,112396,2,0,L|315:72,1,100,0|0,0:0|0:0,0:0:0:0:
366,75,112911,1,8,0:0:0:0:
460,108,113253,6,0,P|463:167|457:212,1,100,4|8,0:0|0:0,0:0:0:0:
358,219,113939,2,0,P|355:278|361:323,1,100,0|8,0:0|0:0,0:0:0:0:
380,364,114453,2,0,L|242:356,1,100,0|0,0:0|0:0,0:0:0:0:
239,328,114968,1,8,0:0:0:0:
189,333,115139,2,0,L|89:338,1,100,0|0,0:0|0:0,0:0:0:0:
39,344,115653,1,8,0:0:0:0:
61,246,115996,6,0,P|63:181|45:139,1,100,0|8,0:0|0:0,0:0:0:0:
10,57,116682,2,0,P|82:68|132:57,1,100,0|8,0:0|0:0,0:0:0:0:
149,35,117196,2,0,P|197:24|247:27,1,100,0|0,0:0|0:0,0:0:0:0:
296,38,117711,1,8,0:0:0:0:
336,67,117882,2,0,L|332:183,1,100,0|0,0:0|0:0,0:0:0:0:
331,217,118396,1,8,0:0:0:0:
365,310,118739,6,0,P|453:312|477:303,1,100,4|8,0:0|0:0,0:0:0:0:
495,270,119253,2,0,P|497:182|488:158,1,100,0|0,0:0|0:0,0:0:0:0:
471,126,119768,1,8,0:0:0:0:
434,92,119939,2,0,L|295:101,1,100,0|0,0:0|0:0,0:0:0:0:
306,140,120453,1,8,0:0:0:0:
255,139,120625,2,0,L|155:132,1,100,0|0,0:0|0:0,0:0:0:0:
105,131,121139,1,8,0:0:0:0:
26,68,121482,6,0,P|71:183|50:242,1,150,6|0,0:0|0:0,0:0:0:0:
50,251,122168,1,8,0:0:0:0:
78,346,122511,1,0,0:0:0:0:
174,370,122853,2,0,P|252:382|349:358,1,150,6|0,0:0|0:0,0:0:0:0:
367,349,123539,1,8,0:0:0:0:
439,280,123882,1,8,0:0:0:0:
503,202,124225,6,0,L|492:24,1,150,4|0,0:0|0:0,0:0:0:0:
455,19,124911,2,0,L|277:30,1,150,8|0,0:0|0:0,0:0:0:0:
258,45,125596,1,2,0:0:0:0:
211,63,125768,2,0,P|206:129|216:170,1,100,8|2,0:0|0:0,0:0:0:0:
235,206,126282,2,0,P|240:272|230:313,1,100,8|0,0:0|0:0,0:0:0:0:
154,367,126968,5,6,0:0:0:0:
54,362,127310,1,0,0:0:0:0:
2,278,127653,2,0,P|-11:176|21:103,1,150,8|0,0:0|0:0,0:0:0:0:
40,99,128339,2,0,L|212:106,1,150,2|2,0:0|0:0,0:0:0:0:
239,110,129025,1,8,0:0:0:0:
329,66,129368,1,8,0:0:0:0:
419,22,129711,6,0,P|437:95|419:180,1,150,6|0,0:0|0:0,0:0:0:0:
467,191,130396,2,0,P|449:264|467:349,1,150,8|0,0:0|0:0,0:0:0:0:
485,380,131082,2,0,L|300:366,1,150,2|0,0:0|0:0,0:0:0:0:
286,365,131768,1,8,0:0:0:0:
210,299,132111,1,0,0:0:0:0:
121,345,132453,6,0,L|-1:341,1,100,2|0,0:0|0:0,0:0:0:0:
4,243,133139,2,0,L|103:245,1,100,8|0,0:0|0:0,0:0:0:0:
143,215,133653,1,0,0:0:0:0:
183,185,133825,2,0,L|332:189,1,150,2|0,0:0|0:0,0:0:0:0:
383,189,134511,1,8,0:0:0:0:
444,110,134853,1,8,0:0:0:0:
406,18,135196,6,0,P|325:13|297:24,1,100,6|0,0:0|0:0,0:0:0:0:
275,56,135711,1,2,0:0:0:0:
234,86,135882,2,0,P|185:95|136:86,1,100,8|0,0:0|0:0,0:0:0:0:
48,39,136568,1,6,0:0:0:0:
48,39,136739,2,0,L|49:149,1,100,8|0,0:0|0:0,0:0:0:0:
85,173,137253,2,0,L|84:283,1,100,8|0,0:0|0:0,0:0:0:0:
92,375,137939,6,0,P|170:377|212:359,1,100,2|0,0:0|0:0,0:0:0:0:
226,335,138453,1,2,0:0:0:0:
257,296,138625,2,0,P|305:285|354:291,1,100,8|0,0:0|0:0,0:0:0:0:
449,322,139311,2,0,L|444:198,1,100,2|0,0:0|0:0,0:0:0:0:
416,126,139996,1,8,0:0:0:0:
317,145,140339,1,8,0:0:0:0:
216,159,140682,6,0,P|208:104|225:43,1,100,6|8,0:0|0:0,0:0:0:0:
248,22,141196,2,0,L|125:19,1,100,0|2,0:0|0:0,0:0:0:0:
97,21,141711,1,8,0:0:0:0:
2,51,142053,2,0,P|-6:106|11:167,1,100,4|8,0:0|0:0,0:0:0:0:
44,177,142568,2,0,L|167:180,1,100,0|2,0:0|0:0,0:0:0:0:
195,178,143083,1,8,0:0:0:0:
268,111,143425,6,0,P|233:203|239:289,1,150,4|0,0:0|0:0,0:0:0:0:
255,298,144111,1,8,0:0:0:0:
314,377,144453,1,8,0:0:0:0:
214,380,144796,1,8,0:0:0:0:
214,380,144968,2,0,L|90:374,1,100,8|8,0:0|0:0,0:0:0:0:
14,370,145653,1,8,0:0:0:0:
434,121,147539,6,0,B|363:47|198:84|293:109|172:181|56:108,1,400,6|6,0:0|0:0,0:0:0:0:
59,111,150281,6,0,P|152:74|93:251,1,400,6|6,0:0|0:0,0:0:0:0:
119,259,153024,6,0,B|174:255|236:281|281:350|281:350|358:348|412:284|392:187,1,400,6|6,0:0|0:0,0:0:0:0:
349,25,155081,1,6,0:0:0:0:
349,25,155767,6,0,B|253:91|152:89|74:32|74:32|34:60|31:136,1,400,6|6,0:0|0:0,0:0:0:0:
39,331,157824,1,2,0:0:0:0:
39,331,158510,6,0,P|119:314|176:326,1,100,6|2,0:0|0:0,0:0:0:0:
232,344,159196,2,0,P|279:358|329:359,1,100,2|2,0:0|0:0,0:0:0:0:
424,332,159881,2,0,L|417:225,1,100,2|2,0:0|0:0,0:0:0:0:
501,176,160567,2,0,L|494:69,1,100,2|2,0:0|0:0,0:0:0:0:
404,31,161253,6,0,P|342:15|273:37,1,100,2|2,0:0|0:0,0:0:0:0:
235,90,161939,2,0,P|187:105|138:100,1,100,2|2,0:0|0:0,0:0:0:0:
43,68,162624,2,0,L|55:193,1,100,2|2,0:0|0:0,0:0:0:0:
147,200,163310,2,0,L|135:325,1,100,2|2,0:0|0:0,0:0:0:0:
64,368,163996,6,0,P|186:360|227:381,1,150,2|0,0:0|0:0,0:0:0:0:
256,381,164681,2,0,L|265:281,1,100,2|2,0:0|0:0,0:0:0:0:
349,226,165367,1,8,0:0:0:0:
448,230,165710,1,8,0:0:0:0:
508,150,166053,2,0,P|512:62|431:5,1,150,8|8,0:0|0:0,0:0:0:0:
423,17,166739,6,0,L|308:14,1,100,6|8,0:0|0:0,0:0:0:0:
287,49,167253,2,0,L|172:46,1,100,0|2,0:0|0:0,0:0:0:0:
136,48,167767,1,8,0:0:0:0:
38,68,168110,2,0,P|22:129|41:200,1,100,2|8,0:0|0:0,0:0:0:0:
74,179,168624,2,0,P|89:226|85:275,1,100,0|2,0:0|0:0,0:0:0:0:
68,323,169139,1,8,0:0:0:0:
154,372,169481,6,0,L|259:363,1,100,6|8,0:0|0:0,0:0:0:0:
292,330,169996,2,0,L|391:338,1,100,0|2,0:0|0:0,0:0:0:0:
441,339,170510,1,8,0:0:0:0:
508,264,170853,2,0,P|514:195|501:154,1,100,2|8,0:0|0:0,0:0:0:0:
472,128,171367,2,0,P|462:79|470:30,2,100,0|2|0,0:0|0:0|0:0,0:0:0:0:
422,123,172224,6,0,L|286:112,1,100,6|8,0:0|0:0,0:0:0:0:
291,74,172739,2,0,L|191:82,1,100,0|2,0:0|0:0,0:0:0:0:
149,54,173253,1,8,0:0:0:0:
56,91,173596,2,0,P|51:151|58:194,1,100,6|8,0:0|0:0,0:0:0:0:
157,192,174281,2,0,P|163:241|157:291,1,100,6|8,0:0|0:0,0:0:0:0:
110,379,174967,6,0,L|236:370,1,100,6|8,0:0|0:0,0:0:0:0:
243,334,175481,2,0,L|342:341,1,100,0|2,0:0|0:0,0:0:0:0:
386,315,175996,1,8,0:0:0:0:
425,284,176167,2,0,P|432:202|417:158,1,100,0|0,0:0|0:0,0:0:0:0:
398,144,176681,1,8,0:0:0:0:
300,165,177024,1,8,0:0:0:0:
230,92,177367,1,8,0:3:0:0:
264,0,177710,6,0,P|314:-4|367:5,1,100,12|8,0:0|0:0,0:0:0:0:
449,55,178396,2,0,P|453:105|444:158,1,100,8|8,0:0|0:0,0:0:0:0:
394,240,179081,2,0,P|344:244|291:235,1,100,8|8,0:0|0:0,0:0:0:0:
220,169,179767,1,8,0:0:0:0:
119,169,180110,1,8,0:0:0:0:
41,232,180453,6,0,P|34:291|44:352,1,100,8|8,0:0|0:0,0:0:0:0:
129,373,181139,2,0,P|188:380|249:370,1,100,8|8,0:0|0:0,0:0:0:0:
270,285,181824,2,0,P|277:226|267:165,1,100,8|8,0:0|0:0,0:0:0:0:
182,144,182510,2,0,P|123:137|62:147,1,100,8|8,0:0|0:0,0:0:0:0:
37,52,183196,5,12,0:0:0:0:
128,12,183539,1,8,0:0:0:0:
219,52,183881,1,8,0:0:0:0:
310,92,184224,1,8,0:0:0:0:
401,52,184567,2,0,P|411:97|391:163,1,100,8|0,0:0|0:0,0:0:0:0:
424,192,185081,2,0,P|414:240|425:288,1,100
451,331,185596,1,0,0:0:0:0:
356,364,185939,6,0,L|210:355,1,100,6|0,0:0|0:0,0:0:0:0:
221,321,186453,1,0,0:0:0:0:
185,285,186624,2,0,L|39:294,1,100,8|0,0:0|0:0,0:0:0:0:
34,295,187139,1,0,0:0:0:0:
1,200,187481,2,0,P|4:111|31:74,1,100,8|0,0:0|0:0,0:0:0:0:
49,73,187996,2,0,L|163:66,1,100,8|0,0:0|0:0,0:0:0:0:
198,63,188510,1,8,0:0:0:0:
297,66,188853,2,0,L|292:-1,2,50,8|8|2,0:0|0:3|0:0,0:0:0:0:
311,114,189367,6,0,P|367:126|425:117,1,100,6|0,0:0|0:0,0:0:0:0:
455,102,189881,1,0,0:0:0:0:
499,79,190052,2,0,P|511:135|502:193,1,100,8|0,0:0|0:0,0:0:0:0:
504,227,190567,1,0,0:0:0:0:
485,325,190909,2,0,L|359:321,1,100,8|0,0:0|0:0,0:0:0:0:
366,368,191424,2,0,L|246:364,1,100,8|0,0:0|0:0,0:0:0:0:
237,323,191938,2,0,L|117:319,1,100,8|8,0:0|0:0,0:0:0:0:
86,321,192452,1,0,0:0:0:0:
96,220,192795,1,8,0:0:0:0:
96,220,192967,2,0,L|28:218,2,50,0|0|8,0:0|0:0|0:0,0:0:0:0:
146,206,193481,6,0,P|158:132|144:72,1,100,6|2,0:0|0:0,0:0:0:0:
143,59,193995,1,0,0:0:0:0:
130,10,194166,2,0,P|177:22|237:21,1,100,8|0,0:0|0:0,0:0:0:0:
278,16,194681,1,0,0:0:0:0:
377,7,195023,2,0,L|366:114,1,100,8|0,0:0|0:0,0:0:0:0:
413,125,195538,2,0,L|424:232,1,100,8|0,0:0|0:0,0:0:0:0:
426,274,196052,1,8,0:0:0:0:
467,364,196395,2,0,P|489:353|509:334,2,50,8|8|2,0:0|0:3|0:0,0:0:0:0:
417,372,196909,6,0,P|367:381|317:369,1,100,4|0,0:0|0:0,0:0:0:0:
280,339,197423,1,0,0:0:0:0:
247,301,197594,2,0,P|193:293|146:300,1,100,8|0,0:0|0:0,0:0:0:0:
99,317,198109,2,0,L|97:208,1,100,0|8,0:0|0:0,0:0:0:0:
97,166,198623,1,0,0:0:0:0:
56,74,198966,2,0,L|160:80,1,100,8|0,0:0|0:0,0:0:0:0:
186,119,199480,2,0,L|285:112,1,100,8|8,0:0|0:0,0:0:0:0:
316,74,199994,2,0,L|415:80,1,100,0|8,0:0|0:0,0:0:0:0:
446,119,200509,1,8,0:3:0:0:
476,158,200680,2,0,P|479:212|474:233,1,50,8|8,0:3|0:3,0:0:0:0:
474,257,201023,5,14,0:0:0:0:
