osu file format v14

[General]
AudioFilename: audio.mp3
AudioLeadIn: 0
PreviewTime: 166653
Countdown: 0
SampleSet: Soft
StackLeniency: 0.5
Mode: 0
LetterboxInBreaks: 0
WidescreenStoryboard: 0

[Editor]
Bookmarks: 124225
DistanceSpacing: 1.2
BeatDivisor: 4
GridSize: 4
TimelineZoom: 1.7

[Metadata]
Title:39
TitleUnicode:39
Artist:sasakure.UK x DECO*27
ArtistUnicode:sasakure.UK x DECO*27
Creator:Finshie
Version:Insane
Source:初音ミク Project DIVA Arcade
Tags:hatsune miku sankyuu vocaloid Akitoshi Lince Chekito RVMathew
BeatmapID:1412248
BeatmapSetID:667433

[Difficulty]
HPDrainRate:6
CircleSize:4.5
OverallDifficulty:8.1
ApproachRate:9.1
SliderMultiplier:1.8
SliderTickRate:1

[Events]
//Background and Video events
0,0,"bggggggasd_waifu2x_art_noise3_scale_tta_1.jpg",0,0
Video,0,"finishe+39+23.avi"
//Break Periods
2,83965,88670
2,145853,146955
//Storyboard Layer 0 (Background)
//Storyboard Layer 1 (Fail)
//Storyboard Layer 2 (Pass)
//Storyboard Layer 3 (Foreground)
//Storyboard Sound Samples

[TimingPoints]
457,342.857142857143,10,2,1,35,1,0
457,-142.857142857143,10,2,1,35,0,0
7313,342.857142857143,10,2,1,50,1,0
7313,-111.111111111111,10,2,1,50,0,0
10741,342.857142857143,12,2,1,50,1,0
10741,-111.111111111111,12,2,1,50,0,0
14855,342.857142857143,4,2,1,40,1,0
14855,-125,4,2,1,40,0,0
23083,342.857142857143,6,2,1,50,1,0
23083,-111.111111111111,6,2,1,50,0,0
23340,-111.111111111111,6,2,1,5,0,0
23425,-111.111111111111,6,2,1,50,0,0
23854,-111.111111111111,6,2,1,5,0,0
23940,-111.111111111111,6,2,1,50,0,0
24883,-111.111111111111,6,2,1,5,0,0
24968,-111.111111111111,6,2,1,50,0,0
25140,342.857142857143,4,2,1,50,1,0
25140,-125,4,2,1,50,0,0
33368,342.857142857143,7,2,1,50,1,0
33368,-111.111111111111,7,2,1,50,0,0
33625,-111.111111111111,7,2,1,5,0,0
33710,-111.111111111111,7,2,1,50,0,0
34139,-111.111111111111,7,2,1,5,0,0
34225,-111.111111111111,7,2,1,50,0,0
35768,342.857142857143,4,2,1,40,1,0
35768,-142.857142857143,4,2,1,40,0,0
45539,-71.4285714285714,4,2,1,50,0,0
45796,-71.4285714285714,4,2,1,5,0,0
45882,-71.4285714285714,4,2,1,50,0,0
46139,-71.4285714285714,4,2,1,5,0,0
46225,-71.4285714285714,4,2,1,50,0,0
46482,-71.4285714285714,4,2,1,5,0,0
46568,-100,4,2,1,60,0,1
56425,-100,4,2,1,5,0,1
56510,-100,4,2,1,60,0,1
57110,-100,4,2,1,5,0,1
57196,-100,4,2,1,60,0,1
57368,-57.1428571428571,4,2,1,60,0,1
57625,-57.1428571428571,4,2,1,5,0,1
57710,-66.6666666666667,4,2,1,60,0,1
57968,-66.6666666666667,4,2,1,5,0,1
58053,-100,4,2,1,60,0,1
64568,-142.857142857143,4,2,1,50,0,1
65939,342.857142857143,10,2,1,50,1,0
65939,-111.111111111111,10,2,1,50,0,0
69367,342.857142857143,12,2,1,50,1,0
69367,-111.111111111111,12,2,1,50,0,0
73481,342.857142857143,10,2,1,50,1,0
73481,-111.111111111111,10,2,1,50,0,0
76909,342.857142857143,12,2,1,50,1,0
76909,-111.111111111111,12,2,1,50,0,0
81023,342.857142857143,4,2,1,40,1,0
89254,342.857142857143,6,2,1,60,1,0
89254,-111.111111111111,6,2,1,60,0,0
91311,342.857142857143,4,2,1,40,1,0
91311,-125,4,2,1,40,0,0
100225,-125,4,2,1,30,0,0
102282,-125,4,2,1,40,0,0
121482,-142.857142857143,4,2,1,40,0,0
143253,-142.857142857143,4,2,1,40,0,0
144968,-71.4285714285714,4,2,1,50,0,0
145225,-71.4285714285714,4,2,1,5,0,0
145311,-71.4285714285714,4,2,1,50,0,0
145568,-71.4285714285714,4,2,1,5,0,0
145653,-71.4285714285714,4,2,1,50,0,0
147539,342.857142857143,4,2,1,40,1,0
147539,-125,4,2,1,40,0,0
158510,-111.111111111111,4,2,1,40,0,0
165368,-100,4,2,1,50,0,0
166739,342.857142857143,4,2,1,60,1,1
166739,-90.9090909090909,4,2,1,60,0,1
184567,-142.857142857143,4,2,1,50,0,0
185939,342.857142857143,10,2,1,50,1,0
185939,-111.111111111111,10,2,1,50,0,0
189367,342.857142857143,12,2,1,50,1,0
189367,-111.111111111111,12,2,1,50,0,0
193481,342.857142857143,10,2,1,50,1,0
193481,-111.111111111111,10,2,1,50,0,0
196909,342.857142857143,12,2,1,50,1,0
196909,-111.111111111111,12,2,1,50,0,0
201023,342.857142857143,10,2,1,50,1,0
204451,342.857142857143,12,2,1,50,1,0
208566,342.857142857143,10,2,1,50,1,0
211994,342.857142857143,12,2,1,50,1,0

[Colours]
Combo1 : 139,103,121
Combo2 : 111,133,88
Combo3 : 204,187,85
Combo4 : 187,51,68

[HitObjects]
62,279,457,6,0,P|125:226|172:218,1,125.999996154785
241,212,971,1,0,0:0:0:0:
52,179,1485,2,0,P|133:165|178:182,1,125.999996154785
241,212,1999,1,0,0:0:0:0:
93,88,2514,2,0,P|170:116|200:153,1,125.999996154785
241,212,3028,1,0,0:0:0:0:
241,212,3371,1,0,0:0:0:0:
310,182,3542,1,0,0:0:0:0:
384,195,3714,1,0,0:0:0:0:
461,294,3885,6,0,P|448:217|464:154,1,125.999996154785
489,102,4399,1,0,0:0:0:0:
369,255,4914,2,0,P|396:181|441:135,1,125.999996154785
489,102,5428,1,0,0:0:0:0:
309,175,5942,2,0,P|369:125|431:107,1,125.999996154785
489,102,6456,1,0,0:0:0:0:
489,102,6799,1,0,0:0:0:0:
413,110,6971,1,0,0:0:0:0:
352,65,7142,1,0,0:0:0:0:
207,17,7313,6,0,B|240:112|240:112|222:171,1,161.999995056153,6|2,0:0|0:0,0:0:0:0:
140,116,7827,1,0,0:0:0:0:
188,271,7998,2,0,P|242:276|284:260,1,80.9999975280763,8|0,0:0|0:0,0:0:0:0:
425,364,8341,2,0,P|350:346|266:364,1,161.999995056153
355,250,8855,1,8,0:0:0:0:
355,250,9027,2,0,P|358:182|341:135,1,80.9999975280763
237,58,9370,6,0,B|283:85|283:85|404:75,1,161.999995056153,8|0,0:0|0:0,0:0:0:0:
436,164,9884,2,0,L|340:171,1,80.9999975280763
304,0,10227,1,8,0:0:0:0:
279,212,10398,1,8,0:3:0:0:
391,76,10570,1,2,0:0:0:0:
180,153,10741,6,0,B|161:219|161:219|190:335,1,161.999995056153,6|2,0:0|0:0,0:0:0:0:
244,384,11255,1,0,0:0:0:0:
93,318,11426,2,0,P|28:311|2:318,1,80.9999975280763,8|0,0:0|0:0,0:0:0:0:
120,217,11769,2,0,P|198:229|295:203,1,161.999995056153
408,134,12283,1,8,0:0:0:0:
408,134,12455,2,0,P|388:170|386:237,1,80.9999975280763
460,328,12798,6,0,P|386:296|306:301,1,161.999995056153,8|0,0:0|0:0,0:0:0:0:
212,269,13312,2,0,P|230:316|227:367,1,80.9999975280763
116,251,13655,1,8,0:0:0:0:
306,302,13826,1,8,0:3:0:0:
106,343,13998,1,2,0:0:0:0:
333,295,14169,1,8,0:0:0:0:
89,244,14341,1,6,0:0:0:0:
69,52,14855,6,0,P|120:48|152:55,1,72,6|0,0:0|0:0,0:0:0:0:
197,115,15197,2,0,P|232:119|268:115,1,72,2|0,0:0|0:0,0:0:0:0:
342,71,15540,1,2,0:0:0:0:
268,114,15712,1,0,0:0:0:0:
342,71,15883,2,0,L|339:0,1,72,2|0,0:0|0:0,0:0:0:0:
413,123,16226,6,0,L|410:211,1,72,2|0,0:0|0:0,0:0:0:0:
328,213,16569,2,0,L|330:284,1,72,2|0,0:0|0:0,0:0:0:0:
334,371,16912,1,2,0:0:0:0:
407,325,17083,1,0,0:0:0:0:
257,330,17255,1,2,0:0:0:0:
257,330,17597,6,0,P|202:320|178:323,1,72,2|0,0:0|0:0,0:0:0:0:
108,360,17940,2,0,P|73:369|37:368,1,72,2|0,0:0|0:0,0:0:0:0:
63,285,18283,1,2,0:0:0:0:
37,368,18455,1,0,0:0:0:0:
63,285,18626,1,2,0:0:0:0:
37,368,18797,1,0,0:0:0:0:
30,200,18969,6,0,L|112:191,1,72,2|0,0:0|0:0,0:0:0:0:
137,113,19312,2,0,L|208:120,1,72,2|0,0:0|0:0,0:0:0:0:
286,81,19655,1,2,0:0:0:0:
286,81,19826,1,0,0:0:0:0:
358,204,19997,2,0,P|351:143|361:111,1,72,2|0,0:0|0:0,0:0:0:0:
505,156,20340,6,0,L|434:157,1,72,2|0,0:0|0:0,0:0:0:0:
464,11,20683,2,0,P|466:46|464:82,1,72,2|0,0:0|0:0,0:0:0:0:
353,133,21026,2,0,P|349:97|350:61,1,72,2|0,0:0|0:0,0:0:0:0:
433,157,21369,1,2,0:0:0:0:
441,306,21540,1,0,0:0:0:0:
441,306,21712,6,0,P|407:318|371:320,1,72,2|0,0:0|0:0,0:0:0:0:
265,226,22055,2,0,P|300:227|334:240,1,72,2|0,0:0|0:0,0:0:0:0:
210,331,22397,2,0,L|282:322,1,72,2|0,0:0|0:0,0:0:0:0:
106,237,22740,2,0,L|178:247,1,72,2|0,0:0|0:0,0:0:0:0:
30,308,23083,6,0,P|6:231|31:164,1,121.499996292114,6|0,0:0|0:0,0:0:0:0:
27,163,23425,1,8,0:0:0:0:
238,81,23597,2,0,B|175:104|175:104|86:88,1,121.499996292114,6|0,0:0|0:0,0:0:0:0:
89,87,23940,1,8,0:0:0:0:
283,10,24111,1,6,0:0:0:0:
317,101,24283,1,0,0:0:0:0:
304,197,24454,1,0,0:0:0:0:
190,294,24625,2,0,P|248:279|309:286,1,121.499996292114,6|0,0:0|0:0,0:0:0:0:
339,297,24968,1,8,0:0:0:0:
483,209,25140,6,0,P|452:214|384:201,1,72,6|0,0:0|0:0,0:0:0:0:
380,130,25482,2,0,P|344:124|308:128,1,72,2|0,0:0|0:0,0:0:0:0:
225,151,25825,1,2,0:0:0:0:
308,127,25997,1,0,0:0:0:0:
225,151,26168,2,0,L|221:222,1,72,2|0,0:0|0:0,0:0:0:0:
50,206,26511,6,0,L|53:134,1,72,2|0,0:0|0:0,0:0:0:0:
137,95,26854,2,0,L|140:23,1,72,2|0,0:0|0:0,0:0:0:0:
58,49,27197,1,2,0:0:0:0:
54,135,27368,1,0,0:0:0:0:
223,65,27540,1,2,0:0:0:0:
223,65,27882,6,0,P|233:112|226:150,1,72,2|0,0:0|0:0,0:0:0:0:
169,197,28225,2,0,P|163:232|170:267,1,72,2|0,0:0|0:0,0:0:0:0:
211,344,28568,1,2,0:0:0:0:
125,338,28740,1,0,0:0:0:0:
211,344,28911,1,2,0:0:0:0:
125,338,29082,1,0,0:0:0:0:
257,268,29254,6,0,L|337:276,1,72,2|0,0:0|0:0,0:0:0:0:
378,347,29597,2,0,L|449:339,1,72,2|0,0:0|0:0,0:0:0:0:
496,267,29940,1,2,0:0:0:0:
496,267,30111,1,0,0:0:0:0:
364,189,30282,2,0,P|358:144|369:102,1,72,2|0,0:0|0:0,0:0:0:0:
512,144,30625,6,0,L|440:152,1,72,2|0,0:0|0:0,0:0:0:0:
462,1,30968,2,0,L|466:72,1,72,2|0,0:0|0:0,0:0:0:0:
362,117,31311,2,0,L|358:46,1,72,2|0,0:0|0:0,0:0:0:0:
440,151,31654,1,2,0:0:0:0:
345,248,31825,1,0,0:0:0:0:
345,248,31997,6,0,L|253:240,1,72,2|0,0:0|0:0,0:0:0:0:
152,162,32340,2,0,L|223:155,1,72,2|0,0:0|0:0,0:0:0:0:
195,310,32682,2,0,L|188:239,1,72,2|0,0:0|0:0,0:0:0:0:
316,85,33025,2,0,L|309:156,1,72,2|0,0:0|0:0,0:0:0:0:
195,310,33368,6,0,B|249:279|249:279|322:280,1,121.499996292114,6|0,0:0|0:0,0:0:0:0:
340,280,33710,1,8,0:0:0:0:
121,380,33882,2,0,P|98:324|105:265,1,121.499996292114,6|0,0:0|0:0,0:0:0:0:
121,237,34225,1,8,0:0:0:0:
309,156,34396,6,0,L|148:149,1,161.999995056153,6|0,0:0|0:0,0:0:0:0:
0,102,34910,1,2,0:0:0:0:
0,102,34996,1,2,0:0:0:0:
0,102,35082,1,8,0:0:0:0:
56,180,35253,1,2,0:0:0:0:
133,55,35425,1,8,0:0:0:0:
148,149,35596,1,8,0:0:0:0:
48,17,35768,6,0,P|154:42|253:21,1,188.999994232178,6|0,0:0|0:0,0:0:0:0:
358,0,36453,2,0,L|342:152,1,125.999996154785,8|0,0:0|0:0,0:0:0:0:
336,201,36968,1,0,0:0:0:0:
197,171,37139,6,0,P|270:164|280:264,1,188.999994232178,2|0,0:0|0:0,0:0:0:0:
225,315,37825,2,0,B|278:298|278:298|355:307,1,125.999996154785,8|0,0:0|0:0,0:0:0:0:
423,316,38339,1,0,0:0:0:0:
512,196,38510,6,0,L|379:182,1,125.999996154785,2|0,0:0|0:0,0:0:0:0:
335,126,39025,1,0,0:0:0:0:
335,126,39196,2,0,L|259:133,1,62.9999980773926,8|0,0:0|0:0,0:0:0:0:
220,189,39539,2,0,L|144:181,1,62.9999980773926
0,141,39882,6,0,P|72:166|89:221,1,125.999996154785,2|0,0:0|0:0,0:0:0:0:
108,281,40396,1,0,0:0:0:0:
218,176,40568,2,0,P|186:173|156:182,1,62.9999980773926,8|0,0:0|0:0,0:0:0:0:
47,271,40910,2,0,P|76:282|108:280,1,62.9999980773926,8|0,0:0|0:0,0:0:0:0:
218,176,41253,6,0,B|189:212|189:212|197:312,1,125.999996154785,4|0,0:0|0:0,0:0:0:0:
273,241,41768,1,2,0:0:0:0:
266,113,41939,2,0,P|221:96|187:102,1,62.9999980773926,8|0,0:0|0:0,0:0:0:0:
324,172,42282,2,0,P|355:169|383:155,1,62.9999980773926
470,63,42625,6,0,L|459:200,1,125.999996154785,2|0,0:0|0:0,0:0:0:0:
456,264,43139,1,2,0:0:0:0:
388,92,43310,2,0,L|383:155,1,62.9999980773926,8|2,0:0|0:0,0:0:0:0:
456,264,43653,1,8,0:0:0:0:
306,115,43825,1,0,0:0:0:0:
456,264,43996,6,0,P|394:223|322:243,1,125.999996154785,6|0,0:0|0:0,0:0:0:0:
262,273,44510,1,0,0:0:0:0:
168,258,44682,1,0,0:0:0:0:
113,182,44853,1,0,0:0:0:0:
203,344,45025,1,8,0:0:0:0:
287,140,45196,1,8,0:0:0:0:
67,276,45368,1,8,0:0:0:0:
287,140,45539,6,0,B|248:105|208:108|170:128|170:128|201:149|198:181,1,188.999994232178,8|0,0:0|0:0,0:0:0:0:
160,356,45882,2,0,B|208:340|225:304|228:260|228:260|194:277|168:258,1,188.999994232178,8|0,0:0|0:0,0:0:0:0:
36,139,46225,2,0,B|25:189|48:222|84:246|84:246|87:208|116:195,1,188.999994232178,8|0,0:0|0:0,0:0:0:0:
168,258,46568,5,4,0:0:0:0:
98,86,46739,1,0,0:0:0:0:
115,195,46910,1,2,0:0:0:0:
151,23,47082,1,8,0:0:0:0:
28,201,47253,2,0,P|72:208|115:195,1,90
237,29,47596,2,0,P|194:15|150:22,1,90,2|8,0:0|0:0,0:0:0:0:
14,80,47939,6,0,P|98:108|187:99,1,180
323,6,48453,1,8,0:0:0:0:
278,104,48625,2,0,L|270:198,1,90
355,358,48968,2,0,L|348:269,1,90,2|8,0:0|0:0,0:0:0:0:
270,193,49310,5,0,0:0:0:0:
446,228,49482,1,2,0:0:0:0:
348,269,49653,1,0,0:0:0:0:
311,96,49825,1,8,0:0:0:0:
258,280,49996,2,0,L|351:268,1,90
504,117,50339,2,0,L|411:105,1,90,2|8,0:0|0:0,0:0:0:0:
311,96,50682,5,0,0:0:0:0:
446,228,50853,1,2,0:0:0:0:
347,268,51025,1,0,0:0:0:0:
414,105,51196,1,8,0:0:0:0:
388,345,51368,2,0,P|318:351|277:330,1,90
182,192,51710,2,0,P|252:186|293:207,1,90,2|8,0:0|0:0,0:0:0:0:
347,268,52053,5,0,0:0:0:0:
273,95,52225,1,6,0:0:0:0:
372,136,52396,1,0,0:0:0:0:
240,278,52568,1,8,0:0:0:0:
425,212,52739,2,0,P|496:209|537:228,1,90
269,194,53082,2,0,P|198:197|157:178,1,90,2|8,0:0|0:0,0:0:0:0:
117,92,53425,6,0,B|152:198|152:198|122:291,1,180
254,365,53939,1,8,0:0:0:0:
254,365,54110,2,0,B|233:299|233:299|268:193,1,180
497,295,54625,1,8,0:0:0:0:
497,295,54796,6,0,P|417:331|334:302,1,180
104,200,55310,2,0,P|184:164|267:193,1,180,8|0,0:0|0:0,0:0:0:0:
334,302,55825,1,0,0:0:0:0:
104,200,55996,1,8,0:0:0:0:
390,106,56168,6,0,L|382:249,1,135,6|0,0:0|0:0,0:0:0:0:
334,302,56510,1,2,0:0:0:0:
499,176,56682,1,8,0:0:0:0:
267,193,56853,2,0,L|123:185,1,135,6|0,0:0|0:0,0:0:0:0:
71,137,57196,1,2,0:0:0:0:
261,45,57368,6,0,B|304:41|312:81|307:117|266:120|266:120|304:125|316:160|313:195|232:196,1,236.250002253056,8|0,0:0|0:0,0:0:0:0:
439,71,57710,2,0,B|443:43|420:24|383:20|351:53|349:96|388:111|418:114|418:114|448:167|399:246,1,270.000010299683,6|8,0:0|0:0,0:0:0:0:
295,277,58225,5,0,0:0:0:0:
295,277,58396,2,0,P|353:264|404:295,1,90
193,328,58739,1,8,0:0:0:0:
380,273,58910,1,0,0:0:0:0:
193,328,59082,6,0,P|111:349|78:341,1,90,6|0,0:0|0:0,0:0:0:0:
123,153,59425,2,0,P|132:197|126:241,1,90,8|0,0:0|0:0,0:0:0:0:
64,63,59768,2,0,P|107:72|151:63,1,90,0|2,0:0|0:0,0:0:0:0:
309,0,60110,1,8,0:0:0:0:
221,156,60282,1,0,0:0:0:0:
221,156,60368,1,0,0:0:0:0:
221,156,60453,6,0,P|213:211|227:265,1,90,4|0,0:0|0:0,0:0:0:0:
401,206,60796,2,0,P|357:197|313:203,1,90,8|0,0:0|0:0,0:0:0:0:
361,367,61139,2,0,P|378:288|308:335,1,180,0|8,0:0|0:0,0:0:0:0:
217,358,61653,1,0,0:0:0:0:
361,367,61825,6,0,L|458:357,1,90,2|0,0:0|0:0,0:0:0:0:
233,279,62168,2,0,L|136:269,1,90,8|0,0:0|0:0,0:0:0:0:
361,191,62510,2,0,L|458:181,1,90,0|2,0:0|0:0,0:0:0:0:
233,103,62853,2,0,L|136:93,1,90,8|0,0:0|0:0,0:0:0:0:
384,12,63196,6,0,B|361:190,1,180,4|8,0:0|0:0,0:0:0:0:
342,297,63710,1,0,0:0:0:0:
79,216,63882,2,0,B|138:179|138:179|247:195,1,180,0|8,0:0|0:0,0:0:0:0:
464,232,64396,1,0,0:0:0:0:
247,195,64568,6,0,P|244:154|258:113,1,62.9999980773926,10|0,0:0|0:0,0:0:0:0:
464,232,64910,2,0,P|467:263|461:294,1,62.9999980773926
320,201,65253,2,0,P|316:169|321:138,1,62.9999980773926
390,225,65596,2,0,P|393:256|387:287,1,62.9999980773926
267,358,65939,6,0,B|184:337|184:337|90:360,1,161.999995056153,6|2,0:0|0:0,0:0:0:0:
15,379,66453,1,0,0:0:0:0:
156,253,66624,2,0,P|160:201|140:142,1,80.9999975280763,8|0,0:0|0:0,0:0:0:0:
64,64,66967,2,0,P|141:89|225:74,1,161.999995056153
380,14,67481,1,8,0:0:0:0:
380,14,67653,2,0,L|371:103,1,80.9999975280763
309,292,67996,6,0,L|291:130,1,161.999995056153,8|0,0:0|0:0,0:0:0:0:
374,181,68510,2,0,P|413:187|453:180,1,80.9999975280763
292,130,68853,1,8,0:0:0:0:
432,304,69024,1,8,0:3:0:0:
413,93,69196,1,2,0:0:0:0:
309,292,69367,6,0,L|120:279,1,161.999995056153,6|2,0:0|0:0,0:0:0:0:
49,278,69881,1,0,0:0:0:0:
99,120,70052,2,0,P|112:158|110:199,1,80.9999975280763,8|0,0:0|0:0,0:0:0:0:
193,373,70395,2,0,P|185:274|209:207,1,161.999995056153
321,115,70909,1,8,0:0:0:0:
321,115,71081,2,0,L|201:105,1,80.9999975280763
50,46,71424,6,0,L|215:32,1,161.999995056153,8|0,0:0|0:0,0:0:0:0:
352,196,71938,2,0,L|232:186,1,80.9999975280763,8|0,0:0|0:0,0:0:0:0:
211,32,72281,1,8,0:0:0:0:
401,120,72452,2,0,L|239:107,1,161.999995056153,0|8,0:0|0:0,0:0:0:0:
87,205,72967,1,0,0:0:0:0:
211,32,73138,1,0,0:0:0:0:
82,123,73309,1,0,0:0:0:0:
288,47,73481,6,0,B|321:140|321:140|291:221,1,161.999995056153,6|2,0:0|0:0,0:0:0:0:
217,140,73995,1,0,0:0:0:0:
263,281,74166,2,0,P|303:287|343:277,1,80.9999975280763,8|0,0:0|0:0,0:0:0:0:
512,367,74509,2,0,P|445:351|343:368,1,161.999995056153
234,206,75023,1,8,0:0:0:0:
234,206,75195,2,0,P|252:237|263:289,1,80.9999975280763
116,367,75538,6,0,B|176:343|176:343|308:365,1,161.999995056153,8|0,0:0|0:0,0:0:0:0:
422,270,76052,2,0,L|321:279,1,80.9999975280763,8|0,0:0|0:0,0:0:0:0:
178,343,76395,1,8,0:0:0:0:
341,277,76566,1,0,0:0:0:0:
166,257,76738,1,0,0:0:0:0:
418,315,76909,6,0,P|418:241|402:204,1,80.9999975280763,6|0,0:0|0:0,0:0:0:0:
353,161,77251,1,2,0:0:0:0:
353,161,77423,1,0,0:0:0:0:
166,257,77594,2,0,P|229:275|324:245,1,161.999995056153,8|0,0:0|0:0,0:0:0:0:
453,319,78109,2,0,P|383:309|349:318,1,80.9999975280763
221,383,78451,1,8,0:0:0:0:
221,383,78623,2,0,L|230:265,1,80.9999975280763
286,109,78966,6,0,L|298:270,1,161.999995056153,8|0,0:0|0:0,0:0:0:0:
204,176,79480,1,8,0:0:0:0:
204,176,79651,2,0,P|166:162|126:167,1,80.9999975280763
298,270,79994,2,0,P|337:275|375:261,1,80.9999975280763,8|0,0:0|0:0,0:0:0:0:
191,328,80337,5,8,0:0:0:0:
155,308,80423,1,0,0:0:0:0:
113,304,80509,1,8,0:3:0:0:
74,317,80594,1,0,0:0:0:0:
46,346,80680,1,8,0:3:0:0:
24,312,80765,1,0,0:0:0:0:
16,271,80851,1,8,0:3:0:0:
26,232,80937,1,0,0:0:0:0:
57,172,81023,5,14,0:0:0:0:
256,192,81108,12,0,83765,0:0:0:0:
140,35,89254,5,6,0:0:0:0:
208,103,89425,1,0,0:0:0:0:
185,197,89596,1,8,0:0:0:0:
0,249,89768,5,6,0:0:0:0:
24,156,89939,1,0,0:0:0:0:
117,129,90110,1,8,0:0:0:0:
254,263,90282,5,6,0:0:0:0:
161,288,90453,1,0,0:0:0:0:
92,221,90624,1,8,0:0:0:0:
219,37,90796,6,0,L|138:33,1,80.9999975280763,6|0,0:0|0:0,0:0:0:0:
185,197,91139,1,8,0:0:0:0:
363,45,91311,6,0,L|218:37,1,144,6|0,0:0|0:0,0:0:0:0:
145,82,91825,1,2,0:0:0:0:
270,152,91996,2,0,P|280:205|264:247,1,72,8|0,0:0|0:0,0:0:0:0:
167,318,92339,1,2,0:0:0:0:
167,318,92511,6,0,P|230:296|322:317,1,144
379,352,93025,2,0,L|392:255,1,72
316,148,93368,2,0,L|325:219,1,72,8|0,0:0|0:0,0:0:0:0:
392,284,93711,1,0,0:0:0:0:
392,284,93882,1,0,0:0:0:0:
241,243,94053,6,0,B|164:225|164:225|97:247,1,144,2|0,0:0|0:0,0:0:0:0:
23,281,94568,1,2,0:0:0:0:
113,150,94739,2,0,P|118:114|111:79,1,72,8|0,0:0|0:0,0:0:0:0:
24,210,95082,1,2,0:0:0:0:
24,210,95253,6,0,P|16:244|22:280,1,72
173,246,95596,2,0,P|137:239|102:244,1,72,8|0,0:0|0:0,0:0:0:0:
136,329,95939,1,0,0:0:0:0:
257,278,96111,2,0,P|262:242|255:207,1,72,8|0,0:0|0:0,0:0:0:0:
173,246,96453,1,0,0:0:0:0:
173,246,96625,1,0,0:0:0:0:
333,313,96796,6,0,P|342:241|318:149,1,144,6|0,0:0|0:0,0:0:0:0:
286,95,97311,1,2,0:0:0:0:
159,162,97482,2,0,L|57:151,1,72,8|0,0:0|0:0,0:0:0:0:
214,102,97825,1,2,0:0:0:0:
214,102,97996,2,0,L|316:91,1,72
401,50,98339,6,0,P|363:99|371:187,1,144,8|2,0:0|0:0,0:0:0:0:
453,299,98853,1,8,0:0:0:0:
375,259,99025,1,2,0:0:0:0:
291,280,99196,1,0,0:0:0:0:
252,357,99368,1,0,0:0:0:0:
366,177,99539,5,6,0:0:0:0:
366,177,100225,2,0,L|299:166,3,36,0|0|0|0,0:0|0:0|0:0|0:0,0:0:0:0:
250,140,100568,2,0,L|214:145,3,36,0|0|0|0,0:0|0:0|0:0|0:0,0:0:0:0:
134,177,100911,5,0,0:0:0:0:
141,197,100996,1,0,0:0:0:0:
144,218,101082,1,0,0:0:0:0:
141,239,101168,1,0,0:0:0:0:
137,260,101253,1,0,0:0:0:0:
126,279,101339,1,0,0:0:0:0:
95,307,101425,2,0,P|161:284|241:317,1,144
307,351,101939,1,8,0:0:0:0:
95,307,102111,1,0,0:0:0:0:
368,287,102282,6,0,P|373:213|333:128,1,144,6|8,0:0|0:0,0:0:0:0:
301,66,102796,1,0,0:0:0:0:
301,66,102968,2,0,L|402:72,1,72,0|0,0:0|0:0,0:0:0:0:
271,162,103311,2,0,L|169:168,1,72,8|0,0:0|0:0,0:0:0:0:
47,118,103653,6,0,P|123:181|119:243,1,144,0|8,0:0|0:0,0:0:0:0:
240,267,104168,1,0,0:0:0:0:
240,267,104339,2,0,P|187:279|170:297,1,72
314,317,104682,2,0,P|329:265|322:241,1,72,8|0,0:0|0:0,0:0:0:0:
202,154,105025,6,0,B|277:175|277:175|365:152,1,144,2|8,0:0|0:0,0:0:0:0:
425,140,105539,1,0,0:0:0:0:
425,140,105711,2,0,L|424:220,1,72
363,82,106053,2,0,L|354:10,1,72,8|0,0:0|0:0,0:0:0:0:
511,103,106396,6,0,L|509:271,1,144,0|8,0:0|0:0,0:0:0:0:
424,211,106911,1,0,0:0:0:0:
424,211,107082,2,0,P|367:213|334:237,1,72
213,251,107425,2,0,P|246:262|282:259,1,72,8|0,0:0|0:0,0:0:0:0:
424,211,107768,6,0,P|396:287|412:351,1,144,2|8,0:0|0:0,0:0:0:0:
321,346,108282,1,0,0:0:0:0:
321,346,108453,2,0,L|228:335,1,72
141,259,108796,2,0,L|234:248,1,72,8|0,0:0|0:0,0:0:0:0:
74,182,109139,6,0,B|32:168|32:168|47:290,1,144,0|8,0:0|0:0,0:0:0:0:
58,358,109653,1,0,0:0:0:0:
227,288,109825,2,0,B|240:246|240:246|118:261,1,144,0|8,0:0|0:0,0:0:0:0:
44,268,110339,1,0,0:0:0:0:
183,173,110511,6,0,P|186:119|171:77,1,72,6|0,0:0|0:0,0:0:0:0:
29,105,110853,1,8,0:0:0:0:
29,105,111025,2,0,P|57:126|91:139,1,72
164,5,111368,2,0,P|130:18|103:41,1,72,0|8,0:0|0:0,0:0:0:0:
91,139,111711,1,0,0:0:0:0:
253,112,111882,6,0,L|171:100,1,72,2|0,0:0|0:0,0:0:0:0:
289,32,112225,1,8,0:0:0:0:
289,32,112397,2,0,L|360:21,1,72
445,8,112739,1,0,0:0:0:0:
340,108,112911,2,0,P|336:148|349:210,1,72,8|0,0:0|0:0,0:0:0:0:
283,321,113253,6,0,P|287:281|274:219,1,72,4|0,0:0|0:0,0:0:0:0:
190,129,113596,2,0,P|218:150|251:165,1,72,8|0,0:0|0:0,0:0:0:0:
401,144,113939,2,0,P|368:158|338:179,1,72
287,324,114282,1,8,0:0:0:0:
287,324,114453,6,0,B|209:308|209:308|121:327,1,144
15,224,114968,1,8,0:0:0:0:
15,224,115139,2,0,B|93:240|93:240|181:221,1,144
256,116,115653,2,0,L|248:204,1,72,8|0,0:0|0:0,0:0:0:0:
302,37,115996,6,0,P|329:59|343:92,1,72,2|0,0:0|0:0,0:0:0:0:
165,116,116339,2,0,P|170:80|192:52,1,72,8|0,0:0|0:0,0:0:0:0:
301,195,116682,2,0,P|267:207|232:203,1,72
302,37,117025,1,8,0:0:0:0:
302,37,117196,6,0,L|446:43,1,144
256,116,117711,1,8,0:0:0:0:
256,116,117882,2,0,L|112:122,1,144
190,270,118396,2,0,P|190:207|179:172,1,72,8|0,0:0|0:0,0:0:0:0:
113,50,118739,6,0,P|108:85|111:121,1,72,4|0,0:0|0:0,0:0:0:0:
277,97,119082,1,8,0:0:0:0:
277,97,119253,2,0,L|206:88,1,72
346,176,119596,2,0,L|274:185,1,72,0|8,0:0|0:0,0:0:0:0:
407,89,119939,6,0,P|446:148|442:219,1,144
216,210,120453,1,8,0:0:0:0:
216,210,120625,2,0,P|275:171|345:175,1,144
348,369,121139,1,8,0:0:0:0:
328,352,121224,1,0,0:0:0:0:
313,329,121310,1,0,0:0:0:0:
305,303,121396,1,0,0:0:0:0:
304,277,121482,5,6,0:0:0:0:
276,294,121569,1,0,0:0:0:0:
246,303,121654,1,0,0:0:0:0:
214,300,121740,1,0,0:0:0:0:
188,282,121826,1,0,0:0:0:0:
156,276,121912,1,0,0:0:0:0:
126,282,121997,1,0,0:0:0:0:
96,297,122082,1,0,0:0:0:0:
81,325,122168,2,0,P|78:370|80:381,3,31.4999990386963,8|0|0|0,0:0|0:0|0:0|0:0,0:0:0:0:
118,208,122511,2,0,P|117:192|114:176,3,31.4999990386963
22,94,122853,5,6,0:0:0:0:
57,106,122939,1,0,0:0:0:0:
94,108,123025,1,0,0:0:0:0:
131,102,123111,1,0,0:0:0:0:
159,77,123196,1,0,0:0:0:0:
194,65,123282,1,0,0:0:0:0:
231,63,123368,1,0,0:0:0:0:
268,69,123454,1,0,0:0:0:0:
300,87,123539,2,0,P|309:119|310:138,3,31.4999990386963,8|0|0|0,0:0|0:0|0:0|0:0,0:0:0:0:
404,160,123882,2,0,P|390:190|379:205,3,31.4999990386963,8|0|0|0,0:0|0:0|0:0|0:0,0:0:0:0:
440,305,124225,6,0,L|284:287,1,125.999996154785,4|0,0:0|0:0,0:0:0:0:
105,192,124911,2,0,L|192:182,1,62.9999980773926,8|0,0:0|0:0,0:0:0:0:
218,129,125253,2,0,L|280:135,1,62.9999980773926
331,192,125596,5,6,0:0:0:0:
331,192,125768,2,0,L|456:178,1,125.999996154785,8|0,0:0|0:0,0:0:0:0:
322,64,126282,2,0,L|197:50,1,125.999996154785,8|0,0:0|0:0,0:0:0:0:
134,5,126796,1,0,0:0:0:0:
24,68,126968,6,0,P|11:137|30:210,1,125.999996154785,2|0,0:0|0:0,0:0:0:0:
71,247,127482,1,0,0:0:0:0:
71,247,127653,2,0,L|145:242,1,62.9999980773926,8|0,0:0|0:0,0:0:0:0:
190,192,127996,2,0,L|252:196,1,62.9999980773926
371,242,128339,6,0,P|339:193|350:101,1,125.999996154785,2|0,0:0|0:0,0:0:0:0:
355,54,128853,1,2,0:0:0:0:
252,196,129025,1,8,0:0:0:0:
437,162,129196,1,2,0:0:0:0:
334,304,129368,2,0,L|251:297,1,62.9999980773926,8|0,0:0|0:0,0:0:0:0:
126,206,129711,6,0,L|267:194,1,125.999996154785,6|0,0:0|0:0,0:0:0:0:
480,64,130396,2,0,L|338:52,1,125.999996154785,8|0,0:0|0:0,0:0:0:0:
145,309,131082,6,0,L|286:297,1,125.999996154785,2|0,0:0|0:0,0:0:0:0:
461,167,131768,2,0,L|373:159,1,62.9999980773926,8|0,0:0|0:0,0:0:0:0:
344,107,132111,2,0,L|281:112,1,62.9999980773926
117,163,132453,6,0,P|178:154|230:186,1,125.999996154785,2|0,0:0|0:0,0:0:0:0:
288,235,132968,1,0,0:0:0:0:
169,303,133139,2,0,P|158:273|158:242,1,62.9999980773926,8|0,0:0|0:0,0:0:0:0:
306,311,133482,2,0,P|306:342|295:371,1,62.9999980773926
99,345,133825,6,0,P|77:279|92:199,1,125.999996154785,2|0,0:0|0:0,0:0:0:0:
107,152,134339,1,0,0:0:0:0:
287,234,134511,1,8,0:0:0:0:
170,275,134682,1,2,0:0:0:0:
270,97,134854,1,8,0:0:0:0:
288,235,135025,1,0,0:0:0:0:
162,44,135196,6,0,P|211:34|236:40,1,62.9999980773926,6|0,0:0|0:0,0:0:0:0:
270,97,135539,2,0,P|299:106|331:105,1,62.9999980773926,0|2,0:0|0:0,0:0:0:0:
426,8,135882,1,8,0:0:0:0:
338,112,136053,1,0,0:0:0:0:
338,112,136139,1,0,0:0:0:0:
338,112,136225,2,0,L|344:174,1,62.9999980773926
476,252,136568,5,6,0:0:0:0:
307,328,136739,1,8,0:0:0:0:
332,257,136910,1,0,0:0:0:0:
403,230,137082,1,2,0:0:0:0:
307,328,137253,2,0,B|230:338|230:338|163:315,1,125.999996154785,8|0,0:0|0:0,0:0:0:0:
106,294,137768,1,0,0:0:0:0:
221,191,137939,6,0,P|240:253|236:280,1,62.9999980773926,2|0,0:0|0:0,0:0:0:0:
165,381,138282,2,0,P|170:350|184:321,1,62.9999980773926
328,216,138625,1,8,0:0:0:0:
136,211,138796,1,0,0:0:0:0:
136,211,138882,1,0,0:0:0:0:
136,211,138968,2,0,L|54:204,1,62.9999980773926
182,106,139311,6,0,L|264:99,1,62.9999980773926,2|0,0:0|0:0,0:0:0:0:
292,42,139653,2,0,L|354:47,1,62.9999980773926,0|2,0:0|0:0,0:0:0:0:
234,180,139996,1,8,0:0:0:0:
354,47,140168,1,2,0:0:0:0:
182,106,140339,1,8,0:0:0:0:
361,137,140511,1,0,0:0:0:0:
102,61,140682,6,0,P|96:120|104:149,1,62.9999980773926,6|0,0:0|0:0,0:0:0:0:
239,242,141025,1,8,0:0:0:0:
239,242,141196,2,0,P|240:210|233:179,1,62.9999980773926
182,106,141539,1,2,0:0:0:0:
328,216,141711,2,0,L|401:210,1,62.9999980773926,8|0,0:0|0:0,0:0:0:0:
162,289,142053,5,4,0:0:0:0:
328,216,142225,1,0,0:0:0:0:
263,370,142396,1,8,0:0:0:0:
263,370,142568,2,0,P|258:318|264:293,1,62.9999980773926
328,216,142911,1,2,0:0:0:0:
168,106,143082,2,0,L|95:100,1,62.9999980773926,8|0,0:0|0:0,0:0:0:0:
231,22,143425,6,0,B|262:6|262:6|255:115,1,125.999996154785,4|0,0:0|0:0,0:0:0:0:
254,190,143939,1,0,0:0:0:0:
105,100,144111,1,8,0:0:0:0:
336,144,144282,1,8,0:0:0:0:
129,257,144453,1,8,0:0:0:0:
90,23,144625,1,8,0:0:0:0:
254,190,144796,1,8,0:0:0:0:
72,351,144968,6,0,B|40:272|102:221|102:221|148:282,1,188.999994232178,8|0,0:0|0:0,0:0:0:0:
254,190,145311,2,0,B|286:269|223:319|223:319|178:259,1,188.999994232178,8|0,0:0|0:0,0:0:0:0:
95,131,145653,1,8,0:0:0:0:
222,127,147539,6,0,B|274:147|335:132|366:91|366:91|299:158|311:232|361:284|422:292|477:267|475:166|396:167,1,504,6|0,0:0|0:0,0:0:0:0:
172,272,148910,6,0,B|151:285|126:317|141:355|141:355|200:357|261:307|254:221|254:221|192:182|122:198|85:244|74:282,1,504,6|0,0:0|0:0,0:0:0:0:
330,365,150281,6,0,B|391:316|480:365|480:365|419:300|439:156|439:156|428:236|368:263,1,504,6|0,0:0|0:0,0:0:0:0:
233,164,151653,6,0,B|197:169|163:141|156:83|156:83|231:52|295:67|344:120|323:190|323:190|352:181|373:121|343:57,1,504,6|0,0:0|0:0,0:0:0:0:
77,89,153024,6,0,B|76:125|85:190|157:232|157:232|77:210|4:239|-8:275|-8:275|10:322|70:344|119:336,1,504,6|0,0:0|0:0,0:0:0:0:
358,236,154396,6,0,P|251:200|149:239,1,216,6|0,0:0|0:0,0:0:0:0:
0,101,155081,2,0,P|107:137|209:98,1,216,6|0,0:0|0:0,0:0:0:0:
374,20,155767,6,0,L|356:251,1,216,6|0,0:0|0:0,0:0:0:0:
350,321,156453,1,0,0:0:0:0:
350,321,156624,2,0,P|438:308|514:326,1,144
357,235,157139,6,0,P|269:248|193:230,1,144,6|0,0:0|0:0,0:0:0:0:
134,207,157653,1,0,0:0:0:0:
259,89,157824,2,0,L|255:160,1,72,2|0,0:0|0:0,0:0:0:0:
124,46,158167,2,0,L|129:118,1,72
214,237,158510,6,0,P|253:247|293:240,1,80.9999975280763,6|0,0:0|0:0,0:0:0:0:
258,82,158853,2,0,P|247:120|254:160,1,80.9999975280763,2|0,0:0|0:0,0:0:0:0:
412,121,159196,2,0,P|373:111|334:119,1,80.9999975280763,2|0,0:0|0:0,0:0:0:0:
370,280,159539,2,0,P|380:240|373:201,1,80.9999975280763,2|0,0:0|0:0,0:0:0:0:
162,157,159881,6,0,L|57:144,1,80.9999975280763,2|0,0:0|0:0,0:0:0:0:
215,238,160224,2,0,L|134:247,1,80.9999975280763,2|0,0:0|0:0,0:0:0:0:
335,169,160567,2,0,L|254:159,1,80.9999975280763,2|0,0:0|0:0,0:0:0:0:
388,250,160910,2,0,L|307:259,1,80.9999975280763,2|0,0:0|0:0,0:0:0:0:
453,171,161253,6,0,P|487:231|466:322,1,161.999995056153,2|2,0:0|0:0,0:0:0:0:
353,155,161767,1,0,0:0:0:0:
353,155,161939,2,0,P|387:95|477:68,1,161.999995056153,2|2,0:0|0:0,0:0:0:0:
388,250,162453,1,0,0:0:0:0:
388,250,162624,6,0,L|296:241,1,80.9999975280763,2|0,0:0|0:0,0:0:0:0:
329,337,162967,2,0,L|248:344,1,80.9999975280763,2|0,0:0|0:0,0:0:0:0:
214,253,163310,2,0,L|122:244,1,80.9999975280763,2|0,0:0|0:0,0:0:0:0:
155,340,163653,2,0,L|74:347,1,80.9999975280763,2|0,0:0|0:0,0:0:0:0:
15,160,163996,6,0,P|92:177|133:244,1,161.999995056153,2|2,0:0|0:0,0:0:0:0:
155,340,164510,1,0,0:0:0:0:
305,262,164681,2,0,P|232:274|210:297,1,80.9999975280763,2|0,0:0|0:0,0:0:0:0:
154,125,165024,2,0,P|186:148|204:184,1,80.9999975280763,2|0,0:0|0:0,0:0:0:0:
155,340,165367,5,8,0:0:0:0:
312,269,165539,1,8,0:0:0:0:
312,269,165624,1,0,0:0:0:0:
312,269,165710,1,8,0:0:0:0:
235,381,165881,1,8,0:0:0:0:
75,299,166053,1,8,0:0:0:0:
392,310,166224,1,8,0:0:0:0:
75,299,166396,1,8,0:0:0:0:
53,259,166481,1,8,0:0:0:0:
51,213,166567,1,8,0:0:0:0:
55,168,166653,1,8,0:0:0:0:
78,131,166739,5,6,0:0:0:0:
173,61,166910,1,0,0:0:0:0:
152,267,167081,1,8,0:0:0:0:
173,61,167253,2,0,L|271:50,1,99.0000030212403
438,158,167596,2,0,L|339:147,1,99.0000030212403,2|8,0:0|0:0,0:0:0:0:
271,50,167939,5,0,0:0:0:0:
374,249,168110,1,2,0:0:0:0:
260,213,168281,1,0,0:0:0:0:
388,25,168453,1,8,0:0:0:0:
260,213,168624,2,0,P|254:271|265:314,1,99.0000030212403
384,122,168967,2,0,P|394:73|387:24,1,99.0000030212403,2|8,0:0|0:0,0:0:0:0:
276,69,169310,5,0,0:0:0:0:
374,249,169481,1,6,0:0:0:0:
384,122,169653,1,0,0:0:0:0:
263,310,169824,1,8,0:0:0:0:
384,122,169996,2,0,L|496:110,1,99.0000030212403
263,310,170339,2,0,L|151:298,1,99.0000030212403,2|8,0:0|0:0,0:0:0:0:
46,284,170681,5,0,0:0:0:0:
227,210,170853,1,2,0:0:0:0:
107,186,171024,1,0,0:0:0:0:
107,384,171196,1,8,0:0:0:0:
227,210,171367,2,0,P|227:133|217:103,1,99.0000030212403
34,1,171710,2,0,P|23:49|27:98,1,99.0000030212403,2|8,0:0|0:0,0:0:0:0:
107,186,172053,5,0,0:0:0:0:
266,46,172224,1,6,0:0:0:0:
231,159,172396,1,0,0:0:0:0:
27,98,172567,1,8,0:0:0:0:
200,303,172739,2,0,L|300:293,1,99.0000030212403
482,204,173081,2,0,L|384:195,1,99.0000030212403,2|8,0:0|0:0,0:0:0:0:
219,95,173424,6,0,B|281:72|281:72|298:203,1,198.000006042481
396,380,173939,1,8,0:0:0:0:
396,380,174110,2,0,B|409:282,1,99.0000030212403,0|2,0:0|0:0,0:0:0:0:
285,104,174453,2,0,B|298:203,1,99.0000030212403,0|8,0:0|0:0,0:0:0:0:
501,322,174796,6,0,P|420:283|312:312,1,198.000006042481
115,187,175310,1,8,0:0:0:0:
115,187,175481,2,0,P|203:226|297:201,1,198.000006042481,0|2,0:0|0:0,0:0:0:0:
235,6,175996,2,0,P|213:49|213:99,1,99.0000030212403,8|0,0:0|0:0,0:0:0:0:
318,307,176339,5,8,0:0:0:0:
318,307,176510,1,0,0:0:0:0:
85,155,176681,2,0,L|-16:166,1,99.0000030212403,8|0,0:0|0:0,0:0:0:0:
135,280,177024,2,0,L|245:292,1,99.0000030212403,8|0,0:0|0:0,0:0:0:0:
195,52,177367,1,8,0:3:0:0:
176,84,177452,1,8,0:3:0:0:
168,120,177538,1,8,0:3:0:0:
171,157,177624,1,8,0:3:0:0:
184,191,177710,6,0,L|294:203,1,99.0000030212403,12|0,0:0|0:0,0:0:0:0:
458,107,178053,2,0,L|348:119,1,99.0000030212403,8|0,0:0|0:0,0:0:0:0:
175,283,178396,2,0,L|285:295,1,99.0000030212403,8|2,0:0|0:0,0:0:0:0:
506,205,178739,2,0,L|408:216,1,99.0000030212403,8|0,0:0|0:0,0:0:0:0:
368,384,179081,6,0,P|374:335|360:287,1,99.0000030212403,8|0,0:0|0:0,0:0:0:0:
184,191,179424,1,8,0:0:0:0:
273,293,179596,1,0,0:0:0:0:
200,105,179767,1,8,0:0:0:0:
360,287,179939,1,2,0:0:0:0:
200,105,180110,2,0,L|91:103,1,99.0000030212403,8|0,0:0|0:0,0:0:0:0:
273,293,180453,6,0,P|282:225|261:176,1,99.0000030212403,8|0,0:0|0:0,0:0:0:0:
199,9,180796,2,0,P|188:57|199:104,1,99.0000030212403,8|0,0:0|0:0,0:0:0:0:
368,293,181139,2,0,P|319:282|272:293,1,99.0000030212403,8|2,0:0|0:0,0:0:0:0:
103,105,181481,2,0,P|150:115|198:105,1,99.0000030212403,8|0,0:0|0:0,0:0:0:0:
393,10,181824,6,0,L|384:109,1,99.0000030212403,8|0,0:0|0:0,0:0:0:0:
314,302,182167,2,0,L|305:204,1,99.0000030212403,8|0,0:0|0:0,0:0:0:0:
478,60,182510,2,0,L|469:159,1,99.0000030212403,8|2,0:0|0:0,0:0:0:0:
229,353,182853,2,0,L|219:254,1,99.0000030212403,8|2,0:0|0:0,0:0:0:0:
384,108,183196,5,12,0:0:0:0:
222,153,183367,1,0,0:0:0:0:
390,200,183539,5,8,0:0:0:0:
195,149,183710,1,0,0:0:0:0:
349,282,183881,5,8,0:0:0:0:
168,145,184053,1,2,0:0:0:0:
308,364,184224,5,8,0:0:0:0:
141,141,184396,1,0,0:0:0:0:
308,364,184567,6,0,P|385:385|448:372,1,125.999996154785,8|0,0:0|0:0,0:0:0:0:
433,197,185081,2,0,P|352:189|293:213,1,125.999996154785
224,131,185596,2,0,P|232:161|231:193,1,62.9999980773926
110,281,185939,6,0,B|168:261|168:261|272:277,1,161.999995056153,6|2,0:0|0:0,0:0:0:0:
363,294,186453,1,0,0:0:0:0:
231,193,186624,2,0,P|222:132|232:92,1,80.9999975280763,8|0,0:0|0:0,0:0:0:0:
131,0,186967,2,0,P|149:96|122:182,1,161.999995056153
34,257,187481,1,8,0:0:0:0:
34,257,187653,2,0,L|137:251,1,80.9999975280763
296,166,187996,6,0,L|120:155,1,161.999995056153,8|0,0:0|0:0,0:0:0:0:
21,59,188510,2,0,L|115:64,1,80.9999975280763,8|0,0:0|0:0,0:0:0:0:
245,258,188853,1,8,0:0:0:0:
182,68,189024,1,8,0:3:0:0:
157,278,189196,1,2,0:0:0:0:
270,48,189367,6,0,P|336:38|445:59,1,161.999995056153,4|2,0:0|0:0,0:0:0:0:
512,96,189881,1,0,0:0:0:0:
379,205,190052,2,0,L|368:114,1,80.9999975280763,8|0,0:0|0:0,0:0:0:0:
468,223,190395,2,0,L|448:383,1,161.999995056153
295,328,190909,1,8,0:0:0:0:
295,328,191081,2,0,P|349:324|389:344,1,80.9999975280763
211,362,191424,6,0,P|172:373|44:349,1,161.999995056153,8|0,0:0|0:0,0:0:0:0:
89,196,191938,1,8,0:0:0:0:
127,285,192109,1,0,0:0:0:0:
3,157,192281,1,8,0:0:0:0:
3,157,192452,2,0,P|72:174|175:154,1,161.999995056153,0|8,0:0|0:0,0:0:0:0:
322,51,192967,1,0,0:0:0:0:
160,160,193138,1,0,0:0:0:0:
235,0,193309,1,8,0:0:0:0:
246,211,193481,6,0,B|256:312|256:312|226:383,1,161.999995056153,6|2,0:0|0:0,0:0:0:0:
154,294,193995,1,0,0:0:0:0:
339,327,194166,2,0,P|390:328|443:307,1,80.9999975280763,8|0,0:0|0:0,0:0:0:0:
246,211,194509,2,0,P|183:194|77:223,1,161.999995056153
196,118,195023,2,0,P|200:72|189:23,1,80.9999975280763,8|0,0:0|0:0,0:0:0:0:
104,80,195366,1,0,0:0:0:0:
246,211,195538,6,0,L|434:202,1,161.999995056153,8|0,0:0|0:0,0:0:0:0:
512,290,196052,2,0,L|399:284,1,80.9999975280763,8|0,0:0|0:0,0:0:0:0:
346,122,196395,1,8,0:0:0:0:
431,286,196566,1,8,0:3:0:0:
423,88,196738,1,2,0:0:0:0:
354,320,196909,6,0,B|271:335|271:335|190:319,1,161.999995056153,6|2,0:0|0:0,0:0:0:0:
99,297,197423,1,0,0:0:0:0:
161,155,197594,2,0,P|172:216|161:259,1,80.9999975280763,8|0,0:0|0:0,0:0:0:0:
81,109,197937,1,0,0:0:0:0:
81,109,198109,2,0,P|128:68|171:57,1,80.9999975280763
81,201,198451,1,8,0:0:0:0:
81,201,198623,2,0,L|-34:186,1,80.9999975280763
229,99,198966,1,8,0:0:0:0:
229,99,199137,2,0,L|344:84,1,80.9999975280763
406,215,199480,5,8,0:0:0:0:
397,118,199651,1,0,0:0:0:0:
322,256,199823,1,8,0:0:0:0:
397,118,199994,2,0,L|477:128,1,80.9999975280763
322,256,200337,5,8,0:0:0:0:
282,266,200423,1,0,0:0:0:0:
242,256,200509,1,8,0:3:0:0:
208,234,200594,1,0,0:0:0:0:
184,302,200680,5,8,0:3:0:0:
148,282,200765,1,0,0:0:0:0:
108,272,200851,1,8,0:3:0:0:
68,282,200937,1,0,0:0:0:0:
13,322,201023,5,14,0:0:0:0:
