osu file format v14

[General]
AudioFilename: audio.mp3
AudioLeadIn: 0
PreviewTime: 131820
Countdown: 1
SampleSet: Normal
StackLeniency: 0.7
Mode: 1
LetterboxInBreaks: 0
WidescreenStoryboard: 0

[Editor]
DistanceSpacing: 1.8
BeatDivisor: 4
GridSize: 16
TimelineZoom: 1.7

[Metadata]
Title:THE WANDERLAST
TitleUnicode:ワンダーラスト
Artist:sasakure.UK feat.Megurine Luka
ArtistUnicode:sasakure.UK feat.巡音ルカ
Creator:fanhoho
Version:OnI
Source:
Tags:maimai
BeatmapID:2146941
BeatmapSetID:1026615

[Difficulty]
HPDrainRate:6
CircleSize:5
OverallDifficulty:6
ApproachRate:5
SliderMultiplier:1.4
SliderTickRate:1

[Events]
//Background and Video events
0,0,"wanderlast.jpg",0,0
//Break Periods
2,115585,122533
//Storyboard Layer 0 (Background)
//Storyboard Layer 1 (Fail)
//Storyboard Layer 2 (Pass)
//Storyboard Layer 3 (Foreground)
//Storyboard Layer 4 (Overlay)
//Storyboard Sound Samples

[TimingPoints]
3858,260.869565217391,4,1,0,80,1,8
4380,260.869565217391,4,1,0,80,1,0
8032,260.869565217391,4,1,0,80,1,8
9075,260.869565217391,3,1,0,80,1,0
21596,260.869565217391,4,1,0,90,1,0
34118,-100,3,1,0,90,0,0
39335,-100,3,1,0,70,0,0
51856,-100,3,1,0,90,0,0
56030,-100,3,1,0,70,0,0
68552,-100,3,1,0,90,0,0
82117,337.078651685393,3,1,0,80,1,0
98296,322.58064516129,3,1,0,80,1,0
106037,312.5,3,1,0,85,1,0
109787,297.029702970297,3,1,0,90,1,0
111569,288.461538461538,3,1,0,80,1,0
113299,260.869565217391,4,1,0,95,1,0
115385,-100,4,1,0,70,0,0
116429,-133.333333333333,4,1,0,70,0,0
127907,-133.333333333333,4,1,0,70,0,0
128951,-107.52688172043,4,1,0,70,0,0
129994,-100,4,1,0,80,0,0
132081,-100,4,1,0,90,0,1
148777,-100,4,1,0,80,0,0
156603,-100,4,1,0,90,0,0
157125,-100,4,1,0,100,0,1
173820,-100,4,1,0,100,0,1
196125,-50,4,1,0,80,0,0
196516,-200,4,1,0,60,0,0

[HitObjects]
256,192,3858,5,0,0:0:0:0:
256,192,4118,1,0,0:0:0:0:
256,192,4380,1,2,0:0:0:0:
256,192,4771,1,2,0:0:0:0:
256,192,5162,1,0,0:0:0:0:
256,192,5423,1,0,0:0:0:0:
256,192,5684,1,0,0:0:0:0:
256,192,5945,1,2,0:0:0:0:
256,192,6206,1,2,0:0:0:0:
256,192,6466,1,0,0:0:0:0:
256,192,6988,1,2,0:0:0:0:
256,192,7510,1,0,0:0:0:0:
96,96,7771,2,0,L|192:96,1,70
96,160,8032,2,0,L|192:160,7,70
256,192,9075,1,0,0:0:0:0:
256,192,9205,1,0,0:0:0:0:
256,192,9335,1,2,0:0:0:0:
256,192,9466,1,0,0:0:0:0:
256,192,9596,1,0,0:0:0:0:
256,192,9727,1,2,0:0:0:0:
256,192,9857,1,0,0:0:0:0:
256,192,9988,1,2,0:0:0:0:
256,192,10118,1,0,0:0:0:0:
256,192,10248,1,0,0:0:0:0:
256,192,10379,1,2,0:0:0:0:
256,192,10509,1,0,0:0:0:0:
256,192,10640,1,2,0:0:0:0:
256,192,10770,1,0,0:0:0:0:
256,192,10900,1,2,0:0:0:0:
256,192,11031,1,0,0:0:0:0:
256,192,11161,1,0,0:0:0:0:
256,192,11292,1,2,0:0:0:0:
256,192,11422,1,0,0:0:0:0:
256,192,11553,1,2,0:0:0:0:
256,192,11683,1,0,0:0:0:0:
256,192,11813,1,0,0:0:0:0:
256,192,11944,1,2,0:0:0:0:
256,192,12074,1,0,0:0:0:0:
256,192,12205,1,2,0:0:0:0:
256,192,12335,1,0,0:0:0:0:
256,192,12465,1,2,0:0:0:0:
256,192,12596,1,0,0:0:0:0:
256,192,12726,1,0,0:0:0:0:
256,192,12857,1,2,0:0:0:0:
256,192,12987,1,0,0:0:0:0:
256,192,13118,1,0,0:0:0:0:
256,192,13248,1,2,0:0:0:0:
256,192,13378,1,2,0:0:0:0:
256,192,13509,1,2,0:0:0:0:
256,192,13640,1,0,0:0:0:0:
256,192,13770,1,0,0:0:0:0:
256,192,13901,1,0,0:0:0:0:
256,192,14031,1,2,0:0:0:0:
256,192,14161,1,2,0:0:0:0:
256,192,14292,1,2,0:0:0:0:
256,192,14422,1,2,0:0:0:0:
256,192,14553,1,0,0:0:0:0:
256,192,14683,1,0,0:0:0:0:
256,192,14814,1,2,0:0:0:0:
256,192,14944,1,2,0:0:0:0:
256,192,15074,1,2,0:0:0:0:
256,192,15205,1,0,0:0:0:0:
256,192,15335,1,0,0:0:0:0:
256,192,15465,1,0,0:0:0:0:
256,192,15595,1,2,0:0:0:0:
256,192,15726,1,0,0:0:0:0:
256,192,15856,1,0,0:0:0:0:
256,192,15987,1,2,0:0:0:0:
256,192,16117,1,0,0:0:0:0:
256,192,16248,1,2,0:0:0:0:
256,192,16378,1,0,0:0:0:0:
256,192,16508,1,0,0:0:0:0:
256,192,16639,1,2,0:0:0:0:
256,192,16769,1,0,0:0:0:0:
256,192,16900,1,2,0:0:0:0:
256,192,17030,1,0,0:0:0:0:
256,192,17160,1,2,0:0:0:0:
256,192,17291,1,0,0:0:0:0:
256,192,17421,1,0,0:0:0:0:
256,192,17552,1,2,0:0:0:0:
256,192,17682,1,0,0:0:0:0:
256,192,17813,1,2,0:0:0:0:
256,192,17943,1,0,0:0:0:0:
256,192,18073,1,0,0:0:0:0:
256,192,18204,1,2,0:0:0:0:
256,192,18334,1,0,0:0:0:0:
256,192,18465,1,2,0:0:0:0:
256,192,18595,1,0,0:0:0:0:
256,192,18727,1,2,0:0:0:0:
256,192,18856,1,0,0:0:0:0:
256,192,18988,1,0,0:0:0:0:
256,192,19118,1,2,0:0:0:0:
256,192,19247,1,0,0:0:0:0:
256,192,19378,1,0,0:0:0:0:
256,192,19508,1,2,0:0:0:0:
256,192,19640,1,2,0:0:0:0:
256,192,19769,1,2,0:0:0:0:
256,192,19900,1,0,0:0:0:0:
256,192,20030,1,0,0:0:0:0:
256,192,20161,1,0,0:0:0:0:
256,192,20291,1,2,0:0:0:0:
256,192,20421,1,2,0:0:0:0:
256,192,20552,1,2,0:0:0:0:
256,192,20682,1,2,0:0:0:0:
256,192,20813,1,0,0:0:0:0:
256,192,20943,1,0,0:0:0:0:
256,192,21074,1,2,0:0:0:0:
256,192,21204,1,2,0:0:0:0:
256,192,21334,1,2,0:0:0:0:
256,192,21465,1,0,0:0:0:0:
256,192,21596,1,0,0:0:0:0:
256,192,21726,1,0,0:0:0:0:
256,192,21856,1,0,0:0:0:0:
256,192,21987,1,0,0:0:0:0:
256,192,22052,1,0,0:0:0:0:
256,192,22117,1,2,0:0:0:0:
256,192,22182,1,0,0:0:0:0:
256,192,22248,1,0,0:0:0:0:
256,192,22313,1,0,0:0:0:0:
256,192,22378,1,0,0:0:0:0:
256,192,22509,1,0,0:0:0:0:
256,192,22639,1,0,0:0:0:0:
256,192,22769,1,0,0:0:0:0:
256,192,22899,1,0,0:0:0:0:
256,192,23030,1,0,0:0:0:0:
256,192,23095,1,0,0:0:0:0:
256,192,23160,1,2,0:0:0:0:
256,192,23225,1,0,0:0:0:0:
256,192,23291,1,0,0:0:0:0:
256,192,23356,1,0,0:0:0:0:
256,192,23421,1,0,0:0:0:0:
256,192,23552,1,0,0:0:0:0:
256,192,23682,1,0,0:0:0:0:
256,192,23812,1,0,0:0:0:0:
256,192,23942,1,0,0:0:0:0:
256,192,24073,1,0,0:0:0:0:
256,192,24138,1,0,0:0:0:0:
256,192,24203,1,2,0:0:0:0:
256,192,24268,1,0,0:0:0:0:
256,192,24334,1,0,0:0:0:0:
256,192,24399,1,0,0:0:0:0:
256,192,24464,1,0,0:0:0:0:
256,192,24595,1,0,0:0:0:0:
256,192,24726,1,0,0:0:0:0:
256,192,24856,1,0,0:0:0:0:
256,192,24986,1,0,0:0:0:0:
256,192,25117,1,0,0:0:0:0:
256,192,25182,1,0,0:0:0:0:
256,192,25247,1,2,0:0:0:0:
256,192,25312,1,0,0:0:0:0:
256,192,25378,1,0,0:0:0:0:
256,192,25443,1,0,0:0:0:0:
256,192,25508,1,0,0:0:0:0:
256,192,25639,1,0,0:0:0:0:
256,192,25769,1,0,0:0:0:0:
256,192,25899,1,0,0:0:0:0:
256,192,26029,1,0,0:0:0:0:
256,192,26160,1,0,0:0:0:0:
256,192,26225,1,0,0:0:0:0:
256,192,26290,1,2,0:0:0:0:
256,192,26355,1,2,0:0:0:0:
256,192,26421,1,0,0:0:0:0:
256,192,26486,1,0,0:0:0:0:
256,192,26551,1,0,0:0:0:0:
256,192,26682,1,0,0:0:0:0:
256,192,26813,1,0,0:0:0:0:
256,192,26943,1,0,0:0:0:0:
256,192,27073,1,0,0:0:0:0:
256,192,27204,1,0,0:0:0:0:
256,192,27269,1,0,0:0:0:0:
256,192,27334,1,2,0:0:0:0:
256,192,27399,1,2,0:0:0:0:
256,192,27465,1,0,0:0:0:0:
256,192,27530,1,0,0:0:0:0:
256,192,27595,1,0,0:0:0:0:
256,192,27726,1,0,0:0:0:0:
256,192,27856,1,0,0:0:0:0:
256,192,27986,1,2,0:0:0:0:
256,192,28116,1,0,0:0:0:0:
256,192,28247,1,0,0:0:0:0:
256,192,28312,1,0,0:0:0:0:
256,192,28377,1,2,0:0:0:0:
256,192,28442,1,0,0:0:0:0:
256,192,28508,1,0,0:0:0:0:
256,192,28573,1,0,0:0:0:0:
256,192,28638,1,0,0:0:0:0:
256,192,28769,1,2,0:0:0:0:
256,192,28900,1,0,0:0:0:0:
256,192,29030,1,2,0:0:0:0:
256,192,29160,1,0,0:0:0:0:
256,192,29291,1,0,0:0:0:0:
256,192,29356,1,0,0:0:0:0:
256,192,29421,1,2,0:0:0:0:
256,192,29486,1,0,0:0:0:0:
256,192,29552,1,0,0:0:0:0:
256,192,29617,1,0,0:0:0:0:
256,192,29682,1,0,0:0:0:0:
256,192,29813,1,2,0:0:0:0:
256,192,29943,1,0,0:0:0:0:
256,192,30073,1,2,0:0:0:0:
256,192,30203,1,0,0:0:0:0:
256,192,30334,1,0,0:0:0:0:
256,192,30399,1,0,0:0:0:0:
256,192,30464,1,2,0:0:0:0:
256,192,30529,1,0,0:0:0:0:
256,192,30595,1,0,0:0:0:0:
256,192,30660,1,0,0:0:0:0:
256,192,30725,1,0,0:0:0:0:
256,192,30856,1,2,0:0:0:0:
256,192,30987,1,0,0:0:0:0:
256,192,31117,1,2,0:0:0:0:
256,192,31247,1,0,0:0:0:0:
256,192,31378,1,0,0:0:0:0:
256,192,31443,1,0,0:0:0:0:
256,192,31508,1,2,0:0:0:0:
256,192,31574,1,0,0:0:0:0:
256,192,31639,1,0,0:0:0:0:
256,192,31704,1,0,0:0:0:0:
256,192,31769,1,0,0:0:0:0:
256,192,31900,1,2,0:0:0:0:
256,192,32030,1,0,0:0:0:0:
256,192,32160,1,2,0:0:0:0:
256,192,32290,1,0,0:0:0:0:
256,192,32421,1,0,0:0:0:0:
256,192,32486,1,0,0:0:0:0:
256,192,32551,1,2,0:0:0:0:
256,192,32617,1,2,0:0:0:0:
256,192,32682,1,0,0:0:0:0:
256,192,32747,1,0,0:0:0:0:
256,192,32812,1,0,0:0:0:0:
256,192,32943,1,2,0:0:0:0:
256,192,33074,1,0,0:0:0:0:
256,192,33204,1,2,0:0:0:0:
256,192,33334,1,0,0:0:0:0:
256,192,33465,1,0,0:0:0:0:
256,192,33530,1,0,0:0:0:0:
256,192,33595,1,2,0:0:0:0:
256,192,33661,1,2,0:0:0:0:
256,192,33726,1,0,0:0:0:0:
256,192,33791,1,0,0:0:0:0:
256,192,33856,1,0,0:0:0:0:
256,192,33987,1,2,0:0:0:0:
256,192,34117,1,4,0:0:0:0:
256,192,34378,1,4,0:0:0:0:
256,192,34509,1,6,0:0:0:0:
256,192,34769,1,6,0:0:0:0:
256,192,34900,1,4,0:0:0:0:
256,192,35161,1,4,0:0:0:0:
256,192,35291,1,6,0:0:0:0:
256,192,35552,1,6,0:0:0:0:
256,192,35682,1,4,0:0:0:0:
256,192,35943,1,4,0:0:0:0:
128,128,36074,2,4,L|208:128,5,70
256,192,36987,1,4,0:0:0:0:
256,192,37117,1,6,0:0:0:0:
256,192,37248,1,6,0:0:0:0:
256,192,37378,1,6,0:0:0:0:
256,192,37509,1,6,0:0:0:0:
256,192,37639,1,6,0:0:0:0:
256,192,37769,1,0,0:0:0:0:
256,192,37835,1,0,0:0:0:0:
256,192,37900,1,0,0:0:0:0:
256,192,37965,1,0,0:0:0:0:
256,192,38030,1,2,0:0:0:0:
256,192,38161,1,0,0:0:0:0:
256,192,38226,1,0,0:0:0:0:
256,192,38291,1,2,0:0:0:0:
256,192,38356,1,0,0:0:0:0:
256,192,38422,1,0,0:0:0:0:
256,192,38552,1,0,0:0:0:0:
256,192,38617,1,2,0:0:0:0:
256,192,38682,1,2,0:0:0:0:
256,192,38748,1,2,0:0:0:0:
256,192,38813,1,0,0:0:0:0:
256,192,38943,1,2,0:0:0:0:
256,192,39009,1,2,0:0:0:0:
256,192,39074,1,0,0:0:0:0:
256,192,39139,1,2,0:0:0:0:
256,192,39204,1,0,0:0:0:0:
256,192,39269,1,2,0:0:0:0:
256,192,39335,1,0,0:0:0:0:
256,192,40117,1,2,0:0:0:0:
256,192,40248,1,0,0:0:0:0:
256,192,40639,1,0,0:0:0:0:
256,192,40769,1,2,0:0:0:0:
256,192,40900,1,0,0:0:0:0:
256,192,41682,1,0,0:0:0:0:
256,192,41943,1,2,0:0:0:0:
256,192,42204,1,2,0:0:0:0:
256,192,42465,1,0,0:0:0:0:
256,192,42726,1,2,0:0:0:0:
256,192,42856,1,2,0:0:0:0:
256,192,43117,1,0,0:0:0:0:
256,192,43378,1,0,0:0:0:0:
256,192,45074,1,0,0:0:0:0:
256,192,45335,1,2,0:0:0:0:
256,192,45595,1,0,0:0:0:0:
256,192,45987,1,2,0:0:0:0:
256,192,46378,1,2,0:0:0:0:
256,192,47682,1,0,0:0:0:0:
256,192,47943,1,2,0:0:0:0:
256,192,48204,1,2,0:0:0:0:
256,192,48465,1,0,0:0:0:0:
256,192,48726,1,2,0:0:0:0:
256,192,49117,1,2,0:0:0:0:
256,192,49509,1,2,0:0:0:0:
256,192,50030,1,2,0:0:0:0:
256,192,50291,1,0,0:0:0:0:
256,192,50552,1,2,0:0:0:0:
256,192,50813,1,0,0:0:0:0:
256,192,51074,1,2,0:0:0:0:
256,192,51204,1,2,0:0:0:0:
256,192,51465,1,0,0:0:0:0:
256,192,51726,1,0,0:0:0:0:
256,192,51856,1,0,0:0:0:0:
256,192,51987,1,0,0:0:0:0:
256,192,52117,1,2,0:0:0:0:
256,192,52248,1,0,0:0:0:0:
256,192,52313,1,0,0:0:0:0:
256,192,52378,1,0,0:0:0:0:
256,192,52509,1,2,0:0:0:0:
256,192,52639,1,0,0:0:0:0:
256,192,52769,1,0,0:0:0:0:
256,192,52900,1,2,0:0:0:0:
256,192,53030,1,0,0:0:0:0:
256,192,53095,1,0,0:0:0:0:
256,192,53161,1,0,0:0:0:0:
256,192,53291,1,2,0:0:0:0:
256,192,53422,1,0,0:0:0:0:
256,192,53552,1,0,0:0:0:0:
256,192,53682,1,2,0:0:0:0:
256,192,53813,1,0,0:0:0:0:
256,192,53943,1,0,0:0:0:0:
256,192,54074,1,0,0:0:0:0:
256,192,54204,1,2,0:0:0:0:
256,192,54335,1,0,0:0:0:0:
256,192,54400,1,0,0:0:0:0:
256,192,54465,1,0,0:0:0:0:
256,192,54596,1,2,0:0:0:0:
256,192,54726,1,0,0:0:0:0:
256,192,54856,1,0,0:0:0:0:
256,192,54987,1,2,0:0:0:0:
256,192,55117,1,0,0:0:0:0:
256,192,55182,1,0,0:0:0:0:
256,192,55248,1,0,0:0:0:0:
256,192,55378,1,2,0:0:0:0:
256,192,55509,1,0,0:0:0:0:
256,192,55639,1,2,0:0:0:0:
256,192,55769,1,2,0:0:0:0:
256,192,55900,1,0,0:0:0:0:
256,192,56030,1,0,0:0:0:0:
256,192,56291,1,0,0:0:0:0:
256,192,56422,1,0,0:0:0:0:
256,192,56552,1,0,0:0:0:0:
256,192,56813,1,0,0:0:0:0:
256,192,57074,1,0,0:0:0:0:
256,192,57204,1,0,0:0:0:0:
256,192,57335,1,2,0:0:0:0:
256,192,57595,1,2,0:0:0:0:
256,192,57856,1,0,0:0:0:0:
256,192,58117,1,0,0:0:0:0:
256,192,58378,1,0,0:0:0:0:
256,192,58509,1,0,0:0:0:0:
256,192,58639,1,0,0:0:0:0:
256,192,58900,1,0,0:0:0:0:
256,192,59161,1,0,0:0:0:0:
256,192,59291,1,0,0:0:0:0:
256,192,59422,1,2,0:0:0:0:
256,192,59682,1,2,0:0:0:0:
256,192,59943,1,0,0:0:0:0:
256,192,60204,1,0,0:0:0:0:
256,192,60335,1,0,0:0:0:0:
256,192,60465,1,2,0:0:0:0:
256,192,60596,1,0,0:0:0:0:
256,192,60726,1,0,0:0:0:0:
256,192,60987,1,0,0:0:0:0:
256,192,61117,1,0,0:0:0:0:
256,192,61248,1,0,0:0:0:0:
256,192,61378,1,0,0:0:0:0:
256,192,61509,1,2,0:0:0:0:
256,192,61769,1,2,0:0:0:0:
256,192,62030,1,2,0:0:0:0:
256,192,62291,1,0,0:0:0:0:
256,192,62422,1,0,0:0:0:0:
256,192,62552,1,2,0:0:0:0:
256,192,62683,1,0,0:0:0:0:
256,192,62813,1,0,0:0:0:0:
256,192,63074,1,0,0:0:0:0:
256,192,63204,1,0,0:0:0:0:
256,192,63335,1,0,0:0:0:0:
256,192,63465,1,0,0:0:0:0:
256,192,63596,1,2,0:0:0:0:
256,192,63856,1,2,0:0:0:0:
256,192,64117,1,0,0:0:0:0:
256,192,64248,1,2,0:0:0:0:
256,192,64378,1,0,0:0:0:0:
256,192,64639,1,0,0:0:0:0:
256,192,64770,1,2,0:0:0:0:
256,192,64900,1,0,0:0:0:0:
256,192,65161,1,0,0:0:0:0:
256,192,65292,1,2,0:0:0:0:
256,192,65422,1,0,0:0:0:0:
256,192,65552,1,0,0:0:0:0:
256,192,65682,1,0,0:0:0:0:
256,192,65813,1,2,0:0:0:0:
256,192,65943,1,0,0:0:0:0:
256,192,66204,1,0,0:0:0:0:
256,192,66335,1,2,0:0:0:0:
256,192,66465,1,0,0:0:0:0:
256,192,66726,1,0,0:0:0:0:
256,192,66987,1,2,0:0:0:0:
256,192,67248,1,2,0:0:0:0:
256,192,67509,1,0,0:0:0:0:
256,192,67639,1,0,0:0:0:0:
256,192,67769,1,2,0:0:0:0:
256,192,68030,1,2,0:0:0:0:
256,192,68291,1,2,0:0:0:0:
256,192,68552,1,0,0:0:0:0:
256,192,68682,1,0,0:0:0:0:
256,192,68812,1,0,0:0:0:0:
256,192,68943,1,0,0:0:0:0:
256,192,69008,1,0,0:0:0:0:
256,192,69073,1,2,0:0:0:0:
256,192,69138,1,0,0:0:0:0:
256,192,69204,1,0,0:0:0:0:
256,192,69269,1,0,0:0:0:0:
256,192,69334,1,0,0:0:0:0:
256,192,69465,1,0,0:0:0:0:
256,192,69595,1,0,0:0:0:0:
256,192,69725,1,0,0:0:0:0:
256,192,69855,1,0,0:0:0:0:
256,192,69986,1,0,0:0:0:0:
256,192,70051,1,0,0:0:0:0:
256,192,70116,1,2,0:0:0:0:
256,192,70181,1,0,0:0:0:0:
256,192,70247,1,2,0:0:0:0:
256,192,70312,1,0,0:0:0:0:
256,192,70377,1,2,0:0:0:0:
256,192,70508,1,2,0:0:0:0:
256,192,70639,1,2,0:0:0:0:
256,192,70769,1,0,0:0:0:0:
256,192,70900,1,2,0:0:0:0:
256,192,70965,1,2,0:0:0:0:
256,192,71030,1,2,0:0:0:0:
256,192,71161,1,2,0:0:0:0:
256,192,71291,1,0,0:0:0:0:
256,192,71422,1,2,0:0:0:0:
256,192,71487,1,2,0:0:0:0:
256,192,71552,1,0,0:0:0:0:
256,192,71682,1,0,0:0:0:0:
256,192,71748,1,2,0:0:0:0:
256,192,71813,1,2,0:0:0:0:
256,192,71878,1,2,0:0:0:0:
256,192,71943,1,0,0:0:0:0:
256,192,72074,1,0,0:0:0:0:
256,192,72139,1,0,0:0:0:0:
256,192,72204,1,2,0:0:0:0:
256,192,72269,1,0,0:0:0:0:
256,192,72335,1,0,0:0:0:0:
256,192,72400,1,0,0:0:0:0:
256,192,72465,1,0,0:0:0:0:
256,192,72595,1,2,0:0:0:0:
256,192,72726,1,0,0:0:0:0:
256,192,72856,1,2,0:0:0:0:
256,192,72986,1,0,0:0:0:0:
256,192,73117,1,0,0:0:0:0:
256,192,73182,1,0,0:0:0:0:
256,192,73247,1,2,0:0:0:0:
256,192,73313,1,2,0:0:0:0:
256,192,73378,1,0,0:0:0:0:
256,192,73443,1,0,0:0:0:0:
256,192,73508,1,0,0:0:0:0:
256,192,73639,1,2,0:0:0:0:
256,192,73769,1,0,0:0:0:0:
256,192,73899,1,2,0:0:0:0:
256,192,74029,1,0,0:0:0:0:
256,192,74160,1,0,0:0:0:0:
256,192,74225,1,0,0:0:0:0:
256,192,74290,1,2,0:0:0:0:
256,192,74356,1,2,0:0:0:0:
256,192,74421,1,0,0:0:0:0:
256,192,74486,1,0,0:0:0:0:
256,192,74551,1,0,0:0:0:0:
256,192,74682,1,2,0:0:0:0:
256,192,74813,1,0,0:0:0:0:
256,192,74943,1,2,0:0:0:0:
256,192,75073,1,0,0:0:0:0:
256,192,75204,1,0,0:0:0:0:
256,192,75269,1,0,0:0:0:0:
256,192,75334,1,2,0:0:0:0:
256,192,75400,1,0,0:0:0:0:
256,192,75465,1,0,0:0:0:0:
256,192,75530,1,0,0:0:0:0:
256,192,75595,1,0,0:0:0:0:
256,192,75726,1,2,0:0:0:0:
256,192,75856,1,0,0:0:0:0:
256,192,75986,1,2,0:0:0:0:
256,192,76116,1,0,0:0:0:0:
256,192,76247,1,0,0:0:0:0:
256,192,76312,1,0,0:0:0:0:
256,192,76377,1,2,0:0:0:0:
256,192,76443,1,0,0:0:0:0:
256,192,76508,1,0,0:0:0:0:
256,192,76573,1,0,0:0:0:0:
256,192,76638,1,0,0:0:0:0:
256,192,76769,1,2,0:0:0:0:
256,192,76900,1,0,0:0:0:0:
256,192,77030,1,2,0:0:0:0:
256,192,77160,1,0,0:0:0:0:
256,192,77291,1,0,0:0:0:0:
256,192,77356,1,0,0:0:0:0:
256,192,77421,1,2,0:0:0:0:
256,192,77487,1,0,0:0:0:0:
256,192,77552,1,0,0:0:0:0:
256,192,77617,1,0,0:0:0:0:
256,192,77682,1,0,0:0:0:0:
256,192,77813,1,2,0:0:0:0:
256,192,77943,1,0,0:0:0:0:
256,192,78073,1,2,0:0:0:0:
256,192,78203,1,0,0:0:0:0:
256,192,78334,1,0,0:0:0:0:
256,192,78399,1,0,0:0:0:0:
256,192,78464,1,2,0:0:0:0:
256,192,78530,1,0,0:0:0:0:
256,192,78595,1,0,0:0:0:0:
256,192,78660,1,0,0:0:0:0:
256,192,78725,1,0,0:0:0:0:
256,192,78856,1,2,0:0:0:0:
256,192,78987,1,0,0:0:0:0:
256,192,79117,1,2,0:0:0:0:
256,192,79247,1,0,0:0:0:0:
256,192,79378,1,0,0:0:0:0:
256,192,79443,1,0,0:0:0:0:
256,192,79508,1,2,0:0:0:0:
256,192,79574,1,2,0:0:0:0:
256,192,79639,1,0,0:0:0:0:
256,192,79704,1,0,0:0:0:0:
256,192,79769,1,0,0:0:0:0:
256,192,79900,1,2,0:0:0:0:
256,192,80030,1,0,0:0:0:0:
256,192,80160,1,2,0:0:0:0:
256,192,80290,1,0,0:0:0:0:
256,192,80421,1,0,0:0:0:0:
256,192,80486,1,0,0:0:0:0:
256,192,80551,1,2,0:0:0:0:
256,192,80617,1,2,0:0:0:0:
256,192,80682,1,0,0:0:0:0:
256,192,80747,1,0,0:0:0:0:
256,192,80812,1,0,0:0:0:0:
256,192,80943,1,2,0:0:0:0:
256,192,81074,1,0,0:0:0:0:
256,192,81204,1,2,0:0:0:0:
256,192,81335,1,2,0:0:0:0:
256,192,81465,1,0,0:0:0:0:
256,192,81595,1,2,0:0:0:0:
256,192,81661,1,2,0:0:0:0:
256,192,81726,1,0,0:0:0:0:
256,192,81856,1,2,0:0:0:0:
256,192,81987,1,0,0:0:0:0:
256,192,82117,1,0,0:0:0:0:
256,192,82454,1,2,0:0:0:0:
256,192,82622,1,2,0:0:0:0:
256,192,82791,1,2,0:0:0:0:
256,192,82959,1,2,0:0:0:0:
256,192,83128,1,0,0:0:0:0:
256,192,83465,1,2,0:0:0:0:
256,192,83802,1,2,0:0:0:0:
256,192,84139,1,0,0:0:0:0:
256,192,84476,1,2,0:0:0:0:
256,192,84645,1,2,0:0:0:0:
256,192,84813,1,0,0:0:0:0:
256,192,84982,1,2,0:0:0:0:
256,192,85319,1,2,0:0:0:0:
256,192,85656,1,2,0:0:0:0:
256,192,85824,1,2,0:0:0:0:
256,192,85993,1,2,0:0:0:0:
256,192,86161,1,0,0:0:0:0:
256,192,86330,1,2,0:0:0:0:
256,192,86667,1,2,0:0:0:0:
256,192,86836,1,2,0:0:0:0:
256,192,87004,1,2,0:0:0:0:
256,192,87173,1,0,0:0:0:0:
256,192,87341,1,2,0:0:0:0:
256,192,87510,1,2,0:0:0:0:
256,192,87678,1,2,0:0:0:0:
256,192,87847,1,2,0:0:0:0:
256,192,88184,1,0,0:0:0:0:
256,192,88352,1,2,0:0:0:0:
256,192,88521,1,2,0:0:0:0:
256,192,88690,1,0,0:0:0:0:
256,192,88858,1,2,0:0:0:0:
256,192,89195,1,2,0:0:0:0:
256,192,89364,1,2,0:0:0:0:
256,192,89532,1,2,0:0:0:0:
256,192,89701,1,0,0:0:0:0:
256,192,89869,1,2,0:0:0:0:
256,192,90038,1,2,0:0:0:0:
256,192,90206,1,0,0:0:0:0:
256,192,90375,1,2,0:0:0:0:
256,192,90459,1,2,0:0:0:0:
256,192,90543,1,2,0:0:0:0:
256,192,90712,1,2,0:0:0:0:
256,192,90881,1,2,0:0:0:0:
256,192,91218,1,0,0:0:0:0:
256,192,91387,1,2,0:0:0:0:
256,192,91471,1,2,0:0:0:0:
256,192,91555,1,2,0:0:0:0:
256,192,91724,1,2,0:0:0:0:
256,192,91893,1,2,0:0:0:0:
256,192,92229,1,0,0:0:0:0:
256,192,92397,1,2,0:0:0:0:
256,192,92734,1,2,0:0:0:0:
256,192,92903,1,0,0:0:0:0:
256,192,93072,1,2,0:0:0:0:
256,192,93240,1,0,0:0:0:0:
256,192,93409,1,0,0:0:0:0:
256,192,93577,1,0,0:0:0:0:
256,192,93746,1,2,0:0:0:0:
256,192,93914,1,0,0:0:0:0:
256,192,94083,1,2,0:0:0:0:
256,192,94251,1,0,0:0:0:0:
256,192,94420,1,0,0:0:0:0:
256,192,94588,1,2,0:0:0:0:
256,192,94757,1,2,0:0:0:0:
256,192,94925,1,2,0:0:0:0:
256,192,95263,1,2,0:0:0:0:
256,192,95431,1,2,0:0:0:0:
256,192,95600,1,2,0:0:0:0:
256,192,95768,1,0,0:0:0:0:
256,192,95937,1,0,0:0:0:0:
256,192,96105,1,2,0:0:0:0:
256,192,96274,1,2,0:0:0:0:
256,192,96442,1,0,0:0:0:0:
256,192,96611,1,2,0:0:0:0:
256,192,96779,1,0,0:0:0:0:
256,192,96948,1,2,0:0:0:0:
256,192,97116,1,2,0:0:0:0:
256,192,97285,1,2,0:0:0:0:
256,192,97454,1,2,0:0:0:0:
256,192,97622,1,2,0:0:0:0:
256,192,97959,1,2,0:0:0:0:
256,192,98128,1,0,0:0:0:0:
256,192,98296,1,0,0:0:0:0:
256,192,98618,1,2,0:0:0:0:
256,192,98699,1,2,0:0:0:0:
256,192,98779,1,2,0:0:0:0:
256,192,98941,1,2,0:0:0:0:
256,192,99102,1,2,0:0:0:0:
256,192,99263,1,0,0:0:0:0:
256,192,99586,1,2,0:0:0:0:
256,192,99747,1,0,0:0:0:0:
256,192,99908,1,2,0:0:0:0:
256,192,100231,1,0,0:0:0:0:
256,192,100554,1,2,0:0:0:0:
256,192,100634,1,2,0:0:0:0:
256,192,100715,1,2,0:0:0:0:
256,192,100876,1,0,0:0:0:0:
256,192,101037,1,2,0:0:0:0:
256,192,101199,1,2,0:0:0:0:
256,192,101360,1,2,0:0:0:0:
256,192,101521,1,2,0:0:0:0:
256,192,101683,1,0,0:0:0:0:
256,192,102005,1,2,0:0:0:0:
256,192,102166,1,0,0:0:0:0:
256,192,102247,1,0,0:0:0:0:
256,192,102328,1,0,0:0:0:0:
256,192,102489,1,0,0:0:0:0:
256,192,102570,1,0,0:0:0:0:
256,192,102650,1,0,0:0:0:0:
256,192,102812,1,2,0:0:0:0:
256,192,102973,1,2,0:0:0:0:
256,192,103134,1,2,0:0:0:0:
256,192,103296,1,0,0:0:0:0:
256,192,103457,1,0,0:0:0:0:
256,192,103618,1,0,0:0:0:0:
256,192,103779,1,2,0:0:0:0:
256,192,103941,1,0,0:0:0:0:
256,192,104102,1,2,0:0:0:0:
256,192,104263,1,0,0:0:0:0:
256,192,104425,1,0,0:0:0:0:
256,192,104586,1,0,0:0:0:0:
256,192,104747,1,2,0:0:0:0:
256,192,104908,1,0,0:0:0:0:
256,192,105070,1,2,0:0:0:0:
256,192,105231,1,2,0:0:0:0:
256,192,105392,1,2,0:0:0:0:
256,192,105554,1,0,0:0:0:0:
256,192,105715,1,0,0:0:0:0:
256,192,105876,1,2,0:0:0:0:
256,192,106037,1,0,0:0:0:0:
256,192,106349,1,0,0:0:0:0:
256,192,106662,1,2,0:0:0:0:
256,192,106818,1,2,0:0:0:0:
256,192,106974,1,0,0:0:0:0:
256,192,107287,1,0,0:0:0:0:
256,192,107600,1,2,0:0:0:0:
256,192,107756,1,2,0:0:0:0:
256,192,107912,1,0,0:0:0:0:
256,192,108068,1,2,0:0:0:0:
256,192,108380,1,2,0:0:0:0:
256,192,108537,1,0,0:0:0:0:
256,192,108693,1,2,0:0:0:0:
256,192,108849,1,2,0:0:0:0:
256,192,109005,1,0,0:0:0:0:
256,192,109083,1,0,0:0:0:0:
256,192,109162,1,0,0:0:0:0:
256,192,109318,1,0,0:0:0:0:
256,192,109474,1,0,0:0:0:0:
256,192,109630,1,2,0:0:0:0:
256,192,109787,1,2,0:0:0:0:
256,192,109935,1,0,0:0:0:0:
256,192,110009,1,0,0:0:0:0:
256,192,110084,1,0,0:0:0:0:
256,192,110232,1,0,0:0:0:0:
256,192,110381,1,0,0:0:0:0:
256,192,110529,1,2,0:0:0:0:
256,192,110678,1,2,0:0:0:0:
256,192,110826,1,0,0:0:0:0:
256,192,110900,1,0,0:0:0:0:
256,192,110975,1,0,0:0:0:0:
256,192,111123,1,0,0:0:0:0:
256,192,111272,1,0,0:0:0:0:
256,192,111420,1,2,0:0:0:0:
256,192,111569,1,2,0:0:0:0:
256,192,111713,1,0,0:0:0:0:
256,192,111785,1,0,0:0:0:0:
256,192,111857,1,0,0:0:0:0:
256,192,112001,1,2,0:0:0:0:
256,192,112145,1,2,0:0:0:0:
256,192,112290,1,2,0:0:0:0:
80,112,112434,2,0,L|160:112,5,70
256,192,113299,1,2,0:0:0:0:
256,192,113364,1,2,0:0:0:0:
256,192,113429,1,2,0:0:0:0:
256,192,113494,1,2,0:0:0:0:
256,192,113559,1,2,0:0:0:0:
256,192,113625,1,2,0:0:0:0:
256,192,113690,1,2,0:0:0:0:
256,192,113755,1,2,0:0:0:0:
256,192,113820,1,2,0:0:0:0:
256,192,113885,1,2,0:0:0:0:
256,192,113951,1,2,0:0:0:0:
256,192,114016,1,2,0:0:0:0:
256,192,114081,1,2,0:0:0:0:
256,192,114146,1,2,0:0:0:0:
256,192,114212,1,2,0:0:0:0:
256,192,114277,1,2,0:0:0:0:
256,192,114342,1,2,0:0:0:0:
256,192,114407,1,2,0:0:0:0:
256,192,114472,1,2,0:0:0:0:
256,192,114538,1,2,0:0:0:0:
256,192,114603,1,2,0:0:0:0:
256,192,114668,1,2,0:0:0:0:
256,192,114733,1,2,0:0:0:0:
256,192,114799,1,2,0:0:0:0:
256,192,114864,1,0,0:0:0:0:
256,192,115125,1,2,0:0:0:0:
256,192,115385,1,6,0:0:0:0:
256,192,123733,5,0,0:0:0:0:
256,192,124255,1,2,0:0:0:0:
256,192,124777,1,0,0:0:0:0:
256,192,125298,1,2,0:0:0:0:
256,192,125820,1,0,0:0:0:0:
256,192,126342,1,0,0:0:0:0:
256,192,126864,1,0,0:0:0:0:
256,192,127385,1,2,0:0:0:0:
256,192,127907,1,0,0:0:0:0:
256,192,128038,1,0,0:0:0:0:
256,192,128168,1,0,0:0:0:0:
256,192,128298,1,0,0:0:0:0:
256,192,128429,1,0,0:0:0:0:
256,192,128495,1,0,0:0:0:0:
256,192,128560,1,0,0:0:0:0:
256,192,128690,1,0,0:0:0:0:
256,192,128820,1,0,0:0:0:0:
256,192,128951,1,2,0:0:0:0:
256,192,129081,1,2,0:0:0:0:
256,192,129212,1,2,0:0:0:0:
256,192,129342,1,2,0:0:0:0:
256,192,129472,1,2,0:0:0:0:
256,192,129538,1,2,0:0:0:0:
256,192,129603,1,2,0:0:0:0:
256,192,129733,1,2,0:0:0:0:
256,192,129864,1,2,0:0:0:0:
256,192,129994,1,0,0:0:0:0:
256,192,130027,1,0,0:0:0:0:
256,192,130125,1,2,0:0:0:0:
256,192,130157,1,2,0:0:0:0:
256,192,130255,1,2,0:0:0:0:
256,192,130288,1,2,0:0:0:0:
256,192,130385,1,0,0:0:0:0:
256,192,130418,1,0,0:0:0:0:
256,192,130516,1,2,0:0:0:0:
256,192,130548,1,2,0:0:0:0:
256,192,130646,1,0,0:0:0:0:
256,192,130679,1,0,0:0:0:0:
256,192,130777,1,2,0:0:0:0:
256,192,130809,1,2,0:0:0:0:
256,192,130907,1,0,0:0:0:0:
256,192,130940,1,0,0:0:0:0:
256,192,131038,1,2,0:0:0:0:
256,192,131070,1,2,0:0:0:0:
256,192,131168,1,0,0:0:0:0:
256,192,131201,1,0,0:0:0:0:
256,192,131298,1,2,0:0:0:0:
256,192,131331,1,2,0:0:0:0:
256,192,131429,1,2,0:0:0:0:
256,192,131462,1,2,0:0:0:0:
256,192,131559,1,2,0:0:0:0:
256,192,131592,1,2,0:0:0:0:
256,192,131690,1,2,0:0:0:0:
256,192,131722,1,2,0:0:0:0:
256,192,131820,1,2,0:0:0:0:
256,192,132081,1,4,0:0:0:0:
256,192,132342,1,2,0:0:0:0:
256,192,132472,1,0,0:0:0:0:
256,192,132538,1,0,0:0:0:0:
256,192,132603,1,0,0:0:0:0:
256,192,132733,1,0,0:0:0:0:
256,192,132864,1,2,0:0:0:0:
256,192,132994,1,2,0:0:0:0:
256,192,133125,1,0,0:0:0:0:
256,192,133190,1,0,0:0:0:0:
256,192,133255,1,0,0:0:0:0:
256,192,133385,1,2,0:0:0:0:
256,192,133516,1,0,0:0:0:0:
256,192,133777,1,0,0:0:0:0:
256,192,133907,1,2,0:0:0:0:
256,192,134038,1,0,0:0:0:0:
256,192,134168,1,2,0:0:0:0:
256,192,134233,1,2,0:0:0:0:
256,192,134298,1,0,0:0:0:0:
256,192,134429,1,0,0:0:0:0:
256,192,134559,1,2,0:0:0:0:
256,192,134625,1,2,0:0:0:0:
256,192,134690,1,0,0:0:0:0:
256,192,134820,1,0,0:0:0:0:
256,192,134951,1,2,0:0:0:0:
256,192,135081,1,2,0:0:0:0:
256,192,135212,1,0,0:0:0:0:
256,192,135277,1,0,0:0:0:0:
256,192,135342,1,0,0:0:0:0:
256,192,135472,1,2,0:0:0:0:
256,192,135603,1,2,0:0:0:0:
256,192,135733,1,0,0:0:0:0:
256,192,135798,1,2,0:0:0:0:
256,192,135864,1,0,0:0:0:0:
256,192,135994,1,2,0:0:0:0:
256,192,136125,1,2,0:0:0:0:
256,192,136255,1,0,0:0:0:0:
256,192,136516,1,0,0:0:0:0:
256,192,136581,1,0,0:0:0:0:
256,192,136646,1,0,0:0:0:0:
256,192,136777,1,0,0:0:0:0:
256,192,136907,1,0,0:0:0:0:
256,192,137038,1,0,0:0:0:0:
256,192,137168,1,0,0:0:0:0:
256,192,137298,1,2,0:0:0:0:
256,192,137429,1,0,0:0:0:0:
256,192,137494,1,0,0:0:0:0:
256,192,137559,1,0,0:0:0:0:
256,192,137690,1,2,0:0:0:0:
256,192,137951,1,0,0:0:0:0:
256,192,138081,1,2,0:0:0:0:
256,192,138212,1,2,0:0:0:0:
256,192,138342,1,0,0:0:0:0:
256,192,138407,1,0,0:0:0:0:
256,192,138472,1,0,0:0:0:0:
256,192,138603,1,2,0:0:0:0:
256,192,138733,1,0,0:0:0:0:
256,192,138798,1,0,0:0:0:0:
256,192,138864,1,0,0:0:0:0:
256,192,138994,1,2,0:0:0:0:
256,192,139125,1,2,0:0:0:0:
256,192,139255,1,2,0:0:0:0:
256,192,139385,1,0,0:0:0:0:
256,192,139451,1,0,0:0:0:0:
256,192,139516,1,0,0:0:0:0:
256,192,139646,1,2,0:0:0:0:
256,192,139777,1,2,0:0:0:0:
256,192,139907,1,0,0:0:0:0:
256,192,139972,1,2,0:0:0:0:
256,192,140038,1,0,0:0:0:0:
256,192,140168,1,2,0:0:0:0:
256,192,140298,1,2,0:0:0:0:
256,192,140429,1,0,0:0:0:0:
256,192,140690,1,0,0:0:0:0:
256,192,140755,1,0,0:0:0:0:
256,192,140820,1,0,0:0:0:0:
256,192,140951,1,0,0:0:0:0:
256,192,141081,1,0,0:0:0:0:
256,192,141212,1,0,0:0:0:0:
256,192,141342,1,0,0:0:0:0:
256,192,141472,1,0,0:0:0:0:
256,192,141538,1,0,0:0:0:0:
256,192,141603,1,0,0:0:0:0:
256,192,141733,1,0,0:0:0:0:
256,192,141864,1,0,0:0:0:0:
256,192,141929,1,0,0:0:0:0:
256,192,141994,1,0,0:0:0:0:
256,192,142125,1,0,0:0:0:0:
256,192,142255,1,2,0:0:0:0:
256,192,142516,1,2,0:0:0:0:
256,192,142581,1,2,0:0:0:0:
256,192,142646,1,0,0:0:0:0:
256,192,142777,1,0,0:0:0:0:
256,192,142907,1,2,0:0:0:0:
256,192,142972,1,2,0:0:0:0:
256,192,143038,1,0,0:0:0:0:
256,192,143168,1,0,0:0:0:0:
256,192,143298,1,2,0:0:0:0:
256,192,143429,1,2,0:0:0:0:
256,192,143559,1,0,0:0:0:0:
256,192,143690,1,0,0:0:0:0:
256,192,143820,1,2,0:0:0:0:
256,192,144081,1,0,0:0:0:0:
256,192,144146,1,0,0:0:0:0:
256,192,144212,1,0,0:0:0:0:
256,192,144342,1,2,0:0:0:0:
256,192,144472,1,2,0:0:0:0:
256,192,144603,1,0,0:0:0:0:
256,192,144668,1,0,0:0:0:0:
256,192,144733,1,0,0:0:0:0:
256,192,144864,1,2,0:0:0:0:
256,192,145125,1,0,0:0:0:0:
256,192,145255,1,0,0:0:0:0:
256,192,145385,1,2,0:0:0:0:
256,192,145516,1,2,0:0:0:0:
256,192,145646,1,2,0:0:0:0:
256,192,145777,1,0,0:0:0:0:
256,192,145907,1,0,0:0:0:0:
256,192,146038,1,2,0:0:0:0:
256,192,146168,1,0,0:0:0:0:
256,192,146298,1,2,0:0:0:0:
256,192,146429,1,2,0:0:0:0:
256,192,146494,1,2,0:0:0:0:
256,192,146559,1,2,0:0:0:0:
256,192,146690,1,0,0:0:0:0:
256,192,146755,1,0,0:0:0:0:
256,192,146820,1,0,0:0:0:0:
256,192,146951,1,2,0:0:0:0:
256,192,147081,1,0,0:0:0:0:
256,192,147342,1,0,0:0:0:0:
256,192,147472,1,2,0:0:0:0:
256,192,147603,1,2,0:0:0:0:
256,192,147733,1,0,0:0:0:0:
256,192,147798,1,0,0:0:0:0:
256,192,147864,1,0,0:0:0:0:
256,192,147994,1,2,0:0:0:0:
256,192,148125,1,0,0:0:0:0:
256,192,148385,1,0,0:0:0:0:
256,192,148516,1,2,0:0:0:0:
256,192,148646,1,2,0:0:0:0:
256,192,148777,1,0,0:0:0:0:
256,192,148907,1,0,0:0:0:0:
256,192,149038,1,2,0:0:0:0:
256,192,149168,1,0,0:0:0:0:
256,192,149233,1,0,0:0:0:0:
256,192,149298,1,0,0:0:0:0:
256,192,149429,1,2,0:0:0:0:
256,192,149559,1,0,0:0:0:0:
256,192,149624,1,0,0:0:0:0:
256,192,149689,1,0,0:0:0:0:
256,192,149820,1,2,0:0:0:0:
256,192,149950,1,0,0:0:0:0:
256,192,150015,1,0,0:0:0:0:
256,192,150080,1,0,0:0:0:0:
256,192,150212,1,2,0:0:0:0:
256,192,150342,1,0,0:0:0:0:
256,192,150407,1,0,0:0:0:0:
256,192,150472,1,0,0:0:0:0:
256,192,150603,1,2,0:0:0:0:
256,192,150733,1,0,0:0:0:0:
256,192,150864,1,0,0:0:0:0:
256,192,150994,1,0,0:0:0:0:
256,192,151125,1,2,0:0:0:0:
256,192,151255,1,0,0:0:0:0:
256,192,151320,1,0,0:0:0:0:
256,192,151385,1,0,0:0:0:0:
256,192,151516,1,2,0:0:0:0:
256,192,151646,1,0,0:0:0:0:
256,192,151711,1,0,0:0:0:0:
256,192,151776,1,0,0:0:0:0:
256,192,151907,1,2,0:0:0:0:
256,192,152037,1,0,0:0:0:0:
256,192,152102,1,0,0:0:0:0:
256,192,152167,1,0,0:0:0:0:
256,192,152299,1,2,0:0:0:0:
256,192,152429,1,0,0:0:0:0:
256,192,152559,1,2,0:0:0:0:
256,192,152690,1,2,0:0:0:0:
256,192,152820,1,2,0:0:0:0:
256,192,152951,1,0,0:0:0:0:
256,192,153081,1,0,0:0:0:0:
256,192,153212,1,2,0:0:0:0:
256,192,153342,1,0,0:0:0:0:
256,192,153407,1,0,0:0:0:0:
256,192,153472,1,0,0:0:0:0:
256,192,153603,1,2,0:0:0:0:
256,192,153733,1,0,0:0:0:0:
256,192,153798,1,0,0:0:0:0:
256,192,153863,1,0,0:0:0:0:
256,192,153994,1,2,0:0:0:0:
256,192,154124,1,0,0:0:0:0:
256,192,154189,1,0,0:0:0:0:
256,192,154254,1,0,0:0:0:0:
256,192,154386,1,2,0:0:0:0:
256,192,154516,1,0,0:0:0:0:
256,192,154581,1,0,0:0:0:0:
256,192,154646,1,0,0:0:0:0:
256,192,154777,1,2,0:0:0:0:
256,192,154907,1,0,0:0:0:0:
256,192,155038,1,0,0:0:0:0:
256,192,155168,1,0,0:0:0:0:
256,192,155299,1,2,0:0:0:0:
256,192,155429,1,0,0:0:0:0:
256,192,155494,1,0,0:0:0:0:
256,192,155559,1,0,0:0:0:0:
256,192,155690,1,2,0:0:0:0:
256,192,155820,1,0,0:0:0:0:
256,192,155885,1,0,0:0:0:0:
256,192,155950,1,0,0:0:0:0:
256,192,156081,1,2,0:0:0:0:
256,192,156211,1,0,0:0:0:0:
256,192,156276,1,0,0:0:0:0:
256,192,156341,1,0,0:0:0:0:
256,192,156473,1,2,0:0:0:0:
256,192,156603,1,6,0:0:0:0:
256,192,156864,1,6,0:0:0:0:
256,192,157125,1,4,0:0:0:0:
256,192,157385,1,2,0:0:0:0:
256,192,157516,1,0,0:0:0:0:
256,192,157581,1,0,0:0:0:0:
256,192,157646,1,0,0:0:0:0:
256,192,157777,1,0,0:0:0:0:
256,192,157907,1,2,0:0:0:0:
256,192,158038,1,2,0:0:0:0:
256,192,158168,1,0,0:0:0:0:
256,192,158233,1,0,0:0:0:0:
256,192,158298,1,0,0:0:0:0:
256,192,158429,1,2,0:0:0:0:
256,192,158559,1,2,0:0:0:0:
256,192,158690,1,0,0:0:0:0:
256,192,158755,1,0,0:0:0:0:
256,192,158820,1,0,0:0:0:0:
256,192,158951,1,2,0:0:0:0:
256,192,159081,1,2,0:0:0:0:
256,192,159212,1,0,0:0:0:0:
256,192,159277,1,0,0:0:0:0:
256,192,159342,1,0,0:0:0:0:
256,192,159472,1,2,0:0:0:0:
256,192,159538,1,2,0:0:0:0:
256,192,159603,1,2,0:0:0:0:
256,192,159733,1,0,0:0:0:0:
256,192,159798,1,0,0:0:0:0:
256,192,159864,1,0,0:0:0:0:
256,192,159994,1,2,0:0:0:0:
256,192,160059,1,2,0:0:0:0:
256,192,160125,1,2,0:0:0:0:
256,192,160255,1,0,0:0:0:0:
256,192,160320,1,0,0:0:0:0:
256,192,160385,1,2,0:0:0:0:
256,192,160516,1,2,0:0:0:0:
256,192,160581,1,2,0:0:0:0:
256,192,160646,1,0,0:0:0:0:
256,192,160777,1,0,0:0:0:0:
256,192,160842,1,0,0:0:0:0:
256,192,160907,1,0,0:0:0:0:
256,192,161038,1,2,0:0:0:0:
256,192,161168,1,0,0:0:0:0:
256,192,161298,1,0,0:0:0:0:
256,192,161559,1,2,0:0:0:0:
256,192,161690,1,0,0:0:0:0:
256,192,161755,1,0,0:0:0:0:
256,192,161820,1,0,0:0:0:0:
256,192,161951,1,0,0:0:0:0:
256,192,162081,1,2,0:0:0:0:
256,192,162212,1,2,0:0:0:0:
256,192,162342,1,0,0:0:0:0:
256,192,162407,1,0,0:0:0:0:
256,192,162472,1,0,0:0:0:0:
256,192,162603,1,2,0:0:0:0:
256,192,162733,1,2,0:0:0:0:
256,192,162864,1,0,0:0:0:0:
256,192,162994,1,2,0:0:0:0:
256,192,163125,1,0,0:0:0:0:
256,192,163255,1,0,0:0:0:0:
256,192,163385,1,2,0:0:0:0:
256,192,163451,1,2,0:0:0:0:
256,192,163516,1,0,0:0:0:0:
256,192,163646,1,0,0:0:0:0:
256,192,163777,1,2,0:0:0:0:
256,192,163842,1,2,0:0:0:0:
256,192,163907,1,0,0:0:0:0:
256,192,164038,1,0,0:0:0:0:
256,192,164168,1,2,0:0:0:0:
256,192,164429,1,0,0:0:0:0:
256,192,164494,1,0,0:0:0:0:
256,192,164559,1,0,0:0:0:0:
256,192,164690,1,2,0:0:0:0:
256,192,164820,1,2,0:0:0:0:
256,192,164951,1,0,0:0:0:0:
256,192,165016,1,0,0:0:0:0:
256,192,165081,1,0,0:0:0:0:
256,192,165212,1,2,0:0:0:0:
256,192,165472,1,0,0:0:0:0:
256,192,165732,1,2,0:0:0:0:
256,192,165863,1,2,0:0:0:0:
256,192,165928,1,2,0:0:0:0:
256,192,165993,1,0,0:0:0:0:
256,192,166124,1,0,0:0:0:0:
256,192,166254,1,2,0:0:0:0:
256,192,166515,1,0,0:0:0:0:
256,192,166580,1,0,0:0:0:0:
256,192,166645,1,0,0:0:0:0:
256,192,166776,1,2,0:0:0:0:
256,192,166906,1,2,0:0:0:0:
256,192,167037,1,0,0:0:0:0:
256,192,167102,1,0,0:0:0:0:
256,192,167167,1,0,0:0:0:0:
256,192,167298,1,2,0:0:0:0:
256,192,167428,1,2,0:0:0:0:
256,192,167559,1,0,0:0:0:0:
256,192,167624,1,0,0:0:0:0:
256,192,167689,1,0,0:0:0:0:
256,192,167755,1,0,0:0:0:0:
256,192,167819,1,2,0:0:0:0:
256,192,167885,1,2,0:0:0:0:
256,192,167950,1,2,0:0:0:0:
256,192,168080,1,0,0:0:0:0:
256,192,168145,1,0,0:0:0:0:
256,192,168211,1,0,0:0:0:0:
256,192,168277,1,0,0:0:0:0:
256,192,168341,1,2,0:0:0:0:
256,192,168406,1,2,0:0:0:0:
256,192,168472,1,2,0:0:0:0:
256,192,168602,1,0,0:0:0:0:
256,192,168667,1,2,0:0:0:0:
256,192,168733,1,0,0:0:0:0:
256,192,168863,1,2,0:0:0:0:
256,192,168928,1,0,0:0:0:0:
256,192,168993,1,2,0:0:0:0:
256,192,169124,1,0,0:0:0:0:
256,192,169189,1,0,0:0:0:0:
256,192,169254,1,0,0:0:0:0:
256,192,169385,1,2,0:0:0:0:
256,192,169515,1,0,0:0:0:0:
256,192,169645,1,0,0:0:0:0:
256,192,169906,1,2,0:0:0:0:
256,192,170037,1,0,0:0:0:0:
256,192,170102,1,0,0:0:0:0:
256,192,170167,1,0,0:0:0:0:
256,192,170298,1,0,0:0:0:0:
256,192,170428,1,2,0:0:0:0:
256,192,170559,1,2,0:0:0:0:
256,192,170689,1,0,0:0:0:0:
256,192,170754,1,0,0:0:0:0:
256,192,170819,1,0,0:0:0:0:
256,192,170950,1,2,0:0:0:0:
256,192,171080,1,2,0:0:0:0:
256,192,171211,1,0,0:0:0:0:
256,192,171341,1,2,0:0:0:0:
256,192,171472,1,0,0:0:0:0:
256,192,171602,1,0,0:0:0:0:
256,192,171732,1,2,0:0:0:0:
256,192,171798,1,2,0:0:0:0:
256,192,171863,1,0,0:0:0:0:
256,192,171993,1,0,0:0:0:0:
256,192,172124,1,2,0:0:0:0:
256,192,172189,1,2,0:0:0:0:
256,192,172254,1,0,0:0:0:0:
256,192,172385,1,0,0:0:0:0:
256,192,172515,1,2,0:0:0:0:
256,192,172776,1,0,0:0:0:0:
256,192,172841,1,0,0:0:0:0:
256,192,172906,1,0,0:0:0:0:
256,192,173037,1,2,0:0:0:0:
256,192,173167,1,2,0:0:0:0:
256,192,173298,1,0,0:0:0:0:
256,192,173363,1,0,0:0:0:0:
256,192,173428,1,0,0:0:0:0:
256,192,173559,1,2,0:0:0:0:
256,192,173820,1,0,0:0:0:0:
256,192,174080,1,2,0:0:0:0:
256,192,174211,1,0,0:0:0:0:
256,192,174276,1,0,0:0:0:0:
256,192,174341,1,0,0:0:0:0:
256,192,174472,1,0,0:0:0:0:
256,192,174602,1,2,0:0:0:0:
256,192,174733,1,2,0:0:0:0:
256,192,174863,1,0,0:0:0:0:
256,192,174928,1,0,0:0:0:0:
256,192,174993,1,0,0:0:0:0:
256,192,175124,1,2,0:0:0:0:
256,192,175254,1,2,0:0:0:0:
256,192,175385,1,0,0:0:0:0:
256,192,175450,1,0,0:0:0:0:
256,192,175515,1,0,0:0:0:0:
256,192,175646,1,2,0:0:0:0:
256,192,175776,1,2,0:0:0:0:
256,192,175907,1,0,0:0:0:0:
256,192,175972,1,0,0:0:0:0:
256,192,176037,1,0,0:0:0:0:
256,192,176167,1,2,0:0:0:0:
256,192,176233,1,2,0:0:0:0:
256,192,176298,1,2,0:0:0:0:
256,192,176428,1,0,0:0:0:0:
256,192,176493,1,0,0:0:0:0:
256,192,176559,1,0,0:0:0:0:
256,192,176689,1,2,0:0:0:0:
256,192,176754,1,2,0:0:0:0:
256,192,176820,1,2,0:0:0:0:
256,192,176950,1,0,0:0:0:0:
256,192,177015,1,0,0:0:0:0:
256,192,177080,1,2,0:0:0:0:
256,192,177211,1,2,0:0:0:0:
256,192,177276,1,2,0:0:0:0:
256,192,177341,1,0,0:0:0:0:
256,192,177472,1,0,0:0:0:0:
256,192,177537,1,0,0:0:0:0:
256,192,177602,1,0,0:0:0:0:
256,192,177733,1,2,0:0:0:0:
256,192,177863,1,0,0:0:0:0:
256,192,177993,1,0,0:0:0:0:
256,192,178254,1,2,0:0:0:0:
256,192,178385,1,0,0:0:0:0:
256,192,178450,1,0,0:0:0:0:
256,192,178515,1,0,0:0:0:0:
256,192,178646,1,0,0:0:0:0:
256,192,178776,1,2,0:0:0:0:
256,192,178907,1,2,0:0:0:0:
256,192,179037,1,0,0:0:0:0:
256,192,179102,1,0,0:0:0:0:
256,192,179167,1,0,0:0:0:0:
256,192,179298,1,2,0:0:0:0:
256,192,179428,1,2,0:0:0:0:
256,192,179559,1,0,0:0:0:0:
256,192,179689,1,2,0:0:0:0:
256,192,179820,1,0,0:0:0:0:
256,192,179950,1,0,0:0:0:0:
256,192,180080,1,2,0:0:0:0:
256,192,180146,1,2,0:0:0:0:
256,192,180211,1,0,0:0:0:0:
256,192,180341,1,0,0:0:0:0:
256,192,180472,1,2,0:0:0:0:
256,192,180537,1,2,0:0:0:0:
256,192,180602,1,0,0:0:0:0:
256,192,180733,1,0,0:0:0:0:
256,192,180863,1,2,0:0:0:0:
256,192,181124,1,0,0:0:0:0:
256,192,181189,1,0,0:0:0:0:
256,192,181254,1,0,0:0:0:0:
256,192,181385,1,2,0:0:0:0:
256,192,181515,1,2,0:0:0:0:
256,192,181646,1,0,0:0:0:0:
256,192,181711,1,0,0:0:0:0:
256,192,181776,1,0,0:0:0:0:
256,192,181907,1,2,0:0:0:0:
256,192,182167,1,0,0:0:0:0:
256,192,182429,1,2,0:0:0:0:
256,192,182462,1,2,0:0:0:0:
256,192,182559,1,0,0:0:0:0:
256,192,182592,1,0,0:0:0:0:
256,192,182819,1,0,0:0:0:0:
256,192,182853,1,0,0:0:0:0:
256,192,182951,1,2,0:0:0:0:
256,192,182983,1,2,0:0:0:0:
256,192,183212,1,0,0:0:0:0:
256,192,183277,1,0,0:0:0:0:
256,192,183342,1,0,0:0:0:0:
256,192,183472,1,2,0:0:0:0:
256,192,183603,1,2,0:0:0:0:
256,192,183733,1,0,0:0:0:0:
256,192,183798,1,0,0:0:0:0:
256,192,183864,1,0,0:0:0:0:
256,192,183994,1,2,0:0:0:0:
256,192,184125,1,2,0:0:0:0:
256,192,184254,1,0,0:0:0:0:
256,192,184319,1,0,0:0:0:0:
256,192,184384,1,0,0:0:0:0:
256,192,184450,1,0,0:0:0:0:
256,192,184516,1,2,0:0:0:0:
256,192,184581,1,2,0:0:0:0:
256,192,184646,1,2,0:0:0:0:
256,192,184777,1,0,0:0:0:0:
256,192,184842,1,0,0:0:0:0:
256,192,184907,1,2,0:0:0:0:
256,192,184972,1,2,0:0:0:0:
256,192,185038,1,2,0:0:0:0:
256,192,185103,1,2,0:0:0:0:
256,192,185167,1,2,0:0:0:0:
256,192,185298,1,0,0:0:0:0:
256,192,185364,1,0,0:0:0:0:
256,192,185429,1,0,0:0:0:0:
256,192,185494,1,0,0:0:0:0:
256,192,185559,1,2,0:0:0:0:
256,192,185625,1,2,0:0:0:0:
256,192,185690,1,2,0:0:0:0:
256,192,185755,1,2,0:0:0:0:
256,192,185819,1,0,0:0:0:0:
256,192,185884,1,0,0:0:0:0:
256,192,185951,1,0,0:0:0:0:
256,192,186080,1,2,0:0:0:0:
256,192,186212,1,0,0:0:0:0:
256,192,186342,1,0,0:0:0:0:
256,192,186375,1,0,0:0:0:0:
256,192,186603,1,2,0:0:0:0:
256,192,186733,1,0,0:0:0:0:
256,192,186797,1,0,0:0:0:0:
256,192,186864,1,0,0:0:0:0:
256,192,186994,1,0,0:0:0:0:
256,192,187125,1,2,0:0:0:0:
256,192,187254,1,2,0:0:0:0:
256,192,187385,1,0,0:0:0:0:
256,192,187451,1,0,0:0:0:0:
256,192,187516,1,0,0:0:0:0:
256,192,187645,1,2,0:0:0:0:
256,192,187777,1,2,0:0:0:0:
256,192,187907,1,0,0:0:0:0:
256,192,188038,1,2,0:0:0:0:
256,192,188168,1,0,0:0:0:0:
256,192,188297,1,0,0:0:0:0:
256,192,188429,1,2,0:0:0:0:
256,192,188494,1,2,0:0:0:0:
256,192,188558,1,0,0:0:0:0:
256,192,188690,1,0,0:0:0:0:
256,192,188820,1,2,0:0:0:0:
256,192,188884,1,2,0:0:0:0:
256,192,188951,1,0,0:0:0:0:
256,192,189081,1,0,0:0:0:0:
256,192,189212,1,2,0:0:0:0:
256,192,189472,1,0,0:0:0:0:
256,192,189538,1,0,0:0:0:0:
256,192,189603,1,0,0:0:0:0:
256,192,189733,1,2,0:0:0:0:
256,192,189864,1,2,0:0:0:0:
256,192,189994,1,6,0:0:0:0:
256,192,190255,1,6,0:0:0:0:
256,192,190516,1,0,0:0:0:0:
256,192,190548,1,0,0:0:0:0:
256,192,190777,1,2,0:0:0:0:
256,192,190809,1,2,0:0:0:0:
256,192,190907,1,0,0:0:0:0:
256,192,190939,1,0,0:0:0:0:
256,192,191168,1,0,0:0:0:0:
256,192,191200,1,0,0:0:0:0:
256,192,191298,1,2,0:0:0:0:
256,192,191330,1,2,0:0:0:0:
256,192,191559,1,0,0:0:0:0:
256,192,191591,1,0,0:0:0:0:
256,192,191820,1,2,0:0:0:0:
256,192,191852,1,2,0:0:0:0:
256,192,192081,1,0,0:0:0:0:
256,192,192113,1,0,0:0:0:0:
256,192,192342,1,2,0:0:0:0:
256,192,192374,1,2,0:0:0:0:
256,192,192603,1,0,0:0:0:0:
256,192,192635,1,0,0:0:0:0:
256,192,192864,1,0,0:0:0:0:
256,192,193125,1,2,0:0:0:0:
256,192,193157,1,2,0:0:0:0:
256,192,193385,1,2,0:0:0:0:
256,192,193646,1,0,0:0:0:0:
256,192,193678,1,0,0:0:0:0:
256,192,193907,1,2,0:0:0:0:
256,192,194168,1,0,0:0:0:0:
256,192,194200,1,0,0:0:0:0:
256,192,194429,1,2,0:0:0:0:
256,192,194461,1,2,0:0:0:0:
256,192,194559,1,0,0:0:0:0:
256,192,194591,1,0,0:0:0:0:
256,192,194690,1,0,0:0:0:0:
256,192,194755,1,0,0:0:0:0:
256,192,194820,1,0,0:0:0:0:
256,192,194885,1,0,0:0:0:0:
256,192,194951,1,2,0:0:0:0:
256,192,195081,1,0,0:0:0:0:
256,192,195212,1,0,0:0:0:0:
256,192,195277,1,0,0:0:0:0:
256,192,195342,1,0,0:0:0:0:
256,192,195407,1,0,0:0:0:0:
256,192,195472,1,2,0:0:0:0:
256,192,195603,1,0,0:0:0:0:
256,192,195733,1,2,0:0:0:0:
256,192,195765,1,2,0:0:0:0:
256,192,195994,1,0,0:0:0:0:
256,192,196026,1,0,0:0:0:0:
112,64,196125,2,0,L|272:64,1,140
256,192,196516,12,0,200951,0:0:0:0:
