osu file format v14

[General]
AudioFilename: kingworld.ogg
AudioLeadIn: 0
PreviewTime: 114563
Countdown: 0
SampleSet: Soft
StackLeniency: 0.7
Mode: 3
LetterboxInBreaks: 0
SpecialStyle: 0
WidescreenStoryboard: 1

[Editor]
Bookmarks: 51628
DistanceSpacing: 0.7
BeatDivisor: 4
GridSize: 32
TimelineZoom: 1.299999

[Metadata]
Title:KINGWORLD
TitleUnicode:KINGWORLD
Artist:sasakure.UK feat. Shirakami Fubuki
ArtistUnicode:sasakure.UK feat. 白上フブキ
Creator:Rivals_7
Version:Intermediate
Source:jubeat Ave.
Tags:antipole [ping] thenewbungping chocomilku- achsanlovers sherly faputa 佐々木秀尚 sasaki hidehisa 有形ランペイジ ukrampage 8-bit electronic japanese video game hololive ホロライブ 1st generation gamers vtuber virtual youtuber fbk 2nd original song single jumpstream handstream chiptune
BeatmapID:3641350
BeatmapSetID:1777999

[Difficulty]
HPDrainRate:7
CircleSize:4
OverallDifficulty:7
ApproachRate:5
SliderMultiplier:1.4
SliderTickRate:1

[Events]
//Background and Video events
0,0,"kwor.jpg",0,0
//Break Periods
//Storyboard Layer 0 (Background)
//Storyboard Layer 1 (Fail)
//Storyboard Layer 2 (Pass)
//Storyboard Layer 3 (Foreground)
//Storyboard Layer 4 (Overlay)
//Storyboard Sound Samples

[TimingPoints]
981,250,3,2,1,50,1,0
3605,344.827586206897,4,2,1,50,1,0
3605,-72.5163161711385,4,2,1,50,0,0
3776,319.148936170213,4,2,1,50,1,8
3776,-78.3699059561128,4,2,1,50,0,0
3935,295.566502463054,4,2,1,50,1,8
3935,-84.6023688663283,4,2,1,50,0,0
4230,250,4,2,1,50,1,0
5113,250,4,2,1,50,1,0
21113,250,7,2,1,50,1,0
26363,250,4,2,1,50,1,0
28363,250,7,2,1,50,1,0
33613,250,4,2,1,50,1,0
35613,250,4,2,1,50,1,0
51613,-100,4,2,1,50,0,1
67613,-100,4,2,1,50,0,0
83613,250,7,2,1,50,1,0
88863,250,4,2,1,50,1,0
90863,250,6,2,1,50,1,0
113363,250,4,2,1,50,1,0
115363,250,4,2,1,50,1,1
131363,250,3,2,1,50,1,0
139988,250,4,2,1,50,1,0
157988,250,3,2,1,50,1,0
163488,250,4,2,1,50,1,0
179488,-100,4,2,1,50,0,1
195488,-100,4,2,1,50,0,0

[HitObjects]
192,192,481,128,0,981:0:0:0:0:
320,192,981,1,2,0:0:0:0:
448,192,981,1,0,0:0:0:0:
64,192,1356,1,2,0:0:0:0:
448,192,1356,1,0,0:0:0:0:
64,192,1731,1,2,0:0:0:0:
192,192,1731,1,0,0:0:0:0:
192,192,2106,1,2,0:0:0:0:
448,192,2106,1,0,0:0:0:0:
64,192,2481,1,2,0:0:0:0:
320,192,2481,1,0,0:0:0:0:
64,192,2856,1,2,0:0:0:0:
192,192,2856,1,0,0:0:0:0:
320,192,3231,1,2,0:0:0:0:
448,192,3231,1,0,0:0:0:0:
192,192,3605,1,6,0:0:0:0:
448,192,3776,1,6,0:0:0:0:
64,192,3935,1,6,0:0:0:0:
320,192,5113,1,4,0:0:0:0:
448,192,5113,1,0,0:0:0:0:
192,192,5363,1,8,0:0:0:0:
320,192,5488,1,2,0:0:0:0:
64,192,5613,1,0,0:0:0:0:
192,192,5738,1,2,0:0:0:0:
448,192,5988,128,0,6238:0:0:0:0:
192,192,6238,1,0,0:0:0:0:
320,192,6363,1,8,0:0:0:0:
64,192,6488,128,2,6738:0:0:0:0:
448,192,6738,1,2,0:0:0:0:
320,192,6863,128,8,7113:0:0:0:0:
192,192,7113,128,2,7363:0:0:0:0:
448,192,7363,1,8,0:0:0:0:
320,192,7488,1,2,0:0:0:0:
64,192,7613,1,0,0:0:0:0:
192,192,7738,1,2,0:0:0:0:
448,192,7988,128,0,8238:0:0:0:0:
64,192,8238,1,0,0:0:0:0:
192,192,8363,1,8,0:0:0:0:
320,192,8488,128,2,8738:0:0:0:0:
64,192,8738,1,2,0:0:0:0:
448,192,8863,1,8,0:0:0:0:
64,192,9113,1,4,0:0:0:0:
192,192,9113,1,2,0:0:0:0:
320,192,9363,1,8,0:0:0:0:
192,192,9488,1,2,0:0:0:0:
448,192,9613,1,0,0:0:0:0:
64,192,9863,1,8,0:0:0:0:
320,192,9988,1,0,0:0:0:0:
192,192,10238,1,0,0:0:0:0:
448,192,10363,1,8,0:0:0:0:
320,192,10488,1,2,0:0:0:0:
64,192,10613,1,0,0:0:0:0:
192,192,10738,1,2,0:0:0:0:
448,192,10863,1,8,0:0:0:0:
192,192,11113,1,2,0:0:0:0:
320,192,11238,1,0,0:0:0:0:
64,192,11363,1,8,0:0:0:0:
192,192,11488,1,2,0:0:0:0:
448,192,11613,1,0,0:0:0:0:
320,192,11738,1,2,0:0:0:0:
192,192,11863,1,8,0:0:0:0:
64,192,11988,1,0,0:0:0:0:
320,192,12113,1,2,0:0:0:0:
192,192,12238,1,0,0:0:0:0:
320,192,12363,1,8,0:0:0:0:
448,192,12488,1,2,0:0:0:0:
64,192,12738,1,2,0:0:0:0:
192,192,12863,1,8,0:0:0:0:
320,192,12988,1,0,0:0:0:0:
64,192,13113,1,2,0:0:0:0:
448,192,13113,1,4,0:0:0:0:
320,192,13363,1,8,0:0:0:0:
192,192,13488,1,2,0:0:0:0:
448,192,13613,1,0,0:0:0:0:
320,192,13738,1,2,0:0:0:0:
64,192,13988,128,0,14238:0:0:0:0:
320,192,14238,1,0,0:0:0:0:
192,192,14363,1,8,0:0:0:0:
448,192,14488,128,2,14738:0:0:0:0:
64,192,14738,1,2,0:0:0:0:
192,192,14863,128,8,15113:0:0:0:0:
320,192,15113,128,2,15363:0:0:0:0:
64,192,15363,1,8,0:0:0:0:
192,192,15488,1,2,0:0:0:0:
448,192,15613,1,0,0:0:0:0:
320,192,15738,1,2,0:0:0:0:
64,192,15988,128,0,16238:0:0:0:0:
448,192,16238,1,0,0:0:0:0:
320,192,16363,1,8,0:0:0:0:
192,192,16488,128,2,16738:0:0:0:0:
448,192,16738,1,2,0:0:0:0:
64,192,16863,1,8,0:0:0:0:
320,192,17113,1,4,0:0:0:0:
448,192,17113,1,2,0:0:0:0:
192,192,17363,1,8,0:0:0:0:
320,192,17488,1,2,0:0:0:0:
64,192,17613,1,0,0:0:0:0:
448,192,17863,1,8,0:0:0:0:
192,192,17988,1,0,0:0:0:0:
320,192,18238,1,0,0:0:0:0:
64,192,18363,1,8,0:0:0:0:
192,192,18488,1,2,0:0:0:0:
448,192,18613,1,0,0:0:0:0:
320,192,18738,1,2,0:0:0:0:
64,192,18863,1,8,0:0:0:0:
320,192,19113,1,2,0:0:0:0:
192,192,19238,1,0,0:0:0:0:
448,192,19363,1,8,0:0:0:0:
320,192,19488,1,2,0:0:0:0:
192,192,19613,1,0,0:0:0:0:
64,192,19738,1,2,0:0:0:0:
448,192,19863,1,8,0:0:0:0:
192,192,19988,1,0,0:0:0:0:
320,192,20113,1,2,0:0:0:0:
64,192,20238,1,0,0:0:0:0:
320,192,20363,1,8,0:0:0:0:
448,192,20488,1,2,0:0:0:0:
448,192,20738,1,2,0:0:0:0:
320,192,20863,1,8,0:0:0:0:
192,192,20988,1,0,0:0:0:0:
64,192,21113,1,2,0:0:0:0:
448,192,21113,1,4,0:0:0:0:
320,192,21363,1,0,0:0:0:0:
192,192,21613,1,8,0:0:0:0:
448,192,21863,1,0,0:0:0:0:
64,192,21988,1,2,0:0:0:0:
192,192,22238,1,8,0:0:0:0:
320,192,22363,128,8,22613:0:0:0:0:
64,192,22613,128,0,22863:0:0:0:40:Tom3.wav
192,192,22863,1,4,0:0:0:0:
448,192,22863,1,2,0:0:0:0:
320,192,23113,1,0,0:0:0:0:
192,192,23363,1,8,0:0:0:0:
448,192,23613,1,0,0:0:0:0:
320,192,23738,1,2,0:0:0:0:
64,192,23988,1,8,0:0:0:0:
192,192,24113,128,8,24363:0:0:0:0:
448,192,24363,128,0,24613:0:0:0:40:Tom3.wav
64,192,24613,1,2,0:0:0:0:
320,192,24613,1,4,0:0:0:0:
192,192,24738,1,0,0:0:0:0:
448,192,24863,1,0,0:0:0:0:
320,192,24988,1,0,0:0:0:0:
64,192,25113,128,8,25363:0:0:0:0:
448,192,25363,1,0,0:0:0:0:
192,192,25488,1,2,0:0:0:0:
320,192,25738,1,8,0:0:0:0:
64,192,26113,1,0,0:0:0:40:Tom3.wav
192,192,26238,1,0,0:0:0:40:Tom3.wav
320,192,26363,1,4,0:0:0:0:
448,192,26363,1,2,0:0:0:0:
64,192,26488,1,0,0:0:0:0:
320,192,26738,1,4,0:0:0:0:
448,192,26738,1,2,0:0:0:0:
192,192,26863,1,0,0:0:0:0:
64,192,27113,1,2,0:0:0:0:
192,192,27238,1,2,0:0:0:0:
448,192,27238,1,4,0:0:0:0:
320,192,27488,1,0,0:0:0:0:
64,192,27738,1,4,0:0:0:0:
448,192,27738,1,2,0:0:0:0:
64,192,28363,1,2,0:0:0:0:
192,192,28363,1,4,0:0:0:0:
320,192,28613,1,2,0:0:0:0:
192,192,28863,1,2,0:0:0:0:
64,192,28988,1,0,0:0:0:0:
320,192,29113,1,2,0:0:0:0:
448,192,29238,1,0,0:0:0:0:
448,192,29488,1,0,0:0:0:0:
64,192,29613,1,2,0:0:0:0:
64,192,29863,1,2,0:0:0:0:
192,192,30113,1,4,0:0:0:0:
448,192,30113,1,2,0:0:0:0:
320,192,30363,1,2,0:0:0:0:
64,192,30613,1,2,0:0:0:0:
192,192,30738,1,0,0:0:0:0:
320,192,30863,1,2,0:0:0:0:
448,192,30988,1,0,0:0:0:0:
448,192,31238,1,0,0:0:0:0:
192,192,31363,1,2,0:0:0:0:
192,192,31613,1,2,0:0:0:0:
64,192,31863,1,2,0:0:0:0:
320,192,31863,1,4,0:0:0:0:
448,192,31988,1,0,0:0:0:0:
192,192,32113,1,2,0:0:0:0:
320,192,32238,1,0,0:0:0:0:
64,192,32363,1,2,0:0:0:0:
448,192,32488,1,0,0:0:0:0:
320,192,32613,1,2,0:0:0:0:
192,192,32738,1,0,0:0:0:0:
192,192,32988,1,0,0:0:0:0:
448,192,33113,1,2,0:0:0:0:
448,192,33363,1,2,0:0:0:0:
320,192,33488,1,0,0:0:0:0:
64,192,33613,1,4,0:0:0:0:
192,192,33613,1,2,0:0:0:0:
320,192,33863,1,0,0:0:0:0:
192,192,33988,1,6,0:0:0:0:
448,192,34113,128,0,34363:0:0:0:0:
64,192,34488,1,2,0:0:0:0:
192,192,34488,1,4,0:0:0:0:
320,192,34738,1,0,0:0:0:0:
64,192,34988,1,2,0:0:0:0:
448,192,34988,128,4,35363:0:0:0:0:
192,192,35613,1,2,0:0:0:0:
320,192,35613,128,4,35988:0:0:0:0:
64,192,35988,1,0,0:0:0:0:
192,192,36113,128,0,36488:0:0:0:0:
448,192,36488,128,0,36738:0:0:0:0:
64,192,36738,128,0,36988:0:0:0:0:
320,192,36988,128,0,37238:0:0:0:0:
192,192,37238,1,0,0:0:0:0:
448,192,37363,128,0,37613:0:0:0:0:
64,192,37613,128,0,37988:0:0:0:0:
320,192,37988,1,0,0:0:0:0:
192,192,38113,128,0,38363:0:0:0:0:
448,192,38363,1,0,0:0:0:0:
320,192,38488,128,0,38738:0:0:0:0:
64,192,38738,1,0,0:0:0:0:
192,192,38863,1,0,0:0:0:0:
448,192,38988,128,0,39238:0:0:0:0:
320,192,39238,1,0,0:0:0:0:
64,192,39363,128,0,39613:0:0:0:0:
192,192,39613,1,0,0:0:0:0:
448,192,39613,1,0,0:0:0:0:
320,192,39863,1,0,0:0:0:0:
64,192,39988,1,0,0:0:0:0:
192,192,40238,1,0,0:0:0:0:
448,192,40488,128,0,40863:0:0:0:0:
192,192,40863,128,0,41113:0:0:0:0:
320,192,41113,128,0,41363:0:0:0:0:
64,192,41363,128,0,41613:0:0:0:0:
448,192,41613,128,0,41863:0:0:0:0:
64,192,41863,1,0,0:0:0:0:
192,192,41988,1,0,0:0:0:0:
320,192,42113,128,0,42613:0:0:0:0:
64,192,42613,1,0,0:0:0:0:
64,192,42863,1,0,0:0:0:0:
448,192,43113,1,0,0:0:0:0:
320,192,43238,1,0,0:0:0:0:
192,192,43363,1,0,0:0:0:0:
64,192,43488,1,0,0:0:0:0:
320,192,43613,1,2,0:0:0:0:
448,192,43613,1,4,0:0:0:0:
448,192,43863,1,8,0:0:0:0:
192,192,43988,1,2,0:0:0:0:
64,192,44238,1,2,0:0:0:0:
448,192,44363,1,8,0:0:0:0:
192,192,44613,1,2,0:0:0:0:
448,192,44863,1,8,0:0:0:0:
320,192,44988,1,2,0:0:0:0:
64,192,45238,1,2,0:0:0:0:
192,192,45363,1,8,0:0:0:0:
320,192,45613,1,2,0:0:0:0:
64,192,45863,1,8,0:0:0:0:
448,192,45988,1,2,0:0:0:0:
320,192,46238,1,2,0:0:0:0:
192,192,46363,1,8,0:0:0:0:
448,192,46613,1,2,0:0:0:0:
192,192,46863,1,8,0:0:0:0:
64,192,46988,1,2,0:0:0:0:
320,192,47238,1,2,0:0:0:0:
448,192,47363,1,8,0:0:0:0:
192,192,47613,1,2,0:0:0:0:
320,192,47863,1,8,0:0:0:0:
64,192,47988,1,2,0:0:0:0:
448,192,48238,1,2,0:0:0:0:
192,192,48363,1,8,0:0:0:0:
320,192,48613,128,2,48863:0:0:0:0:
64,192,48863,128,8,49113:0:0:0:0:
320,192,49113,1,8,0:0:0:0:
448,192,49113,128,0,49363:0:0:0:0:
64,192,49363,1,8,0:0:0:0:
192,192,49363,128,0,49613:0:0:0:0:
448,192,49613,1,0,0:0:0:0:
320,192,50863,128,0,51113:0:0:0:0:
192,192,51113,128,0,51363:0:0:0:0:
448,192,51363,128,0,51613:0:0:0:0:
64,192,51613,1,4,0:0:0:0:
192,192,51613,1,2,0:0:0:0:
320,192,51863,1,8,0:0:0:0:
192,192,51988,1,2,0:0:0:0:
64,192,52113,1,0,0:0:0:0:
448,192,52238,1,2,0:0:0:0:
192,192,52488,128,0,52738:0:0:0:0:
320,192,52738,1,0,0:0:0:0:
64,192,52863,1,8,0:0:0:0:
448,192,52988,128,2,53238:0:0:0:0:
192,192,53238,1,2,0:0:0:0:
320,192,53363,128,8,53613:0:0:0:0:
64,192,53613,128,2,53863:0:0:0:0:
448,192,53863,1,8,0:0:0:0:
192,192,53988,1,2,0:0:0:0:
320,192,54113,1,0,0:0:0:0:
64,192,54238,1,2,0:0:0:0:
448,192,54488,128,0,54738:0:0:0:0:
192,192,54738,1,0,0:0:0:0:
320,192,54863,1,8,0:0:0:0:
64,192,54988,1,2,0:0:0:0:
448,192,55238,1,2,0:0:0:0:
192,192,55363,128,8,55613:0:0:0:0:
320,192,55613,1,2,0:0:0:0:
64,192,55738,1,0,0:0:0:0:
448,192,55988,1,2,0:0:0:0:
320,192,56113,1,0,0:0:0:0:
192,192,56238,1,2,0:0:0:0:
64,192,56488,1,0,0:0:0:0:
448,192,56488,1,0,0:0:0:0:
320,192,56738,1,0,0:0:0:0:
64,192,56988,1,2,0:0:0:0:
448,192,56988,1,0,0:0:0:0:
192,192,57238,1,2,0:0:0:0:
320,192,57488,1,0,0:0:0:0:
64,192,57613,128,2,57863:0:0:0:0:
448,192,57863,128,8,58113:0:0:0:0:
192,192,58113,128,0,58363:0:0:0:0:
320,192,58363,128,8,58613:0:0:0:0:
64,192,58613,1,2,0:0:0:0:
448,192,58863,128,8,59113:0:0:0:0:
192,192,59113,128,0,59363:0:0:0:0:
320,192,59363,128,8,59613:0:0:0:0:
64,192,59613,128,2,59863:0:0:0:0:
448,192,59613,1,4,0:0:0:0:
320,192,59863,1,8,0:0:0:0:
192,192,59988,1,2,0:0:0:0:
448,192,60113,1,0,0:0:0:0:
320,192,60238,1,2,0:0:0:0:
64,192,60363,1,8,0:0:0:0:
192,192,60488,128,0,60738:0:0:0:0:
448,192,60738,1,0,0:0:0:0:
64,192,60863,1,8,0:0:0:0:
320,192,60988,128,2,61238:0:0:0:0:
192,192,61238,1,2,0:0:0:0:
448,192,61363,128,8,61613:0:0:0:0:
64,192,61613,128,2,61863:0:0:0:0:
320,192,61863,1,8,0:0:0:0:
192,192,61988,1,2,0:0:0:0:
448,192,62113,1,0,0:0:0:0:
64,192,62238,1,2,0:0:0:0:
192,192,62363,1,8,0:0:0:0:
320,192,62488,1,0,0:0:0:0:
448,192,62613,1,2,0:0:0:0:
64,192,62863,1,8,0:0:0:0:
320,192,62988,1,2,0:0:0:0:
192,192,63238,1,2,0:0:0:0:
448,192,63363,128,8,63613:0:0:0:0:
64,192,63613,1,2,0:0:0:0:
192,192,63738,1,0,0:0:0:0:
448,192,63863,1,8,0:0:0:0:
320,192,63988,1,2,0:0:0:0:
192,192,64113,1,0,0:0:0:0:
192,192,64363,1,8,0:0:0:0:
448,192,64488,128,0,64738:0:0:0:0:
64,192,64738,128,0,64988:0:0:0:0:
320,192,64988,128,2,65238:0:0:0:0:
192,192,65238,1,2,0:0:0:0:
448,192,65363,128,8,65613:0:0:0:0:
64,192,65613,128,0,65863:0:0:0:0:
320,192,65863,128,0,66113:0:0:0:0:
192,192,66113,128,0,66363:0:0:0:0:
448,192,66488,1,0,0:0:0:0:
320,192,66613,1,0,0:0:0:0:
64,192,66738,1,0,0:0:0:0:
192,192,66863,1,0,0:0:0:0:
320,192,66988,1,0,0:0:0:0:
192,192,67238,1,0,0:0:0:0:
320,192,67363,128,0,67613:0:0:0:0:
64,192,67613,1,4,0:0:0:0:
448,192,67613,1,2,0:0:0:0:
320,192,67738,1,0,0:0:0:0:
192,192,67863,1,8,0:0:0:0:
448,192,67988,1,2,0:0:0:0:
320,192,68113,1,0,0:0:0:0:
192,192,68238,1,2,0:0:0:0:
64,192,68363,1,8,0:0:0:0:
448,192,68488,1,0,0:0:0:0:
448,192,68738,1,0,0:0:0:0:
192,192,68863,1,8,0:0:0:0:
64,192,68988,1,2,0:0:0:0:
320,192,69113,1,0,0:0:0:0:
448,192,69238,1,2,0:0:0:0:
64,192,69363,1,8,0:0:0:0:
320,192,69488,1,0,0:0:0:0:
192,192,69613,1,2,0:0:0:0:
64,192,69738,1,0,0:0:0:0:
320,192,69863,1,8,0:0:0:0:
448,192,69988,1,2,0:0:0:0:
192,192,70113,1,0,0:0:0:0:
320,192,70238,1,2,0:0:0:0:
64,192,70363,1,8,0:0:0:0:
192,192,70488,1,0,0:0:0:0:
192,192,70738,1,0,0:0:0:0:
320,192,70988,1,2,0:0:0:0:
64,192,71113,1,0,0:0:0:0:
192,192,71238,1,2,0:0:0:0:
320,192,71363,1,8,0:0:0:0:
64,192,71488,1,0,0:0:0:0:
192,192,71613,1,2,0:0:0:0:
448,192,71613,1,4,0:0:0:0:
320,192,71738,1,0,0:0:0:0:
192,192,71863,1,8,0:0:0:0:
448,192,71988,1,2,0:0:0:0:
320,192,72113,1,0,0:0:0:0:
64,192,72238,1,2,0:0:0:0:
192,192,72363,1,8,0:0:0:0:
320,192,72488,1,0,0:0:0:0:
320,192,72738,1,0,0:0:0:0:
192,192,72863,1,8,0:0:0:0:
64,192,72988,1,2,0:0:0:0:
448,192,73113,1,0,0:0:0:0:
192,192,73238,1,2,0:0:0:0:
320,192,73363,1,8,0:0:0:0:
192,192,73488,1,0,0:0:0:0:
448,192,73613,1,2,0:0:0:0:
64,192,73738,1,0,0:0:0:0:
192,192,73863,1,8,0:0:0:0:
320,192,73988,1,2,0:0:0:0:
448,192,74113,1,0,0:0:0:0:
192,192,74238,1,2,0:0:0:0:
320,192,74363,1,8,0:0:0:0:
64,192,74488,1,0,0:0:0:0:
448,192,74613,1,8,0:0:0:0:
320,192,74738,1,8,0:0:0:0:
192,192,74863,1,8,0:0:0:0:
448,192,74988,1,8,0:0:0:0:
64,192,75238,1,2,0:0:0:0:
192,192,75363,1,8,0:0:0:0:
320,192,75488,1,0,0:0:0:0:
64,192,75613,1,2,0:0:0:0:
448,192,75613,1,4,0:0:0:0:
192,192,75863,1,8,0:0:0:0:
320,192,76113,1,0,0:0:0:0:
192,192,76238,1,2,0:0:0:0:
64,192,76363,1,2,0:0:0:0:
448,192,76363,1,4,0:0:0:0:
320,192,76488,1,0,0:0:0:0:
64,192,76738,1,2,0:0:0:0:
448,192,76863,128,0,77113:0:0:0:0:
192,192,77113,1,8,0:0:0:0:
320,192,77279,1,8,0:0:0:0:
192,192,77446,1,8,0:0:0:0:
64,192,77613,1,4,0:0:0:0:
448,192,77613,1,2,0:0:0:0:
320,192,77863,128,8,78113:0:0:0:0:
192,192,78113,128,0,78363:0:0:0:0:
64,192,78363,1,4,0:0:0:0:
448,192,78363,1,2,0:0:0:0:
320,192,78488,1,0,0:0:0:0:
192,192,78613,1,8,0:0:0:0:
64,192,78863,128,0,79113:0:0:0:0:
320,192,79113,1,8,0:0:0:0:
192,192,79279,1,8,0:0:0:0:
320,192,79446,1,8,0:0:0:0:
64,192,79613,1,2,0:0:0:0:
448,192,79613,1,4,0:0:0:0:
192,192,79738,1,0,0:0:0:0:
320,192,79863,1,8,0:0:0:0:
64,192,79988,1,2,0:0:0:0:
192,192,80113,1,0,0:0:0:0:
320,192,80363,1,2,0:0:0:0:
448,192,80363,1,4,0:0:0:0:
192,192,80488,1,0,0:0:0:0:
192,192,80738,1,2,0:0:0:0:
448,192,81113,1,8,0:0:0:0:
64,192,81279,1,8,0:0:0:0:
448,192,81446,1,8,0:0:0:0:
64,192,81613,1,4,0:0:0:0:
192,192,81613,1,2,0:0:0:0:
320,192,81738,1,0,0:0:0:0:
64,192,81988,1,2,0:0:0:0:
448,192,81988,1,4,0:0:0:0:
192,192,82113,1,0,0:0:0:0:
320,192,82363,1,2,0:0:0:0:
64,192,82488,1,2,0:0:0:0:
192,192,82488,1,4,0:0:0:0:
448,192,82738,1,0,0:0:0:0:
64,192,82988,1,4,0:0:0:0:
320,192,82988,1,2,0:0:0:0:
64,192,83613,1,4,0:0:0:0:
448,192,83613,1,2,0:0:0:0:
320,192,83863,1,2,0:0:0:0:
64,192,83988,1,0,0:0:0:0:
192,192,84113,1,2,0:0:0:0:
448,192,84238,1,0,0:0:0:0:
320,192,84363,1,2,0:0:0:0:
192,192,84488,1,0,0:0:0:0:
192,192,84738,1,0,0:0:0:0:
448,192,84863,1,2,0:0:0:0:
448,192,85113,1,2,0:0:0:0:
64,192,85363,1,2,0:0:0:0:
192,192,85363,1,4,0:0:0:0:
320,192,85613,1,2,0:0:0:0:
192,192,85863,1,2,0:0:0:0:
64,192,86113,1,2,0:0:0:0:
192,192,86238,1,0,0:0:0:0:
320,192,86363,1,2,0:0:0:0:
320,192,86613,1,2,0:0:0:0:
192,192,86863,1,2,0:0:0:0:
64,192,87113,1,4,0:0:0:0:
448,192,87113,1,2,0:0:0:0:
320,192,87238,1,0,0:0:0:0:
192,192,87363,1,2,0:0:0:0:
448,192,87488,1,0,0:0:0:0:
64,192,87613,1,2,0:0:0:0:
192,192,87738,1,0,0:0:0:0:
320,192,87863,1,2,0:0:0:0:
448,192,87988,1,0,0:0:0:0:
448,192,88238,1,0,0:0:0:0:
192,192,88363,1,2,0:0:0:0:
64,192,88613,1,2,0:0:0:0:
64,192,88863,1,2,0:0:0:0:
448,192,88863,1,4,0:0:0:0:
320,192,89113,1,0,0:0:0:0:
64,192,89238,1,2,0:0:0:0:
192,192,89238,1,4,0:0:0:0:
320,192,89488,1,0,0:0:0:0:
64,192,89738,1,4,0:0:0:0:
448,192,89738,1,2,0:0:0:0:
192,192,89988,1,0,0:0:0:0:
320,192,90238,1,4,0:0:0:0:
448,192,90238,1,2,0:0:0:0:
64,192,90863,128,2,92363:0:0:0:0:
192,192,90863,1,0,0:0:0:0:
448,192,91363,1,2,0:0:0:0:
448,192,91863,1,2,0:0:0:0:
320,192,92363,128,2,93863:0:0:0:0:
448,192,92363,1,0,0:0:0:0:
64,192,92863,1,2,0:0:0:0:
64,192,93363,1,2,0:0:0:0:
64,192,93863,1,2,0:0:0:0:
192,192,93863,128,0,95363:0:0:0:0:
320,192,94363,1,2,0:0:0:0:
320,192,94863,1,2,0:0:0:0:
320,192,95363,1,2,0:0:0:0:
448,192,95363,128,0,96863:0:0:0:0:
192,192,95863,1,2,0:0:0:0:
192,192,96363,1,2,0:0:0:0:
64,192,96863,128,2,98363:0:0:0:0:
192,192,96863,1,0,0:0:0:0:
448,192,97363,1,2,0:0:0:0:
448,192,97863,1,2,0:0:0:0:
320,192,98363,128,2,99863:0:0:0:0:
448,192,98363,1,0,0:0:0:0:
64,192,98863,1,2,0:0:0:0:
64,192,99363,1,2,0:0:0:0:
64,192,99863,1,2,0:0:0:0:
192,192,99863,128,0,101363:0:0:0:0:
320,192,100363,1,2,0:0:0:0:
320,192,100863,1,2,0:0:0:0:
64,192,101363,1,2,0:0:0:0:
448,192,101363,1,0,0:0:0:0:
320,192,101613,1,0,0:0:0:0:
192,192,101738,1,0,0:0:0:0:
448,192,101863,1,2,0:0:0:0:
64,192,101988,1,0,0:0:0:0:
192,192,102238,1,0,0:0:0:0:
320,192,102488,128,0,102738:0:0:0:0:
64,192,102738,1,0,0:0:0:0:
192,192,102863,1,2,0:0:0:0:
448,192,102863,1,4,0:0:0:0:
320,192,103113,1,8,0:0:0:0:
192,192,103238,1,2,0:0:0:0:
64,192,103363,1,0,0:0:0:0:
320,192,103488,1,2,0:0:0:0:
448,192,103613,1,8,0:0:0:0:
192,192,103738,1,0,0:0:0:0:
320,192,103988,1,0,0:0:0:0:
64,192,104363,1,2,0:0:0:0:
448,192,104363,1,4,0:0:0:0:
192,192,104488,1,0,0:0:0:0:
320,192,104613,1,8,0:0:0:0:
64,192,104738,1,2,0:0:0:0:
448,192,104863,1,0,0:0:0:0:
320,192,104988,1,2,0:0:0:0:
192,192,105113,1,8,0:0:0:0:
448,192,105238,1,0,0:0:0:0:
64,192,105488,1,0,0:0:0:0:
320,192,105863,1,4,0:0:0:0:
448,192,105863,1,2,0:0:0:0:
64,192,106113,1,8,0:0:0:0:
192,192,106238,1,2,0:0:0:0:
320,192,106363,1,0,0:0:0:0:
192,192,106488,1,2,0:0:0:0:
448,192,106613,1,8,0:0:0:0:
320,192,106738,1,0,0:0:0:0:
192,192,106863,1,2,0:0:0:0:
320,192,106988,1,0,0:0:0:0:
64,192,107238,1,2,0:0:0:0:
192,192,107363,1,2,0:0:0:0:
448,192,107363,1,4,0:0:0:0:
320,192,107613,1,8,0:0:0:0:
192,192,107738,1,2,0:0:0:0:
64,192,107863,1,0,0:0:0:0:
448,192,107988,1,2,0:0:0:0:
320,192,108113,1,8,0:0:0:0:
192,192,108238,128,0,108488:0:0:0:0:
448,192,108488,128,0,108738:0:0:0:0:
64,192,108738,1,2,0:0:0:0:
192,192,108863,1,4,0:0:0:0:
320,192,108863,1,2,0:0:0:0:
448,192,109113,1,8,0:0:0:0:
320,192,109238,1,2,0:0:0:0:
192,192,109363,1,0,0:0:0:0:
64,192,109488,1,2,0:0:0:0:
320,192,109613,1,8,0:0:0:0:
448,192,109738,1,0,0:0:0:0:
192,192,109863,128,2,110113:0:0:0:0:
448,192,110113,128,8,110363:0:0:0:0:
64,192,110363,1,2,0:0:0:0:
192,192,110363,1,4,0:0:0:0:
320,192,110613,1,8,0:0:0:0:
192,192,110738,1,2,0:0:0:0:
64,192,110988,1,2,0:0:0:0:
192,192,111113,1,8,0:0:0:0:
320,192,111238,1,0,0:0:0:0:
448,192,111488,1,0,0:0:0:0:
320,192,111613,1,8,0:0:0:0:
64,192,111863,1,4,0:0:0:0:
192,192,111863,1,2,0:0:0:0:
320,192,112113,1,8,0:0:0:0:
192,192,112238,1,2,0:0:0:0:
64,192,112363,1,0,0:0:0:0:
320,192,112488,1,2,0:0:0:0:
448,192,112613,1,8,0:0:0:0:
192,192,112738,1,0,0:0:0:0:
320,192,112863,1,2,0:0:0:0:
448,192,112988,1,2,0:0:0:0:
64,192,113238,1,2,0:0:0:0:
320,192,113363,1,2,0:0:0:0:
448,192,113363,1,4,0:0:0:0:
192,192,113613,1,0,0:0:0:0:
64,192,113738,1,4,0:0:0:0:
448,192,113738,1,2,0:0:0:0:
320,192,113988,1,0,0:0:0:0:
64,192,114113,1,2,0:0:0:0:
192,192,114113,1,4,0:0:0:0:
448,192,114613,128,0,114863:0:0:0:0:
192,192,114863,128,0,115113:0:0:0:0:
320,192,115113,128,0,115363:0:0:0:0:
64,192,115363,1,2,0:0:0:0:
448,192,115363,1,4,0:0:0:0:
192,192,115613,1,8,0:0:0:0:
320,192,115738,1,2,0:0:0:0:
448,192,115863,1,0,0:0:0:0:
64,192,115988,1,2,0:0:0:0:
320,192,116238,128,0,116488:0:0:0:0:
192,192,116488,1,0,0:0:0:0:
448,192,116613,1,8,0:0:0:0:
64,192,116738,128,2,116988:0:0:0:0:
320,192,116988,1,2,0:0:0:0:
192,192,117113,128,8,117363:0:0:0:0:
448,192,117363,128,2,117613:0:0:0:0:
64,192,117613,1,8,0:0:0:0:
320,192,117738,1,2,0:0:0:0:
192,192,117863,1,0,0:0:0:0:
448,192,117988,1,2,0:0:0:0:
64,192,118238,128,0,118488:0:0:0:0:
320,192,118488,1,0,0:0:0:0:
192,192,118613,1,8,0:0:0:0:
448,192,118738,1,2,0:0:0:0:
64,192,118988,1,2,0:0:0:0:
320,192,119113,128,8,119363:0:0:0:0:
192,192,119363,1,2,0:0:0:0:
448,192,119488,1,0,0:0:0:0:
320,192,119613,1,8,0:0:0:0:
64,192,119738,1,2,0:0:0:0:
192,192,119863,1,0,0:0:0:0:
320,192,120113,1,8,0:0:0:0:
64,192,120238,1,0,0:0:0:0:
448,192,120363,1,2,0:0:0:0:
320,192,120613,1,8,0:0:0:0:
64,192,120738,1,2,0:0:0:0:
320,192,120988,1,2,0:0:0:0:
192,192,121238,1,0,0:0:0:0:
448,192,121363,128,2,121613:0:0:0:0:
64,192,121613,128,8,121863:0:0:0:0:
320,192,121863,128,0,122113:0:0:0:0:
192,192,122113,128,8,122363:0:0:0:0:
448,192,122363,1,2,0:0:0:0:
64,192,122613,128,8,122863:0:0:0:0:
320,192,122863,128,0,123113:0:0:0:0:
192,192,123113,128,8,123363:0:0:0:0:
64,192,123363,1,4,0:0:0:0:
448,192,123363,128,2,123613:0:0:0:0:
192,192,123613,1,8,0:0:0:0:
320,192,123738,1,2,0:0:0:0:
64,192,123863,1,0,0:0:0:0:
192,192,123988,1,2,0:0:0:0:
320,192,124238,128,0,124488:0:0:0:0:
64,192,124488,128,0,124738:0:0:0:0:
448,192,124738,128,2,124988:0:0:0:0:
320,192,124988,1,2,0:0:0:0:
64,192,125113,128,8,125363:0:0:0:0:
448,192,125363,128,2,125613:0:0:0:0:
192,192,125613,1,8,0:0:0:0:
320,192,125738,128,2,125988:0:0:0:0:
64,192,125988,128,2,126238:0:0:0:0:
448,192,126238,128,0,126488:0:0:0:0:
192,192,126488,128,0,126738:0:0:0:0:
320,192,126738,128,2,126988:0:0:0:0:
448,192,126988,1,2,0:0:0:0:
64,192,127113,128,8,127363:0:0:0:0:
448,192,127363,1,2,0:0:0:0:
320,192,127488,1,0,0:0:0:0:
64,192,127613,1,8,0:0:0:0:
192,192,127738,1,2,0:0:0:0:
320,192,127863,1,0,0:0:0:0:
320,192,128113,1,8,0:0:0:0:
64,192,128238,1,0,0:0:0:0:
192,192,128363,1,2,0:0:0:0:
448,192,128488,1,0,0:0:0:0:
320,192,128613,1,8,0:0:0:0:
192,192,128738,128,2,128988:0:0:0:0:
320,192,128988,1,2,0:0:0:0:
64,192,129113,128,8,129363:0:0:0:0:
448,192,129363,128,2,129613:0:0:0:0:
192,192,129613,128,8,129863:0:0:0:0:
320,192,129863,128,0,130113:0:0:0:0:
448,192,130113,1,8,0:0:0:0:
64,192,130238,1,0,0:0:0:0:
192,192,130363,1,2,0:0:0:0:
448,192,130488,1,0,0:0:0:0:
320,192,130613,1,8,0:0:0:0:
192,192,130738,1,2,0:0:0:0:
448,192,130988,1,2,0:0:0:0:
192,192,131113,128,8,131363:0:0:0:0:
448,192,131363,1,2,0:0:0:0:
320,192,131488,1,0,0:0:0:0:
192,192,131613,1,8,0:0:0:0:
64,192,131738,1,2,0:0:0:0:
64,192,132113,1,8,0:0:0:0:
192,192,132238,1,0,0:0:0:0:
320,192,132363,1,2,0:0:0:0:
448,192,132488,1,0,0:0:0:0:
192,192,132863,1,0,0:0:0:0:
320,192,132988,1,2,0:0:0:0:
192,192,133113,1,8,0:0:0:0:
320,192,133238,1,0,0:0:0:0:
64,192,133613,1,8,0:0:0:0:
448,192,133738,1,2,0:0:0:0:
64,192,133863,1,0,0:0:0:0:
448,192,133988,1,2,0:0:0:0:
192,192,134363,1,2,0:0:0:0:
320,192,134488,1,0,0:0:0:0:
448,192,134613,1,8,0:0:0:0:
64,192,134738,1,2,0:0:0:0:
320,192,135113,1,8,0:0:0:0:
192,192,135238,1,0,0:0:0:0:
64,192,135363,1,2,0:0:0:0:
448,192,135488,1,0,0:0:0:0:
64,192,135863,1,0,0:0:0:0:
320,192,135988,1,2,0:0:0:0:
64,192,136113,1,8,0:0:0:0:
320,192,136238,1,0,0:0:0:0:
448,192,136613,1,8,0:0:0:0:
192,192,136738,1,2,0:0:0:0:
448,192,136863,1,0,0:0:0:0:
192,192,136988,1,2,0:0:0:0:
320,192,137113,1,8,0:0:0:0:
64,192,137238,1,0,0:0:0:0:
192,192,137363,1,2,0:0:0:0:
448,192,137363,1,4,0:0:0:0:
64,192,137738,1,4,0:0:0:0:
320,192,137738,1,2,0:0:0:0:
64,192,138113,1,2,0:0:0:0:
192,192,138113,1,4,0:0:0:0:
320,192,138488,1,2,0:0:0:0:
448,192,138488,1,4,0:0:0:0:
192,192,138863,1,2,0:0:0:0:
448,192,138863,1,4,0:0:0:0:
64,192,139238,1,2,0:0:0:0:
320,192,139238,1,4,0:0:0:0:
64,192,139613,1,2,0:0:0:0:
192,192,139613,1,4,0:0:0:0:
320,192,139988,1,2,0:0:0:0:
192,192,140154,1,2,0:0:0:0:
64,192,140321,1,2,0:0:0:0:
320,192,140488,1,2,0:0:0:0:
192,192,140654,1,2,0:0:0:0:
448,192,140821,1,2,0:0:0:0:
320,192,140988,1,2,0:0:0:0:
192,192,141154,1,2,0:0:0:0:
64,192,141321,1,2,0:0:0:0:
448,192,141488,1,2,0:0:0:0:
320,192,141654,1,2,0:0:0:0:
192,192,141821,1,2,0:0:0:0:
64,192,143988,1,0,0:0:0:0:
448,192,144363,1,0,0:0:0:0:
192,192,144488,1,0,0:0:0:0:
320,192,144863,1,0,0:0:0:0:
320,192,145113,1,0,0:0:0:0:
192,192,145363,1,0,0:0:0:0:
64,192,145613,1,0,0:0:0:0:
448,192,145738,1,0,0:0:0:0:
192,192,145988,1,0,0:0:0:0:
320,192,146363,1,0,0:0:0:0:
64,192,146488,1,0,0:0:0:0:
192,192,146738,1,0,0:0:0:0:
448,192,146863,1,0,0:0:0:0:
64,192,147113,1,0,0:0:0:0:
192,192,147238,1,0,0:0:0:0:
320,192,147363,1,0,0:0:0:0:
448,192,147613,1,0,0:0:0:0:
192,192,147738,1,0,0:0:0:0:
320,192,147988,1,0,0:0:0:0:
192,192,148238,1,0,0:0:0:0:
448,192,148363,1,0,0:0:0:0:
320,192,148613,1,0,0:0:0:0:
64,192,148863,1,0,0:0:0:0:
320,192,149238,1,0,0:0:0:0:
192,192,149488,1,0,0:0:0:0:
448,192,149738,1,0,0:0:0:0:
64,192,149988,1,0,0:0:0:0:
192,192,150363,1,0,0:0:0:0:
448,192,150488,1,0,0:0:0:0:
64,192,151238,128,0,151488:0:0:0:0:
448,192,151488,128,0,151738:0:0:0:0:
192,192,151738,128,0,151988:0:0:0:0:
64,192,151988,1,2,0:0:0:0:
448,192,151988,1,4,0:0:0:0:
320,192,152238,1,8,0:0:0:0:
192,192,152363,1,2,0:0:0:0:
64,192,152613,1,2,0:0:0:0:
448,192,152738,1,8,0:0:0:0:
192,192,152988,1,2,0:0:0:0:
320,192,153238,1,8,0:0:0:0:
192,192,153363,1,2,0:0:0:0:
320,192,153613,1,2,0:0:0:0:
64,192,153738,1,8,0:0:0:0:
448,192,153988,1,2,0:0:0:0:
192,192,154238,1,8,0:0:0:0:
320,192,154363,1,2,0:0:0:0:
64,192,154613,1,2,0:0:0:0:
320,192,154738,1,8,0:0:0:0:
192,192,154988,1,2,0:0:0:0:
448,192,155238,1,8,0:0:0:0:
320,192,155363,1,2,0:0:0:0:
192,192,155613,1,2,0:0:0:0:
320,192,155738,1,8,0:0:0:0:
64,192,155988,1,2,0:0:0:0:
192,192,156238,1,8,0:0:0:0:
320,192,156363,1,2,0:0:0:0:
64,192,156613,1,2,0:0:0:0:
448,192,156738,1,8,0:0:0:0:
192,192,156988,128,2,157238:0:0:0:0:
320,192,157238,1,8,0:0:0:0:
448,192,157238,128,0,157488:0:0:0:0:
64,192,157488,1,8,0:0:0:0:
192,192,157613,1,8,0:0:0:0:
320,192,157738,1,8,0:0:0:0:
448,192,157863,1,8,0:0:0:0:
64,192,157988,128,4,158363:0:0:0:0:
448,192,158363,128,4,158738:0:0:0:0:
192,192,158738,128,4,159113:0:0:0:0:
320,192,159113,128,4,159488:0:0:0:0:
64,192,159488,128,4,159863:0:0:0:0:
448,192,159863,128,4,160238:0:0:0:0:
192,192,160238,128,4,160613:0:0:0:0:
320,192,160613,128,4,160988:0:0:0:0:
448,192,160988,128,4,161363:0:0:0:0:
64,192,161363,128,4,161738:0:0:0:0:
320,192,161738,128,4,162113:0:0:0:0:
192,192,162113,128,4,162488:0:0:0:0:
448,192,163488,1,0,0:0:0:0:
320,192,163738,1,0,0:0:0:0:
64,192,163988,1,0,0:0:0:0:
320,192,164238,1,0,0:0:0:0:
448,192,164363,1,0,0:0:0:0:
192,192,164488,1,0,0:0:0:0:
192,192,164738,1,0,0:0:0:0:
320,192,164988,1,0,0:0:0:0:
64,192,165238,1,0,0:0:0:0:
448,192,165363,1,0,0:0:0:0:
192,192,165488,1,0,0:0:0:0:
192,192,165738,1,0,0:0:0:0:
320,192,165988,1,0,0:0:0:0:
192,192,166238,1,0,0:0:0:0:
64,192,166363,1,0,0:0:0:0:
448,192,166488,1,0,0:0:0:0:
448,192,166738,1,0,0:0:0:0:
192,192,166988,1,0,0:0:0:0:
320,192,167238,1,0,0:0:0:0:
192,192,167363,1,0,0:0:0:0:
64,192,167488,1,0,0:0:0:0:
64,192,167738,1,0,0:0:0:0:
448,192,167988,1,0,0:0:0:0:
320,192,168238,1,0,0:0:0:0:
192,192,168363,1,0,0:0:0:0:
448,192,168488,1,0,0:0:0:0:
448,192,168738,1,0,0:0:0:0:
64,192,168988,1,0,0:0:0:0:
320,192,169238,1,0,0:0:0:0:
192,192,169363,1,0,0:0:0:0:
448,192,169488,1,0,0:0:0:0:
64,192,169613,1,0,0:0:0:0:
448,192,169738,1,0,0:0:0:0:
192,192,169988,1,0,0:0:0:0:
192,192,170238,1,0,0:0:0:0:
448,192,170488,1,0,0:0:0:0:
320,192,170613,1,0,0:0:0:0:
64,192,170738,1,0,0:0:0:0:
448,192,170988,128,0,171238:0:0:0:0:
64,192,171238,128,0,171488:0:0:0:0:
320,192,171488,1,2,0:0:0:0:
448,192,171488,1,4,0:0:0:0:
192,192,171738,1,8,0:0:0:0:
448,192,171863,1,2,0:0:0:0:
448,192,172113,1,2,0:0:0:0:
64,192,172238,1,8,0:0:0:0:
320,192,172488,1,2,0:0:0:0:
192,192,172738,1,8,0:0:0:0:
320,192,172863,1,2,0:0:0:0:
320,192,173113,1,2,0:0:0:0:
64,192,173238,1,8,0:0:0:0:
192,192,173488,1,2,0:0:0:0:
320,192,173738,1,8,0:0:0:0:
192,192,173863,1,2,0:0:0:0:
192,192,174113,1,2,0:0:0:0:
448,192,174238,1,8,0:0:0:0:
64,192,174488,1,2,0:0:0:0:
320,192,174738,1,8,0:0:0:0:
64,192,174863,1,2,0:0:0:0:
64,192,175113,1,2,0:0:0:0:
320,192,175238,1,8,0:0:0:0:
448,192,175488,1,2,0:0:0:0:
192,192,175738,1,8,0:0:0:0:
448,192,175863,1,2,0:0:0:0:
448,192,176113,1,2,0:0:0:0:
64,192,176238,1,8,0:0:0:0:
320,192,176488,1,2,0:0:0:0:
192,192,176738,1,8,0:0:0:0:
320,192,176863,1,2,0:0:0:0:
320,192,177113,1,2,0:0:0:0:
64,192,177238,1,8,0:0:0:0:
192,192,177488,1,2,0:0:0:0:
448,192,177738,1,8,0:0:0:0:
192,192,177863,1,2,0:0:0:0:
192,192,178113,1,2,0:0:0:0:
320,192,178238,1,8,0:0:0:0:
64,192,178488,1,2,0:0:0:0:
320,192,178738,1,8,0:0:0:0:
448,192,178738,128,0,178988:0:0:0:0:
192,192,178988,128,0,179238:0:0:0:0:
64,192,179238,1,8,0:0:0:0:
320,192,179238,128,0,179488:0:0:0:0:
64,192,179488,1,4,0:0:0:0:
448,192,179488,1,2,0:0:0:0:
320,192,179738,1,8,0:0:0:0:
192,192,179863,1,2,0:0:0:0:
64,192,179988,1,0,0:0:0:0:
448,192,180113,1,2,0:0:0:0:
192,192,180363,128,0,180613:0:0:0:0:
320,192,180613,1,0,0:0:0:0:
64,192,180738,1,8,0:0:0:0:
448,192,180863,128,2,181113:0:0:0:0:
192,192,181113,1,2,0:0:0:0:
320,192,181238,128,8,181488:0:0:0:0:
64,192,181488,1,2,0:0:0:0:
192,192,181613,1,0,0:0:0:0:
448,192,181863,1,2,0:0:0:0:
320,192,181988,1,0,0:0:0:0:
64,192,182113,1,2,0:0:0:0:
448,192,182363,128,0,182613:0:0:0:0:
192,192,182613,1,0,0:0:0:0:
320,192,182738,1,8,0:0:0:0:
64,192,182863,1,2,0:0:0:0:
448,192,183113,1,2,0:0:0:0:
192,192,183238,128,8,183488:0:0:0:0:
320,192,183488,1,2,0:0:0:0:
64,192,183613,1,0,0:0:0:0:
448,192,183863,1,2,0:0:0:0:
320,192,183988,1,0,0:0:0:0:
192,192,184113,1,2,0:0:0:0:
64,192,184363,1,0,0:0:0:0:
448,192,184363,1,0,0:0:0:0:
320,192,184613,1,0,0:0:0:0:
64,192,184863,1,2,0:0:0:0:
448,192,184863,1,0,0:0:0:0:
192,192,185113,1,2,0:0:0:0:
320,192,185363,1,0,0:0:0:0:
64,192,185488,128,2,185738:0:0:0:0:
448,192,185738,128,8,185988:0:0:0:0:
192,192,185988,128,0,186238:0:0:0:0:
320,192,186238,128,8,186488:0:0:0:0:
64,192,186488,1,2,0:0:0:0:
448,192,186738,128,8,186988:0:0:0:0:
192,192,186988,128,0,187238:0:0:0:0:
320,192,187238,128,8,187488:0:0:0:0:
448,192,187488,1,6,0:0:0:0:
64,192,187613,1,0,0:0:0:0:
320,192,187738,1,8,0:0:0:0:
192,192,187863,1,2,0:0:0:0:
448,192,187988,1,0,0:0:0:0:
320,192,188113,1,2,0:0:0:0:
64,192,188238,1,8,0:0:0:0:
320,192,188363,1,0,0:0:0:0:
192,192,188488,1,2,0:0:0:0:
448,192,188613,1,0,0:0:0:0:
64,192,188738,1,8,0:0:0:0:
320,192,188863,1,2,0:0:0:0:
192,192,189113,1,2,0:0:0:0:
448,192,189238,128,8,189488:0:0:0:0:
64,192,189488,128,2,189738:0:0:0:0:
320,192,189738,128,8,189988:0:0:0:0:
448,192,189988,128,0,190238:0:0:0:0:
64,192,190238,1,8,0:0:0:0:
320,192,190363,128,0,190613:0:0:0:0:
192,192,190613,1,0,0:0:0:0:
64,192,190738,128,8,190988:0:0:0:0:
448,192,190988,1,0,0:0:0:0:
448,192,191238,128,8,191488:0:0:0:0:
64,192,191488,1,2,0:0:0:0:
448,192,191738,1,8,0:0:0:0:
320,192,191863,1,2,0:0:0:0:
64,192,191988,1,0,0:0:0:0:
320,192,192113,1,2,0:0:0:0:
192,192,192238,1,8,0:0:0:0:
448,192,192363,1,0,0:0:0:0:
192,192,192488,1,2,0:0:0:0:
320,192,192613,1,0,0:0:0:0:
64,192,192738,1,8,0:0:0:0:
320,192,192863,128,2,193113:0:0:0:0:
192,192,193113,1,2,0:0:0:0:
448,192,193238,128,8,193488:0:0:0:0:
64,192,193488,128,2,193738:0:0:0:0:
320,192,193738,128,8,193988:0:0:0:0:
192,192,193988,128,0,194238:0:0:0:0:
64,192,194238,1,8,0:0:0:0:
448,192,194363,1,0,0:0:0:0:
320,192,194488,1,2,0:0:0:0:
64,192,194613,1,0,0:0:0:0:
192,192,194738,1,8,0:0:0:0:
320,192,194863,1,2,0:0:0:0:
192,192,195113,1,2,0:0:0:0:
320,192,195238,128,8,195488:0:0:0:0:
64,192,195488,1,2,0:0:0:0:
448,192,195488,1,4,0:0:0:0:
192,192,195738,1,8,0:0:0:0:
320,192,195863,1,2,0:0:0:0:
448,192,195988,1,0,0:0:0:0:
64,192,196238,1,4,0:0:0:0:
192,192,196238,1,2,0:0:0:0:
320,192,196488,1,8,0:0:0:0:
192,192,196613,1,2,0:0:0:0:
448,192,196738,1,0,0:0:0:0:
64,192,196988,1,8,0:0:0:0:
320,192,197154,1,8,0:0:0:0:
64,192,197321,1,8,0:0:0:0:
320,192,197488,1,4,0:0:0:0:
448,192,197488,1,2,0:0:0:0:
192,192,197738,1,8,0:0:0:0:
320,192,197863,1,2,0:0:0:0:
64,192,197988,1,0,0:0:0:0:
320,192,198238,1,2,0:0:0:0:
448,192,198238,1,4,0:0:0:0:
192,192,198488,1,8,0:0:0:0:
320,192,198613,1,2,0:0:0:0:
64,192,198738,1,0,0:0:0:0:
448,192,198988,1,8,0:0:0:0:
192,192,199154,1,8,0:0:0:0:
448,192,199321,1,8,0:0:0:0:
64,192,199488,1,2,0:0:0:0:
320,192,199488,1,4,0:0:0:0:
192,192,199738,1,8,0:0:0:0:
320,192,199863,1,2,0:0:0:0:
448,192,199988,1,0,0:0:0:0:
64,192,200238,1,4,0:0:0:0:
192,192,200238,1,2,0:0:0:0:
320,192,200488,1,8,0:0:0:0:
64,192,200613,1,2,0:0:0:0:
448,192,200738,1,0,0:0:0:0:
192,192,200988,1,8,0:0:0:0:
320,192,201154,1,8,0:0:0:0:
192,192,201321,1,8,0:0:0:0:
64,192,201488,1,4,0:0:0:0:
448,192,201488,1,2,0:0:0:0:
320,192,201738,1,8,0:0:0:0:
192,192,201863,1,2,0:0:0:0:
64,192,201988,1,0,0:0:0:0:
192,192,202238,1,2,0:0:0:0:
448,192,202238,1,4,0:0:0:0:
320,192,202488,1,8,0:0:0:0:
64,192,202613,1,2,0:0:0:0:
192,192,202738,1,0,0:0:0:0:
448,192,202988,128,8,203488:0:0:0:0:
64,192,203488,1,2,0:0:0:0:
192,192,203488,1,4,0:0:0:0:
320,192,203738,1,2,0:0:0:0:
448,192,203863,1,0,0:0:0:0:
192,192,203988,1,2,0:0:0:0:
320,192,204238,1,2,0:0:0:0:
64,192,204488,1,2,0:0:0:0:
192,192,204613,1,0,0:0:0:0:
320,192,204738,1,2,0:0:0:0:
64,192,204988,1,2,0:0:0:0:
64,192,205238,1,2,0:0:0:0:
192,192,205488,1,4,0:0:0:0:
448,192,205488,1,2,0:0:0:0:
320,192,205738,1,2,0:0:0:0:
64,192,205863,1,0,0:0:0:0:
192,192,205988,1,2,0:0:0:0:
320,192,206238,1,2,0:0:0:0:
448,192,206488,1,2,0:0:0:0:
192,192,206613,1,0,0:0:0:0:
64,192,206738,1,2,0:0:0:0:
448,192,206988,1,2,0:0:0:0:
448,192,207238,1,2,0:0:0:0:
64,192,207488,1,2,0:0:0:0:
320,192,207488,1,4,0:0:0:0:
192,192,207738,1,2,0:0:0:0:
64,192,207863,1,0,0:0:0:0:
320,192,207988,1,2,0:0:0:0:
192,192,208238,1,2,0:0:0:0:
448,192,208488,1,2,0:0:0:0:
320,192,208613,1,0,0:0:0:0:
192,192,208738,1,2,0:0:0:0:
448,192,208988,1,2,0:0:0:0:
448,192,209238,1,2,0:0:0:0:
64,192,209488,1,4,0:0:0:0:
320,192,209488,1,2,0:0:0:0:
192,192,209738,1,2,0:0:0:0:
448,192,209863,1,0,0:0:0:0:
320,192,209988,1,2,0:0:0:0:
192,192,210238,1,2,0:0:0:0:
64,192,210488,1,2,0:0:0:0:
320,192,210613,1,0,0:0:0:0:
448,192,210738,1,2,0:0:0:0:
64,192,210988,1,8,0:0:0:0:
320,192,211113,1,8,0:0:0:0:
64,192,211238,1,8,0:0:0:0:
192,192,211363,1,8,0:0:0:0:
448,192,211363,1,0,0:0:0:0:
