osu file format v14

[General]
AudioFilename: kingworld.ogg
AudioLeadIn: 0
PreviewTime: 114563
Countdown: 0
SampleSet: Soft
StackLeniency: 0.7
Mode: 3
LetterboxInBreaks: 0
SpecialStyle: 0
WidescreenStoryboard: 1

[Editor]
Bookmarks: 51628,115363
DistanceSpacing: 0.7
BeatDivisor: 4
GridSize: 32
TimelineZoom: 1.999999

[Metadata]
Title:KINGWORLD
TitleUnicode:KINGWORLD
Artist:sasakure.UK feat. Shirakami Fubuki
ArtistUnicode:sasakure.UK feat. 白上フブキ
Creator:Rivals_7
Version:Fapu vs Rivals' Hyper
Source:jubeat Ave.
Tags:antipole [ping] thenewbungping chocomilku- achsanlovers sherly faputa 佐々木秀尚 sasaki hidehisa 有形ランペイジ ukrampage 8-bit electronic japanese video game hololive ホロライブ 1st generation gamers vtuber virtual youtuber fbk 2nd original song single jumpstream handstream chiptune
BeatmapID:3641349
BeatmapSetID:1777999

[Difficulty]
HPDrainRate:7.7
CircleSize:4
OverallDifficulty:7.7
ApproachRate:5
SliderMultiplier:1.4
SliderTickRate:1

[Events]
//Background and Video events
0,0,"kwor.jpg",0,0
//Break Periods
//Storyboard Layer 0 (Background)
//Storyboard Layer 1 (Fail)
//Storyboard Layer 2 (Pass)
//Storyboard Layer 3 (Foreground)
//Storyboard Layer 4 (Overlay)
//Storyboard Sound Samples

[TimingPoints]
981,250,3,2,1,50,1,0
3605,344.827586206897,4,2,1,50,1,0
3605,-72.5163161711385,4,2,1,50,0,0
3776,319.148936170213,4,2,1,50,1,8
3776,-78.3699059561128,4,2,1,50,0,0
3935,295.566502463054,4,2,1,50,1,8
3935,-84.6023688663283,4,2,1,50,0,0
4230,250,4,2,1,50,1,0
5113,250,4,2,1,50,1,0
21113,250,7,2,1,50,1,0
26363,250,4,2,1,50,1,0
28363,250,7,2,1,50,1,0
33613,250,4,2,1,50,1,0
35613,250,4,2,1,50,1,0
51613,-100,4,2,1,50,0,1
67613,-100,4,2,1,50,0,0
83613,250,7,2,1,50,1,0
88863,250,4,2,1,50,1,0
90863,250,6,2,1,50,1,0
113363,250,4,2,1,50,1,0
115363,250,4,2,1,50,1,1
131363,250,3,2,1,50,1,0
139988,250,4,2,1,50,1,0
157988,250,3,2,1,50,1,0
163488,250,4,2,1,50,1,0
179488,-100,4,2,1,50,0,1
195488,-100,4,2,1,50,0,0

[HitObjects]
448,192,481,5,0,0:0:0:0:
320,192,543,1,0,0:0:0:0:
192,192,606,1,0,0:0:0:0:
64,192,668,1,0,0:0:0:0:
448,192,731,1,0,0:0:0:0:
320,192,793,1,0,0:0:0:0:
64,192,856,1,0,0:0:0:0:
192,192,918,1,0,0:0:0:0:
320,192,981,1,2,0:0:0:0:
448,192,981,128,0,1106:0:0:0:0:
64,192,1106,128,0,1231:0:0:0:0:
192,192,1231,128,0,1356:0:0:0:0:
320,192,1356,1,2,0:0:0:0:
448,192,1356,128,0,1481:0:0:0:0:
192,192,1481,128,0,1606:0:0:0:0:
320,192,1606,128,0,1731:0:0:0:0:
64,192,1731,128,2,1856:0:0:0:0:
192,192,1731,1,0,0:0:0:0:
320,192,1856,128,0,1981:0:0:0:0:
448,192,1981,128,0,2106:0:0:0:0:
64,192,2106,1,2,0:0:0:0:
192,192,2106,128,0,2231:0:0:0:0:
448,192,2231,128,0,2356:0:0:0:0:
64,192,2356,128,0,2481:0:0:0:0:
320,192,2481,128,2,2606:0:0:0:0:
448,192,2481,1,0,0:0:0:0:
64,192,2606,128,0,2731:0:0:0:0:
192,192,2731,128,0,2856:0:0:0:0:
320,192,2856,1,2,0:0:0:0:
448,192,2856,128,0,2981:0:0:0:0:
192,192,2981,128,0,3106:0:0:0:0:
320,192,3106,128,0,3231:0:0:0:0:
64,192,3231,128,2,3356:0:0:0:0:
192,192,3231,1,0,0:0:0:0:
320,192,3356,128,0,3481:0:0:0:0:
448,192,3481,128,0,3605:0:0:0:0:
64,192,3605,128,2,3776:0:0:0:0:
192,192,3605,128,4,3776:0:0:0:0:
320,192,3776,128,2,3935:0:0:0:0:
448,192,3776,128,4,3935:0:0:0:0:
64,192,3935,128,2,4082:0:0:0:0:
192,192,3935,128,4,4082:0:0:0:0:
448,192,4230,1,0,0:0:0:0:
192,192,4355,1,0,0:0:0:0:
320,192,4480,1,0,0:0:0:0:
448,192,4605,1,0,0:0:0:0:
64,192,4730,1,0,0:0:0:0:
448,192,4855,1,0,0:0:0:0:
320,192,4917,1,0,0:0:0:0:
192,192,4980,1,0,0:0:0:0:
64,192,5113,1,4,0:0:0:0:
320,192,5113,1,0,0:0:0:0:
448,192,5113,128,0,5363:0:0:0:0:
64,192,5363,1,8,0:0:0:0:
192,192,5363,1,0,0:0:0:0:
320,192,5488,1,2,0:0:0:0:
448,192,5488,1,0,0:0:0:0:
64,192,5613,1,0,0:0:0:0:
320,192,5738,1,2,0:0:0:0:
448,192,5738,1,0,0:0:0:0:
64,192,5863,1,8,0:0:0:0:
192,192,5863,1,0,0:0:0:0:
320,192,5925,1,0,0:0:0:0:
448,192,5988,1,0,0:0:0:0:
64,192,6113,1,2,0:0:0:0:
192,192,6113,1,0,0:0:0:0:
320,192,6238,1,0,0:0:0:0:
64,192,6363,1,8,0:0:0:0:
448,192,6363,1,0,0:0:0:0:
192,192,6488,1,2,0:0:0:0:
320,192,6488,1,0,0:0:0:0:
64,192,6550,1,0,0:0:0:0:
448,192,6613,1,0,0:0:0:0:
64,192,6738,1,2,0:0:0:0:
192,192,6738,1,0,0:0:0:0:
320,192,6863,1,8,0:0:0:0:
448,192,6863,1,0,0:0:0:0:
192,192,6988,1,0,0:0:0:0:
64,192,7113,1,2,0:0:0:0:
448,192,7113,1,0,0:0:0:0:
320,192,7238,1,0,0:0:0:0:
64,192,7363,1,8,0:0:0:0:
192,192,7363,1,0,0:0:0:0:
320,192,7488,1,2,0:0:0:0:
448,192,7488,1,0,0:0:0:0:
64,192,7613,1,0,0:0:0:0:
320,192,7738,1,2,0:0:0:0:
448,192,7738,1,0,0:0:0:0:
64,192,7863,1,8,0:0:0:0:
192,192,7863,1,0,0:0:0:0:
320,192,7988,1,0,0:0:0:0:
192,192,8113,1,2,0:0:0:0:
448,192,8113,1,0,0:0:0:0:
64,192,8238,1,0,0:0:0:0:
320,192,8363,1,8,0:0:0:0:
448,192,8363,1,0,0:0:0:0:
64,192,8488,1,2,0:0:0:0:
192,192,8488,1,0,0:0:0:0:
448,192,8613,1,0,0:0:0:0:
192,192,8738,1,2,0:0:0:0:
320,192,8738,1,0,0:0:0:0:
64,192,8863,1,8,0:0:0:0:
448,192,8863,1,0,0:0:0:0:
320,192,8988,1,0,0:0:0:0:
64,192,9113,1,4,0:0:0:0:
192,192,9113,1,2,0:0:0:0:
448,192,9113,1,0,0:0:0:0:
320,192,9238,1,0,0:0:0:0:
64,192,9363,1,8,0:0:0:0:
448,192,9363,1,0,0:0:0:0:
192,192,9488,1,2,0:0:0:0:
320,192,9488,1,0,0:0:0:0:
448,192,9613,1,0,0:0:0:0:
192,192,9738,1,2,0:0:0:0:
320,192,9738,1,0,0:0:0:0:
64,192,9863,1,8,0:0:0:0:
448,192,9863,1,0,0:0:0:0:
320,192,9925,1,0,0:0:0:0:
192,192,9988,1,0,0:0:0:0:
64,192,10113,1,2,0:0:0:0:
448,192,10113,1,0,0:0:0:0:
320,192,10238,1,0,0:0:0:0:
64,192,10363,1,8,0:0:0:0:
192,192,10363,1,0,0:0:0:0:
320,192,10488,1,2,0:0:0:0:
448,192,10488,1,0,0:0:0:0:
192,192,10550,1,0,0:0:0:0:
64,192,10613,1,0,0:0:0:0:
192,192,10738,1,2,0:0:0:0:
448,192,10738,1,0,0:0:0:0:
64,192,10863,1,8,0:0:0:0:
320,192,10863,1,0,0:0:0:0:
64,192,10988,1,0,0:0:0:0:
320,192,11113,1,2,0:0:0:0:
448,192,11113,1,0,0:0:0:0:
448,192,11238,1,0,0:0:0:0:
64,192,11363,1,8,0:0:0:0:
192,192,11363,1,0,0:0:0:0:
320,192,11488,1,2,0:0:0:0:
448,192,11488,1,0,0:0:0:0:
64,192,11613,1,0,0:0:0:0:
320,192,11738,1,2,0:0:0:0:
448,192,11738,1,0,0:0:0:0:
64,192,11863,1,8,0:0:0:0:
320,192,11863,1,0,0:0:0:0:
192,192,11988,1,0,0:0:0:0:
320,192,12113,1,2,0:0:0:0:
448,192,12113,1,0,0:0:0:0:
64,192,12238,1,0,0:0:0:0:
192,192,12363,1,8,0:0:0:0:
448,192,12363,1,0,0:0:0:0:
64,192,12488,1,2,0:0:0:0:
320,192,12488,1,0,0:0:0:0:
448,192,12738,1,2,0:0:0:0:
320,192,12800,1,0,0:0:0:0:
64,192,12863,1,8,0:0:0:0:
192,192,12925,1,0,0:0:0:0:
448,192,12988,1,0,0:0:0:0:
320,192,13050,1,0,0:0:0:0:
64,192,13113,128,2,13363:0:0:0:0:
192,192,13113,1,4,0:0:0:0:
448,192,13113,1,0,0:0:0:0:
192,192,13363,1,8,0:0:0:0:
448,192,13363,1,0,0:0:0:0:
320,192,13488,1,2,0:0:0:0:
448,192,13488,1,0,0:0:0:0:
64,192,13613,1,0,0:0:0:0:
192,192,13738,1,2,0:0:0:0:
320,192,13738,1,0,0:0:0:0:
64,192,13863,1,8,0:0:0:0:
448,192,13863,1,0,0:0:0:0:
192,192,13925,1,0,0:0:0:0:
320,192,13988,1,0,0:0:0:0:
64,192,14113,1,2,0:0:0:0:
448,192,14113,1,0,0:0:0:0:
192,192,14238,1,0,0:0:0:0:
64,192,14363,1,8,0:0:0:0:
320,192,14363,1,0,0:0:0:0:
192,192,14488,1,2,0:0:0:0:
448,192,14488,1,0,0:0:0:0:
320,192,14550,1,0,0:0:0:0:
64,192,14613,1,0,0:0:0:0:
320,192,14738,1,2,0:0:0:0:
448,192,14738,1,0,0:0:0:0:
64,192,14863,1,8,0:0:0:0:
192,192,14863,1,0,0:0:0:0:
320,192,14988,1,0,0:0:0:0:
192,192,15113,1,2,0:0:0:0:
448,192,15113,1,0,0:0:0:0:
64,192,15238,1,0,0:0:0:0:
320,192,15363,1,8,0:0:0:0:
448,192,15363,1,0,0:0:0:0:
192,192,15488,1,2,0:0:0:0:
448,192,15488,1,0,0:0:0:0:
64,192,15613,1,0,0:0:0:0:
64,192,15738,1,2,0:0:0:0:
192,192,15738,1,0,0:0:0:0:
320,192,15863,1,8,0:0:0:0:
448,192,15863,1,0,0:0:0:0:
64,192,15988,1,0,0:0:0:0:
192,192,15988,1,0,0:0:0:0:
320,192,16113,1,2,0:0:0:0:
448,192,16113,1,0,0:0:0:0:
64,192,16238,1,0,0:0:0:0:
192,192,16363,1,8,0:0:0:0:
448,192,16363,1,0,0:0:0:0:
320,192,16488,1,2,0:0:0:0:
64,192,16613,1,0,0:0:0:0:
192,192,16738,1,2,0:0:0:0:
448,192,16738,1,0,0:0:0:0:
64,192,16863,1,8,0:0:0:0:
320,192,16863,1,0,0:0:0:0:
448,192,16988,1,0,0:0:0:0:
64,192,17113,1,4,0:0:0:0:
192,192,17113,1,2,0:0:0:0:
320,192,17113,1,0,0:0:0:0:
448,192,17238,1,0,0:0:0:0:
64,192,17363,1,8,0:0:0:0:
192,192,17363,1,0,0:0:0:0:
320,192,17488,1,2,0:0:0:0:
448,192,17488,1,0,0:0:0:0:
192,192,17613,1,0,0:0:0:0:
64,192,17738,1,2,0:0:0:0:
320,192,17738,1,0,0:0:0:0:
192,192,17863,1,8,0:0:0:0:
448,192,17863,1,0,0:0:0:0:
320,192,17925,1,0,0:0:0:0:
192,192,17988,1,0,0:0:0:0:
64,192,18113,1,2,0:0:0:0:
448,192,18113,1,0,0:0:0:0:
320,192,18238,1,0,0:0:0:0:
64,192,18363,1,8,0:0:0:0:
192,192,18363,1,0,0:0:0:0:
64,192,18488,1,2,0:0:0:0:
320,192,18488,1,0,0:0:0:0:
192,192,18550,1,0,0:0:0:0:
448,192,18613,1,0,0:0:0:0:
64,192,18738,1,2,0:0:0:0:
320,192,18738,1,0,0:0:0:0:
192,192,18863,1,8,0:0:0:0:
448,192,18863,1,0,0:0:0:0:
320,192,18988,1,0,0:0:0:0:
64,192,19113,1,2,0:0:0:0:
192,192,19113,1,0,0:0:0:0:
320,192,19238,1,0,0:0:0:0:
64,192,19363,1,8,0:0:0:0:
448,192,19363,1,0,0:0:0:0:
192,192,19488,1,2,0:0:0:0:
320,192,19488,1,0,0:0:0:0:
64,192,19613,1,0,0:0:0:0:
320,192,19738,1,2,0:0:0:0:
448,192,19738,1,0,0:0:0:0:
64,192,19863,1,8,0:0:0:0:
320,192,19863,1,0,0:0:0:0:
192,192,19988,1,0,0:0:0:0:
64,192,20113,1,2,0:0:0:0:
448,192,20113,1,0,0:0:0:0:
320,192,20238,1,0,0:0:0:0:
64,192,20363,1,8,0:0:0:0:
448,192,20363,1,0,0:0:0:0:
192,192,20488,1,2,0:0:0:0:
320,192,20488,1,0,0:0:0:0:
64,192,20738,1,2,0:0:0:0:
192,192,20800,1,0,0:0:0:0:
448,192,20863,1,8,0:0:0:0:
320,192,20925,1,0,0:0:0:0:
64,192,20988,1,0,0:0:0:0:
192,192,21050,1,0,0:0:0:0:
320,192,21113,1,2,0:0:0:0:
448,192,21113,1,4,0:0:0:0:
192,192,21238,1,0,0:0:0:0:
320,192,21363,1,0,0:0:0:0:
448,192,21488,1,0,0:0:0:0:
64,192,21613,1,8,0:0:0:0:
448,192,21613,1,0,0:0:0:0:
192,192,21738,1,0,0:0:0:0:
448,192,21863,1,0,0:0:0:0:
320,192,21925,1,0,0:0:0:0:
64,192,21988,1,2,0:0:0:0:
192,192,21988,1,0,0:0:0:0:
64,192,22238,128,8,22363:0:0:0:0:
320,192,22238,1,0,0:0:0:0:
192,192,22363,1,8,0:0:0:0:
448,192,22363,128,0,22488:0:0:0:0:
64,192,22488,1,0,0:0:0:40:Tom3.wav
192,192,22550,1,0,0:0:0:0:
320,192,22613,1,0,0:0:0:40:Tom3.wav
448,192,22613,1,0,0:0:0:0:
64,192,22738,1,0,0:0:0:40:Tom3.wav
192,192,22738,1,0,0:0:0:0:
320,192,22863,1,4,0:0:0:0:
448,192,22863,1,2,0:0:0:0:
64,192,22988,1,0,0:0:0:0:
448,192,23113,1,0,0:0:0:0:
320,192,23238,1,0,0:0:0:0:
64,192,23363,1,8,0:0:0:0:
192,192,23363,1,0,0:0:0:0:
320,192,23488,1,0,0:0:0:0:
448,192,23613,1,0,0:0:0:0:
64,192,23738,1,2,0:0:0:0:
192,192,23738,1,0,0:0:0:0:
320,192,23988,128,8,24113:0:0:0:0:
448,192,23988,1,0,0:0:0:0:
64,192,24113,1,8,0:0:0:0:
192,192,24113,128,0,24238:0:0:0:0:
320,192,24238,1,0,0:0:0:40:Tom3.wav
448,192,24238,1,0,0:0:0:0:
64,192,24363,1,0,0:0:0:40:Tom3.wav
192,192,24363,1,0,0:0:0:0:
320,192,24488,1,0,0:0:0:40:Tom3.wav
448,192,24488,1,0,0:0:0:0:
64,192,24613,1,2,0:0:0:0:
192,192,24613,1,4,0:0:0:0:
320,192,24738,1,0,0:0:0:0:
192,192,24863,1,0,0:0:0:0:
64,192,24988,1,0,0:0:0:0:
320,192,25113,1,8,0:0:0:0:
448,192,25113,1,0,0:0:0:0:
192,192,25238,1,0,0:0:0:0:
64,192,25363,1,0,0:0:0:0:
192,192,25425,1,0,0:0:0:0:
320,192,25488,1,2,0:0:0:0:
448,192,25488,1,0,0:0:0:0:
320,192,25738,1,8,0:0:0:0:
448,192,25738,128,0,25863:0:0:0:0:
64,192,25863,128,8,25988:0:0:0:0:
192,192,25863,1,0,0:0:0:0:
448,192,25988,1,0,0:0:0:40:Tom3.wav
192,192,26050,1,0,0:0:0:0:
64,192,26113,1,0,0:0:0:40:Tom3.wav
320,192,26113,1,0,0:0:0:0:
192,192,26238,1,0,0:0:0:40:Tom3.wav
448,192,26238,1,0,0:0:0:0:
64,192,26363,1,4,0:0:0:0:
320,192,26363,1,2,0:0:0:0:
448,192,26363,1,0,0:0:0:0:
192,192,26488,1,0,0:0:0:0:
320,192,26613,1,0,0:0:0:0:
192,192,26738,1,2,0:0:0:0:
448,192,26738,1,0,0:0:0:0:
64,192,26738,1,4,0:0:0:0:
320,192,26863,1,0,0:0:0:0:
192,192,26988,1,0,0:0:0:0:
64,192,27113,1,2,0:0:0:0:
192,192,27238,1,2,0:0:0:0:
320,192,27238,1,4,0:0:0:0:
448,192,27238,1,0,0:0:0:0:
64,192,27363,1,0,0:0:0:0:
192,192,27488,1,0,0:0:0:0:
320,192,27613,1,0,0:0:0:0:
448,192,27738,1,0,0:0:0:0:
64,192,27738,1,4,0:0:0:0:
192,192,27738,1,2,0:0:0:0:
64,192,28363,1,2,0:0:0:0:
192,192,28363,1,4,0:0:0:0:
320,192,28363,1,0,0:0:0:0:
448,192,28488,1,0,0:0:0:0:
64,192,28613,1,2,0:0:0:0:
192,192,28613,1,0,0:0:0:0:
320,192,28738,1,0,0:0:0:0:
192,192,28863,1,2,0:0:0:0:
448,192,28863,1,0,0:0:0:0:
64,192,28988,1,0,0:0:0:0:
320,192,29113,1,2,0:0:0:0:
448,192,29113,1,0,0:0:0:0:
192,192,29175,1,0,0:0:0:0:
64,192,29238,1,0,0:0:0:0:
320,192,29363,1,2,0:0:0:0:
448,192,29363,1,0,0:0:0:0:
192,192,29488,1,0,0:0:0:0:
64,192,29613,1,2,0:0:0:0:
320,192,29613,1,0,0:0:0:0:
192,192,29738,1,0,0:0:0:0:
320,192,29800,1,0,0:0:0:0:
64,192,29863,1,2,0:0:0:0:
448,192,29863,1,0,0:0:0:0:
192,192,29988,1,0,0:0:0:0:
320,192,29988,1,0,0:0:0:0:
64,192,30113,1,4,0:0:0:0:
192,192,30113,1,2,0:0:0:0:
448,192,30113,1,0,0:0:0:0:
320,192,30238,1,0,0:0:0:0:
192,192,30363,1,2,0:0:0:0:
448,192,30363,1,0,0:0:0:0:
64,192,30488,1,0,0:0:0:0:
320,192,30613,1,2,0:0:0:0:
448,192,30613,1,0,0:0:0:0:
192,192,30738,1,0,0:0:0:0:
64,192,30863,1,2,0:0:0:0:
320,192,30863,1,0,0:0:0:0:
448,192,30988,1,0,0:0:0:0:
64,192,31113,1,2,0:0:0:0:
192,192,31113,1,0,0:0:0:0:
448,192,31238,1,0,0:0:0:0:
320,192,31300,1,0,0:0:0:0:
64,192,31363,1,2,0:0:0:0:
192,192,31363,1,0,0:0:0:0:
320,192,31488,1,0,0:0:0:0:
192,192,31613,1,2,0:0:0:0:
448,192,31613,1,0,0:0:0:0:
64,192,31738,1,0,0:0:0:0:
448,192,31863,1,0,0:0:0:0:
192,192,31863,1,2,0:0:0:0:
320,192,31863,1,4,0:0:0:0:
64,192,31988,1,0,0:0:0:0:
320,192,32113,1,2,0:0:0:0:
448,192,32113,1,0,0:0:0:0:
192,192,32238,1,0,0:0:0:0:
64,192,32363,1,2,0:0:0:0:
320,192,32363,1,0,0:0:0:0:
192,192,32488,1,0,0:0:0:0:
320,192,32613,1,2,0:0:0:0:
448,192,32613,1,0,0:0:0:0:
192,192,32675,1,0,0:0:0:0:
64,192,32738,1,0,0:0:0:0:
192,192,32863,1,2,0:0:0:0:
448,192,32863,1,0,0:0:0:0:
320,192,32988,1,0,0:0:0:0:
64,192,33113,1,2,0:0:0:0:
448,192,33113,1,0,0:0:0:0:
320,192,33238,1,0,0:0:0:0:
192,192,33300,1,0,0:0:0:0:
64,192,33363,1,2,0:0:0:0:
448,192,33363,1,0,0:0:0:0:
192,192,33488,1,0,0:0:0:0:
320,192,33488,1,0,0:0:0:0:
64,192,33613,1,4,0:0:0:0:
320,192,33613,1,2,0:0:0:0:
448,192,33613,1,0,0:0:0:0:
192,192,33738,1,0,0:0:0:0:
320,192,33863,1,0,0:0:0:0:
64,192,33988,1,4,0:0:0:0:
192,192,33988,1,2,0:0:0:0:
448,192,33988,1,0,0:0:0:0:
320,192,34113,1,0,0:0:0:0:
192,192,34238,1,0,0:0:0:0:
64,192,34363,1,2,0:0:0:0:
192,192,34488,1,2,0:0:0:0:
320,192,34488,1,4,0:0:0:0:
448,192,34488,1,0,0:0:0:0:
64,192,34613,1,0,0:0:0:0:
192,192,34738,1,0,0:0:0:0:
320,192,34863,1,0,0:0:0:0:
192,192,34988,1,4,0:0:0:0:
448,192,34988,1,0,0:0:0:0:
64,192,34988,1,2,0:0:0:0:
64,192,35613,128,2,35863:0:0:0:0:
192,192,35613,1,4,0:0:0:0:
448,192,35613,1,0,0:0:0:0:
320,192,35863,1,0,0:0:0:0:
192,192,35988,1,0,0:0:0:0:
64,192,36113,1,0,0:0:0:0:
192,192,36113,128,0,36363:0:0:0:0:
448,192,36363,1,0,0:0:0:0:
64,192,36488,128,0,36613:0:0:0:0:
320,192,36613,1,0,0:0:0:0:
448,192,36613,1,0,0:0:0:0:
64,192,36738,128,0,36863:0:0:0:0:
448,192,36863,1,0,0:0:0:0:
192,192,36988,128,0,37113:0:0:0:0:
64,192,37113,1,0,0:0:0:0:
320,192,37113,1,0,0:0:0:0:
192,192,37238,128,0,37363:0:0:0:0:
320,192,37363,1,0,0:0:0:0:
448,192,37363,128,0,37488:0:0:0:0:
192,192,37613,1,0,0:0:0:0:
320,192,37613,128,0,37863:0:0:0:0:
64,192,37863,1,0,0:0:0:0:
448,192,37988,1,0,0:0:0:0:
320,192,38113,1,0,0:0:0:0:
448,192,38113,128,0,38363:0:0:0:0:
192,192,38238,1,0,0:0:0:0:
320,192,38363,128,0,38488:0:0:0:0:
192,192,38488,128,0,38613:0:0:0:0:
64,192,38613,1,0,0:0:0:0:
448,192,38613,1,0,0:0:0:0:
320,192,38738,1,0,0:0:0:0:
64,192,38863,128,0,38988:0:0:0:0:
192,192,38988,128,0,39113:0:0:0:0:
320,192,39113,1,0,0:0:0:0:
448,192,39113,1,0,0:0:0:0:
192,192,39238,1,0,0:0:0:0:
64,192,39363,128,0,39613:0:0:0:0:
192,192,39613,1,0,0:0:0:0:
320,192,39613,128,0,39863:0:0:0:0:
64,192,39863,1,0,0:0:0:0:
448,192,39863,128,0,39988:0:0:0:0:
320,192,39988,128,0,40113:0:0:0:0:
192,192,40113,1,0,0:0:0:0:
448,192,40113,1,0,0:0:0:0:
64,192,40238,128,0,40363:0:0:0:0:
192,192,40363,1,0,0:0:0:0:
448,192,40488,128,0,40738:0:0:0:0:
64,192,40613,1,0,0:0:0:0:
320,192,40613,1,0,0:0:0:0:
192,192,40738,1,0,0:0:0:0:
320,192,40863,128,0,40988:0:0:0:0:
448,192,40863,1,0,0:0:0:0:
64,192,40988,1,0,0:0:0:0:
192,192,41113,128,0,41238:0:0:0:0:
320,192,41113,1,0,0:0:0:0:
448,192,41238,1,0,0:0:0:0:
64,192,41363,128,0,41488:0:0:0:0:
192,192,41363,1,0,0:0:0:0:
192,192,41613,128,0,41863:0:0:0:0:
448,192,41613,1,0,0:0:0:0:
320,192,41863,1,0,0:0:0:0:
448,192,41863,1,0,0:0:0:0:
64,192,41988,128,0,42113:0:0:0:0:
192,192,42113,1,0,0:0:0:0:
448,192,42113,128,0,42363:0:0:0:0:
64,192,42363,1,0,0:0:0:0:
320,192,42363,1,0,0:0:0:0:
192,192,42488,1,0,0:0:0:0:
448,192,42613,1,0,0:0:0:0:
320,192,42675,1,0,0:0:0:0:
64,192,42738,1,0,0:0:0:0:
192,192,42800,1,0,0:0:0:0:
448,192,42863,1,0,0:0:0:0:
320,192,42925,1,0,0:0:0:0:
64,192,42988,1,0,0:0:0:0:
192,192,43050,1,0,0:0:0:0:
320,192,43113,1,0,0:0:0:0:
192,192,43238,1,0,0:0:0:0:
320,192,43300,1,0,0:0:0:0:
448,192,43363,1,0,0:0:0:0:
64,192,43425,1,0,0:0:0:0:
192,192,43488,1,0,0:0:0:0:
320,192,43550,1,0,0:0:0:0:
64,192,43613,1,2,0:0:0:0:
192,192,43613,1,4,0:0:0:0:
448,192,43613,1,0,0:0:0:0:
320,192,43738,1,0,0:0:0:0:
64,192,43863,1,8,0:0:0:0:
192,192,43863,1,0,0:0:0:0:
448,192,43863,1,0,0:0:0:0:
320,192,43988,1,2,0:0:0:0:
64,192,44238,1,2,0:0:0:0:
192,192,44363,1,8,0:0:0:0:
320,192,44363,1,0,0:0:0:0:
448,192,44363,1,0,0:0:0:0:
64,192,44488,1,0,0:0:0:0:
320,192,44613,1,2,0:0:0:0:
448,192,44613,1,0,0:0:0:0:
192,192,44738,1,0,0:0:0:0:
64,192,44863,1,8,0:0:0:0:
320,192,44863,1,0,0:0:0:0:
448,192,44863,1,0,0:0:0:0:
192,192,44988,1,2,0:0:0:0:
320,192,45238,1,2,0:0:0:0:
64,192,45363,1,8,0:0:0:0:
192,192,45363,1,0,0:0:0:0:
448,192,45363,1,0,0:0:0:0:
320,192,45488,1,0,0:0:0:0:
64,192,45613,1,2,0:0:0:0:
192,192,45613,1,0,0:0:0:0:
448,192,45738,1,0,0:0:0:0:
64,192,45863,1,8,0:0:0:0:
192,192,45863,1,0,0:0:0:0:
320,192,45863,1,0,0:0:0:0:
448,192,45988,1,2,0:0:0:0:
64,192,46113,1,0,0:0:0:0:
320,192,46113,1,0,0:0:0:0:
192,192,46238,1,2,0:0:0:0:
320,192,46363,1,0,0:0:0:0:
448,192,46363,1,0,0:0:0:0:
64,192,46363,1,8,0:0:0:0:
192,192,46488,1,0,0:0:0:0:
320,192,46613,1,2,0:0:0:0:
448,192,46613,1,0,0:0:0:0:
64,192,46863,1,8,0:0:0:0:
192,192,46863,1,0,0:0:0:0:
320,192,46863,1,0,0:0:0:0:
448,192,46988,1,2,0:0:0:0:
192,192,47113,1,0,0:0:0:0:
320,192,47113,1,0,0:0:0:0:
64,192,47238,1,2,0:0:0:0:
192,192,47363,1,8,0:0:0:0:
320,192,47363,1,0,0:0:0:0:
448,192,47363,1,0,0:0:0:0:
64,192,47488,1,0,0:0:0:0:
320,192,47613,1,2,0:0:0:0:
448,192,47613,1,0,0:0:0:0:
64,192,47863,1,8,0:0:0:0:
192,192,47863,1,0,0:0:0:0:
448,192,47863,1,0,0:0:0:0:
320,192,47988,1,2,0:0:0:0:
64,192,48113,1,0,0:0:0:0:
192,192,48113,1,0,0:0:0:0:
448,192,48238,1,2,0:0:0:0:
64,192,48363,1,8,0:0:0:0:
192,192,48363,1,0,0:0:0:0:
320,192,48363,1,0,0:0:0:0:
448,192,48488,1,0,0:0:0:0:
192,192,48613,1,2,0:0:0:0:
320,192,48613,1,0,0:0:0:0:
64,192,48738,1,0,0:0:0:0:
192,192,48863,1,8,0:0:0:0:
320,192,48863,1,0,0:0:0:0:
448,192,48863,1,0,0:0:0:0:
64,192,48988,1,2,0:0:0:0:
320,192,49113,1,8,0:0:0:0:
448,192,49113,1,0,0:0:0:0:
64,192,49238,1,8,0:0:0:0:
192,192,49238,1,0,0:0:0:0:
320,192,49363,1,8,0:0:0:0:
448,192,49363,1,0,0:0:0:0:
64,192,49488,1,8,0:0:0:0:
192,192,49488,1,0,0:0:0:0:
320,192,49613,1,0,0:0:0:0:
192,192,49738,1,0,0:0:0:0:
448,192,49863,1,0,0:0:0:0:
320,192,49988,1,0,0:0:0:0:
192,192,50113,1,0,0:0:0:0:
64,192,50238,1,0,0:0:0:0:
320,192,50363,1,0,0:0:0:0:
448,192,50425,1,0,0:0:0:0:
192,192,50488,1,0,0:0:0:0:
64,192,50613,1,0,0:0:0:0:
192,192,50738,1,0,0:0:0:0:
320,192,50863,1,0,0:0:0:0:
448,192,50988,1,0,0:0:0:0:
192,192,51113,1,0,0:0:0:0:
320,192,51238,1,0,0:0:0:0:
192,192,51363,1,0,0:0:0:0:
64,192,51425,1,0,0:0:0:0:
320,192,51488,1,0,0:0:0:0:
64,192,51613,1,4,0:0:0:0:
192,192,51613,1,2,0:0:0:0:
448,192,51613,1,0,0:0:0:0:
320,192,51738,1,0,0:0:0:0:
64,192,51863,1,8,0:0:0:0:
192,192,51863,1,0,0:0:0:0:
320,192,51863,1,0,0:0:0:0:
448,192,51988,1,2,0:0:0:0:
320,192,52050,1,0,0:0:0:0:
64,192,52113,1,0,0:0:0:0:
192,192,52175,1,0,0:0:0:0:
320,192,52238,1,2,0:0:0:0:
64,192,52363,1,8,0:0:0:0:
192,192,52363,1,0,0:0:0:0:
448,192,52363,1,0,0:0:0:0:
320,192,52488,1,0,0:0:0:0:
192,192,52613,1,0,0:0:0:0:
320,192,52613,1,0,0:0:0:0:
64,192,52613,1,2,0:0:0:0:
448,192,52738,1,0,0:0:0:0:
64,192,52863,1,8,0:0:0:0:
192,192,52863,1,0,0:0:0:0:
320,192,52863,1,0,0:0:0:0:
448,192,52988,1,2,0:0:0:0:
320,192,53050,1,0,0:0:0:0:
192,192,53113,1,0,0:0:0:0:
64,192,53175,1,0,0:0:0:0:
320,192,53238,1,2,0:0:0:0:
64,192,53363,1,8,0:0:0:0:
192,192,53363,1,0,0:0:0:0:
448,192,53363,1,0,0:0:0:0:
64,192,53488,1,0,0:0:0:0:
192,192,53613,1,2,0:0:0:0:
320,192,53613,1,0,0:0:0:0:
448,192,53613,1,0,0:0:0:0:
320,192,53738,1,0,0:0:0:0:
64,192,53863,1,8,0:0:0:0:
192,192,53863,1,0,0:0:0:0:
448,192,53863,1,0,0:0:0:0:
320,192,53988,1,2,0:0:0:0:
192,192,54050,1,0,0:0:0:0:
64,192,54113,1,0,0:0:0:0:
320,192,54175,1,0,0:0:0:0:
448,192,54238,1,2,0:0:0:0:
64,192,54363,1,8,0:0:0:0:
192,192,54363,1,0,0:0:0:0:
320,192,54363,1,0,0:0:0:0:
64,192,54488,1,0,0:0:0:0:
192,192,54613,1,2,0:0:0:0:
320,192,54613,1,0,0:0:0:0:
448,192,54613,1,0,0:0:0:0:
448,192,54738,1,0,0:0:0:0:
64,192,54863,1,8,0:0:0:0:
192,192,54863,1,0,0:0:0:0:
320,192,54863,1,0,0:0:0:0:
448,192,54988,1,2,0:0:0:0:
320,192,55050,1,0,0:0:0:0:
192,192,55113,1,0,0:0:0:0:
64,192,55175,1,0,0:0:0:0:
320,192,55238,1,2,0:0:0:0:
64,192,55363,1,8,0:0:0:0:
192,192,55363,1,0,0:0:0:0:
448,192,55363,1,0,0:0:0:0:
320,192,55488,1,0,0:0:0:0:
64,192,55613,1,2,0:0:0:0:
192,192,55613,1,0,0:0:0:0:
448,192,55613,1,0,0:0:0:0:
64,192,55738,1,0,0:0:0:0:
192,192,55863,1,8,0:0:0:0:
320,192,55863,1,0,0:0:0:0:
448,192,55863,1,0,0:0:0:0:
64,192,55988,1,2,0:0:0:0:
192,192,56050,1,0,0:0:0:0:
320,192,56113,1,0,0:0:0:0:
448,192,56175,1,0,0:0:0:0:
64,192,56238,1,2,0:0:0:0:
192,192,56363,1,8,0:0:0:0:
320,192,56363,1,0,0:0:0:0:
448,192,56363,1,0,0:0:0:0:
64,192,56488,1,0,0:0:0:0:
192,192,56613,1,2,0:0:0:0:
320,192,56613,1,0,0:0:0:0:
448,192,56613,1,0,0:0:0:0:
64,192,56738,1,0,0:0:0:0:
64,192,56863,1,8,0:0:0:0:
320,192,56863,1,0,0:0:0:0:
448,192,56863,1,0,0:0:0:0:
192,192,56988,1,2,0:0:0:0:
320,192,57050,1,0,0:0:0:0:
448,192,57113,1,0,0:0:0:0:
192,192,57175,1,0,0:0:0:0:
64,192,57238,1,2,0:0:0:0:
192,192,57363,1,8,0:0:0:0:
320,192,57363,1,0,0:0:0:0:
448,192,57363,1,0,0:0:0:0:
320,192,57488,1,0,0:0:0:0:
448,192,57613,1,0,0:0:0:0:
64,192,57613,1,2,0:0:0:0:
192,192,57613,1,0,0:0:0:0:
64,192,57738,1,0,0:0:0:0:
192,192,57863,1,8,0:0:0:0:
320,192,57863,1,0,0:0:0:0:
448,192,57863,1,0,0:0:0:0:
448,192,57988,1,2,0:0:0:0:
64,192,58113,1,0,0:0:0:0:
192,192,58113,1,0,0:0:0:0:
320,192,58238,1,2,0:0:0:0:
192,192,58363,1,0,0:0:0:0:
448,192,58363,1,0,0:0:0:0:
64,192,58363,1,8,0:0:0:0:
320,192,58425,1,0,0:0:0:0:
192,192,58488,1,0,0:0:0:0:
64,192,58613,1,2,0:0:0:0:
320,192,58613,1,0,0:0:0:0:
448,192,58613,1,0,0:0:0:0:
192,192,58738,1,0,0:0:0:0:
320,192,58800,1,0,0:0:0:0:
192,192,58863,1,0,0:0:0:0:
448,192,58863,1,0,0:0:0:0:
64,192,58863,1,8,0:0:0:0:
320,192,58988,1,2,0:0:0:0:
448,192,59050,1,0,0:0:0:0:
64,192,59113,1,0,0:0:0:0:
192,192,59113,1,0,0:0:0:0:
320,192,59238,1,2,0:0:0:0:
448,192,59238,1,0,0:0:0:0:
64,192,59363,1,8,0:0:0:0:
192,192,59363,1,0,0:0:0:0:
320,192,59488,1,0,0:0:0:0:
448,192,59488,1,0,0:0:0:0:
64,192,59613,1,2,0:0:0:0:
192,192,59613,1,4,0:0:0:0:
448,192,59613,1,0,0:0:0:0:
64,192,59738,1,0,0:0:0:0:
448,192,59863,1,0,0:0:0:0:
192,192,59863,1,8,0:0:0:0:
320,192,59863,1,0,0:0:0:0:
64,192,59988,1,2,0:0:0:0:
192,192,60050,1,0,0:0:0:0:
320,192,60113,1,0,0:0:0:0:
448,192,60175,1,0,0:0:0:0:
192,192,60238,1,2,0:0:0:0:
64,192,60363,1,8,0:0:0:0:
320,192,60363,1,0,0:0:0:0:
448,192,60363,1,0,0:0:0:0:
192,192,60488,1,0,0:0:0:0:
192,192,60613,1,2,0:0:0:0:
320,192,60613,1,0,0:0:0:0:
448,192,60613,1,0,0:0:0:0:
64,192,60738,1,0,0:0:0:0:
192,192,60863,1,8,0:0:0:0:
320,192,60863,1,0,0:0:0:0:
448,192,60863,1,0,0:0:0:0:
64,192,60988,1,2,0:0:0:0:
192,192,61050,1,0,0:0:0:0:
448,192,61113,1,0,0:0:0:0:
320,192,61175,1,0,0:0:0:0:
192,192,61238,1,2,0:0:0:0:
64,192,61363,1,8,0:0:0:0:
320,192,61363,1,0,0:0:0:0:
448,192,61363,1,0,0:0:0:0:
448,192,61488,1,0,0:0:0:0:
64,192,61613,1,2,0:0:0:0:
192,192,61613,1,0,0:0:0:0:
320,192,61613,1,0,0:0:0:0:
320,192,61738,1,0,0:0:0:0:
64,192,61863,1,8,0:0:0:0:
192,192,61863,1,0,0:0:0:0:
448,192,61863,1,0,0:0:0:0:
320,192,61988,1,2,0:0:0:0:
64,192,62050,1,0,0:0:0:0:
192,192,62113,1,0,0:0:0:0:
320,192,62175,1,0,0:0:0:0:
448,192,62238,1,2,0:0:0:0:
64,192,62363,1,8,0:0:0:0:
192,192,62363,1,0,0:0:0:0:
320,192,62363,1,0,0:0:0:0:
448,192,62488,1,0,0:0:0:0:
192,192,62613,1,0,0:0:0:0:
320,192,62613,1,0,0:0:0:0:
64,192,62613,1,2,0:0:0:0:
64,192,62738,1,0,0:0:0:0:
192,192,62863,1,8,0:0:0:0:
320,192,62863,1,0,0:0:0:0:
448,192,62863,1,0,0:0:0:0:
64,192,62988,1,2,0:0:0:0:
192,192,63050,1,0,0:0:0:0:
448,192,63113,1,0,0:0:0:0:
320,192,63175,1,0,0:0:0:0:
192,192,63238,1,2,0:0:0:0:
64,192,63363,1,8,0:0:0:0:
320,192,63363,1,0,0:0:0:0:
448,192,63363,1,0,0:0:0:0:
192,192,63488,1,0,0:0:0:0:
64,192,63613,1,2,0:0:0:0:
320,192,63613,1,0,0:0:0:0:
448,192,63613,1,0,0:0:0:0:
448,192,63738,1,0,0:0:0:0:
64,192,63863,1,8,0:0:0:0:
192,192,63863,1,0,0:0:0:0:
320,192,63863,1,0,0:0:0:0:
448,192,63988,1,2,0:0:0:0:
320,192,64050,1,0,0:0:0:0:
64,192,64113,1,0,0:0:0:0:
192,192,64175,1,0,0:0:0:0:
320,192,64238,1,2,0:0:0:0:
64,192,64363,1,8,0:0:0:0:
192,192,64363,1,0,0:0:0:0:
448,192,64363,1,0,0:0:0:0:
320,192,64488,1,0,0:0:0:0:
64,192,64613,1,2,0:0:0:0:
192,192,64613,1,0,0:0:0:0:
320,192,64613,1,0,0:0:0:0:
448,192,64738,1,0,0:0:0:0:
64,192,64863,1,8,0:0:0:0:
192,192,64863,1,0,0:0:0:0:
448,192,64863,1,0,0:0:0:0:
320,192,64988,1,2,0:0:0:0:
64,192,65050,1,0,0:0:0:0:
192,192,65113,1,0,0:0:0:0:
320,192,65175,1,0,0:0:0:0:
448,192,65238,1,2,0:0:0:0:
64,192,65363,1,8,0:0:0:0:
192,192,65363,1,0,0:0:0:0:
320,192,65363,1,0,0:0:0:0:
192,192,65488,1,0,0:0:0:0:
64,192,65613,1,0,0:0:0:0:
320,192,65613,1,0,0:0:0:0:
448,192,65613,1,0,0:0:0:0:
192,192,65863,1,0,0:0:0:0:
192,192,66113,1,0,0:0:0:0:
320,192,66488,1,0,0:0:0:0:
64,192,66613,1,0,0:0:0:0:
192,192,66613,1,0,0:0:0:0:
448,192,66613,1,0,0:0:0:0:
320,192,66738,1,0,0:0:0:0:
64,192,66863,1,0,0:0:0:0:
192,192,66988,1,0,0:0:0:0:
448,192,67113,1,0,0:0:0:0:
320,192,67238,1,0,0:0:0:0:
448,192,67363,128,0,67613:0:0:0:0:
64,192,67613,128,4,67863:0:0:0:0:
192,192,67613,1,2,0:0:0:0:
320,192,67613,1,0,0:0:0:0:
192,192,67863,1,8,0:0:0:0:
448,192,67863,1,0,0:0:0:0:
64,192,67988,1,2,0:0:0:0:
320,192,67988,1,0,0:0:0:0:
448,192,68113,1,0,0:0:0:0:
64,192,68238,1,2,0:0:0:0:
192,192,68238,1,0,0:0:0:0:
320,192,68363,1,8,0:0:0:0:
448,192,68363,1,0,0:0:0:0:
64,192,68425,1,0,0:0:0:0:
192,192,68488,1,0,0:0:0:0:
320,192,68613,1,2,0:0:0:0:
448,192,68613,1,0,0:0:0:0:
192,192,68738,1,0,0:0:0:0:
64,192,68863,1,8,0:0:0:0:
320,192,68863,1,0,0:0:0:0:
192,192,68988,1,2,0:0:0:0:
448,192,68988,1,0,0:0:0:0:
320,192,69050,1,0,0:0:0:0:
64,192,69113,1,0,0:0:0:0:
192,192,69238,1,2,0:0:0:0:
448,192,69238,1,0,0:0:0:0:
64,192,69363,1,8,0:0:0:0:
320,192,69363,1,0,0:0:0:0:
320,192,69488,1,0,0:0:0:0:
192,192,69613,1,0,0:0:0:0:
448,192,69613,1,0,0:0:0:0:
64,192,69613,1,2,0:0:0:0:
320,192,69738,1,0,0:0:0:0:
64,192,69863,1,8,0:0:0:0:
192,192,69863,1,0,0:0:0:0:
320,192,69988,1,2,0:0:0:0:
448,192,69988,1,0,0:0:0:0:
64,192,70113,1,0,0:0:0:0:
192,192,70238,1,2,0:0:0:0:
448,192,70238,1,0,0:0:0:0:
64,192,70363,1,8,0:0:0:0:
320,192,70363,1,0,0:0:0:0:
192,192,70488,1,0,0:0:0:0:
64,192,70613,1,2,0:0:0:0:
320,192,70613,1,0,0:0:0:0:
448,192,70738,1,0,0:0:0:0:
64,192,70863,1,8,0:0:0:0:
192,192,70863,1,0,0:0:0:0:
192,192,70988,1,2,0:0:0:0:
448,192,70988,1,0,0:0:0:0:
320,192,71113,1,0,0:0:0:0:
64,192,71238,1,2,0:0:0:0:
192,192,71238,1,0,0:0:0:0:
320,192,71363,1,8,0:0:0:0:
448,192,71363,1,0,0:0:0:0:
192,192,71488,1,0,0:0:0:0:
448,192,71613,1,0,0:0:0:0:
64,192,71613,1,2,0:0:0:0:
320,192,71613,1,4,0:0:0:0:
320,192,71738,1,0,0:0:0:0:
64,192,71863,1,8,0:0:0:0:
448,192,71863,1,0,0:0:0:0:
192,192,71988,1,2,0:0:0:0:
320,192,71988,1,0,0:0:0:0:
64,192,72113,1,0,0:0:0:0:
192,192,72238,1,2,0:0:0:0:
320,192,72238,1,0,0:0:0:0:
64,192,72363,1,8,0:0:0:0:
448,192,72363,1,0,0:0:0:0:
320,192,72425,1,0,0:0:0:0:
192,192,72488,1,0,0:0:0:0:
64,192,72613,1,2,0:0:0:0:
448,192,72613,1,0,0:0:0:0:
320,192,72738,1,0,0:0:0:0:
64,192,72863,1,8,0:0:0:0:
448,192,72863,1,0,0:0:0:0:
192,192,72988,1,2,0:0:0:0:
320,192,72988,1,0,0:0:0:0:
64,192,73050,1,0,0:0:0:0:
448,192,73113,1,0,0:0:0:0:
64,192,73238,1,2,0:0:0:0:
192,192,73238,1,0,0:0:0:0:
192,192,73363,1,8,0:0:0:0:
448,192,73363,1,0,0:0:0:0:
320,192,73488,1,0,0:0:0:0:
64,192,73613,1,2,0:0:0:0:
448,192,73613,1,0,0:0:0:0:
64,192,73738,1,0,0:0:0:0:
192,192,73863,1,8,0:0:0:0:
448,192,73863,1,0,0:0:0:0:
64,192,73988,1,2,0:0:0:0:
320,192,73988,1,0,0:0:0:0:
192,192,74113,1,0,0:0:0:0:
64,192,74238,1,2,0:0:0:0:
448,192,74238,1,0,0:0:0:0:
192,192,74363,1,8,0:0:0:0:
320,192,74363,1,0,0:0:0:0:
448,192,74488,1,0,0:0:0:0:
64,192,74613,1,8,0:0:0:0:
192,192,74613,1,0,0:0:0:0:
320,192,74613,1,0,0:0:0:0:
64,192,74738,1,8,0:0:0:0:
192,192,74738,1,0,0:0:0:0:
320,192,74863,1,8,0:0:0:0:
448,192,74863,1,0,0:0:0:0:
192,192,74988,1,8,0:0:0:0:
320,192,74988,1,0,0:0:0:0:
448,192,74988,1,0,0:0:0:0:
64,192,75238,1,2,0:0:0:0:
192,192,75300,1,0,0:0:0:0:
448,192,75363,1,8,0:0:0:0:
320,192,75425,1,0,0:0:0:0:
64,192,75488,1,0,0:0:0:0:
192,192,75550,1,0,0:0:0:0:
64,192,75613,1,2,0:0:0:0:
320,192,75613,128,4,75863:0:0:0:0:
448,192,75613,1,0,0:0:0:0:
64,192,75863,1,8,0:0:0:0:
192,192,75863,1,0,0:0:0:0:
448,192,75988,1,2,0:0:0:0:
192,192,76113,1,0,0:0:0:0:
64,192,76238,1,2,0:0:0:0:
320,192,76363,1,2,0:0:0:0:
448,192,76363,128,4,76613:0:0:0:0:
64,192,76613,1,8,0:0:0:0:
320,192,76613,1,0,0:0:0:0:
192,192,76738,1,2,0:0:0:0:
448,192,76863,1,0,0:0:0:0:
320,192,76988,1,2,0:0:0:0:
64,192,77113,128,8,77279:0:0:0:0:
192,192,77113,128,0,77279:0:0:0:0:
320,192,77279,128,8,77446:0:0:0:0:
448,192,77279,128,0,77446:0:0:0:0:
64,192,77446,128,8,77613:0:0:0:0:
192,192,77446,128,0,77613:0:0:0:0:
320,192,77613,1,4,0:0:0:0:
448,192,77613,128,2,77863:0:0:0:0:
64,192,77863,1,8,0:0:0:0:
192,192,77863,1,0,0:0:0:0:
320,192,77988,1,2,0:0:0:0:
448,192,78113,1,0,0:0:0:0:
192,192,78238,1,2,0:0:0:0:
64,192,78363,1,4,0:0:0:0:
320,192,78363,128,2,78613:0:0:0:0:
192,192,78613,1,8,0:0:0:0:
448,192,78613,1,0,0:0:0:0:
64,192,78738,1,2,0:0:0:0:
320,192,78863,1,0,0:0:0:0:
192,192,78988,1,2,0:0:0:0:
320,192,79113,128,8,79279:0:0:0:0:
448,192,79113,128,0,79279:0:0:0:0:
64,192,79279,128,8,79446:0:0:0:0:
192,192,79279,128,0,79446:0:0:0:0:
320,192,79446,128,8,79613:0:0:0:0:
448,192,79446,128,0,79613:0:0:0:0:
64,192,79613,1,2,0:0:0:0:
192,192,79613,128,4,79863:0:0:0:0:
320,192,79863,1,8,0:0:0:0:
448,192,79863,1,0,0:0:0:0:
64,192,79988,1,2,0:0:0:0:
320,192,80113,1,0,0:0:0:0:
192,192,80238,1,2,0:0:0:0:
64,192,80363,128,2,80613:0:0:0:0:
448,192,80363,1,4,0:0:0:0:
192,192,80613,1,8,0:0:0:0:
320,192,80613,1,0,0:0:0:0:
448,192,80738,1,2,0:0:0:0:
64,192,80863,1,0,0:0:0:0:
192,192,80988,1,2,0:0:0:0:
320,192,81113,128,8,81279:0:0:0:0:
448,192,81113,128,0,81279:0:0:0:0:
64,192,81279,128,8,81446:0:0:0:0:
192,192,81279,128,0,81446:0:0:0:0:
320,192,81446,128,8,81613:0:0:0:0:
448,192,81446,128,0,81613:0:0:0:0:
64,192,81613,1,4,0:0:0:0:
192,192,81613,1,2,0:0:0:0:
320,192,81738,1,0,0:0:0:0:
448,192,81863,1,0,0:0:0:0:
64,192,81988,1,2,0:0:0:0:
192,192,81988,1,4,0:0:0:0:
320,192,81988,1,0,0:0:0:0:
448,192,82113,1,0,0:0:0:0:
64,192,82238,1,0,0:0:0:0:
192,192,82363,1,2,0:0:0:0:
448,192,82488,1,0,0:0:0:0:
64,192,82488,1,2,0:0:0:0:
320,192,82488,1,4,0:0:0:0:
192,192,82613,1,0,0:0:0:0:
448,192,82738,1,0,0:0:0:0:
320,192,82863,1,0,0:0:0:0:
64,192,82988,128,4,83363:0:0:0:0:
192,192,82988,1,2,0:0:0:0:
448,192,82988,1,0,0:0:0:0:
192,192,83613,1,4,0:0:0:0:
320,192,83613,1,2,0:0:0:0:
448,192,83613,1,0,0:0:0:0:
64,192,83738,1,0,0:0:0:0:
320,192,83863,1,2,0:0:0:0:
448,192,83863,1,0,0:0:0:0:
192,192,83988,1,0,0:0:0:0:
64,192,84113,1,2,0:0:0:0:
320,192,84113,1,0,0:0:0:0:
448,192,84238,1,0,0:0:0:0:
64,192,84363,1,2,0:0:0:0:
192,192,84363,1,0,0:0:0:0:
320,192,84425,1,0,0:0:0:0:
448,192,84488,1,0,0:0:0:0:
64,192,84613,1,2,0:0:0:0:
192,192,84613,1,0,0:0:0:0:
320,192,84738,1,0,0:0:0:0:
192,192,84863,1,2,0:0:0:0:
448,192,84863,1,0,0:0:0:0:
320,192,84988,1,0,0:0:0:0:
192,192,85050,1,0,0:0:0:0:
64,192,85113,1,2,0:0:0:0:
448,192,85113,1,0,0:0:0:0:
192,192,85238,1,0,0:0:0:0:
320,192,85238,1,0,0:0:0:0:
64,192,85363,1,2,0:0:0:0:
320,192,85363,1,4,0:0:0:0:
448,192,85363,1,0,0:0:0:0:
192,192,85488,1,0,0:0:0:0:
64,192,85613,1,2,0:0:0:0:
320,192,85613,1,0,0:0:0:0:
448,192,85738,1,0,0:0:0:0:
64,192,85863,1,2,0:0:0:0:
192,192,85863,1,0,0:0:0:0:
320,192,85988,1,0,0:0:0:0:
192,192,86113,1,2,0:0:0:0:
448,192,86113,1,0,0:0:0:0:
64,192,86238,1,0,0:0:0:0:
320,192,86363,1,2,0:0:0:0:
448,192,86363,1,0,0:0:0:0:
192,192,86425,1,0,0:0:0:0:
64,192,86488,1,0,0:0:0:0:
320,192,86613,1,2,0:0:0:0:
448,192,86613,1,0,0:0:0:0:
192,192,86738,1,0,0:0:0:0:
64,192,86863,1,2,0:0:0:0:
320,192,86863,1,0,0:0:0:0:
448,192,86988,1,0,0:0:0:0:
64,192,87113,1,4,0:0:0:0:
192,192,87113,1,2,0:0:0:0:
320,192,87113,1,0,0:0:0:0:
448,192,87238,1,0,0:0:0:0:
64,192,87363,1,2,0:0:0:0:
192,192,87363,1,0,0:0:0:0:
320,192,87488,1,0,0:0:0:0:
192,192,87613,1,2,0:0:0:0:
448,192,87613,1,0,0:0:0:0:
320,192,87738,1,0,0:0:0:0:
64,192,87863,1,2,0:0:0:0:
192,192,87863,1,0,0:0:0:0:
320,192,87925,1,0,0:0:0:0:
448,192,87988,1,0,0:0:0:0:
64,192,88113,1,2,0:0:0:0:
320,192,88113,1,0,0:0:0:0:
192,192,88238,1,0,0:0:0:0:
64,192,88363,1,2,0:0:0:0:
448,192,88363,1,0,0:0:0:0:
192,192,88488,1,0,0:0:0:0:
320,192,88550,1,0,0:0:0:0:
64,192,88613,1,2,0:0:0:0:
448,192,88613,1,0,0:0:0:0:
192,192,88738,1,0,0:0:0:0:
320,192,88738,1,0,0:0:0:0:
192,192,88863,1,4,0:0:0:0:
448,192,88863,1,0,0:0:0:0:
64,192,88863,1,2,0:0:0:0:
320,192,88988,1,0,0:0:0:0:
192,192,89113,1,0,0:0:0:0:
64,192,89238,1,2,0:0:0:0:
320,192,89238,1,4,0:0:0:0:
448,192,89238,1,0,0:0:0:0:
192,192,89363,1,0,0:0:0:0:
64,192,89488,1,0,0:0:0:0:
448,192,89613,1,2,0:0:0:0:
64,192,89738,1,4,0:0:0:0:
192,192,89738,1,2,0:0:0:0:
320,192,89738,1,0,0:0:0:0:
448,192,89863,1,0,0:0:0:0:
320,192,89988,1,0,0:0:0:0:
192,192,90113,1,0,0:0:0:0:
64,192,90238,1,4,0:0:0:0:
320,192,90238,1,2,0:0:0:0:
448,192,90238,1,0,0:0:0:0:
64,192,90863,1,2,0:0:0:0:
448,192,90863,1,0,0:0:0:0:
320,192,91113,128,0,91363:0:0:0:0:
64,192,91363,1,2,0:0:0:0:
448,192,91363,128,0,91613:0:0:0:0:
192,192,91613,1,0,0:0:0:0:
320,192,91613,128,0,91738:0:0:0:0:
448,192,91738,128,0,91863:0:0:0:0:
64,192,91863,1,2,0:0:0:0:
192,192,91988,128,0,92113:0:0:0:0:
192,192,92363,1,2,0:0:0:0:
320,192,92363,1,0,0:0:0:0:
64,192,92550,128,0,92675:0:0:0:0:
448,192,92613,128,0,92738:0:0:0:0:
320,192,92738,128,0,92863:0:0:0:0:
192,192,92863,1,2,0:0:0:0:
448,192,92988,128,0,93113:0:0:0:0:
64,192,93113,1,0,0:0:0:0:
320,192,93113,128,0,93238:0:0:0:0:
448,192,93238,128,0,93488:0:0:0:0:
192,192,93363,1,2,0:0:0:0:
64,192,93488,128,0,93738:0:0:0:0:
320,192,93863,1,2,0:0:0:0:
448,192,93863,1,0,0:0:0:0:
64,192,94113,128,0,94238:0:0:0:0:
192,192,94238,128,0,94363:0:0:0:0:
320,192,94363,1,2,0:0:0:0:
448,192,94363,128,0,94488:0:0:0:0:
64,192,94488,128,0,94613:0:0:0:0:
192,192,94613,1,0,0:0:0:0:
448,192,94738,128,0,94863:0:0:0:0:
192,192,94863,128,2,94988:0:0:0:0:
320,192,94863,1,0,0:0:0:0:
64,192,94988,128,0,95113:0:0:0:0:
320,192,95238,128,0,95363:0:0:0:0:
64,192,95363,128,2,95613:0:0:0:0:
448,192,95363,1,0,0:0:0:0:
192,192,95613,128,0,95738:0:0:0:0:
320,192,95738,128,0,95863:0:0:0:0:
64,192,95863,128,2,95988:0:0:0:0:
448,192,95863,1,0,0:0:0:0:
320,192,95988,128,0,96113:0:0:0:0:
64,192,96113,128,0,96238:0:0:0:0:
192,192,96113,1,0,0:0:0:0:
320,192,96238,128,0,96488:0:0:0:0:
448,192,96363,1,2,0:0:0:0:
192,192,96488,128,0,96738:0:0:0:0:
64,192,96863,1,2,0:0:0:0:
448,192,96863,1,0,0:0:0:0:
320,192,97113,128,0,97363:0:0:0:0:
64,192,97363,1,2,0:0:0:0:
192,192,97363,128,0,97613:0:0:0:0:
320,192,97613,128,0,97738:0:0:0:0:
448,192,97613,1,0,0:0:0:0:
192,192,97738,128,0,97863:0:0:0:0:
64,192,97863,1,2,0:0:0:0:
320,192,97988,128,0,98113:0:0:0:0:
448,192,98113,128,0,98238:0:0:0:0:
192,192,98363,1,2,0:0:0:0:
320,192,98363,1,0,0:0:0:0:
64,192,98488,128,0,98613:0:0:0:0:
320,192,98613,128,0,98738:0:0:0:0:
192,192,98738,128,0,98863:0:0:0:0:
320,192,98863,1,2,0:0:0:0:
448,192,98863,128,0,99113:0:0:0:0:
64,192,99113,1,0,0:0:0:0:
192,192,99113,128,0,99238:0:0:0:0:
448,192,99238,128,0,99488:0:0:0:0:
320,192,99363,1,2,0:0:0:0:
64,192,99488,128,0,99738:0:0:0:0:
192,192,99863,1,2,0:0:0:0:
448,192,99863,1,0,0:0:0:0:
320,192,100113,128,0,100363:0:0:0:0:
192,192,100363,1,2,0:0:0:0:
448,192,100363,128,0,100488:0:0:0:0:
64,192,100488,128,0,100613:0:0:0:0:
320,192,100613,1,0,0:0:0:0:
448,192,100613,128,0,100738:0:0:0:0:
64,192,100738,128,0,100863:0:0:0:0:
192,192,100863,1,2,0:0:0:0:
320,192,100988,128,0,101113:0:0:0:0:
192,192,101113,128,0,101238:0:0:0:0:
320,192,101363,1,2,0:0:0:0:
448,192,101363,1,0,0:0:0:0:
64,192,101488,1,0,0:0:0:0:
192,192,101488,1,0,0:0:0:0:
320,192,101613,1,0,0:0:0:0:
192,192,101738,1,0,0:0:0:0:
64,192,101863,1,2,0:0:0:0:
448,192,101863,1,0,0:0:0:0:
320,192,101988,1,0,0:0:0:0:
64,192,102113,1,0,0:0:0:0:
192,192,102113,1,0,0:0:0:0:
320,192,102238,1,0,0:0:0:0:
448,192,102238,1,0,0:0:0:0:
64,192,102363,1,2,0:0:0:0:
192,192,102488,1,0,0:0:0:0:
448,192,102488,1,0,0:0:0:0:
64,192,102613,1,0,0:0:0:0:
320,192,102613,1,0,0:0:0:0:
192,192,102738,1,0,0:0:0:0:
64,192,102863,1,2,0:0:0:0:
320,192,102863,1,4,0:0:0:0:
448,192,102863,1,0,0:0:0:0:
192,192,103113,1,8,0:0:0:0:
320,192,103113,1,0,0:0:0:0:
448,192,103113,1,0,0:0:0:0:
64,192,103238,1,2,0:0:0:0:
448,192,103363,1,0,0:0:0:0:
64,192,103488,1,2,0:0:0:0:
192,192,103613,1,8,0:0:0:0:
320,192,103613,1,0,0:0:0:0:
448,192,103613,1,0,0:0:0:0:
64,192,103738,1,0,0:0:0:0:
320,192,103863,1,2,0:0:0:0:
448,192,103863,1,0,0:0:0:0:
192,192,103988,1,0,0:0:0:0:
448,192,104113,1,0,0:0:0:0:
64,192,104113,1,8,0:0:0:0:
320,192,104113,1,0,0:0:0:0:
192,192,104238,1,2,0:0:0:0:
64,192,104363,1,2,0:0:0:0:
320,192,104363,1,4,0:0:0:0:
448,192,104363,1,0,0:0:0:0:
64,192,104613,1,8,0:0:0:0:
192,192,104613,1,0,0:0:0:0:
320,192,104613,1,0,0:0:0:0:
448,192,104738,1,2,0:0:0:0:
192,192,104863,1,0,0:0:0:0:
320,192,104988,1,2,0:0:0:0:
448,192,105113,1,0,0:0:0:0:
64,192,105113,1,8,0:0:0:0:
192,192,105113,1,0,0:0:0:0:
320,192,105238,1,0,0:0:0:0:
64,192,105363,1,2,0:0:0:0:
448,192,105363,1,0,0:0:0:0:
192,192,105488,1,0,0:0:0:0:
64,192,105613,1,8,0:0:0:0:
320,192,105613,1,0,0:0:0:0:
448,192,105613,1,0,0:0:0:0:
192,192,105738,1,2,0:0:0:0:
64,192,105863,1,4,0:0:0:0:
320,192,105863,1,2,0:0:0:0:
448,192,105863,1,0,0:0:0:0:
192,192,106113,1,0,0:0:0:0:
320,192,106113,1,0,0:0:0:0:
64,192,106113,1,8,0:0:0:0:
448,192,106238,1,2,0:0:0:0:
192,192,106363,1,0,0:0:0:0:
320,192,106488,1,2,0:0:0:0:
64,192,106613,1,8,0:0:0:0:
192,192,106613,1,0,0:0:0:0:
448,192,106613,1,0,0:0:0:0:
320,192,106738,1,0,0:0:0:0:
64,192,106863,1,2,0:0:0:0:
448,192,106863,1,0,0:0:0:0:
192,192,106988,1,0,0:0:0:0:
64,192,107113,1,8,0:0:0:0:
320,192,107113,1,0,0:0:0:0:
448,192,107113,1,0,0:0:0:0:
192,192,107238,1,2,0:0:0:0:
64,192,107363,1,2,0:0:0:0:
320,192,107363,1,4,0:0:0:0:
448,192,107363,1,0,0:0:0:0:
64,192,107613,1,8,0:0:0:0:
192,192,107613,1,0,0:0:0:0:
448,192,107613,1,0,0:0:0:0:
320,192,107738,1,2,0:0:0:0:
192,192,107863,1,0,0:0:0:0:
64,192,107988,1,2,0:0:0:0:
192,192,108113,1,8,0:0:0:0:
320,192,108113,1,0,0:0:0:0:
448,192,108113,1,0,0:0:0:0:
64,192,108238,1,0,0:0:0:0:
192,192,108363,1,2,0:0:0:0:
448,192,108363,1,0,0:0:0:0:
320,192,108488,1,0,0:0:0:0:
64,192,108613,1,8,0:0:0:0:
192,192,108613,1,0,0:0:0:0:
448,192,108613,1,0,0:0:0:0:
320,192,108738,1,2,0:0:0:0:
64,192,108863,1,4,0:0:0:0:
192,192,108863,1,2,0:0:0:0:
448,192,108863,1,0,0:0:0:0:
320,192,109113,1,0,0:0:0:0:
448,192,109113,1,0,0:0:0:0:
192,192,109113,1,8,0:0:0:0:
64,192,109238,1,2,0:0:0:0:
320,192,109363,1,0,0:0:0:0:
448,192,109488,1,2,0:0:0:0:
192,192,109613,1,0,0:0:0:0:
320,192,109613,1,0,0:0:0:0:
64,192,109613,1,8,0:0:0:0:
448,192,109738,1,0,0:0:0:0:
64,192,109863,1,2,0:0:0:0:
192,192,109863,1,0,0:0:0:0:
320,192,109988,1,0,0:0:0:0:
64,192,110113,1,8,0:0:0:0:
192,192,110113,1,0,0:0:0:0:
448,192,110113,1,0,0:0:0:0:
320,192,110238,1,2,0:0:0:0:
192,192,110363,1,4,0:0:0:0:
448,192,110363,1,0,0:0:0:0:
64,192,110363,1,2,0:0:0:0:
192,192,110613,1,0,0:0:0:0:
320,192,110613,1,0,0:0:0:0:
64,192,110613,1,8,0:0:0:0:
448,192,110738,1,2,0:0:0:0:
192,192,110863,1,0,0:0:0:0:
320,192,110988,1,2,0:0:0:0:
64,192,111113,1,8,0:0:0:0:
192,192,111113,1,0,0:0:0:0:
448,192,111113,1,0,0:0:0:0:
320,192,111238,1,0,0:0:0:0:
64,192,111363,1,2,0:0:0:0:
448,192,111363,1,0,0:0:0:0:
192,192,111488,1,0,0:0:0:0:
64,192,111613,1,8,0:0:0:0:
320,192,111613,1,0,0:0:0:0:
448,192,111613,1,0,0:0:0:0:
192,192,111738,1,2,0:0:0:0:
64,192,111863,1,4,0:0:0:0:
320,192,111863,1,2,0:0:0:0:
448,192,111863,1,0,0:0:0:0:
192,192,112113,1,0,0:0:0:0:
320,192,112113,1,0,0:0:0:0:
64,192,112113,1,8,0:0:0:0:
448,192,112238,1,2,0:0:0:0:
192,192,112363,1,0,0:0:0:0:
64,192,112488,1,2,0:0:0:0:
320,192,112613,1,0,0:0:0:0:
448,192,112613,1,0,0:0:0:0:
192,192,112613,1,8,0:0:0:0:
64,192,112738,1,0,0:0:0:0:
320,192,112863,1,2,0:0:0:0:
448,192,112863,1,0,0:0:0:0:
192,192,112988,1,2,0:0:0:0:
64,192,113113,1,8,0:0:0:0:
320,192,113113,1,0,0:0:0:0:
448,192,113113,1,0,0:0:0:0:
192,192,113238,1,2,0:0:0:0:
320,192,113363,1,2,0:0:0:0:
448,192,113363,1,4,0:0:0:0:
64,192,113488,1,0,0:0:0:0:
192,192,113550,1,0,0:0:0:0:
320,192,113613,1,0,0:0:0:0:
448,192,113675,1,0,0:0:0:0:
64,192,113738,1,4,0:0:0:0:
192,192,113738,1,2,0:0:0:0:
448,192,113863,1,0,0:0:0:0:
320,192,113925,1,0,0:0:0:0:
192,192,113988,1,0,0:0:0:0:
64,192,114050,1,0,0:0:0:0:
320,192,114113,1,2,0:0:0:0:
448,192,114113,1,4,0:0:0:0:
192,192,114613,128,0,114863:0:0:0:0:
320,192,114863,128,0,115113:0:0:0:0:
448,192,115113,128,0,115363:0:0:0:0:
64,192,115363,1,2,0:0:0:0:
192,192,115363,1,4,0:0:0:0:
320,192,115363,1,0,0:0:0:0:
64,192,115488,1,0,0:0:0:0:
192,192,115613,1,8,0:0:0:0:
448,192,115613,1,0,0:0:0:0:
64,192,115738,1,2,0:0:0:0:
320,192,115738,1,0,0:0:0:0:
192,192,115800,1,0,0:0:0:0:
448,192,115863,1,0,0:0:0:0:
320,192,115925,1,0,0:0:0:0:
192,192,115988,1,2,0:0:0:0:
448,192,116050,1,0,0:0:0:0:
64,192,116113,1,8,0:0:0:0:
320,192,116113,1,0,0:0:0:0:
192,192,116175,1,0,0:0:0:0:
448,192,116238,1,0,0:0:0:0:
320,192,116300,1,0,0:0:0:0:
64,192,116363,1,2,0:0:0:0:
192,192,116363,1,0,0:0:0:0:
64,192,116488,1,0,0:0:0:0:
192,192,116613,1,8,0:0:0:0:
448,192,116613,1,0,0:0:0:0:
64,192,116738,1,2,0:0:0:0:
448,192,116738,1,0,0:0:0:0:
320,192,116863,1,0,0:0:0:0:
64,192,116988,1,2,0:0:0:0:
192,192,116988,1,0,0:0:0:0:
64,192,117113,1,8,0:0:0:0:
448,192,117113,1,0,0:0:0:0:
448,192,117238,1,0,0:0:0:0:
64,192,117363,1,2,0:0:0:0:
192,192,117363,1,0,0:0:0:0:
448,192,117425,1,0,0:0:0:0:
320,192,117488,1,0,0:0:0:0:
64,192,117550,1,0,0:0:0:0:
192,192,117613,1,8,0:0:0:0:
448,192,117613,1,0,0:0:0:0:
320,192,117675,1,0,0:0:0:0:
64,192,117738,1,2,0:0:0:0:
192,192,117800,1,0,0:0:0:0:
448,192,117863,1,0,0:0:0:0:
320,192,117925,1,0,0:0:0:0:
192,192,117988,1,2,0:0:0:0:
448,192,118050,1,0,0:0:0:0:
64,192,118113,1,8,0:0:0:0:
320,192,118113,1,0,0:0:0:0:
64,192,118238,1,0,0:0:0:0:
192,192,118363,1,2,0:0:0:0:
448,192,118363,1,0,0:0:0:0:
320,192,118488,1,0,0:0:0:0:
192,192,118613,1,8,0:0:0:0:
448,192,118613,1,0,0:0:0:0:
64,192,118738,1,2,0:0:0:0:
320,192,118738,1,0,0:0:0:0:
192,192,118863,1,0,0:0:0:0:
320,192,118988,1,2,0:0:0:0:
448,192,118988,1,0,0:0:0:0:
64,192,119113,1,8,0:0:0:0:
192,192,119113,1,0,0:0:0:0:
320,192,119238,1,0,0:0:0:0:
64,192,119363,1,2,0:0:0:0:
448,192,119363,1,0,0:0:0:0:
192,192,119425,1,0,0:0:0:0:
320,192,119488,1,0,0:0:0:0:
64,192,119550,1,0,0:0:0:0:
192,192,119613,1,8,0:0:0:0:
448,192,119613,1,0,0:0:0:0:
320,192,119675,1,0,0:0:0:0:
64,192,119738,1,2,0:0:0:0:
192,192,119800,1,0,0:0:0:0:
448,192,119863,1,0,0:0:0:0:
320,192,119925,1,0,0:0:0:0:
192,192,119988,1,2,0:0:0:0:
448,192,120050,1,0,0:0:0:0:
64,192,120113,1,8,0:0:0:0:
320,192,120113,1,0,0:0:0:0:
192,192,120238,1,0,0:0:0:0:
64,192,120363,1,2,0:0:0:0:
448,192,120363,1,0,0:0:0:0:
320,192,120488,1,0,0:0:0:0:
64,192,120613,1,8,0:0:0:0:
192,192,120613,1,0,0:0:0:0:
64,192,120738,1,2,0:0:0:0:
320,192,120738,1,0,0:0:0:0:
192,192,120863,1,0,0:0:0:0:
320,192,120988,1,2,0:0:0:0:
448,192,120988,1,0,0:0:0:0:
192,192,121113,1,8,0:0:0:0:
448,192,121113,1,0,0:0:0:0:
320,192,121238,1,0,0:0:0:0:
64,192,121363,1,2,0:0:0:0:
192,192,121363,1,0,0:0:0:0:
448,192,121488,1,0,0:0:0:0:
64,192,121613,1,8,0:0:0:0:
320,192,121613,1,0,0:0:0:0:
64,192,121738,1,2,0:0:0:0:
448,192,121738,1,0,0:0:0:0:
320,192,121863,1,0,0:0:0:0:
64,192,121988,1,2,0:0:0:0:
192,192,121988,1,0,0:0:0:0:
320,192,122113,1,8,0:0:0:0:
448,192,122113,1,0,0:0:0:0:
192,192,122175,1,0,0:0:0:0:
64,192,122238,1,0,0:0:0:0:
320,192,122363,1,2,0:0:0:0:
448,192,122363,1,0,0:0:0:0:
320,192,122488,1,0,0:0:0:0:
64,192,122613,1,8,0:0:0:0:
192,192,122613,1,0,0:0:0:0:
320,192,122738,1,2,0:0:0:0:
448,192,122738,1,0,0:0:0:0:
192,192,122800,1,0,0:0:0:0:
448,192,122863,1,0,0:0:0:0:
64,192,122988,1,2,0:0:0:0:
192,192,122988,1,0,0:0:0:0:
320,192,123113,1,8,0:0:0:0:
448,192,123113,1,0,0:0:0:0:
320,192,123238,1,0,0:0:0:0:
64,192,123363,1,4,0:0:0:0:
192,192,123363,1,2,0:0:0:0:
448,192,123363,1,0,0:0:0:0:
448,192,123488,1,0,0:0:0:0:
64,192,123613,1,8,0:0:0:0:
320,192,123613,1,0,0:0:0:0:
192,192,123738,1,2,0:0:0:0:
448,192,123738,1,0,0:0:0:0:
320,192,123800,1,0,0:0:0:0:
64,192,123863,1,0,0:0:0:0:
192,192,123925,1,0,0:0:0:0:
320,192,123988,1,2,0:0:0:0:
64,192,124050,1,0,0:0:0:0:
192,192,124113,1,8,0:0:0:0:
448,192,124113,1,0,0:0:0:0:
320,192,124175,1,0,0:0:0:0:
64,192,124238,1,0,0:0:0:0:
192,192,124300,1,0,0:0:0:0:
320,192,124363,1,2,0:0:0:0:
448,192,124363,1,0,0:0:0:0:
448,192,124488,1,0,0:0:0:0:
64,192,124613,1,8,0:0:0:0:
192,192,124613,1,0,0:0:0:0:
64,192,124738,1,2,0:0:0:0:
448,192,124738,1,0,0:0:0:0:
192,192,124863,1,0,0:0:0:0:
320,192,124988,1,2,0:0:0:0:
448,192,124988,1,0,0:0:0:0:
64,192,125113,1,8,0:0:0:0:
448,192,125113,1,0,0:0:0:0:
64,192,125238,1,0,0:0:0:0:
320,192,125363,1,2,0:0:0:0:
448,192,125363,1,0,0:0:0:0:
64,192,125425,1,0,0:0:0:0:
192,192,125488,1,0,0:0:0:0:
448,192,125550,1,0,0:0:0:0:
64,192,125613,1,8,0:0:0:0:
320,192,125613,1,0,0:0:0:0:
192,192,125675,1,0,0:0:0:0:
448,192,125738,1,2,0:0:0:0:
320,192,125800,1,0,0:0:0:0:
64,192,125863,1,0,0:0:0:0:
192,192,125925,1,0,0:0:0:0:
320,192,125988,1,2,0:0:0:0:
64,192,126050,1,0,0:0:0:0:
192,192,126113,1,8,0:0:0:0:
448,192,126113,1,0,0:0:0:0:
448,192,126238,1,0,0:0:0:0:
64,192,126363,1,2,0:0:0:0:
320,192,126363,1,0,0:0:0:0:
192,192,126488,1,0,0:0:0:0:
64,192,126613,1,8,0:0:0:0:
448,192,126613,1,0,0:0:0:0:
192,192,126738,1,2,0:0:0:0:
448,192,126738,1,0,0:0:0:0:
320,192,126863,1,0,0:0:0:0:
64,192,126988,1,2,0:0:0:0:
192,192,126988,1,0,0:0:0:0:
64,192,127113,1,8,0:0:0:0:
448,192,127113,1,0,0:0:0:0:
192,192,127238,1,0,0:0:0:0:
64,192,127363,1,2,0:0:0:0:
448,192,127363,1,0,0:0:0:0:
320,192,127425,1,0,0:0:0:0:
192,192,127488,1,0,0:0:0:0:
448,192,127550,1,0,0:0:0:0:
64,192,127613,1,8,0:0:0:0:
320,192,127613,1,0,0:0:0:0:
192,192,127675,1,0,0:0:0:0:
448,192,127738,1,2,0:0:0:0:
320,192,127800,1,0,0:0:0:0:
64,192,127863,1,0,0:0:0:0:
192,192,127925,1,0,0:0:0:0:
320,192,127988,1,2,0:0:0:0:
64,192,128050,1,0,0:0:0:0:
192,192,128113,1,8,0:0:0:0:
448,192,128113,1,0,0:0:0:0:
320,192,128238,1,0,0:0:0:0:
64,192,128363,1,2,0:0:0:0:
448,192,128363,1,0,0:0:0:0:
192,192,128488,1,0,0:0:0:0:
64,192,128613,1,8,0:0:0:0:
320,192,128613,1,0,0:0:0:0:
192,192,128738,1,2,0:0:0:0:
448,192,128738,1,0,0:0:0:0:
320,192,128863,1,0,0:0:0:0:
64,192,128988,1,2,0:0:0:0:
192,192,128988,1,0,0:0:0:0:
320,192,129113,1,8,0:0:0:0:
448,192,129113,1,0,0:0:0:0:
192,192,129238,1,0,0:0:0:0:
64,192,129363,1,2,0:0:0:0:
448,192,129363,1,0,0:0:0:0:
320,192,129425,1,0,0:0:0:0:
192,192,129488,1,0,0:0:0:0:
448,192,129550,1,0,0:0:0:0:
64,192,129613,1,8,0:0:0:0:
320,192,129613,1,0,0:0:0:0:
192,192,129675,1,0,0:0:0:0:
320,192,129738,1,2,0:0:0:0:
448,192,129800,1,0,0:0:0:0:
64,192,129863,1,0,0:0:0:0:
192,192,129925,1,0,0:0:0:0:
320,192,129988,1,2,0:0:0:0:
448,192,130050,1,0,0:0:0:0:
64,192,130113,1,8,0:0:0:0:
192,192,130113,1,0,0:0:0:0:
320,192,130238,1,0,0:0:0:0:
64,192,130363,1,2,0:0:0:0:
448,192,130363,1,0,0:0:0:0:
192,192,130488,1,0,0:0:0:0:
64,192,130613,1,8,0:0:0:0:
448,192,130613,1,0,0:0:0:0:
192,192,130738,1,2,0:0:0:0:
320,192,130738,1,0,0:0:0:0:
448,192,130863,1,0,0:0:0:0:
64,192,130988,1,2,0:0:0:0:
192,192,130988,1,0,0:0:0:0:
64,192,131113,1,8,0:0:0:0:
448,192,131113,1,0,0:0:0:0:
320,192,131175,1,0,0:0:0:0:
192,192,131238,1,0,0:0:0:0:
448,192,131300,1,0,0:0:0:0:
64,192,131363,1,2,0:0:0:0:
320,192,131363,1,0,0:0:0:0:
64,192,131488,1,0,0:0:0:0:
320,192,131488,1,0,0:0:0:0:
192,192,131613,1,8,0:0:0:0:
448,192,131613,1,0,0:0:0:0:
192,192,131738,1,2,0:0:0:0:
448,192,131738,1,0,0:0:0:0:
320,192,132113,1,8,0:0:0:0:
448,192,132113,1,0,0:0:0:0:
320,192,132238,1,0,0:0:0:0:
448,192,132238,1,0,0:0:0:0:
64,192,132363,1,2,0:0:0:0:
192,192,132363,1,0,0:0:0:0:
64,192,132488,1,0,0:0:0:0:
192,192,132488,1,0,0:0:0:0:
320,192,132613,1,8,0:0:0:0:
64,192,132863,1,0,0:0:0:0:
448,192,132863,1,0,0:0:0:0:
64,192,132988,1,2,0:0:0:0:
448,192,132988,1,0,0:0:0:0:
192,192,133113,1,8,0:0:0:0:
320,192,133113,1,0,0:0:0:0:
192,192,133238,1,0,0:0:0:0:
320,192,133238,1,0,0:0:0:0:
64,192,133613,1,8,0:0:0:0:
192,192,133613,1,0,0:0:0:0:
64,192,133738,1,2,0:0:0:0:
192,192,133738,1,0,0:0:0:0:
320,192,133863,1,0,0:0:0:0:
448,192,133863,1,0,0:0:0:0:
320,192,133988,1,2,0:0:0:0:
448,192,133988,1,0,0:0:0:0:
64,192,134113,1,8,0:0:0:0:
320,192,134363,1,2,0:0:0:0:
448,192,134363,1,0,0:0:0:0:
192,192,134488,1,0,0:0:0:0:
320,192,134488,1,0,0:0:0:0:
64,192,134613,1,8,0:0:0:0:
192,192,134613,1,0,0:0:0:0:
320,192,134738,1,2,0:0:0:0:
448,192,134738,1,0,0:0:0:0:
192,192,135113,1,8,0:0:0:0:
320,192,135113,1,0,0:0:0:0:
192,192,135238,1,0,0:0:0:0:
320,192,135238,1,0,0:0:0:0:
64,192,135363,1,2,0:0:0:0:
448,192,135363,1,0,0:0:0:0:
64,192,135488,1,0,0:0:0:0:
448,192,135488,1,0,0:0:0:0:
320,192,135613,1,8,0:0:0:0:
64,192,135863,1,0,0:0:0:0:
192,192,135863,1,0,0:0:0:0:
192,192,135988,1,2,0:0:0:0:
320,192,135988,1,0,0:0:0:0:
320,192,136113,1,8,0:0:0:0:
448,192,136113,1,0,0:0:0:0:
64,192,136238,1,0,0:0:0:0:
192,192,136238,1,0,0:0:0:0:
64,192,136613,1,8,0:0:0:0:
448,192,136613,1,0,0:0:0:0:
192,192,136738,1,2,0:0:0:0:
320,192,136738,1,0,0:0:0:0:
64,192,136863,1,0,0:0:0:0:
448,192,136863,1,0,0:0:0:0:
192,192,136988,1,2,0:0:0:0:
320,192,136988,1,0,0:0:0:0:
448,192,137050,1,0,0:0:0:0:
64,192,137113,1,8,0:0:0:0:
192,192,137175,1,0,0:0:0:0:
320,192,137238,1,0,0:0:0:0:
448,192,137300,1,0,0:0:0:0:
64,192,137363,128,2,137488:0:0:0:0:
192,192,137363,1,4,0:0:0:0:
448,192,137488,128,0,137613:0:0:0:0:
320,192,137613,128,0,137738:0:0:0:0:
64,192,137738,128,4,137863:0:0:0:0:
192,192,137738,1,2,0:0:0:0:
320,192,137863,128,0,137988:0:0:0:0:
192,192,137988,128,0,138113:0:0:0:0:
320,192,138113,1,2,0:0:0:0:
448,192,138113,128,4,138238:0:0:0:0:
192,192,138238,128,0,138363:0:0:0:0:
64,192,138363,128,0,138488:0:0:0:0:
320,192,138488,128,2,138613:0:0:0:0:
448,192,138488,1,4,0:0:0:0:
64,192,138613,128,0,138738:0:0:0:0:
448,192,138738,128,0,138863:0:0:0:0:
64,192,138863,1,2,0:0:0:0:
192,192,138863,128,4,138988:0:0:0:0:
448,192,138988,128,0,139113:0:0:0:0:
320,192,139113,128,0,139238:0:0:0:0:
64,192,139238,128,2,139363:0:0:0:0:
192,192,139238,1,4,0:0:0:0:
320,192,139363,128,0,139488:0:0:0:0:
192,192,139488,128,0,139613:0:0:0:0:
320,192,139613,1,2,0:0:0:0:
448,192,139613,128,4,139738:0:0:0:0:
192,192,139738,128,0,139863:0:0:0:0:
64,192,139863,128,0,139988:0:0:0:0:
320,192,139988,1,2,0:0:0:0:
448,192,139988,1,0,0:0:0:0:
320,192,140154,1,2,0:0:0:0:
448,192,140154,1,0,0:0:0:0:
320,192,140321,1,2,0:0:0:0:
448,192,140321,1,0,0:0:0:0:
320,192,140488,1,2,0:0:0:0:
448,192,140488,1,0,0:0:0:0:
320,192,140654,1,2,0:0:0:0:
448,192,140654,1,0,0:0:0:0:
320,192,140821,1,2,0:0:0:0:
448,192,140821,1,0,0:0:0:0:
320,192,140988,1,2,0:0:0:0:
448,192,140988,1,0,0:0:0:0:
320,192,141154,1,2,0:0:0:0:
448,192,141154,1,0,0:0:0:0:
320,192,141321,1,2,0:0:0:0:
448,192,141321,1,0,0:0:0:0:
320,192,141488,1,2,0:0:0:0:
448,192,141488,1,0,0:0:0:0:
320,192,141654,1,2,0:0:0:0:
448,192,141654,1,0,0:0:0:0:
320,192,141821,1,2,0:0:0:0:
448,192,141821,1,0,0:0:0:0:
64,192,143988,1,0,0:0:0:0:
448,192,143988,128,0,144238:0:0:0:0:
192,192,144238,1,0,0:0:0:0:
320,192,144363,128,0,144613:0:0:0:0:
64,192,144613,1,0,0:0:0:0:
448,192,144863,128,0,145113:0:0:0:0:
192,192,145113,1,0,0:0:0:0:
320,192,145238,1,0,0:0:0:0:
64,192,145363,1,0,0:0:0:0:
192,192,145488,1,0,0:0:0:0:
320,192,145613,128,0,145863:0:0:0:0:
448,192,145863,1,0,0:0:0:0:
192,192,145988,1,0,0:0:0:0:
320,192,146113,1,0,0:0:0:0:
64,192,146238,1,0,0:0:0:0:
192,192,146363,1,0,0:0:0:0:
320,192,146488,1,0,0:0:0:0:
192,192,146613,128,0,146863:0:0:0:0:
448,192,146863,128,0,147113:0:0:0:0:
320,192,147363,1,0,0:0:0:0:
192,192,147488,1,0,0:0:0:0:
64,192,147613,1,0,0:0:0:0:
320,192,147738,1,0,0:0:0:0:
64,192,147988,128,0,148238:0:0:0:0:
448,192,147988,1,0,0:0:0:0:
448,192,148238,1,0,0:0:0:0:
320,192,148363,128,0,148613:0:0:0:0:
192,192,148613,128,0,148863:0:0:0:0:
448,192,148863,128,0,149238:0:0:0:0:
64,192,149238,128,0,149488:0:0:0:0:
320,192,149488,128,0,149738:0:0:0:0:
192,192,149738,128,0,149988:0:0:0:0:
320,192,149988,128,0,150363:0:0:0:0:
64,192,150363,1,0,0:0:0:0:
192,192,150488,128,0,150988:0:0:0:0:
448,192,150988,1,0,0:0:0:0:
64,192,151238,1,0,0:0:0:0:
64,192,151363,1,0,0:0:0:0:
320,192,151488,1,0,0:0:0:0:
320,192,151613,1,0,0:0:0:0:
192,192,151738,1,0,0:0:0:0:
192,192,151863,1,0,0:0:0:0:
64,192,151988,1,2,0:0:0:0:
320,192,151988,1,4,0:0:0:0:
448,192,151988,1,0,0:0:0:0:
64,192,152238,1,8,0:0:0:0:
320,192,152238,1,0,0:0:0:0:
192,192,152363,1,2,0:0:0:0:
448,192,152363,1,0,0:0:0:0:
320,192,152488,1,0,0:0:0:0:
64,192,152613,1,2,0:0:0:0:
192,192,152738,1,8,0:0:0:0:
320,192,152738,1,0,0:0:0:0:
64,192,152863,1,0,0:0:0:0:
192,192,152988,1,2,0:0:0:0:
448,192,152988,1,0,0:0:0:0:
320,192,153113,1,0,0:0:0:0:
64,192,153238,1,8,0:0:0:0:
192,192,153238,1,0,0:0:0:0:
320,192,153363,1,2,0:0:0:0:
448,192,153363,1,0,0:0:0:0:
192,192,153488,1,0,0:0:0:0:
448,192,153613,1,2,0:0:0:0:
64,192,153738,1,8,0:0:0:0:
320,192,153738,1,0,0:0:0:0:
192,192,153863,1,0,0:0:0:0:
320,192,153988,1,2,0:0:0:0:
448,192,153988,1,0,0:0:0:0:
64,192,154113,1,0,0:0:0:0:
192,192,154238,1,8,0:0:0:0:
320,192,154238,1,0,0:0:0:0:
64,192,154363,1,2,0:0:0:0:
448,192,154363,1,0,0:0:0:0:
192,192,154488,1,0,0:0:0:0:
320,192,154613,1,2,0:0:0:0:
64,192,154738,1,8,0:0:0:0:
192,192,154738,1,0,0:0:0:0:
448,192,154863,1,0,0:0:0:0:
192,192,154988,1,2,0:0:0:0:
320,192,154988,1,0,0:0:0:0:
64,192,155113,1,0,0:0:0:0:
320,192,155238,1,8,0:0:0:0:
448,192,155238,1,0,0:0:0:0:
64,192,155363,1,2,0:0:0:0:
192,192,155363,1,0,0:0:0:0:
192,192,155488,1,0,0:0:0:0:
448,192,155613,1,2,0:0:0:0:
64,192,155738,1,8,0:0:0:0:
320,192,155738,1,0,0:0:0:0:
192,192,155863,1,0,0:0:0:0:
320,192,155988,1,2,0:0:0:0:
448,192,155988,1,0,0:0:0:0:
64,192,156113,1,0,0:0:0:0:
192,192,156238,1,8,0:0:0:0:
448,192,156238,1,0,0:0:0:0:
64,192,156363,1,2,0:0:0:0:
320,192,156363,1,0,0:0:0:0:
192,192,156488,1,0,0:0:0:0:
320,192,156613,1,2,0:0:0:0:
64,192,156738,1,8,0:0:0:0:
192,192,156738,1,0,0:0:0:0:
320,192,156863,1,0,0:0:0:0:
64,192,156988,1,2,0:0:0:0:
448,192,156988,1,0,0:0:0:0:
192,192,157113,1,0,0:0:0:0:
320,192,157238,1,8,0:0:0:0:
448,192,157238,1,0,0:0:0:0:
64,192,157363,1,2,0:0:0:0:
192,192,157363,1,0,0:0:0:0:
320,192,157488,1,8,0:0:0:0:
448,192,157488,1,0,0:0:0:0:
320,192,157613,1,8,0:0:0:0:
448,192,157613,1,0,0:0:0:0:
64,192,157738,1,8,0:0:0:0:
192,192,157738,1,0,0:0:0:0:
64,192,157863,1,8,0:0:0:0:
192,192,157863,1,0,0:0:0:0:
320,192,157988,1,4,0:0:0:0:
448,192,157988,1,0,0:0:0:0:
448,192,158113,1,0,0:0:0:0:
64,192,158238,1,0,0:0:0:0:
192,192,158300,1,0,0:0:0:0:
320,192,158363,1,4,0:0:0:0:
64,192,158425,1,0,0:0:0:0:
192,192,158488,1,0,0:0:0:0:
320,192,158550,1,0,0:0:0:0:
64,192,158613,1,0,0:0:0:0:
192,192,158675,1,0,0:0:0:0:
320,192,158738,1,4,0:0:0:0:
448,192,158738,1,0,0:0:0:0:
320,192,158863,1,0,0:0:0:0:
64,192,158988,1,0,0:0:0:0:
192,192,159050,1,0,0:0:0:0:
320,192,159113,1,4,0:0:0:0:
64,192,159175,1,0,0:0:0:0:
192,192,159238,1,0,0:0:0:0:
320,192,159300,1,0,0:0:0:0:
64,192,159363,1,0,0:0:0:0:
192,192,159425,1,0,0:0:0:0:
320,192,159488,1,4,0:0:0:0:
448,192,159488,1,0,0:0:0:0:
320,192,159613,1,0,0:0:0:0:
64,192,159738,1,0,0:0:0:0:
192,192,159800,1,0,0:0:0:0:
320,192,159863,1,4,0:0:0:0:
64,192,159925,1,0,0:0:0:0:
192,192,159988,1,0,0:0:0:0:
320,192,160050,1,0,0:0:0:0:
64,192,160113,1,0,0:0:0:0:
192,192,160175,1,0,0:0:0:0:
320,192,160238,1,4,0:0:0:0:
448,192,160238,1,0,0:0:0:0:
320,192,160363,1,0,0:0:0:0:
64,192,160488,1,0,0:0:0:0:
192,192,160550,1,0,0:0:0:0:
320,192,160613,1,4,0:0:0:0:
64,192,160675,1,0,0:0:0:0:
192,192,160738,1,0,0:0:0:0:
320,192,160800,1,0,0:0:0:0:
64,192,160863,1,0,0:0:0:0:
192,192,160925,1,0,0:0:0:0:
320,192,160988,1,4,0:0:0:0:
448,192,160988,1,0,0:0:0:0:
320,192,161113,1,0,0:0:0:0:
64,192,161238,1,0,0:0:0:0:
192,192,161300,1,0,0:0:0:0:
320,192,161363,1,4,0:0:0:0:
64,192,161425,1,0,0:0:0:0:
192,192,161488,1,0,0:0:0:0:
320,192,161550,1,0,0:0:0:0:
64,192,161613,1,0,0:0:0:0:
192,192,161675,1,0,0:0:0:0:
320,192,161738,1,4,0:0:0:0:
448,192,161738,1,0,0:0:0:0:
192,192,161800,1,0,0:0:0:0:
320,192,161863,1,0,0:0:0:0:
448,192,161925,1,0,0:0:0:0:
192,192,161988,1,0,0:0:0:0:
64,192,162050,1,0,0:0:0:0:
320,192,162113,1,4,0:0:0:0:
448,192,162175,1,0,0:0:0:0:
192,192,162238,1,0,0:0:0:0:
320,192,162300,1,0,0:0:0:0:
64,192,162363,1,0,0:0:0:0:
192,192,162425,1,0,0:0:0:0:
448,192,163488,1,0,0:0:0:0:
320,192,163613,1,0,0:0:0:0:
192,192,163738,1,0,0:0:0:0:
320,192,163863,1,0,0:0:0:0:
64,192,163988,1,0,0:0:0:0:
448,192,163988,1,0,0:0:0:0:
192,192,164113,1,0,0:0:0:0:
320,192,164238,1,0,0:0:0:0:
64,192,164363,1,0,0:0:0:0:
192,192,164363,1,0,0:0:0:0:
448,192,164488,1,0,0:0:0:0:
448,192,164738,1,0,0:0:0:0:
64,192,164988,1,0,0:0:0:0:
192,192,164988,1,0,0:0:0:0:
320,192,165113,1,0,0:0:0:0:
64,192,165238,1,0,0:0:0:0:
192,192,165363,1,0,0:0:0:0:
448,192,165363,1,0,0:0:0:0:
320,192,165488,1,0,0:0:0:0:
320,192,165738,1,0,0:0:0:0:
64,192,165988,1,0,0:0:0:0:
192,192,165988,1,0,0:0:0:0:
448,192,166113,1,0,0:0:0:0:
320,192,166238,1,0,0:0:0:0:
64,192,166363,1,0,0:0:0:0:
192,192,166363,1,0,0:0:0:0:
320,192,166488,1,0,0:0:0:0:
320,192,166738,1,0,0:0:0:0:
64,192,166988,1,0,0:0:0:0:
448,192,166988,1,0,0:0:0:0:
192,192,167113,1,0,0:0:0:0:
320,192,167238,1,0,0:0:0:0:
192,192,167363,1,0,0:0:0:0:
448,192,167363,1,0,0:0:0:0:
64,192,167488,1,0,0:0:0:0:
64,192,167738,1,0,0:0:0:0:
320,192,167988,1,0,0:0:0:0:
448,192,167988,1,0,0:0:0:0:
192,192,168113,1,0,0:0:0:0:
448,192,168238,1,0,0:0:0:0:
64,192,168363,1,0,0:0:0:0:
320,192,168363,1,0,0:0:0:0:
192,192,168488,1,0,0:0:0:0:
192,192,168738,1,0,0:0:0:0:
320,192,168988,1,0,0:0:0:0:
448,192,168988,1,0,0:0:0:0:
192,192,169113,1,0,0:0:0:0:
320,192,169238,1,0,0:0:0:0:
64,192,169363,1,0,0:0:0:0:
320,192,169488,1,0,0:0:0:0:
448,192,169488,1,0,0:0:0:0:
64,192,169613,1,0,0:0:0:0:
192,192,169613,1,0,0:0:0:0:
320,192,169738,1,0,0:0:0:0:
448,192,169738,1,0,0:0:0:0:
448,192,169863,1,0,0:0:0:0:
192,192,169988,1,0,0:0:0:0:
320,192,169988,1,0,0:0:0:0:
192,192,170113,1,0,0:0:0:0:
64,192,170238,1,0,0:0:0:0:
448,192,170238,1,0,0:0:0:0:
448,192,170363,1,0,0:0:0:0:
192,192,170488,1,0,0:0:0:0:
320,192,170613,1,0,0:0:0:0:
448,192,170613,1,0,0:0:0:0:
64,192,170738,1,0,0:0:0:0:
192,192,170738,1,0,0:0:0:0:
448,192,170988,1,0,0:0:0:0:
320,192,171050,1,0,0:0:0:0:
192,192,171113,1,0,0:0:0:0:
64,192,171175,1,0,0:0:0:0:
448,192,171238,1,0,0:0:0:0:
320,192,171300,1,0,0:0:0:0:
192,192,171363,1,0,0:0:0:0:
64,192,171425,1,0,0:0:0:0:
320,192,171488,1,2,0:0:0:0:
448,192,171488,1,4,0:0:0:0:
192,192,171613,1,0,0:0:0:0:
64,192,171738,1,8,0:0:0:0:
448,192,171738,1,0,0:0:0:0:
192,192,171863,1,2,0:0:0:0:
448,192,171863,1,0,0:0:0:0:
64,192,171988,1,0,0:0:0:0:
320,192,172113,1,2,0:0:0:0:
448,192,172113,1,0,0:0:0:0:
64,192,172238,1,8,0:0:0:0:
448,192,172238,1,0,0:0:0:0:
320,192,172363,1,0,0:0:0:0:
64,192,172488,1,2,0:0:0:0:
192,192,172488,1,0,0:0:0:0:
320,192,172613,1,0,0:0:0:0:
64,192,172738,1,8,0:0:0:0:
448,192,172738,1,0,0:0:0:0:
64,192,172863,1,2,0:0:0:0:
320,192,172863,1,0,0:0:0:0:
448,192,172988,1,0,0:0:0:0:
64,192,173113,1,2,0:0:0:0:
192,192,173113,1,0,0:0:0:0:
64,192,173238,1,8,0:0:0:0:
448,192,173238,1,0,0:0:0:0:
192,192,173363,1,0,0:0:0:0:
320,192,173488,1,2,0:0:0:0:
448,192,173488,1,0,0:0:0:0:
192,192,173613,1,0,0:0:0:0:
64,192,173738,1,8,0:0:0:0:
448,192,173738,1,0,0:0:0:0:
192,192,173863,1,2,0:0:0:0:
448,192,173863,1,0,0:0:0:0:
64,192,173988,1,0,0:0:0:0:
320,192,174113,1,2,0:0:0:0:
448,192,174113,1,0,0:0:0:0:
64,192,174238,1,8,0:0:0:0:
448,192,174238,1,0,0:0:0:0:
320,192,174363,1,0,0:0:0:0:
64,192,174488,1,2,0:0:0:0:
192,192,174488,1,0,0:0:0:0:
320,192,174613,1,0,0:0:0:0:
64,192,174738,1,8,0:0:0:0:
448,192,174738,1,0,0:0:0:0:
64,192,174863,1,2,0:0:0:0:
320,192,174863,1,0,0:0:0:0:
448,192,174988,1,0,0:0:0:0:
64,192,175113,1,2,0:0:0:0:
192,192,175113,1,0,0:0:0:0:
64,192,175238,1,8,0:0:0:0:
448,192,175238,1,0,0:0:0:0:
192,192,175363,1,0,0:0:0:0:
320,192,175488,1,2,0:0:0:0:
448,192,175488,1,0,0:0:0:0:
192,192,175613,1,0,0:0:0:0:
64,192,175738,1,8,0:0:0:0:
448,192,175738,1,0,0:0:0:0:
192,192,175863,1,2,0:0:0:0:
448,192,175863,1,0,0:0:0:0:
64,192,175988,1,0,0:0:0:0:
320,192,176113,1,2,0:0:0:0:
448,192,176113,1,0,0:0:0:0:
64,192,176238,1,8,0:0:0:0:
448,192,176238,1,0,0:0:0:0:
320,192,176363,1,0,0:0:0:0:
64,192,176488,1,2,0:0:0:0:
192,192,176488,1,0,0:0:0:0:
320,192,176613,1,0,0:0:0:0:
64,192,176738,1,8,0:0:0:0:
448,192,176738,1,0,0:0:0:0:
64,192,176863,1,2,0:0:0:0:
320,192,176863,1,0,0:0:0:0:
448,192,176988,1,0,0:0:0:0:
64,192,177113,1,2,0:0:0:0:
192,192,177113,1,0,0:0:0:0:
64,192,177238,1,8,0:0:0:0:
448,192,177238,1,0,0:0:0:0:
192,192,177363,1,0,0:0:0:0:
320,192,177488,1,2,0:0:0:0:
448,192,177488,1,0,0:0:0:0:
192,192,177613,1,0,0:0:0:0:
64,192,177738,1,8,0:0:0:0:
448,192,177738,1,0,0:0:0:0:
192,192,177863,1,2,0:0:0:0:
448,192,177863,1,0,0:0:0:0:
64,192,177988,1,0,0:0:0:0:
320,192,178113,1,2,0:0:0:0:
448,192,178113,1,0,0:0:0:0:
64,192,178238,1,8,0:0:0:0:
448,192,178238,1,0,0:0:0:0:
320,192,178363,1,0,0:0:0:0:
64,192,178488,1,2,0:0:0:0:
192,192,178488,1,0,0:0:0:0:
320,192,178613,1,0,0:0:0:0:
64,192,178738,1,8,0:0:0:0:
448,192,178738,1,0,0:0:0:0:
192,192,178800,1,0,0:0:0:0:
320,192,178863,1,2,0:0:0:0:
64,192,178925,1,0,0:0:0:0:
192,192,178988,1,0,0:0:0:0:
448,192,179050,1,0,0:0:0:0:
64,192,179113,1,2,0:0:0:0:
320,192,179175,1,0,0:0:0:0:
448,192,179238,1,8,0:0:0:0:
192,192,179300,1,0,0:0:0:0:
320,192,179363,1,0,0:0:0:0:
448,192,179425,1,0,0:0:0:0:
64,192,179488,1,4,0:0:0:0:
192,192,179488,1,2,0:0:0:0:
448,192,179613,1,0,0:0:0:0:
64,192,179738,1,8,0:0:0:0:
320,192,179738,1,0,0:0:0:0:
192,192,179863,1,2,0:0:0:0:
448,192,179863,1,0,0:0:0:0:
320,192,179925,1,0,0:0:0:0:
64,192,179988,1,0,0:0:0:0:
192,192,180050,1,0,0:0:0:0:
320,192,180113,1,2,0:0:0:0:
64,192,180175,1,0,0:0:0:0:
192,192,180238,1,8,0:0:0:0:
448,192,180238,1,0,0:0:0:0:
320,192,180300,1,0,0:0:0:0:
64,192,180363,1,0,0:0:0:0:
192,192,180425,1,0,0:0:0:0:
320,192,180488,1,2,0:0:0:0:
448,192,180488,1,0,0:0:0:0:
448,192,180613,1,0,0:0:0:0:
64,192,180738,1,8,0:0:0:0:
320,192,180738,1,0,0:0:0:0:
64,192,180863,1,2,0:0:0:0:
448,192,180863,1,0,0:0:0:0:
192,192,180988,1,0,0:0:0:0:
320,192,181113,1,2,0:0:0:0:
448,192,181113,1,0,0:0:0:0:
64,192,181238,1,8,0:0:0:0:
448,192,181238,1,0,0:0:0:0:
64,192,181363,1,0,0:0:0:0:
320,192,181488,1,2,0:0:0:0:
448,192,181488,1,0,0:0:0:0:
64,192,181550,1,0,0:0:0:0:
192,192,181613,1,0,0:0:0:0:
448,192,181675,1,0,0:0:0:0:
64,192,181738,1,8,0:0:0:0:
320,192,181738,1,0,0:0:0:0:
192,192,181800,1,0,0:0:0:0:
448,192,181863,1,2,0:0:0:0:
320,192,181925,1,0,0:0:0:0:
64,192,181988,1,0,0:0:0:0:
192,192,182050,1,0,0:0:0:0:
320,192,182113,1,2,0:0:0:0:
64,192,182175,1,0,0:0:0:0:
192,192,182238,1,8,0:0:0:0:
448,192,182238,1,0,0:0:0:0:
448,192,182363,1,0,0:0:0:0:
64,192,182488,1,2,0:0:0:0:
320,192,182488,1,0,0:0:0:0:
192,192,182613,1,0,0:0:0:0:
64,192,182738,1,8,0:0:0:0:
320,192,182738,1,0,0:0:0:0:
192,192,182863,1,2,0:0:0:0:
448,192,182863,1,0,0:0:0:0:
320,192,182988,1,0,0:0:0:0:
64,192,183113,1,2,0:0:0:0:
192,192,183113,1,0,0:0:0:0:
320,192,183238,1,8,0:0:0:0:
448,192,183238,1,0,0:0:0:0:
192,192,183363,1,0,0:0:0:0:
64,192,183488,1,2,0:0:0:0:
448,192,183488,1,0,0:0:0:0:
320,192,183550,1,0,0:0:0:0:
192,192,183613,1,0,0:0:0:0:
448,192,183675,1,0,0:0:0:0:
64,192,183738,1,8,0:0:0:0:
320,192,183738,1,0,0:0:0:0:
192,192,183800,1,0,0:0:0:0:
448,192,183863,1,2,0:0:0:0:
320,192,183925,1,0,0:0:0:0:
64,192,183988,1,0,0:0:0:0:
192,192,184050,1,0,0:0:0:0:
320,192,184113,1,2,0:0:0:0:
64,192,184175,1,0,0:0:0:0:
192,192,184238,1,8,0:0:0:0:
448,192,184238,1,0,0:0:0:0:
320,192,184363,1,0,0:0:0:0:
64,192,184488,1,2,0:0:0:0:
448,192,184488,1,0,0:0:0:0:
192,192,184613,1,0,0:0:0:0:
320,192,184738,1,8,0:0:0:0:
448,192,184738,1,0,0:0:0:0:
192,192,184863,1,2,0:0:0:0:
448,192,184863,1,0,0:0:0:0:
320,192,184988,1,0,0:0:0:0:
64,192,185113,1,2,0:0:0:0:
192,192,185113,1,0,0:0:0:0:
64,192,185238,1,8,0:0:0:0:
320,192,185238,1,0,0:0:0:0:
192,192,185363,1,0,0:0:0:0:
320,192,185488,1,2,0:0:0:0:
448,192,185488,1,0,0:0:0:0:
64,192,185613,1,0,0:0:0:0:
192,192,185738,1,8,0:0:0:0:
448,192,185738,1,0,0:0:0:0:
64,192,185863,1,2,0:0:0:0:
448,192,185863,1,0,0:0:0:0:
192,192,185988,1,0,0:0:0:0:
320,192,186113,1,2,0:0:0:0:
448,192,186113,1,0,0:0:0:0:
64,192,186238,1,8,0:0:0:0:
192,192,186238,1,0,0:0:0:0:
320,192,186300,1,0,0:0:0:0:
448,192,186363,1,0,0:0:0:0:
64,192,186488,1,2,0:0:0:0:
192,192,186488,1,0,0:0:0:0:
192,192,186613,1,0,0:0:0:0:
320,192,186738,1,8,0:0:0:0:
448,192,186738,1,0,0:0:0:0:
64,192,186863,1,2,0:0:0:0:
192,192,186863,1,0,0:0:0:0:
320,192,186925,1,0,0:0:0:0:
64,192,186988,1,0,0:0:0:0:
320,192,187113,1,2,0:0:0:0:
448,192,187113,1,0,0:0:0:0:
64,192,187238,1,8,0:0:0:0:
192,192,187238,1,0,0:0:0:0:
192,192,187363,1,0,0:0:0:0:
64,192,187488,1,4,0:0:0:0:
320,192,187488,1,2,0:0:0:0:
448,192,187488,1,0,0:0:0:0:
64,192,187613,1,0,0:0:0:0:
192,192,187738,1,8,0:0:0:0:
448,192,187738,1,0,0:0:0:0:
64,192,187863,1,2,0:0:0:0:
320,192,187863,1,0,0:0:0:0:
192,192,187925,1,0,0:0:0:0:
448,192,187988,1,0,0:0:0:0:
320,192,188050,1,0,0:0:0:0:
192,192,188113,1,2,0:0:0:0:
448,192,188175,1,0,0:0:0:0:
64,192,188238,1,8,0:0:0:0:
320,192,188238,1,0,0:0:0:0:
192,192,188300,1,0,0:0:0:0:
448,192,188363,1,0,0:0:0:0:
320,192,188425,1,0,0:0:0:0:
64,192,188488,1,2,0:0:0:0:
192,192,188488,1,0,0:0:0:0:
64,192,188613,1,0,0:0:0:0:
320,192,188738,1,8,0:0:0:0:
448,192,188738,1,0,0:0:0:0:
64,192,188863,1,2,0:0:0:0:
448,192,188863,1,0,0:0:0:0:
320,192,188988,1,0,0:0:0:0:
64,192,189113,1,2,0:0:0:0:
192,192,189113,1,0,0:0:0:0:
64,192,189238,1,8,0:0:0:0:
448,192,189238,1,0,0:0:0:0:
448,192,189363,1,0,0:0:0:0:
64,192,189488,1,2,0:0:0:0:
192,192,189488,1,0,0:0:0:0:
448,192,189550,1,0,0:0:0:0:
320,192,189613,1,0,0:0:0:0:
64,192,189675,1,0,0:0:0:0:
192,192,189738,1,8,0:0:0:0:
448,192,189738,1,0,0:0:0:0:
320,192,189800,1,0,0:0:0:0:
64,192,189863,1,2,0:0:0:0:
192,192,189925,1,0,0:0:0:0:
448,192,189988,1,0,0:0:0:0:
320,192,190050,1,0,0:0:0:0:
192,192,190113,1,2,0:0:0:0:
448,192,190175,1,0,0:0:0:0:
64,192,190238,1,8,0:0:0:0:
320,192,190238,1,0,0:0:0:0:
64,192,190363,1,0,0:0:0:0:
192,192,190488,1,2,0:0:0:0:
448,192,190488,1,0,0:0:0:0:
320,192,190613,1,0,0:0:0:0:
64,192,190738,1,8,0:0:0:0:
448,192,190738,1,0,0:0:0:0:
64,192,190863,1,2,0:0:0:0:
320,192,190863,1,0,0:0:0:0:
192,192,190988,1,0,0:0:0:0:
320,192,191113,1,2,0:0:0:0:
448,192,191113,1,0,0:0:0:0:
64,192,191238,1,8,0:0:0:0:
448,192,191238,1,0,0:0:0:0:
320,192,191363,1,0,0:0:0:0:
64,192,191488,1,2,0:0:0:0:
448,192,191488,1,0,0:0:0:0:
192,192,191550,1,0,0:0:0:0:
320,192,191613,1,0,0:0:0:0:
64,192,191675,1,0,0:0:0:0:
192,192,191738,1,8,0:0:0:0:
448,192,191738,1,0,0:0:0:0:
320,192,191800,1,0,0:0:0:0:
64,192,191863,1,2,0:0:0:0:
192,192,191925,1,0,0:0:0:0:
448,192,191988,1,0,0:0:0:0:
320,192,192050,1,0,0:0:0:0:
192,192,192113,1,2,0:0:0:0:
448,192,192175,1,0,0:0:0:0:
64,192,192238,1,8,0:0:0:0:
320,192,192238,1,0,0:0:0:0:
192,192,192363,1,0,0:0:0:0:
64,192,192488,1,2,0:0:0:0:
448,192,192488,1,0,0:0:0:0:
320,192,192613,1,0,0:0:0:0:
192,192,192738,1,8,0:0:0:0:
448,192,192738,1,0,0:0:0:0:
64,192,192863,1,2,0:0:0:0:
320,192,192863,1,0,0:0:0:0:
192,192,192988,1,0,0:0:0:0:
320,192,193113,1,2,0:0:0:0:
448,192,193113,1,0,0:0:0:0:
64,192,193238,1,8,0:0:0:0:
192,192,193238,1,0,0:0:0:0:
320,192,193363,1,0,0:0:0:0:
64,192,193488,1,2,0:0:0:0:
448,192,193488,1,0,0:0:0:0:
192,192,193550,1,0,0:0:0:0:
320,192,193613,1,0,0:0:0:0:
448,192,193675,1,0,0:0:0:0:
64,192,193738,1,8,0:0:0:0:
192,192,193738,1,0,0:0:0:0:
320,192,193800,1,0,0:0:0:0:
448,192,193863,1,2,0:0:0:0:
192,192,193925,1,0,0:0:0:0:
64,192,193988,1,0,0:0:0:0:
448,192,194050,1,0,0:0:0:0:
320,192,194113,1,2,0:0:0:0:
192,192,194175,1,0,0:0:0:0:
64,192,194238,1,8,0:0:0:0:
448,192,194238,1,0,0:0:0:0:
320,192,194363,1,0,0:0:0:0:
64,192,194488,1,2,0:0:0:0:
192,192,194488,1,0,0:0:0:0:
320,192,194613,1,0,0:0:0:0:
64,192,194738,1,8,0:0:0:0:
448,192,194738,1,0,0:0:0:0:
192,192,194863,1,2,0:0:0:0:
320,192,194863,1,0,0:0:0:0:
64,192,194988,1,0,0:0:0:0:
320,192,195113,1,2,0:0:0:0:
448,192,195113,1,0,0:0:0:0:
64,192,195238,1,8,0:0:0:0:
448,192,195238,1,0,0:0:0:0:
192,192,195300,1,0,0:0:0:0:
320,192,195363,1,0,0:0:0:0:
64,192,195425,1,0,0:0:0:0:
192,192,195488,1,2,0:0:0:0:
448,192,195488,1,4,0:0:0:0:
320,192,195613,1,0,0:0:0:0:
192,192,195738,1,8,0:0:0:0:
448,192,195738,1,0,0:0:0:0:
320,192,195863,1,2,0:0:0:0:
64,192,195988,1,0,0:0:0:0:
192,192,196113,1,2,0:0:0:0:
64,192,196238,1,4,0:0:0:0:
320,192,196238,1,2,0:0:0:0:
448,192,196238,1,0,0:0:0:0:
192,192,196363,1,0,0:0:0:0:
64,192,196488,1,8,0:0:0:0:
448,192,196488,1,0,0:0:0:0:
320,192,196613,1,2,0:0:0:0:
192,192,196738,1,0,0:0:0:0:
64,192,196863,1,2,0:0:0:0:
320,192,196988,128,8,197154:0:0:0:0:
448,192,196988,1,0,0:0:0:0:
64,192,197154,1,8,0:0:0:0:
192,192,197154,128,0,197321:0:0:0:0:
320,192,197321,1,8,0:0:0:0:
448,192,197321,128,0,197488:0:0:0:0:
64,192,197488,1,4,0:0:0:0:
192,192,197488,1,2,0:0:0:0:
320,192,197613,1,0,0:0:0:0:
64,192,197738,1,8,0:0:0:0:
448,192,197738,1,0,0:0:0:0:
320,192,197863,1,2,0:0:0:0:
192,192,197988,1,0,0:0:0:0:
320,192,198113,1,2,0:0:0:0:
64,192,198238,1,2,0:0:0:0:
192,192,198238,1,4,0:0:0:0:
448,192,198238,1,0,0:0:0:0:
320,192,198363,1,0,0:0:0:0:
64,192,198488,1,8,0:0:0:0:
448,192,198488,1,0,0:0:0:0:
192,192,198613,1,2,0:0:0:0:
320,192,198738,1,0,0:0:0:0:
448,192,198863,1,2,0:0:0:0:
64,192,198988,1,8,0:0:0:0:
192,192,198988,128,0,199154:0:0:0:0:
320,192,199154,128,8,199321:0:0:0:0:
448,192,199154,1,0,0:0:0:0:
64,192,199321,128,8,199488:0:0:0:0:
192,192,199321,1,0,0:0:0:0:
192,192,199488,1,2,0:0:0:0:
448,192,199488,1,4,0:0:0:0:
320,192,199613,1,0,0:0:0:0:
64,192,199738,1,8,0:0:0:0:
192,192,199738,1,0,0:0:0:0:
320,192,199863,1,2,0:0:0:0:
64,192,199988,1,0,0:0:0:0:
448,192,200113,1,2,0:0:0:0:
64,192,200238,1,4,0:0:0:0:
192,192,200238,1,2,0:0:0:0:
320,192,200238,1,0,0:0:0:0:
448,192,200363,1,0,0:0:0:0:
64,192,200488,1,8,0:0:0:0:
320,192,200488,1,0,0:0:0:0:
192,192,200613,1,2,0:0:0:0:
448,192,200738,1,0,0:0:0:0:
320,192,200863,1,2,0:0:0:0:
64,192,200988,1,8,0:0:0:0:
192,192,200988,128,0,201154:0:0:0:0:
320,192,201154,128,8,201321:0:0:0:0:
448,192,201154,1,0,0:0:0:0:
64,192,201321,128,8,201488:0:0:0:0:
192,192,201321,1,0,0:0:0:0:
320,192,201488,1,4,0:0:0:0:
448,192,201488,1,2,0:0:0:0:
192,192,201613,1,0,0:0:0:0:
64,192,201738,1,8,0:0:0:0:
320,192,201738,1,0,0:0:0:0:
192,192,201863,1,2,0:0:0:0:
448,192,201988,1,0,0:0:0:0:
192,192,202113,1,2,0:0:0:0:
448,192,202238,1,0,0:0:0:0:
64,192,202238,1,2,0:0:0:0:
320,192,202238,1,4,0:0:0:0:
192,192,202363,1,0,0:0:0:0:
64,192,202488,1,8,0:0:0:0:
448,192,202488,1,0,0:0:0:0:
320,192,202613,1,2,0:0:0:0:
192,192,202738,1,0,0:0:0:0:
64,192,202863,1,2,0:0:0:0:
448,192,202988,1,8,0:0:0:0:
320,192,203071,1,8,0:0:0:0:
192,192,203154,1,8,0:0:0:0:
64,192,203238,1,8,0:0:0:0:
448,192,203321,1,8,0:0:0:0:
320,192,203404,1,8,0:0:0:0:
64,192,203488,1,2,0:0:0:0:
192,192,203488,1,4,0:0:0:0:
192,192,203613,1,0,0:0:0:0:
64,192,203738,1,2,0:0:0:0:
448,192,203738,1,0,0:0:0:0:
448,192,203863,1,0,0:0:0:0:
192,192,203988,1,2,0:0:0:0:
320,192,203988,1,0,0:0:0:0:
192,192,204113,1,0,0:0:0:0:
64,192,204238,1,2,0:0:0:0:
320,192,204238,1,0,0:0:0:0:
320,192,204363,1,0,0:0:0:0:
64,192,204488,1,2,0:0:0:0:
448,192,204488,1,0,0:0:0:0:
64,192,204613,1,0,0:0:0:0:
192,192,204738,1,2,0:0:0:0:
320,192,204738,1,0,0:0:0:0:
320,192,204863,1,0,0:0:0:0:
64,192,204988,1,2,0:0:0:0:
448,192,204988,1,0,0:0:0:0:
192,192,205154,1,0,0:0:0:0:
448,192,205154,1,0,0:0:0:0:
64,192,205321,1,0,0:0:0:0:
320,192,205321,1,0,0:0:0:0:
448,192,205488,1,0,0:0:0:0:
192,192,205488,1,4,0:0:0:0:
320,192,205488,1,2,0:0:0:0:
320,192,205613,1,0,0:0:0:0:
64,192,205738,1,2,0:0:0:0:
448,192,205738,1,0,0:0:0:0:
64,192,205863,1,0,0:0:0:0:
192,192,205988,1,2,0:0:0:0:
320,192,205988,1,0,0:0:0:0:
320,192,206113,1,0,0:0:0:0:
192,192,206238,1,2,0:0:0:0:
448,192,206238,1,0,0:0:0:0:
192,192,206363,1,0,0:0:0:0:
64,192,206488,1,2,0:0:0:0:
448,192,206488,1,0,0:0:0:0:
448,192,206613,1,0,0:0:0:0:
192,192,206738,1,2,0:0:0:0:
320,192,206738,1,0,0:0:0:0:
192,192,206863,1,0,0:0:0:0:
64,192,206988,1,2,0:0:0:0:
448,192,206988,1,0,0:0:0:0:
64,192,207154,1,0,0:0:0:0:
320,192,207154,1,0,0:0:0:0:
192,192,207321,1,0,0:0:0:0:
448,192,207321,1,0,0:0:0:0:
64,192,207488,1,2,0:0:0:0:
192,192,207488,1,4,0:0:0:0:
320,192,207488,1,0,0:0:0:0:
192,192,207613,1,0,0:0:0:0:
64,192,207738,1,2,0:0:0:0:
448,192,207738,1,0,0:0:0:0:
448,192,207863,1,0,0:0:0:0:
192,192,207988,1,2,0:0:0:0:
320,192,207988,1,0,0:0:0:0:
192,192,208113,1,0,0:0:0:0:
64,192,208238,1,2,0:0:0:0:
320,192,208238,1,0,0:0:0:0:
320,192,208363,1,0,0:0:0:0:
64,192,208488,1,2,0:0:0:0:
448,192,208488,1,0,0:0:0:0:
64,192,208613,1,0,0:0:0:0:
192,192,208738,1,2,0:0:0:0:
320,192,208738,1,0,0:0:0:0:
320,192,208863,1,0,0:0:0:0:
64,192,208988,1,2,0:0:0:0:
448,192,208988,1,0,0:0:0:0:
192,192,209154,1,0,0:0:0:0:
448,192,209154,1,0,0:0:0:0:
64,192,209321,1,0,0:0:0:0:
320,192,209321,1,0,0:0:0:0:
192,192,209488,1,4,0:0:0:0:
320,192,209488,1,2,0:0:0:0:
448,192,209488,1,0,0:0:0:0:
320,192,209613,1,0,0:0:0:0:
64,192,209738,1,2,0:0:0:0:
448,192,209738,1,0,0:0:0:0:
64,192,209863,1,0,0:0:0:0:
192,192,209988,1,2,0:0:0:0:
320,192,209988,1,0,0:0:0:0:
320,192,210113,1,0,0:0:0:0:
192,192,210238,1,2,0:0:0:0:
448,192,210238,1,0,0:0:0:0:
192,192,210363,1,0,0:0:0:0:
64,192,210488,1,2,0:0:0:0:
448,192,210488,1,0,0:0:0:0:
448,192,210613,1,0,0:0:0:0:
192,192,210738,1,2,0:0:0:0:
320,192,210738,1,0,0:0:0:0:
192,192,210863,1,0,0:0:0:0:
64,192,210988,1,8,0:0:0:0:
448,192,210988,1,0,0:0:0:0:
64,192,211113,1,8,0:0:0:0:
448,192,211113,1,0,0:0:0:0:
64,192,211238,1,8,0:0:0:0:
448,192,211238,1,0,0:0:0:0:
64,192,211363,1,8,0:0:0:0:
448,192,211363,1,0,0:0:0:0:
