osu file format v14

[General]
AudioFilename: kingworld.ogg
AudioLeadIn: 0
PreviewTime: 162730
Countdown: 0
SampleSet: Normal
StackLeniency: 0.7
Mode: 3
LetterboxInBreaks: 0
SpecialStyle: 0
WidescreenStoryboard: 1

[Editor]
DistanceSpacing: 0.6
BeatDivisor: 12
GridSize: 8
TimelineZoom: 2.6

[Metadata]
Title:KINGWORLD
TitleUnicode:KINGWORLD
Artist:sasakure.UK feat. Shirakami Fubuki
ArtistUnicode:sasakure.UK feat. 白上フブキ
Creator:PORTTAYER
Version:Insane
Source:
Tags:hololive ホロライブ 1st generation gamers vtuber virtual youtuber sasakureuk 佐々木秀尚 sasaki hidehisa 有形ランペイジ ukrampage japanese 8-bit 8bit electronic chiptune j-pop jpop pop fbk 2nd original song jubeat ave. rhythm video game videogame cvrd-163
BeatmapID:3702303
BeatmapSetID:1778490

[Difficulty]
HPDrainRate:7.8
CircleSize:4
OverallDifficulty:7.5
ApproachRate:5
SliderMultiplier:1.4
SliderTickRate:1

[Events]
//Background and Video events
0,0,"FUUFwCcaUAAucHv.jpg",0,0
//Break Periods
2,162665,169780
//Storyboard Layer 0 (Background)
//Storyboard Layer 1 (Fail)
//Storyboard Layer 2 (Pass)
//Storyboard Layer 3 (Foreground)
//Storyboard Layer 4 (Overlay)
//Storyboard Sound Samples

[TimingPoints]
231,250,3,1,1,40,1,0
3606,344.827586206897,4,1,1,40,1,0
3606,-72.5163161711385,4,1,1,40,0,0
3778,319.148936170213,4,1,1,40,1,0
3778,-78.3699059561128,4,1,1,40,0,0
3937,295.566502463054,4,1,1,40,1,0
3937,-84.6023688663283,4,1,1,40,0,0
5106,250,4,1,1,40,1,0
21106,250,7,1,1,40,1,0
26356,250,4,1,1,40,1,0
28356,250,7,1,1,40,1,0
33606,250,4,1,1,40,1,0
51606,-100,4,1,1,40,0,1
67606,-100,4,1,1,40,0,0
83605,250,7,1,1,40,1,0
88855,250,4,1,1,40,1,0
90855,250,6,1,1,40,1,0
113355,250,4,1,1,40,1,0
115355,-100,4,1,1,40,0,1
137355,250,3,1,1,40,1,1
141813,-100,3,1,1,40,0,0
143980,250,4,1,1,40,1,0
157980,250,3,1,1,40,1,0
163480,250,4,1,1,40,1,0
179480,-100,4,1,1,40,0,1
195480,-100,4,1,1,40,0,0
203480,-100,4,1,1,40,0,1
211355,-100,4,1,1,40,0,0

[HitObjects]
64,192,481,5,0,0:0:0:0:
192,192,543,1,0,0:0:0:0:
320,192,606,1,0,0:0:0:0:
448,192,668,1,0,0:0:0:0:
64,192,731,1,0,0:0:0:0:
192,192,793,1,0,0:0:0:0:
320,192,856,1,0,0:0:0:0:
192,192,918,1,0,0:0:0:0:
64,192,981,1,0,0:0:0:0:
320,192,981,1,0,0:0:0:0:
448,192,981,1,0,0:0:0:0:
64,192,1106,1,0,0:0:0:0:
320,192,1231,1,0,0:0:0:0:
64,192,1356,1,0,0:0:0:0:
448,192,1356,1,0,0:0:0:0:
192,192,1356,1,0,0:0:0:0:
448,192,1481,1,0,0:0:0:0:
192,192,1606,1,0,0:0:0:0:
320,192,1731,1,0,0:0:0:0:
448,192,1731,1,0,0:0:0:0:
64,192,1731,1,0,0:0:0:0:
64,192,1856,1,0,0:0:0:0:
448,192,1981,1,0,0:0:0:0:
320,192,2106,1,0,0:0:0:0:
192,192,2106,1,0,0:0:0:0:
64,192,2106,1,0,0:0:0:0:
320,192,2231,1,0,0:0:0:0:
64,192,2356,1,0,0:0:0:0:
192,192,2481,1,0,0:0:0:0:
320,192,2481,1,0,0:0:0:0:
448,192,2481,1,0,0:0:0:0:
192,192,2606,1,0,0:0:0:0:
448,192,2731,1,0,0:0:0:0:
192,192,2856,1,0,0:0:0:0:
64,192,2856,1,0,0:0:0:0:
320,192,2856,1,0,0:0:0:0:
320,192,2981,1,0,0:0:0:0:
192,192,3106,1,0,0:0:0:0:
448,192,3231,1,0,0:0:0:0:
320,192,3231,1,0,0:0:0:0:
64,192,3231,1,0,0:0:0:0:
448,192,3356,1,0,0:0:0:0:
192,192,3481,1,0,0:0:0:0:
320,192,3606,1,0,0:0:0:0:
448,192,3606,1,0,0:0:0:0:
64,192,3606,1,0,0:0:0:0:
448,192,3778,1,0,0:0:0:0:
320,192,3778,1,0,0:0:0:0:
64,192,3778,1,0,0:0:0:0:
64,192,3937,1,0,0:0:0:0:
192,192,3937,1,0,0:0:0:0:
448,192,3937,1,0,0:0:0:0:
448,192,5106,1,0,0:0:0:0:
192,192,5106,1,0,0:0:0:0:
64,192,5106,1,0,0:0:0:0:
320,192,5231,1,0,0:0:0:0:
64,192,5356,1,0,0:0:0:0:
448,192,5356,1,0,0:0:0:0:
192,192,5481,1,0,0:0:0:0:
320,192,5481,1,0,0:0:0:0:
64,192,5606,1,0,0:0:0:0:
320,192,5731,1,0,0:0:0:0:
448,192,5731,1,0,0:0:0:0:
192,192,5856,1,0,0:0:0:0:
64,192,5856,1,0,0:0:0:0:
448,192,5918,1,0,0:0:0:0:
64,192,5981,1,0,0:0:0:0:
320,192,6106,1,0,0:0:0:0:
448,192,6106,1,0,0:0:0:0:
64,192,6231,1,0,0:0:0:0:
320,192,6356,1,0,0:0:0:0:
448,192,6356,1,0,0:0:0:0:
192,192,6481,1,0,0:0:0:0:
64,192,6481,1,0,0:0:0:0:
448,192,6543,1,0,0:0:0:0:
192,192,6606,1,0,0:0:0:0:
320,192,6731,1,0,0:0:0:0:
64,192,6731,1,0,0:0:0:0:
192,192,6856,1,0,0:0:0:0:
448,192,6856,1,0,0:0:0:0:
64,192,6981,1,0,0:0:0:0:
320,192,7106,1,0,0:0:0:0:
448,192,7106,1,0,0:0:0:0:
192,192,7231,1,0,0:0:0:0:
448,192,7356,1,0,0:0:0:0:
64,192,7356,1,0,0:0:0:0:
192,192,7481,1,0,0:0:0:0:
320,192,7481,1,0,0:0:0:0:
448,192,7606,1,0,0:0:0:0:
192,192,7731,1,0,0:0:0:0:
64,192,7731,1,0,0:0:0:0:
320,192,7856,1,0,0:0:0:0:
448,192,7856,1,0,0:0:0:0:
64,192,7981,1,0,0:0:0:0:
192,192,8106,1,0,0:0:0:0:
320,192,8106,1,0,0:0:0:0:
448,192,8231,1,0,0:0:0:0:
192,192,8356,1,0,0:0:0:0:
64,192,8356,1,0,0:0:0:0:
320,192,8481,1,0,0:0:0:0:
448,192,8481,1,0,0:0:0:0:
192,192,8606,1,0,0:0:0:0:
192,192,8731,1,0,0:0:0:0:
448,192,8731,1,0,0:0:0:0:
320,192,8856,1,0,0:0:0:0:
64,192,8856,1,0,0:0:0:0:
320,192,8981,1,0,0:0:0:0:
448,192,9106,1,0,0:0:0:0:
192,192,9106,1,0,0:0:0:0:
64,192,9106,1,0,0:0:0:0:
320,192,9231,1,0,0:0:0:0:
64,192,9356,1,0,0:0:0:0:
192,192,9356,1,0,0:0:0:0:
448,192,9481,1,0,0:0:0:0:
320,192,9481,1,0,0:0:0:0:
64,192,9606,1,0,0:0:0:0:
192,192,9731,1,0,0:0:0:0:
320,192,9731,1,0,0:0:0:0:
448,192,9856,1,0,0:0:0:0:
64,192,9856,1,0,0:0:0:0:
320,192,9918,1,0,0:0:0:0:
64,192,9981,1,0,0:0:0:0:
448,192,10106,1,0,0:0:0:0:
320,192,10106,1,0,0:0:0:0:
64,192,10231,1,0,0:0:0:0:
192,192,10356,1,0,0:0:0:0:
320,192,10356,1,0,0:0:0:0:
448,192,10481,1,0,0:0:0:0:
64,192,10481,1,0,0:0:0:0:
192,192,10543,1,0,0:0:0:0:
448,192,10606,1,0,0:0:0:0:
192,192,10731,1,0,0:0:0:0:
64,192,10731,1,0,0:0:0:0:
320,192,10856,1,0,0:0:0:0:
448,192,10856,1,0,0:0:0:0:
64,192,10981,1,0,0:0:0:0:
192,192,11106,1,0,0:0:0:0:
320,192,11106,1,0,0:0:0:0:
448,192,11231,1,0,0:0:0:0:
192,192,11356,1,0,0:0:0:0:
64,192,11356,1,0,0:0:0:0:
320,192,11481,1,0,0:0:0:0:
448,192,11481,1,0,0:0:0:0:
192,192,11606,1,0,0:0:0:0:
320,192,11731,1,0,0:0:0:0:
64,192,11731,1,0,0:0:0:0:
192,192,11856,1,0,0:0:0:0:
448,192,11856,1,0,0:0:0:0:
64,192,11981,1,0,0:0:0:0:
320,192,12106,1,0,0:0:0:0:
448,192,12106,1,0,0:0:0:0:
448,192,12231,1,0,0:0:0:0:
64,192,12356,1,0,0:0:0:0:
192,192,12356,1,0,0:0:0:0:
64,192,12481,1,0,0:0:0:0:
448,192,12481,1,0,0:0:0:0:
320,192,12731,1,0,0:0:0:0:
192,192,12793,1,0,0:0:0:0:
448,192,12856,1,0,0:0:0:0:
64,192,12918,1,0,0:0:0:0:
320,192,12981,1,0,0:0:0:0:
192,192,13043,1,0,0:0:0:0:
64,192,13106,1,0,0:0:0:0:
320,192,13106,1,0,0:0:0:0:
448,192,13106,1,0,0:0:0:0:
192,192,13231,1,0,0:0:0:0:
448,192,13356,1,0,0:0:0:0:
64,192,13356,1,0,0:0:0:0:
320,192,13481,1,0,0:0:0:0:
192,192,13481,1,0,0:0:0:0:
448,192,13606,1,0,0:0:0:0:
192,192,13731,1,0,0:0:0:0:
64,192,13731,1,0,0:0:0:0:
320,192,13856,1,0,0:0:0:0:
448,192,13856,1,0,0:0:0:0:
64,192,13918,1,0,0:0:0:0:
448,192,13981,1,0,0:0:0:0:
192,192,14106,1,0,0:0:0:0:
64,192,14106,1,0,0:0:0:0:
448,192,14231,1,0,0:0:0:0:
192,192,14356,1,0,0:0:0:0:
64,192,14356,1,0,0:0:0:0:
320,192,14481,1,0,0:0:0:0:
448,192,14481,1,0,0:0:0:0:
64,192,14543,1,0,0:0:0:0:
320,192,14606,1,0,0:0:0:0:
192,192,14731,1,0,0:0:0:0:
448,192,14731,1,0,0:0:0:0:
320,192,14856,1,0,0:0:0:0:
64,192,14856,1,0,0:0:0:0:
448,192,14981,1,0,0:0:0:0:
192,192,15106,1,0,0:0:0:0:
64,192,15106,1,0,0:0:0:0:
320,192,15231,1,0,0:0:0:0:
64,192,15356,1,0,0:0:0:0:
448,192,15356,1,0,0:0:0:0:
320,192,15481,1,0,0:0:0:0:
192,192,15481,1,0,0:0:0:0:
64,192,15606,1,0,0:0:0:0:
320,192,15731,1,0,0:0:0:0:
448,192,15731,1,0,0:0:0:0:
192,192,15856,1,0,0:0:0:0:
64,192,15856,1,0,0:0:0:0:
448,192,15981,1,0,0:0:0:0:
320,192,16106,1,0,0:0:0:0:
192,192,16106,1,0,0:0:0:0:
64,192,16231,1,0,0:0:0:0:
320,192,16356,1,0,0:0:0:0:
448,192,16356,1,0,0:0:0:0:
192,192,16481,1,0,0:0:0:0:
64,192,16481,1,0,0:0:0:0:
320,192,16606,1,0,0:0:0:0:
320,192,16731,1,0,0:0:0:0:
64,192,16731,1,0,0:0:0:0:
192,192,16856,1,0,0:0:0:0:
448,192,16856,1,0,0:0:0:0:
192,192,16981,1,0,0:0:0:0:
64,192,17106,1,0,0:0:0:0:
320,192,17106,1,0,0:0:0:0:
448,192,17106,1,0,0:0:0:0:
192,192,17231,1,0,0:0:0:0:
448,192,17356,1,0,0:0:0:0:
320,192,17356,1,0,0:0:0:0:
64,192,17481,1,0,0:0:0:0:
192,192,17481,1,0,0:0:0:0:
448,192,17606,1,0,0:0:0:0:
320,192,17731,1,0,0:0:0:0:
192,192,17731,1,0,0:0:0:0:
64,192,17856,1,0,0:0:0:0:
448,192,17856,1,0,0:0:0:0:
192,192,17918,1,0,0:0:0:0:
448,192,17981,1,0,0:0:0:0:
64,192,18106,1,0,0:0:0:0:
192,192,18106,1,0,0:0:0:0:
448,192,18231,1,0,0:0:0:0:
320,192,18356,1,0,0:0:0:0:
192,192,18356,1,0,0:0:0:0:
64,192,18481,1,0,0:0:0:0:
448,192,18481,1,0,0:0:0:0:
320,192,18543,1,0,0:0:0:0:
64,192,18606,1,0,0:0:0:0:
320,192,18731,1,0,0:0:0:0:
448,192,18731,1,0,0:0:0:0:
192,192,18856,1,0,0:0:0:0:
64,192,18856,1,0,0:0:0:0:
448,192,18981,1,0,0:0:0:0:
320,192,19106,1,0,0:0:0:0:
192,192,19106,1,0,0:0:0:0:
64,192,19231,1,0,0:0:0:0:
320,192,19356,1,0,0:0:0:0:
448,192,19356,1,0,0:0:0:0:
192,192,19481,1,0,0:0:0:0:
64,192,19481,1,0,0:0:0:0:
320,192,19606,1,0,0:0:0:0:
192,192,19731,1,0,0:0:0:0:
448,192,19731,1,0,0:0:0:0:
320,192,19856,1,0,0:0:0:0:
64,192,19856,1,0,0:0:0:0:
448,192,19981,1,0,0:0:0:0:
192,192,20106,1,0,0:0:0:0:
64,192,20106,1,0,0:0:0:0:
64,192,20231,1,0,0:0:0:0:
448,192,20356,1,0,0:0:0:0:
320,192,20356,1,0,0:0:0:0:
448,192,20481,1,0,0:0:0:0:
64,192,20481,1,0,0:0:0:0:
192,192,20731,1,0,0:0:0:0:
320,192,20793,1,0,0:0:0:0:
64,192,20856,1,0,0:0:0:0:
448,192,20918,1,0,0:0:0:0:
192,192,20981,1,0,0:0:0:0:
320,192,21043,1,0,0:0:0:0:
448,192,21106,1,0,0:0:0:0:
192,192,21106,1,0,0:0:0:0:
64,192,21106,1,0,0:0:0:0:
320,192,21356,128,0,21481:0:0:0:0:
448,192,21606,1,0,0:0:0:0:
64,192,21606,128,0,21731:0:0:0:0:
192,192,21856,128,0,21981:0:0:0:0:
448,192,21981,128,0,22106:0:0:0:0:
64,192,22231,1,0,0:0:0:0:
192,192,22231,128,0,22356:0:0:0:0:
448,192,22356,1,0,0:0:0:0:
320,192,22356,128,0,22481:0:0:0:0:
192,192,22481,1,0,0:0:0:0:
64,192,22606,1,0,0:0:0:0:
448,192,22731,1,0,0:0:0:0:
320,192,22731,1,0,0:0:0:0:
192,192,22856,1,0,0:0:0:0:
320,192,22856,1,0,0:0:0:0:
64,192,22856,1,0,0:0:0:0:
64,192,23106,128,0,23231:0:0:0:0:
448,192,23356,1,0,0:0:0:0:
192,192,23356,128,0,23481:0:0:0:0:
320,192,23606,128,0,23731:0:0:0:0:
448,192,23731,128,0,23856:0:0:0:0:
64,192,23731,1,0,0:0:0:0:
192,192,23981,1,0,0:0:0:0:
64,192,23981,128,0,24106:0:0:0:0:
448,192,24106,1,0,0:0:0:0:
320,192,24106,128,0,24231:0:0:0:0:
192,192,24231,1,0,0:0:0:0:
448,192,24356,1,0,0:0:0:0:
64,192,24481,1,0,0:0:0:0:
192,192,24481,1,0,0:0:0:0:
192,192,24606,1,0,0:0:0:0:
320,192,24606,1,0,0:0:0:0:
448,192,24606,1,0,0:0:0:0:
448,192,24731,128,0,24856:0:0:0:0:
64,192,24856,128,0,24981:0:0:0:0:
448,192,25106,1,0,0:0:0:0:
320,192,25106,128,0,25231:0:0:0:0:
64,192,25356,128,0,25481:0:0:0:0:
448,192,25481,128,0,25606:0:0:0:0:
320,192,25481,1,0,0:0:0:0:
192,192,25731,128,0,25856:0:0:0:0:
64,192,25731,1,0,0:0:0:0:
448,192,25856,1,0,0:0:0:0:
320,192,25856,1,0,0:0:0:0:
192,192,25981,1,0,0:0:0:0:
64,192,26106,1,0,0:0:0:0:
448,192,26231,1,0,0:0:0:0:
320,192,26231,1,0,0:0:0:0:
64,192,26356,1,0,0:0:0:0:
192,192,26356,1,0,0:0:0:0:
320,192,26356,1,0,0:0:0:0:
448,192,26481,1,0,0:0:0:0:
192,192,26606,1,0,0:0:0:0:
320,192,26731,1,0,0:0:0:0:
64,192,26731,1,0,0:0:0:0:
448,192,26731,1,0,0:0:0:0:
192,192,26856,1,0,0:0:0:0:
64,192,26981,1,0,0:0:0:0:
320,192,27106,1,0,0:0:0:0:
192,192,27231,1,0,0:0:0:0:
64,192,27231,1,0,0:0:0:0:
448,192,27231,1,0,0:0:0:0:
320,192,27356,1,0,0:0:0:0:
448,192,27481,1,0,0:0:0:0:
64,192,27606,1,0,0:0:0:0:
192,192,27731,128,0,27856:0:0:0:0:
320,192,27731,128,0,27856:0:0:0:0:
448,192,27731,128,0,27856:0:0:0:0:
64,192,28356,1,0,0:0:0:0:
192,192,28356,1,0,0:0:0:0:
448,192,28356,1,0,0:0:0:0:
320,192,28481,1,0,0:0:0:0:
64,192,28606,1,0,0:0:0:0:
192,192,28606,1,0,0:0:0:0:
448,192,28731,1,0,0:0:0:0:
64,192,28856,1,0,0:0:0:0:
320,192,28856,1,0,0:0:0:0:
192,192,28981,1,0,0:0:0:0:
64,192,29106,1,0,0:0:0:0:
320,192,29106,1,0,0:0:0:0:
448,192,29168,1,0,0:0:0:0:
192,192,29231,1,0,0:0:0:0:
64,192,29356,1,0,0:0:0:0:
448,192,29356,1,0,0:0:0:0:
320,192,29481,1,0,0:0:0:0:
64,192,29606,1,0,0:0:0:0:
192,192,29606,1,0,0:0:0:0:
448,192,29731,1,0,0:0:0:0:
320,192,29793,1,0,0:0:0:0:
64,192,29856,1,0,0:0:0:0:
192,192,29856,1,0,0:0:0:0:
320,192,29981,1,0,0:0:0:0:
192,192,30106,1,0,0:0:0:0:
448,192,30106,1,0,0:0:0:0:
64,192,30106,1,0,0:0:0:0:
320,192,30231,1,0,0:0:0:0:
448,192,30356,1,0,0:0:0:0:
192,192,30356,1,0,0:0:0:0:
320,192,30481,1,0,0:0:0:0:
448,192,30606,1,0,0:0:0:0:
64,192,30606,1,0,0:0:0:0:
192,192,30731,1,0,0:0:0:0:
448,192,30856,1,0,0:0:0:0:
64,192,30856,1,0,0:0:0:0:
320,192,30981,1,0,0:0:0:0:
448,192,31106,1,0,0:0:0:0:
192,192,31106,1,0,0:0:0:0:
64,192,31231,1,0,0:0:0:0:
192,192,31293,1,0,0:0:0:0:
448,192,31356,1,0,0:0:0:0:
320,192,31356,1,0,0:0:0:0:
64,192,31481,1,0,0:0:0:0:
448,192,31606,1,0,0:0:0:0:
320,192,31606,1,0,0:0:0:0:
192,192,31731,1,0,0:0:0:0:
64,192,31856,1,0,0:0:0:0:
320,192,31856,1,0,0:0:0:0:
448,192,31856,1,0,0:0:0:0:
192,192,31981,1,0,0:0:0:0:
64,192,32106,1,0,0:0:0:0:
448,192,32106,1,0,0:0:0:0:
320,192,32231,1,0,0:0:0:0:
448,192,32356,1,0,0:0:0:0:
64,192,32356,1,0,0:0:0:0:
192,192,32481,1,0,0:0:0:0:
320,192,32606,1,0,0:0:0:0:
64,192,32606,1,0,0:0:0:0:
448,192,32668,1,0,0:0:0:0:
192,192,32731,1,0,0:0:0:0:
64,192,32856,1,0,0:0:0:0:
448,192,32856,1,0,0:0:0:0:
320,192,32981,1,0,0:0:0:0:
448,192,33106,1,0,0:0:0:0:
64,192,33106,1,0,0:0:0:0:
192,192,33231,1,0,0:0:0:0:
320,192,33293,1,0,0:0:0:0:
448,192,33356,1,0,0:0:0:0:
64,192,33356,1,0,0:0:0:0:
320,192,33481,1,0,0:0:0:0:
448,192,33606,1,0,0:0:0:0:
192,192,33606,1,0,0:0:0:0:
64,192,33606,1,0,0:0:0:0:
320,192,33731,1,0,0:0:0:0:
448,192,33856,1,0,0:0:0:0:
64,192,33981,1,0,0:0:0:0:
320,192,33981,1,0,0:0:0:0:
192,192,33981,1,0,0:0:0:0:
448,192,34106,1,0,0:0:0:0:
192,192,34231,1,0,0:0:0:0:
64,192,34356,1,0,0:0:0:0:
320,192,34481,1,0,0:0:0:0:
192,192,34481,1,0,0:0:0:0:
448,192,34481,1,0,0:0:0:0:
64,192,34606,1,0,0:0:0:0:
192,192,34731,1,0,0:0:0:0:
320,192,34856,1,0,0:0:0:0:
64,192,34981,128,0,35356:0:0:0:0:
192,192,34981,128,0,35106:0:0:0:0:
448,192,34981,128,0,35356:0:0:0:0:
448,192,35606,128,0,35856:0:0:0:0:
64,192,35606,1,0,0:0:0:0:
192,192,35606,1,0,0:0:0:0:
320,192,35981,128,0,36106:0:0:0:0:
448,192,35981,1,0,0:0:0:0:
192,192,36106,128,0,36356:0:0:0:0:
64,192,36106,1,0,0:0:0:0:
448,192,36481,128,0,36731:0:0:0:0:
192,192,36606,1,0,0:0:0:0:
64,192,36606,1,0,0:0:0:0:
192,192,36731,128,0,36981:0:0:0:0:
320,192,36981,128,0,37231:0:0:0:0:
64,192,36981,1,0,0:0:0:0:
192,192,37106,1,0,0:0:0:0:
448,192,37106,1,0,0:0:0:0:
64,192,37231,128,0,37356:0:0:0:0:
448,192,37356,128,0,37606:0:0:0:0:
64,192,37606,128,0,37856:0:0:0:0:
192,192,37606,1,0,0:0:0:0:
320,192,37981,128,0,38106:0:0:0:0:
448,192,37981,1,0,0:0:0:0:
192,192,38106,128,0,38356:0:0:0:0:
64,192,38106,1,0,0:0:0:0:
448,192,38356,128,0,38481:0:0:0:0:
64,192,38481,128,0,38731:0:0:0:0:
320,192,38606,1,0,0:0:0:0:
448,192,38606,1,0,0:0:0:0:
448,192,38731,128,0,38856:0:0:0:0:
192,192,38856,128,0,38981:0:0:0:0:
320,192,38981,128,0,39231:0:0:0:0:
448,192,38981,1,0,0:0:0:0:
192,192,39106,1,0,0:0:0:0:
64,192,39106,1,0,0:0:0:0:
64,192,39231,128,0,39356:0:0:0:0:
448,192,39356,128,0,39606:0:0:0:0:
192,192,39606,128,0,39856:0:0:0:0:
64,192,39606,1,0,0:0:0:0:
448,192,39981,128,0,40106:0:0:0:0:
320,192,39981,1,0,0:0:0:0:
64,192,40106,128,0,40356:0:0:0:0:
192,192,40106,1,0,0:0:0:0:
448,192,40481,128,0,40731:0:0:0:0:
320,192,40606,1,0,0:0:0:0:
192,192,40606,1,0,0:0:0:0:
192,192,40856,128,0,40981:0:0:0:0:
320,192,40981,128,0,41231:0:0:0:0:
448,192,40981,1,0,0:0:0:0:
192,192,41106,1,0,0:0:0:0:
64,192,41106,1,0,0:0:0:0:
64,192,41231,128,0,41356:0:0:0:0:
448,192,41356,128,0,41606:0:0:0:0:
192,192,41606,128,0,41856:0:0:0:0:
64,192,41606,1,0,0:0:0:0:
64,192,41981,128,0,42106:0:0:0:0:
448,192,41981,1,0,0:0:0:0:
320,192,42106,128,0,42356:0:0:0:0:
448,192,42106,1,0,0:0:0:0:
192,192,42356,128,0,42481:0:0:0:0:
448,192,42481,128,0,42731:0:0:0:0:
192,192,42606,1,0,0:0:0:0:
64,192,42606,1,0,0:0:0:0:
320,192,42731,128,0,42856:0:0:0:0:
64,192,42856,128,0,42981:0:0:0:0:
320,192,42981,128,0,43231:0:0:0:0:
192,192,42981,1,0,0:0:0:0:
448,192,43106,1,0,0:0:0:0:
64,192,43106,1,0,0:0:0:0:
192,192,43231,128,0,43356:0:0:0:0:
448,192,43356,128,0,43481:0:0:0:0:
64,192,43606,1,0,0:0:0:0:
192,192,43606,128,0,43731:0:0:0:0:
448,192,43606,1,0,0:0:0:0:
320,192,43731,1,0,0:0:0:0:
64,192,43856,1,0,0:0:0:0:
192,192,43981,1,0,0:0:0:0:
448,192,43981,128,0,44043:0:0:0:0:
192,192,44106,1,0,0:0:0:0:
448,192,44106,128,0,44231:0:0:0:0:
320,192,44231,1,0,0:0:0:0:
64,192,44356,1,0,0:0:0:0:
320,192,44481,1,0,0:0:0:0:
192,192,44481,128,0,44606:0:0:0:0:
448,192,44606,1,0,0:0:0:0:
320,192,44606,1,0,0:0:0:0:
64,192,44606,1,0,0:0:0:0:
64,192,44731,1,0,0:0:0:0:
192,192,44856,1,0,0:0:0:0:
448,192,44981,1,0,0:0:0:0:
320,192,44981,128,0,45106:0:0:0:0:
64,192,45106,1,0,0:0:0:0:
320,192,45231,1,0,0:0:0:0:
64,192,45356,1,0,0:0:0:0:
448,192,45356,128,0,45481:0:0:0:0:
192,192,45481,1,0,0:0:0:0:
320,192,45606,1,0,0:0:0:0:
448,192,45606,1,0,0:0:0:0:
64,192,45606,128,0,45731:0:0:0:0:
192,192,45731,1,0,0:0:0:0:
320,192,45856,1,0,0:0:0:0:
448,192,45981,1,0,0:0:0:0:
64,192,45981,128,0,46043:0:0:0:0:
448,192,46106,1,0,0:0:0:0:
64,192,46106,128,0,46231:0:0:0:0:
192,192,46231,1,0,0:0:0:0:
320,192,46356,1,0,0:0:0:0:
64,192,46481,1,0,0:0:0:0:
320,192,46481,128,0,46606:0:0:0:0:
192,192,46606,1,0,0:0:0:0:
448,192,46606,1,0,0:0:0:0:
64,192,46606,1,0,0:0:0:0:
448,192,46731,1,0,0:0:0:0:
64,192,46856,1,0,0:0:0:0:
192,192,46981,1,0,0:0:0:0:
320,192,46981,128,0,47106:0:0:0:0:
448,192,47106,1,0,0:0:0:0:
64,192,47231,1,0,0:0:0:0:
448,192,47356,1,0,0:0:0:0:
192,192,47356,128,0,47481:0:0:0:0:
320,192,47481,1,0,0:0:0:0:
64,192,47606,1,0,0:0:0:0:
192,192,47606,1,0,0:0:0:0:
448,192,47606,128,0,47731:0:0:0:0:
320,192,47731,1,0,0:0:0:0:
448,192,47856,1,0,0:0:0:0:
64,192,47981,1,0,0:0:0:0:
192,192,47981,128,0,48043:0:0:0:0:
64,192,48106,1,0,0:0:0:0:
192,192,48106,128,0,48231:0:0:0:0:
320,192,48231,1,0,0:0:0:0:
64,192,48356,1,0,0:0:0:0:
192,192,48481,1,0,0:0:0:0:
320,192,48481,128,0,48606:0:0:0:0:
448,192,48606,1,0,0:0:0:0:
192,192,48606,1,0,0:0:0:0:
64,192,48606,1,0,0:0:0:0:
448,192,48731,1,0,0:0:0:0:
64,192,48856,1,0,0:0:0:0:
320,192,48856,1,0,0:0:0:0:
192,192,48981,1,0,0:0:0:0:
64,192,48981,128,0,49106:0:0:0:0:
448,192,49106,1,0,0:0:0:0:
320,192,49106,1,0,0:0:0:0:
320,192,49231,1,0,0:0:0:0:
448,192,49231,1,0,0:0:0:0:
64,192,49356,1,0,0:0:0:0:
192,192,49356,1,0,0:0:0:0:
192,192,49481,1,0,0:0:0:0:
64,192,49481,1,0,0:0:0:0:
320,192,49606,128,0,49668:0:0:0:0:
64,192,49731,128,0,49793:0:0:0:0:
448,192,49856,128,0,49918:0:0:0:0:
192,192,49981,128,0,50043:0:0:0:0:
320,192,50106,128,0,50168:0:0:0:0:
64,192,50231,128,0,50293:0:0:0:0:
192,192,50356,128,0,50418:0:0:0:0:
448,192,50418,128,0,50481:0:0:0:0:
320,192,50481,128,0,50543:0:0:0:0:
64,192,50606,128,0,50668:0:0:0:0:
192,192,50731,128,0,50793:0:0:0:0:
320,192,50856,128,0,50918:0:0:0:0:
192,192,50981,128,0,51043:0:0:0:0:
320,192,51106,128,0,51168:0:0:0:0:
448,192,51231,128,0,51293:0:0:0:0:
192,192,51356,128,0,51418:0:0:0:0:
320,192,51418,128,0,51481:0:0:0:0:
64,192,51481,128,0,51543:0:0:0:0:
192,192,51606,1,0,0:0:0:0:
448,192,51606,128,0,51856:0:0:0:0:
320,192,51606,128,0,51731:0:0:0:0:
64,192,51856,1,0,0:0:0:0:
192,192,51918,1,0,0:0:0:0:
320,192,51981,1,0,0:0:0:0:
448,192,51981,1,0,0:0:0:0:
192,192,52043,1,0,0:0:0:0:
320,192,52106,1,0,0:0:0:0:
448,192,52168,1,0,0:0:0:0:
64,192,52231,1,0,0:0:0:0:
192,192,52231,1,0,0:0:0:0:
320,192,52293,1,0,0:0:0:0:
64,192,52356,1,0,0:0:0:0:
448,192,52418,1,0,0:0:0:0:
192,192,52481,1,0,0:0:0:0:
320,192,52543,1,0,0:0:0:0:
64,192,52606,1,0,0:0:0:0:
448,192,52606,1,0,0:0:0:0:
448,192,52856,1,0,0:0:0:0:
320,192,52918,1,0,0:0:0:0:
192,192,52981,1,0,0:0:0:0:
64,192,52981,1,0,0:0:0:0:
320,192,53043,1,0,0:0:0:0:
192,192,53106,1,0,0:0:0:0:
64,192,53168,1,0,0:0:0:0:
448,192,53231,1,0,0:0:0:0:
320,192,53231,1,0,0:0:0:0:
192,192,53293,1,0,0:0:0:0:
448,192,53356,1,0,0:0:0:0:
64,192,53418,1,0,0:0:0:0:
320,192,53481,1,0,0:0:0:0:
192,192,53543,1,0,0:0:0:0:
448,192,53606,1,0,0:0:0:0:
64,192,53606,1,0,0:0:0:0:
448,192,53856,1,0,0:0:0:0:
64,192,53918,1,0,0:0:0:0:
448,192,53981,1,0,0:0:0:0:
192,192,53981,1,0,0:0:0:0:
320,192,54043,1,0,0:0:0:0:
192,192,54106,1,0,0:0:0:0:
64,192,54168,1,0,0:0:0:0:
320,192,54231,1,0,0:0:0:0:
448,192,54231,1,0,0:0:0:0:
64,192,54293,1,0,0:0:0:0:
192,192,54356,1,0,0:0:0:0:
320,192,54418,1,0,0:0:0:0:
64,192,54481,1,0,0:0:0:0:
448,192,54543,1,0,0:0:0:0:
320,192,54606,1,0,0:0:0:0:
192,192,54606,1,0,0:0:0:0:
64,192,54856,1,0,0:0:0:0:
448,192,54918,1,0,0:0:0:0:
64,192,54981,1,0,0:0:0:0:
320,192,54981,1,0,0:0:0:0:
192,192,55043,1,0,0:0:0:0:
320,192,55106,1,0,0:0:0:0:
448,192,55168,1,0,0:0:0:0:
192,192,55231,1,0,0:0:0:0:
64,192,55231,1,0,0:0:0:0:
448,192,55293,1,0,0:0:0:0:
320,192,55356,1,0,0:0:0:0:
192,192,55418,1,0,0:0:0:0:
448,192,55481,1,0,0:0:0:0:
64,192,55543,1,0,0:0:0:0:
192,192,55606,1,0,0:0:0:0:
320,192,55606,1,0,0:0:0:0:
320,192,55856,1,0,0:0:0:0:
192,192,55918,1,0,0:0:0:0:
64,192,55981,1,0,0:0:0:0:
448,192,55981,1,0,0:0:0:0:
320,192,56043,1,0,0:0:0:0:
192,192,56106,1,0,0:0:0:0:
320,192,56168,1,0,0:0:0:0:
448,192,56231,1,0,0:0:0:0:
64,192,56231,1,0,0:0:0:0:
192,192,56293,1,0,0:0:0:0:
320,192,56356,1,0,0:0:0:0:
192,192,56418,1,0,0:0:0:0:
64,192,56481,1,0,0:0:0:0:
320,192,56543,1,0,0:0:0:0:
192,192,56606,1,0,0:0:0:0:
448,192,56606,1,0,0:0:0:0:
192,192,56856,1,0,0:0:0:0:
320,192,56918,1,0,0:0:0:0:
448,192,56981,1,0,0:0:0:0:
64,192,56981,1,0,0:0:0:0:
192,192,57043,1,0,0:0:0:0:
320,192,57106,1,0,0:0:0:0:
192,192,57168,1,0,0:0:0:0:
64,192,57231,1,0,0:0:0:0:
448,192,57231,1,0,0:0:0:0:
320,192,57293,1,0,0:0:0:0:
192,192,57356,1,0,0:0:0:0:
320,192,57418,1,0,0:0:0:0:
448,192,57481,1,0,0:0:0:0:
192,192,57543,1,0,0:0:0:0:
320,192,57606,1,0,0:0:0:0:
64,192,57606,1,0,0:0:0:0:
320,192,57731,1,0,0:0:0:0:
192,192,57731,1,0,0:0:0:0:
448,192,57856,1,0,0:0:0:0:
64,192,57856,1,0,0:0:0:0:
64,192,57981,1,0,0:0:0:0:
320,192,57981,1,0,0:0:0:0:
448,192,58106,1,0,0:0:0:0:
192,192,58106,1,0,0:0:0:0:
448,192,58231,1,0,0:0:0:0:
320,192,58231,1,0,0:0:0:0:
192,192,58356,1,0,0:0:0:0:
64,192,58356,1,0,0:0:0:0:
320,192,58418,1,0,0:0:0:0:
192,192,58481,1,0,0:0:0:0:
448,192,58606,1,0,0:0:0:0:
320,192,58606,1,0,0:0:0:0:
64,192,58731,1,0,0:0:0:0:
448,192,58731,1,0,0:0:0:0:
192,192,58856,1,0,0:0:0:0:
64,192,58856,1,0,0:0:0:0:
448,192,58981,1,0,0:0:0:0:
320,192,58981,1,0,0:0:0:0:
192,192,59043,1,0,0:0:0:0:
320,192,59106,1,0,0:0:0:0:
448,192,59231,1,0,0:0:0:0:
64,192,59231,1,0,0:0:0:0:
64,192,59356,1,0,0:0:0:0:
320,192,59356,1,0,0:0:0:0:
192,192,59481,1,0,0:0:0:0:
448,192,59481,1,0,0:0:0:0:
320,192,59606,1,0,0:0:0:0:
64,192,59606,128,0,59856:0:0:0:0:
448,192,59606,128,0,59731:0:0:0:0:
448,192,59856,1,0,0:0:0:0:
320,192,59918,1,0,0:0:0:0:
192,192,59981,1,0,0:0:0:0:
64,192,59981,1,0,0:0:0:0:
320,192,60043,1,0,0:0:0:0:
192,192,60106,1,0,0:0:0:0:
64,192,60168,1,0,0:0:0:0:
448,192,60231,1,0,0:0:0:0:
320,192,60231,1,0,0:0:0:0:
192,192,60293,1,0,0:0:0:0:
448,192,60356,1,0,0:0:0:0:
64,192,60418,1,0,0:0:0:0:
320,192,60481,1,0,0:0:0:0:
192,192,60543,1,0,0:0:0:0:
448,192,60606,1,0,0:0:0:0:
64,192,60606,1,0,0:0:0:0:
64,192,60856,1,0,0:0:0:0:
192,192,60918,1,0,0:0:0:0:
320,192,60981,1,0,0:0:0:0:
448,192,60981,1,0,0:0:0:0:
192,192,61043,1,0,0:0:0:0:
320,192,61106,1,0,0:0:0:0:
448,192,61168,1,0,0:0:0:0:
64,192,61231,1,0,0:0:0:0:
192,192,61231,1,0,0:0:0:0:
320,192,61293,1,0,0:0:0:0:
64,192,61356,1,0,0:0:0:0:
448,192,61418,1,0,0:0:0:0:
192,192,61481,1,0,0:0:0:0:
320,192,61543,1,0,0:0:0:0:
64,192,61606,1,0,0:0:0:0:
448,192,61606,1,0,0:0:0:0:
64,192,61856,1,0,0:0:0:0:
448,192,61918,1,0,0:0:0:0:
64,192,61981,1,0,0:0:0:0:
320,192,61981,1,0,0:0:0:0:
192,192,62043,1,0,0:0:0:0:
320,192,62106,1,0,0:0:0:0:
448,192,62168,1,0,0:0:0:0:
64,192,62231,1,0,0:0:0:0:
192,192,62231,1,0,0:0:0:0:
448,192,62293,1,0,0:0:0:0:
320,192,62356,1,0,0:0:0:0:
192,192,62418,1,0,0:0:0:0:
448,192,62481,1,0,0:0:0:0:
64,192,62543,1,0,0:0:0:0:
192,192,62606,1,0,0:0:0:0:
320,192,62606,1,0,0:0:0:0:
448,192,62856,1,0,0:0:0:0:
64,192,62918,1,0,0:0:0:0:
448,192,62981,1,0,0:0:0:0:
192,192,62981,1,0,0:0:0:0:
320,192,63043,1,0,0:0:0:0:
192,192,63106,1,0,0:0:0:0:
64,192,63168,1,0,0:0:0:0:
448,192,63231,1,0,0:0:0:0:
320,192,63231,1,0,0:0:0:0:
64,192,63293,1,0,0:0:0:0:
192,192,63356,1,0,0:0:0:0:
320,192,63418,1,0,0:0:0:0:
64,192,63481,1,0,0:0:0:0:
448,192,63543,1,0,0:0:0:0:
320,192,63606,1,0,0:0:0:0:
192,192,63606,1,0,0:0:0:0:
192,192,63856,1,0,0:0:0:0:
320,192,63918,1,0,0:0:0:0:
448,192,63981,1,0,0:0:0:0:
64,192,63981,1,0,0:0:0:0:
192,192,64043,1,0,0:0:0:0:
320,192,64106,1,0,0:0:0:0:
192,192,64168,1,0,0:0:0:0:
64,192,64231,1,0,0:0:0:0:
448,192,64231,1,0,0:0:0:0:
320,192,64293,1,0,0:0:0:0:
192,192,64356,1,0,0:0:0:0:
320,192,64418,1,0,0:0:0:0:
448,192,64481,1,0,0:0:0:0:
192,192,64543,1,0,0:0:0:0:
320,192,64606,1,0,0:0:0:0:
64,192,64606,1,0,0:0:0:0:
320,192,64856,1,0,0:0:0:0:
192,192,64918,1,0,0:0:0:0:
64,192,64981,1,0,0:0:0:0:
448,192,64981,1,0,0:0:0:0:
320,192,65043,1,0,0:0:0:0:
192,192,65106,1,0,0:0:0:0:
320,192,65168,1,0,0:0:0:0:
448,192,65231,1,0,0:0:0:0:
64,192,65231,1,0,0:0:0:0:
192,192,65293,1,0,0:0:0:0:
320,192,65356,1,0,0:0:0:0:
192,192,65418,1,0,0:0:0:0:
64,192,65481,1,0,0:0:0:0:
320,192,65543,1,0,0:0:0:0:
192,192,65606,1,0,0:0:0:0:
448,192,65606,1,0,0:0:0:0:
64,192,65856,1,0,0:0:0:0:
192,192,65918,1,0,0:0:0:0:
320,192,65981,1,0,0:0:0:0:
192,192,66043,1,0,0:0:0:0:
320,192,66106,1,0,0:0:0:0:
448,192,66168,1,0,0:0:0:0:
64,192,66231,1,0,0:0:0:0:
192,192,66293,1,0,0:0:0:0:
320,192,66356,1,0,0:0:0:0:
64,192,66418,1,0,0:0:0:0:
192,192,66481,1,0,0:0:0:0:
320,192,66543,1,0,0:0:0:0:
448,192,66606,1,0,0:0:0:0:
448,192,66856,1,0,0:0:0:0:
320,192,66918,1,0,0:0:0:0:
192,192,66981,1,0,0:0:0:0:
320,192,67043,1,0,0:0:0:0:
192,192,67106,1,0,0:0:0:0:
64,192,67168,1,0,0:0:0:0:
448,192,67231,1,0,0:0:0:0:
320,192,67293,1,0,0:0:0:0:
192,192,67356,1,0,0:0:0:0:
448,192,67418,1,0,0:0:0:0:
320,192,67481,1,0,0:0:0:0:
192,192,67543,1,0,0:0:0:0:
64,192,67606,1,0,0:0:0:0:
320,192,67606,1,0,0:0:0:0:
448,192,67606,1,0,0:0:0:0:
192,192,67731,1,0,0:0:0:0:
448,192,67856,1,0,0:0:0:0:
64,192,67856,1,0,0:0:0:0:
320,192,67981,1,0,0:0:0:0:
192,192,67981,1,0,0:0:0:0:
448,192,68106,1,0,0:0:0:0:
192,192,68231,1,0,0:0:0:0:
64,192,68231,1,0,0:0:0:0:
320,192,68356,1,0,0:0:0:0:
448,192,68356,1,0,0:0:0:0:
64,192,68418,1,0,0:0:0:0:
448,192,68481,1,0,0:0:0:0:
192,192,68606,1,0,0:0:0:0:
64,192,68606,1,0,0:0:0:0:
448,192,68731,1,0,0:0:0:0:
192,192,68856,1,0,0:0:0:0:
64,192,68856,1,0,0:0:0:0:
320,192,68981,1,0,0:0:0:0:
448,192,68981,1,0,0:0:0:0:
64,192,69043,1,0,0:0:0:0:
320,192,69106,1,0,0:0:0:0:
192,192,69231,1,0,0:0:0:0:
448,192,69231,1,0,0:0:0:0:
320,192,69356,1,0,0:0:0:0:
64,192,69356,1,0,0:0:0:0:
448,192,69481,1,0,0:0:0:0:
192,192,69606,1,0,0:0:0:0:
64,192,69606,1,0,0:0:0:0:
320,192,69731,1,0,0:0:0:0:
64,192,69856,1,0,0:0:0:0:
448,192,69856,1,0,0:0:0:0:
320,192,69981,1,0,0:0:0:0:
192,192,69981,1,0,0:0:0:0:
64,192,70106,1,0,0:0:0:0:
320,192,70231,1,0,0:0:0:0:
448,192,70231,1,0,0:0:0:0:
192,192,70356,1,0,0:0:0:0:
64,192,70356,1,0,0:0:0:0:
448,192,70481,1,0,0:0:0:0:
320,192,70606,1,0,0:0:0:0:
192,192,70606,1,0,0:0:0:0:
64,192,70731,1,0,0:0:0:0:
320,192,70856,1,0,0:0:0:0:
448,192,70856,1,0,0:0:0:0:
192,192,70981,1,0,0:0:0:0:
64,192,70981,1,0,0:0:0:0:
64,192,71106,1,0,0:0:0:0:
448,192,71231,1,0,0:0:0:0:
320,192,71231,1,0,0:0:0:0:
64,192,71356,1,0,0:0:0:0:
192,192,71356,1,0,0:0:0:0:
448,192,71481,1,0,0:0:0:0:
64,192,71606,1,0,0:0:0:0:
320,192,71606,1,0,0:0:0:0:
448,192,71606,1,0,0:0:0:0:
192,192,71731,1,0,0:0:0:0:
448,192,71856,1,0,0:0:0:0:
320,192,71856,1,0,0:0:0:0:
64,192,71981,1,0,0:0:0:0:
192,192,71981,1,0,0:0:0:0:
448,192,72106,1,0,0:0:0:0:
320,192,72231,1,0,0:0:0:0:
192,192,72231,1,0,0:0:0:0:
64,192,72356,1,0,0:0:0:0:
448,192,72356,1,0,0:0:0:0:
192,192,72418,1,0,0:0:0:0:
448,192,72481,1,0,0:0:0:0:
64,192,72606,1,0,0:0:0:0:
192,192,72606,1,0,0:0:0:0:
448,192,72731,1,0,0:0:0:0:
320,192,72856,1,0,0:0:0:0:
192,192,72856,1,0,0:0:0:0:
64,192,72981,1,0,0:0:0:0:
448,192,72981,1,0,0:0:0:0:
320,192,73043,1,0,0:0:0:0:
64,192,73106,1,0,0:0:0:0:
320,192,73231,1,0,0:0:0:0:
448,192,73231,1,0,0:0:0:0:
192,192,73356,1,0,0:0:0:0:
64,192,73356,1,0,0:0:0:0:
448,192,73481,1,0,0:0:0:0:
320,192,73606,1,0,0:0:0:0:
192,192,73606,1,0,0:0:0:0:
64,192,73731,1,0,0:0:0:0:
320,192,73856,1,0,0:0:0:0:
448,192,73856,1,0,0:0:0:0:
192,192,73981,1,0,0:0:0:0:
64,192,73981,1,0,0:0:0:0:
320,192,74106,1,0,0:0:0:0:
192,192,74231,1,0,0:0:0:0:
448,192,74231,1,0,0:0:0:0:
320,192,74356,1,0,0:0:0:0:
64,192,74356,1,0,0:0:0:0:
448,192,74481,1,0,0:0:0:0:
192,192,74606,1,0,0:0:0:0:
64,192,74606,1,0,0:0:0:0:
64,192,74731,1,0,0:0:0:0:
448,192,74856,1,0,0:0:0:0:
320,192,74856,1,0,0:0:0:0:
448,192,74981,1,0,0:0:0:0:
64,192,74981,1,0,0:0:0:0:
192,192,75231,1,0,0:0:0:0:
448,192,75293,1,0,0:0:0:0:
192,192,75356,1,0,0:0:0:0:
320,192,75418,1,0,0:0:0:0:
64,192,75481,1,0,0:0:0:0:
320,192,75543,1,0,0:0:0:0:
448,192,75606,1,0,0:0:0:0:
192,192,75606,1,0,0:0:0:0:
64,192,75606,1,0,0:0:0:0:
320,192,75856,128,0,76106:0:0:0:0:
192,192,75856,1,0,0:0:0:0:
448,192,75981,1,0,0:0:0:0:
64,192,75981,1,0,0:0:0:0:
192,192,76106,128,0,76231:0:0:0:0:
448,192,76231,128,0,76356:0:0:0:0:
64,192,76231,1,0,0:0:0:0:
192,192,76356,1,0,0:0:0:0:
320,192,76356,1,0,0:0:0:0:
320,192,76481,128,0,76731:0:0:0:0:
64,192,76606,1,0,0:0:0:0:
192,192,76606,1,0,0:0:0:0:
448,192,76731,128,0,76856:0:0:0:0:
192,192,76731,1,0,0:0:0:0:
64,192,76856,128,0,77106:0:0:0:0:
192,192,76981,1,0,0:0:0:0:
448,192,77106,1,0,0:0:0:0:
320,192,77106,1,0,0:0:0:0:
448,192,77272,1,0,0:0:0:0:
320,192,77272,1,0,0:0:0:0:
448,192,77439,1,0,0:0:0:0:
320,192,77439,1,0,0:0:0:0:
192,192,77606,1,0,0:0:0:0:
320,192,77606,1,0,0:0:0:0:
64,192,77606,1,0,0:0:0:0:
448,192,77856,128,0,78106:0:0:0:0:
192,192,77856,1,0,0:0:0:0:
320,192,77981,1,0,0:0:0:0:
64,192,77981,1,0,0:0:0:0:
192,192,78106,128,0,78231:0:0:0:0:
64,192,78231,1,0,0:0:0:0:
448,192,78231,1,0,0:0:0:0:
320,192,78356,1,0,0:0:0:0:
192,192,78356,128,0,78481:0:0:0:0:
64,192,78481,128,0,78606:0:0:0:0:
320,192,78606,128,0,78731:0:0:0:0:
448,192,78606,1,0,0:0:0:0:
192,192,78731,128,0,78856:0:0:0:0:
64,192,78731,1,0,0:0:0:0:
448,192,78856,128,0,79106:0:0:0:0:
320,192,78981,1,0,0:0:0:0:
192,192,79106,1,0,0:0:0:0:
64,192,79106,1,0,0:0:0:0:
192,192,79272,1,0,0:0:0:0:
64,192,79272,1,0,0:0:0:0:
192,192,79439,1,0,0:0:0:0:
64,192,79439,1,0,0:0:0:0:
448,192,79606,1,0,0:0:0:0:
64,192,79606,1,0,0:0:0:0:
320,192,79606,1,0,0:0:0:0:
448,192,79731,128,0,79856:0:0:0:0:
192,192,79856,128,0,79981:0:0:0:0:
320,192,79856,1,0,0:0:0:0:
448,192,79981,128,0,80106:0:0:0:0:
64,192,79981,1,0,0:0:0:0:
64,192,80106,128,0,80231:0:0:0:0:
320,192,80231,128,0,80356:0:0:0:0:
448,192,80231,1,0,0:0:0:0:
64,192,80356,128,0,80481:0:0:0:0:
192,192,80356,1,0,0:0:0:0:
320,192,80481,128,0,80731:0:0:0:0:
448,192,80606,1,0,0:0:0:0:
64,192,80731,128,0,80981:0:0:0:0:
192,192,80731,1,0,0:0:0:0:
448,192,80981,1,0,0:0:0:0:
192,192,81106,1,0,0:0:0:0:
320,192,81106,1,0,0:0:0:0:
320,192,81272,1,0,0:0:0:0:
192,192,81272,1,0,0:0:0:0:
192,192,81439,1,0,0:0:0:0:
320,192,81439,1,0,0:0:0:0:
448,192,81606,1,0,0:0:0:0:
64,192,81606,1,0,0:0:0:0:
192,192,81606,1,0,0:0:0:0:
320,192,81731,1,0,0:0:0:0:
192,192,81856,1,0,0:0:0:0:
64,192,81981,1,0,0:0:0:0:
320,192,81981,1,0,0:0:0:0:
448,192,81981,1,0,0:0:0:0:
192,192,82106,1,0,0:0:0:0:
448,192,82231,1,0,0:0:0:0:
64,192,82356,1,0,0:0:0:0:
192,192,82481,1,0,0:0:0:0:
320,192,82481,1,0,0:0:0:0:
448,192,82481,1,0,0:0:0:0:
64,192,82606,1,0,0:0:0:0:
192,192,82731,1,0,0:0:0:0:
448,192,82856,1,0,0:0:0:0:
64,192,82981,128,0,83106:0:0:0:0:
320,192,82981,128,0,83356:0:0:0:0:
192,192,82981,128,0,83356:0:0:0:0:
448,192,83605,1,0,0:0:0:0:
320,192,83605,1,0,0:0:0:0:
64,192,83605,1,0,0:0:0:0:
192,192,83730,1,0,0:0:0:0:
448,192,83855,1,0,0:0:0:0:
320,192,83855,1,0,0:0:0:0:
64,192,83980,1,0,0:0:0:0:
448,192,84105,1,0,0:0:0:0:
192,192,84105,1,0,0:0:0:0:
320,192,84230,1,0,0:0:0:0:
448,192,84355,1,0,0:0:0:0:
192,192,84355,1,0,0:0:0:0:
64,192,84417,1,0,0:0:0:0:
320,192,84480,1,0,0:0:0:0:
448,192,84605,1,0,0:0:0:0:
64,192,84605,1,0,0:0:0:0:
192,192,84730,1,0,0:0:0:0:
448,192,84855,1,0,0:0:0:0:
320,192,84855,1,0,0:0:0:0:
64,192,84980,1,0,0:0:0:0:
192,192,85042,1,0,0:0:0:0:
448,192,85105,1,0,0:0:0:0:
320,192,85105,1,0,0:0:0:0:
192,192,85230,1,0,0:0:0:0:
320,192,85355,1,0,0:0:0:0:
64,192,85355,1,0,0:0:0:0:
448,192,85355,1,0,0:0:0:0:
192,192,85480,1,0,0:0:0:0:
64,192,85605,1,0,0:0:0:0:
320,192,85605,1,0,0:0:0:0:
192,192,85730,1,0,0:0:0:0:
64,192,85855,1,0,0:0:0:0:
448,192,85855,1,0,0:0:0:0:
320,192,85980,1,0,0:0:0:0:
64,192,86105,1,0,0:0:0:0:
448,192,86105,1,0,0:0:0:0:
192,192,86230,1,0,0:0:0:0:
64,192,86355,1,0,0:0:0:0:
320,192,86355,1,0,0:0:0:0:
448,192,86480,1,0,0:0:0:0:
320,192,86542,1,0,0:0:0:0:
64,192,86605,1,0,0:0:0:0:
192,192,86605,1,0,0:0:0:0:
448,192,86730,1,0,0:0:0:0:
64,192,86855,1,0,0:0:0:0:
192,192,86855,1,0,0:0:0:0:
320,192,86980,1,0,0:0:0:0:
448,192,87105,1,0,0:0:0:0:
192,192,87105,1,0,0:0:0:0:
64,192,87105,1,0,0:0:0:0:
320,192,87230,1,0,0:0:0:0:
448,192,87355,1,0,0:0:0:0:
64,192,87355,1,0,0:0:0:0:
192,192,87480,1,0,0:0:0:0:
64,192,87605,1,0,0:0:0:0:
448,192,87605,1,0,0:0:0:0:
320,192,87730,1,0,0:0:0:0:
192,192,87855,1,0,0:0:0:0:
448,192,87855,1,0,0:0:0:0:
64,192,87917,1,0,0:0:0:0:
320,192,87980,1,0,0:0:0:0:
448,192,88105,1,0,0:0:0:0:
64,192,88105,1,0,0:0:0:0:
192,192,88230,1,0,0:0:0:0:
64,192,88355,1,0,0:0:0:0:
448,192,88355,1,0,0:0:0:0:
320,192,88480,1,0,0:0:0:0:
192,192,88542,1,0,0:0:0:0:
64,192,88605,1,0,0:0:0:0:
448,192,88605,1,0,0:0:0:0:
192,192,88730,1,0,0:0:0:0:
64,192,88855,1,0,0:0:0:0:
320,192,88855,1,0,0:0:0:0:
448,192,88855,1,0,0:0:0:0:
192,192,88980,1,0,0:0:0:0:
64,192,89105,1,0,0:0:0:0:
448,192,89230,1,0,0:0:0:0:
192,192,89230,1,0,0:0:0:0:
320,192,89230,1,0,0:0:0:0:
64,192,89355,1,0,0:0:0:0:
320,192,89480,1,0,0:0:0:0:
448,192,89605,1,0,0:0:0:0:
192,192,89730,1,0,0:0:0:0:
320,192,89730,1,0,0:0:0:0:
64,192,89730,1,0,0:0:0:0:
448,192,89855,1,0,0:0:0:0:
320,192,89980,1,0,0:0:0:0:
192,192,90105,1,0,0:0:0:0:
64,192,90230,128,0,90355:0:0:0:0:
320,192,90230,128,0,90355:0:0:0:0:
448,192,90230,128,0,90355:0:0:0:0:
64,192,90855,128,0,91605:0:0:0:0:
448,192,90855,1,0,0:0:0:0:
192,192,90855,1,0,0:0:0:0:
448,192,91355,1,0,0:0:0:0:
320,192,91355,1,0,0:0:0:0:
320,192,91605,128,0,92355:0:0:0:0:
64,192,91855,1,0,0:0:0:0:
448,192,91855,1,0,0:0:0:0:
64,192,92355,1,0,0:0:0:0:
192,192,92355,128,0,93105:0:0:0:0:
448,192,92355,1,0,0:0:0:0:
64,192,92855,1,0,0:0:0:0:
448,192,92855,1,0,0:0:0:0:
448,192,93105,128,0,93855:0:0:0:0:
192,192,93355,1,0,0:0:0:0:
320,192,93355,1,0,0:0:0:0:
192,192,93855,128,0,94605:0:0:0:0:
64,192,93855,1,0,0:0:0:0:
320,192,93855,1,0,0:0:0:0:
448,192,94355,1,0,0:0:0:0:
64,192,94355,1,0,0:0:0:0:
320,192,94605,128,0,95355:0:0:0:0:
64,192,94855,1,0,0:0:0:0:
448,192,94855,1,0,0:0:0:0:
192,192,95355,128,0,96105:0:0:0:0:
448,192,95355,1,0,0:0:0:0:
64,192,95355,1,0,0:0:0:0:
320,192,95855,1,0,0:0:0:0:
448,192,95855,1,0,0:0:0:0:
448,192,96105,128,0,96855:0:0:0:0:
192,192,96355,1,0,0:0:0:0:
64,192,96355,1,0,0:0:0:0:
64,192,96855,128,0,97605:0:0:0:0:
320,192,96855,1,0,0:0:0:0:
192,192,96855,1,0,0:0:0:0:
320,192,97355,1,0,0:0:0:0:
448,192,97355,1,0,0:0:0:0:
448,192,97605,128,0,98355:0:0:0:0:
64,192,97855,1,0,0:0:0:0:
192,192,97855,1,0,0:0:0:0:
192,192,98355,128,0,99105:0:0:0:0:
64,192,98355,1,0,0:0:0:0:
320,192,98355,1,0,0:0:0:0:
64,192,98855,1,0,0:0:0:0:
448,192,98855,1,0,0:0:0:0:
448,192,99105,128,0,99855:0:0:0:0:
192,192,99355,1,0,0:0:0:0:
320,192,99355,1,0,0:0:0:0:
64,192,99855,128,0,100605:0:0:0:0:
320,192,99855,1,0,0:0:0:0:
192,192,99855,1,0,0:0:0:0:
448,192,100355,1,0,0:0:0:0:
320,192,100355,1,0,0:0:0:0:
320,192,100605,128,0,101355:0:0:0:0:
64,192,100855,1,0,0:0:0:0:
192,192,100855,1,0,0:0:0:0:
192,192,101355,1,0,0:0:0:0:
64,192,101355,1,0,0:0:0:0:
448,192,101355,1,0,0:0:0:0:
64,192,101480,1,0,0:0:0:0:
448,192,101480,1,0,0:0:0:0:
320,192,101605,1,0,0:0:0:0:
64,192,101730,1,0,0:0:0:0:
192,192,101855,1,0,0:0:0:0:
448,192,101855,1,0,0:0:0:0:
320,192,101980,1,0,0:0:0:0:
448,192,102105,1,0,0:0:0:0:
64,192,102105,1,0,0:0:0:0:
320,192,102230,1,0,0:0:0:0:
448,192,102230,1,0,0:0:0:0:
192,192,102355,1,0,0:0:0:0:
64,192,102480,1,0,0:0:0:0:
320,192,102480,1,0,0:0:0:0:
320,192,102605,1,0,0:0:0:0:
192,192,102605,1,0,0:0:0:0:
448,192,102712,1,0,0:0:0:0:
64,192,102712,1,0,0:0:0:0:
192,192,102783,1,0,0:0:0:0:
448,192,102855,1,0,0:0:0:0:
320,192,102855,1,0,0:0:0:0:
64,192,102855,1,0,0:0:0:0:
320,192,103105,128,0,103230:0:0:0:0:
64,192,103105,1,0,0:0:0:0:
192,192,103230,128,0,103355:0:0:0:0:
448,192,103230,1,0,0:0:0:0:
320,192,103355,128,0,103480:0:0:0:0:
64,192,103480,1,0,0:0:0:0:
192,192,103480,1,0,0:0:0:0:
448,192,103605,128,0,103730:0:0:0:0:
320,192,103605,1,0,0:0:0:0:
192,192,103730,128,0,103855:0:0:0:0:
64,192,103855,1,0,0:0:0:0:
448,192,103855,1,0,0:0:0:0:
320,192,103980,128,0,104105:0:0:0:0:
64,192,104105,1,0,0:0:0:0:
448,192,104105,1,0,0:0:0:0:
320,192,104230,1,0,0:0:0:0:
192,192,104355,1,0,0:0:0:0:
448,192,104355,1,0,0:0:0:0:
64,192,104355,1,0,0:0:0:0:
320,192,104480,128,0,104605:0:0:0:0:
448,192,104605,128,0,104730:0:0:0:0:
64,192,104605,1,0,0:0:0:0:
192,192,104730,128,0,104855:0:0:0:0:
64,192,104730,1,0,0:0:0:0:
320,192,104855,128,0,104980:0:0:0:0:
64,192,104980,128,0,105105:0:0:0:0:
448,192,104980,1,0,0:0:0:0:
448,192,105105,128,0,105230:0:0:0:0:
192,192,105105,1,0,0:0:0:0:
320,192,105355,1,0,0:0:0:0:
64,192,105355,1,0,0:0:0:0:
192,192,105480,128,0,105605:0:0:0:0:
448,192,105605,1,0,0:0:0:0:
64,192,105605,1,0,0:0:0:0:
192,192,105730,1,0,0:0:0:0:
64,192,105855,1,0,0:0:0:0:
320,192,105855,1,0,0:0:0:0:
448,192,105855,1,0,0:0:0:0:
192,192,106105,128,0,106230:0:0:0:0:
320,192,106105,1,0,0:0:0:0:
64,192,106230,128,0,106355:0:0:0:0:
448,192,106230,1,0,0:0:0:0:
320,192,106355,128,0,106480:0:0:0:0:
448,192,106480,128,0,106605:0:0:0:0:
192,192,106480,1,0,0:0:0:0:
192,192,106605,128,0,106730:0:0:0:0:
64,192,106605,1,0,0:0:0:0:
320,192,106730,128,0,106855:0:0:0:0:
64,192,106855,128,0,106980:0:0:0:0:
448,192,106855,1,0,0:0:0:0:
448,192,106980,128,0,107105:0:0:0:0:
320,192,107105,1,0,0:0:0:0:
64,192,107105,1,0,0:0:0:0:
192,192,107230,128,0,107355:0:0:0:0:
64,192,107355,1,0,0:0:0:0:
320,192,107355,1,0,0:0:0:0:
448,192,107355,128,0,107480:0:0:0:0:
64,192,107605,128,0,107730:0:0:0:0:
320,192,107605,1,0,0:0:0:0:
448,192,107730,128,0,107855:0:0:0:0:
192,192,107730,1,0,0:0:0:0:
320,192,107855,128,0,107980:0:0:0:0:
64,192,107980,128,0,108105:0:0:0:0:
448,192,107980,1,0,0:0:0:0:
192,192,108105,128,0,108230:0:0:0:0:
320,192,108105,1,0,0:0:0:0:
448,192,108230,128,0,108480:0:0:0:0:
192,192,108355,1,0,0:0:0:0:
64,192,108355,1,0,0:0:0:0:
192,192,108480,128,0,108730:0:0:0:0:
64,192,108605,1,0,0:0:0:0:
448,192,108605,1,0,0:0:0:0:
320,192,108730,1,0,0:0:0:0:
64,192,108855,1,0,0:0:0:0:
448,192,108855,1,0,0:0:0:0:
320,192,108855,1,0,0:0:0:0:
192,192,109105,128,0,109230:0:0:0:0:
448,192,109105,1,0,0:0:0:0:
64,192,109230,128,0,109355:0:0:0:0:
320,192,109230,1,0,0:0:0:0:
320,192,109355,128,0,109480:0:0:0:0:
192,192,109480,128,0,109605:0:0:0:0:
448,192,109480,1,0,0:0:0:0:
448,192,109605,128,0,109730:0:0:0:0:
64,192,109605,1,0,0:0:0:0:
320,192,109730,128,0,109855:0:0:0:0:
64,192,109855,128,0,109980:0:0:0:0:
192,192,109855,1,0,0:0:0:0:
192,192,110105,128,0,110230:0:0:0:0:
448,192,110105,1,0,0:0:0:0:
320,192,110230,1,0,0:0:0:0:
64,192,110355,1,0,0:0:0:0:
448,192,110355,1,0,0:0:0:0:
192,192,110355,1,0,0:0:0:0:
64,192,110605,128,0,110730:0:0:0:0:
448,192,110605,1,0,0:0:0:0:
320,192,110730,128,0,110855:0:0:0:0:
192,192,110730,1,0,0:0:0:0:
448,192,110980,128,0,111105:0:0:0:0:
192,192,111105,128,0,111230:0:0:0:0:
64,192,111105,1,0,0:0:0:0:
320,192,111230,128,0,111355:0:0:0:0:
448,192,111230,1,0,0:0:0:0:
64,192,111355,1,0,0:0:0:0:
192,192,111355,1,0,0:0:0:0:
64,192,111480,128,0,111605:0:0:0:0:
320,192,111605,128,0,111730:0:0:0:0:
192,192,111605,1,0,0:0:0:0:
448,192,111730,1,0,0:0:0:0:
192,192,111855,1,0,0:0:0:0:
64,192,111855,1,0,0:0:0:0:
320,192,111855,1,0,0:0:0:0:
448,192,112105,128,0,112230:0:0:0:0:
192,192,112105,1,0,0:0:0:0:
64,192,112230,128,0,112355:0:0:0:0:
192,192,112230,1,0,0:0:0:0:
320,192,112355,128,0,112480:0:0:0:0:
192,192,112480,128,0,112605:0:0:0:0:
448,192,112480,1,0,0:0:0:0:
64,192,112605,128,0,112730:0:0:0:0:
448,192,112605,1,0,0:0:0:0:
320,192,112730,128,0,112855:0:0:0:0:
448,192,112855,128,0,112980:0:0:0:0:
64,192,112855,1,0,0:0:0:0:
192,192,112980,128,0,113105:0:0:0:0:
64,192,112980,1,0,0:0:0:0:
448,192,113105,1,0,0:0:0:0:
320,192,113105,1,0,0:0:0:0:
64,192,113230,128,0,113355:0:0:0:0:
448,192,113230,1,0,0:0:0:0:
320,192,113355,5,0,0:0:0:0:
192,192,113355,1,0,0:0:0:0:
64,192,113417,1,0,0:0:0:0:
448,192,113480,1,0,0:0:0:0:
320,192,113542,1,0,0:0:0:0:
64,192,113605,1,0,0:0:0:0:
192,192,113605,1,0,0:0:0:0:
448,192,113667,1,0,0:0:0:0:
192,192,113730,1,0,0:0:0:0:
320,192,113730,1,0,0:0:0:0:
64,192,113792,1,0,0:0:0:0:
448,192,113855,1,0,0:0:0:0:
320,192,113917,1,0,0:0:0:0:
192,192,113980,1,0,0:0:0:0:
64,192,113980,1,0,0:0:0:0:
320,192,114042,1,0,0:0:0:0:
448,192,114105,1,0,0:0:0:0:
64,192,114105,1,0,0:0:0:0:
320,192,115355,1,0,0:0:0:0:
64,192,115355,128,0,115605:0:0:0:0:
192,192,115355,128,0,115480:0:0:0:0:
448,192,115605,1,0,0:0:0:0:
320,192,115667,1,0,0:0:0:0:
192,192,115730,1,0,0:0:0:0:
64,192,115730,1,0,0:0:0:0:
320,192,115792,1,0,0:0:0:0:
192,192,115855,1,0,0:0:0:0:
64,192,115917,1,0,0:0:0:0:
448,192,115980,1,0,0:0:0:0:
320,192,115980,1,0,0:0:0:0:
192,192,116042,1,0,0:0:0:0:
448,192,116105,1,0,0:0:0:0:
64,192,116167,1,0,0:0:0:0:
320,192,116230,1,0,0:0:0:0:
192,192,116292,1,0,0:0:0:0:
448,192,116355,1,0,0:0:0:0:
64,192,116355,1,0,0:0:0:0:
64,192,116605,1,0,0:0:0:0:
192,192,116667,1,0,0:0:0:0:
320,192,116730,1,0,0:0:0:0:
448,192,116730,1,0,0:0:0:0:
192,192,116792,1,0,0:0:0:0:
320,192,116855,1,0,0:0:0:0:
448,192,116917,1,0,0:0:0:0:
64,192,116980,1,0,0:0:0:0:
192,192,116980,1,0,0:0:0:0:
320,192,117042,1,0,0:0:0:0:
64,192,117105,1,0,0:0:0:0:
448,192,117167,1,0,0:0:0:0:
192,192,117230,1,0,0:0:0:0:
320,192,117292,1,0,0:0:0:0:
64,192,117355,1,0,0:0:0:0:
448,192,117355,1,0,0:0:0:0:
64,192,117605,1,0,0:0:0:0:
448,192,117667,1,0,0:0:0:0:
64,192,117730,1,0,0:0:0:0:
320,192,117730,1,0,0:0:0:0:
192,192,117792,1,0,0:0:0:0:
320,192,117855,1,0,0:0:0:0:
448,192,117917,1,0,0:0:0:0:
64,192,117980,1,0,0:0:0:0:
192,192,117980,1,0,0:0:0:0:
448,192,118042,1,0,0:0:0:0:
320,192,118105,1,0,0:0:0:0:
192,192,118167,1,0,0:0:0:0:
448,192,118230,1,0,0:0:0:0:
64,192,118292,1,0,0:0:0:0:
192,192,118355,1,0,0:0:0:0:
320,192,118355,1,0,0:0:0:0:
448,192,118605,1,0,0:0:0:0:
64,192,118667,1,0,0:0:0:0:
448,192,118730,1,0,0:0:0:0:
192,192,118730,1,0,0:0:0:0:
320,192,118792,1,0,0:0:0:0:
192,192,118855,1,0,0:0:0:0:
64,192,118917,1,0,0:0:0:0:
448,192,118980,1,0,0:0:0:0:
320,192,118980,1,0,0:0:0:0:
64,192,119042,1,0,0:0:0:0:
192,192,119105,1,0,0:0:0:0:
320,192,119167,1,0,0:0:0:0:
64,192,119230,1,0,0:0:0:0:
448,192,119292,1,0,0:0:0:0:
320,192,119355,1,0,0:0:0:0:
192,192,119355,1,0,0:0:0:0:
192,192,119605,1,0,0:0:0:0:
320,192,119667,1,0,0:0:0:0:
448,192,119730,1,0,0:0:0:0:
64,192,119730,1,0,0:0:0:0:
192,192,119792,1,0,0:0:0:0:
320,192,119855,1,0,0:0:0:0:
192,192,119917,1,0,0:0:0:0:
64,192,119980,1,0,0:0:0:0:
448,192,119980,1,0,0:0:0:0:
320,192,120042,1,0,0:0:0:0:
192,192,120105,1,0,0:0:0:0:
320,192,120167,1,0,0:0:0:0:
448,192,120230,1,0,0:0:0:0:
192,192,120292,1,0,0:0:0:0:
320,192,120355,1,0,0:0:0:0:
64,192,120355,1,0,0:0:0:0:
320,192,120605,1,0,0:0:0:0:
192,192,120667,1,0,0:0:0:0:
64,192,120730,1,0,0:0:0:0:
448,192,120730,1,0,0:0:0:0:
320,192,120792,1,0,0:0:0:0:
192,192,120855,1,0,0:0:0:0:
320,192,120917,1,0,0:0:0:0:
448,192,120980,1,0,0:0:0:0:
64,192,120980,1,0,0:0:0:0:
192,192,121042,1,0,0:0:0:0:
320,192,121105,1,0,0:0:0:0:
192,192,121167,1,0,0:0:0:0:
64,192,121230,1,0,0:0:0:0:
320,192,121292,1,0,0:0:0:0:
192,192,121355,1,0,0:0:0:0:
448,192,121355,1,0,0:0:0:0:
192,192,121480,1,0,0:0:0:0:
320,192,121480,1,0,0:0:0:0:
64,192,121605,1,0,0:0:0:0:
448,192,121605,1,0,0:0:0:0:
448,192,121730,1,0,0:0:0:0:
192,192,121730,1,0,0:0:0:0:
64,192,121855,1,0,0:0:0:0:
320,192,121855,1,0,0:0:0:0:
64,192,121980,1,0,0:0:0:0:
192,192,121980,1,0,0:0:0:0:
320,192,122105,1,0,0:0:0:0:
448,192,122105,1,0,0:0:0:0:
192,192,122167,1,0,0:0:0:0:
320,192,122230,1,0,0:0:0:0:
64,192,122355,1,0,0:0:0:0:
192,192,122355,1,0,0:0:0:0:
448,192,122480,1,0,0:0:0:0:
64,192,122480,1,0,0:0:0:0:
320,192,122605,1,0,0:0:0:0:
448,192,122605,1,0,0:0:0:0:
64,192,122730,1,0,0:0:0:0:
192,192,122730,1,0,0:0:0:0:
320,192,122792,1,0,0:0:0:0:
192,192,122855,1,0,0:0:0:0:
64,192,122980,1,0,0:0:0:0:
448,192,122980,1,0,0:0:0:0:
448,192,123105,1,0,0:0:0:0:
192,192,123105,1,0,0:0:0:0:
320,192,123230,1,0,0:0:0:0:
64,192,123230,1,0,0:0:0:0:
192,192,123355,1,0,0:0:0:0:
64,192,123355,128,0,123480:0:0:0:0:
448,192,123355,128,0,123605:0:0:0:0:
64,192,123605,1,0,0:0:0:0:
192,192,123667,1,0,0:0:0:0:
320,192,123730,1,0,0:0:0:0:
448,192,123730,1,0,0:0:0:0:
192,192,123792,1,0,0:0:0:0:
320,192,123855,1,0,0:0:0:0:
448,192,123917,1,0,0:0:0:0:
64,192,123980,1,0,0:0:0:0:
192,192,123980,1,0,0:0:0:0:
320,192,124042,1,0,0:0:0:0:
64,192,124105,1,0,0:0:0:0:
448,192,124167,1,0,0:0:0:0:
192,192,124230,1,0,0:0:0:0:
320,192,124292,1,0,0:0:0:0:
64,192,124355,1,0,0:0:0:0:
448,192,124355,1,0,0:0:0:0:
448,192,124605,1,0,0:0:0:0:
320,192,124667,1,0,0:0:0:0:
192,192,124730,1,0,0:0:0:0:
64,192,124730,1,0,0:0:0:0:
320,192,124792,1,0,0:0:0:0:
192,192,124855,1,0,0:0:0:0:
64,192,124917,1,0,0:0:0:0:
448,192,124980,1,0,0:0:0:0:
320,192,124980,1,0,0:0:0:0:
192,192,125042,1,0,0:0:0:0:
448,192,125105,1,0,0:0:0:0:
64,192,125167,1,0,0:0:0:0:
320,192,125230,1,0,0:0:0:0:
192,192,125292,1,0,0:0:0:0:
448,192,125355,1,0,0:0:0:0:
64,192,125355,1,0,0:0:0:0:
448,192,125605,1,0,0:0:0:0:
64,192,125667,1,0,0:0:0:0:
448,192,125730,1,0,0:0:0:0:
192,192,125730,1,0,0:0:0:0:
320,192,125792,1,0,0:0:0:0:
192,192,125855,1,0,0:0:0:0:
64,192,125917,1,0,0:0:0:0:
448,192,125980,1,0,0:0:0:0:
320,192,125980,1,0,0:0:0:0:
64,192,126042,1,0,0:0:0:0:
192,192,126105,1,0,0:0:0:0:
320,192,126167,1,0,0:0:0:0:
64,192,126230,1,0,0:0:0:0:
448,192,126292,1,0,0:0:0:0:
320,192,126355,1,0,0:0:0:0:
192,192,126355,1,0,0:0:0:0:
64,192,126605,1,0,0:0:0:0:
448,192,126667,1,0,0:0:0:0:
64,192,126730,1,0,0:0:0:0:
320,192,126730,1,0,0:0:0:0:
192,192,126792,1,0,0:0:0:0:
320,192,126855,1,0,0:0:0:0:
448,192,126917,1,0,0:0:0:0:
64,192,126980,1,0,0:0:0:0:
192,192,126980,1,0,0:0:0:0:
448,192,127042,1,0,0:0:0:0:
320,192,127105,1,0,0:0:0:0:
192,192,127167,1,0,0:0:0:0:
448,192,127230,1,0,0:0:0:0:
64,192,127292,1,0,0:0:0:0:
192,192,127355,1,0,0:0:0:0:
320,192,127355,1,0,0:0:0:0:
320,192,127605,1,0,0:0:0:0:
192,192,127667,1,0,0:0:0:0:
64,192,127730,1,0,0:0:0:0:
448,192,127730,1,0,0:0:0:0:
320,192,127792,1,0,0:0:0:0:
192,192,127855,1,0,0:0:0:0:
320,192,127917,1,0,0:0:0:0:
448,192,127980,1,0,0:0:0:0:
64,192,127980,1,0,0:0:0:0:
192,192,128042,1,0,0:0:0:0:
320,192,128105,1,0,0:0:0:0:
192,192,128167,1,0,0:0:0:0:
64,192,128230,1,0,0:0:0:0:
320,192,128292,1,0,0:0:0:0:
192,192,128355,1,0,0:0:0:0:
448,192,128355,1,0,0:0:0:0:
192,192,128605,1,0,0:0:0:0:
320,192,128667,1,0,0:0:0:0:
448,192,128730,1,0,0:0:0:0:
64,192,128730,1,0,0:0:0:0:
192,192,128792,1,0,0:0:0:0:
320,192,128855,1,0,0:0:0:0:
192,192,128917,1,0,0:0:0:0:
64,192,128980,1,0,0:0:0:0:
448,192,128980,1,0,0:0:0:0:
320,192,129042,1,0,0:0:0:0:
192,192,129105,1,0,0:0:0:0:
320,192,129167,1,0,0:0:0:0:
448,192,129230,1,0,0:0:0:0:
192,192,129292,1,0,0:0:0:0:
320,192,129355,1,0,0:0:0:0:
64,192,129355,1,0,0:0:0:0:
448,192,129605,1,0,0:0:0:0:
320,192,129667,1,0,0:0:0:0:
192,192,129730,1,0,0:0:0:0:
64,192,129730,1,0,0:0:0:0:
320,192,129792,1,0,0:0:0:0:
192,192,129855,1,0,0:0:0:0:
64,192,129917,1,0,0:0:0:0:
448,192,129980,1,0,0:0:0:0:
320,192,129980,1,0,0:0:0:0:
192,192,130042,1,0,0:0:0:0:
448,192,130105,1,0,0:0:0:0:
64,192,130167,1,0,0:0:0:0:
320,192,130230,1,0,0:0:0:0:
192,192,130292,1,0,0:0:0:0:
64,192,130355,1,0,0:0:0:0:
448,192,130355,1,0,0:0:0:0:
64,192,130605,1,0,0:0:0:0:
192,192,130667,1,0,0:0:0:0:
320,192,130730,1,0,0:0:0:0:
448,192,130730,1,0,0:0:0:0:
192,192,130792,1,0,0:0:0:0:
64,192,130855,1,0,0:0:0:0:
448,192,130917,1,0,0:0:0:0:
192,192,130980,1,0,0:0:0:0:
320,192,130980,1,0,0:0:0:0:
64,192,131042,1,0,0:0:0:0:
320,192,131105,1,0,0:0:0:0:
192,192,131167,1,0,0:0:0:0:
448,192,131230,1,0,0:0:0:0:
320,192,131292,1,0,0:0:0:0:
64,192,131355,1,0,0:0:0:0:
192,192,131355,1,0,0:0:0:0:
64,192,131480,1,0,0:0:0:0:
192,192,131480,1,0,0:0:0:0:
64,192,131605,1,0,0:0:0:0:
448,192,131605,1,0,0:0:0:0:
192,192,131605,1,0,0:0:0:0:
64,192,131730,1,0,0:0:0:0:
192,192,131730,1,0,0:0:0:0:
320,192,132105,1,0,0:0:0:0:
192,192,132105,1,0,0:0:0:0:
448,192,132105,1,0,0:0:0:0:
320,192,132230,1,0,0:0:0:0:
192,192,132230,1,0,0:0:0:0:
320,192,132355,1,0,0:0:0:0:
192,192,132355,1,0,0:0:0:0:
192,192,132480,1,0,0:0:0:0:
320,192,132480,1,0,0:0:0:0:
64,192,132605,1,0,0:0:0:0:
320,192,132855,1,0,0:0:0:0:
448,192,132855,1,0,0:0:0:0:
320,192,132980,1,0,0:0:0:0:
448,192,132980,1,0,0:0:0:0:
320,192,133105,1,0,0:0:0:0:
448,192,133105,1,0,0:0:0:0:
192,192,133105,1,0,0:0:0:0:
320,192,133230,1,0,0:0:0:0:
448,192,133230,1,0,0:0:0:0:
192,192,133605,1,0,0:0:0:0:
64,192,133605,1,0,0:0:0:0:
448,192,133605,1,0,0:0:0:0:
192,192,133730,1,0,0:0:0:0:
64,192,133730,1,0,0:0:0:0:
192,192,133855,1,0,0:0:0:0:
64,192,133855,1,0,0:0:0:0:
192,192,133980,1,0,0:0:0:0:
64,192,133980,1,0,0:0:0:0:
320,192,134105,1,0,0:0:0:0:
320,192,134355,1,0,0:0:0:0:
448,192,134355,1,0,0:0:0:0:
320,192,134480,1,0,0:0:0:0:
448,192,134480,1,0,0:0:0:0:
320,192,134605,1,0,0:0:0:0:
448,192,134605,1,0,0:0:0:0:
64,192,134605,1,0,0:0:0:0:
448,192,134730,1,0,0:0:0:0:
320,192,134730,1,0,0:0:0:0:
320,192,135105,1,0,0:0:0:0:
64,192,135105,1,0,0:0:0:0:
192,192,135105,1,0,0:0:0:0:
320,192,135230,1,0,0:0:0:0:
192,192,135230,1,0,0:0:0:0:
320,192,135355,1,0,0:0:0:0:
192,192,135355,1,0,0:0:0:0:
320,192,135480,1,0,0:0:0:0:
192,192,135480,1,0,0:0:0:0:
448,192,135605,1,0,0:0:0:0:
64,192,135855,1,0,0:0:0:0:
192,192,135855,1,0,0:0:0:0:
64,192,135980,1,0,0:0:0:0:
192,192,135980,1,0,0:0:0:0:
64,192,136105,1,0,0:0:0:0:
192,192,136105,1,0,0:0:0:0:
320,192,136105,1,0,0:0:0:0:
64,192,136230,1,0,0:0:0:0:
192,192,136230,1,0,0:0:0:0:
64,192,136605,1,0,0:0:0:0:
448,192,136605,1,0,0:0:0:0:
320,192,136605,1,0,0:0:0:0:
64,192,136730,1,0,0:0:0:0:
448,192,136730,1,0,0:0:0:0:
64,192,136855,1,0,0:0:0:0:
448,192,136855,1,0,0:0:0:0:
64,192,136980,1,0,0:0:0:0:
448,192,136980,1,0,0:0:0:0:
192,192,137105,1,0,0:0:0:0:
320,192,137167,1,0,0:0:0:0:
192,192,137230,1,0,0:0:0:0:
320,192,137292,1,0,0:0:0:0:
448,192,137355,1,0,0:0:0:0:
192,192,137355,1,0,0:0:0:0:
64,192,137355,1,0,0:0:0:0:
448,192,137480,1,0,0:0:0:0:
192,192,137605,1,0,0:0:0:0:
448,192,137730,1,0,0:0:0:0:
64,192,137730,1,0,0:0:0:0:
320,192,137730,1,0,0:0:0:0:
64,192,137855,1,0,0:0:0:0:
320,192,137980,1,0,0:0:0:0:
192,192,138105,1,0,0:0:0:0:
64,192,138105,1,0,0:0:0:0:
448,192,138105,1,0,0:0:0:0:
448,192,138230,1,0,0:0:0:0:
64,192,138355,1,0,0:0:0:0:
192,192,138480,1,0,0:0:0:0:
320,192,138480,1,0,0:0:0:0:
448,192,138480,1,0,0:0:0:0:
192,192,138605,1,0,0:0:0:0:
448,192,138730,1,0,0:0:0:0:
320,192,138855,1,0,0:0:0:0:
192,192,138855,1,0,0:0:0:0:
64,192,138855,1,0,0:0:0:0:
320,192,138980,1,0,0:0:0:0:
64,192,139105,1,0,0:0:0:0:
320,192,139230,1,0,0:0:0:0:
448,192,139230,1,0,0:0:0:0:
192,192,139230,1,0,0:0:0:0:
192,192,139355,1,0,0:0:0:0:
320,192,139480,1,0,0:0:0:0:
64,192,139605,1,0,0:0:0:0:
192,192,139605,1,0,0:0:0:0:
448,192,139605,1,0,0:0:0:0:
64,192,139730,1,0,0:0:0:0:
320,192,139855,1,0,0:0:0:0:
64,192,139980,128,0,140063:0:0:0:0:
448,192,139980,128,0,140063:0:0:0:0:
64,192,140146,128,0,140230:0:0:0:0:
448,192,140146,128,0,140230:0:0:0:0:
64,192,140313,128,0,140396:0:0:0:0:
448,192,140313,128,0,140396:0:0:0:0:
448,192,140480,128,0,140563:0:0:0:0:
64,192,140480,128,0,140563:0:0:0:0:
64,192,140646,128,0,140730:0:0:0:0:
448,192,140646,128,0,140730:0:0:0:0:
448,192,140813,128,0,140896:0:0:0:0:
64,192,140813,128,0,140896:0:0:0:0:
64,192,140980,128,0,141063:0:0:0:0:
448,192,140980,128,0,141063:0:0:0:0:
64,192,141146,128,0,141230:0:0:0:0:
448,192,141146,128,0,141230:0:0:0:0:
448,192,141313,128,0,141396:0:0:0:0:
64,192,141313,128,0,141396:0:0:0:0:
448,192,141480,128,0,141563:0:0:0:0:
64,192,141480,128,0,141563:0:0:0:0:
64,192,141646,128,0,141730:0:0:0:0:
448,192,141646,128,0,141730:0:0:0:0:
448,192,141813,128,0,141896:0:0:0:0:
64,192,141813,128,0,141896:0:0:0:0:
448,192,143980,128,0,144230:0:0:0:0:
320,192,144355,128,0,144480:0:0:0:0:
192,192,144480,128,0,144730:0:0:0:0:
448,192,144855,128,0,145105:0:0:0:0:
192,192,145105,128,0,145355:0:0:0:0:
320,192,145355,128,0,145605:0:0:0:0:
64,192,145605,128,0,145730:0:0:0:0:
448,192,145730,128,0,145980:0:0:0:0:
64,192,145980,128,0,146230:0:0:0:0:
320,192,146355,128,0,146480:0:0:0:0:
192,192,146480,128,0,146730:0:0:0:0:
448,192,146730,128,0,146855:0:0:0:0:
64,192,146855,128,0,147105:0:0:0:0:
448,192,147105,128,0,147230:0:0:0:0:
192,192,147230,128,0,147355:0:0:0:0:
320,192,147355,128,0,147605:0:0:0:0:
64,192,147605,128,0,147730:0:0:0:0:
448,192,147730,128,0,147980:0:0:0:0:
192,192,147980,128,0,148230:0:0:0:0:
320,192,147980,1,0,0:0:0:0:
64,192,148230,1,0,0:0:0:0:
448,192,148355,128,0,148480:0:0:0:0:
320,192,148355,1,0,0:0:0:0:
64,192,148480,128,0,148730:0:0:0:0:
192,192,148605,1,0,0:0:0:0:
448,192,148855,128,0,149105:0:0:0:0:
320,192,148855,1,0,0:0:0:0:
192,192,149105,128,0,149230:0:0:0:0:
64,192,149230,128,0,149355:0:0:0:0:
448,192,149230,1,0,0:0:0:0:
320,192,149355,128,0,149605:0:0:0:0:
448,192,149480,1,0,0:0:0:0:
192,192,149605,128,0,149730:0:0:0:0:
448,192,149730,128,0,149980:0:0:0:0:
64,192,149730,1,0,0:0:0:0:
192,192,149980,128,0,150230:0:0:0:0:
64,192,149980,1,0,0:0:0:0:
64,192,150355,128,0,150480:0:0:0:0:
448,192,150355,1,0,0:0:0:0:
320,192,150480,128,0,150730:0:0:0:0:
192,192,150480,1,0,0:0:0:0:
192,192,150730,128,0,150855:0:0:0:0:
448,192,150855,128,0,151105:0:0:0:0:
320,192,151105,128,0,151230:0:0:0:0:
64,192,151230,128,0,151355:0:0:0:0:
320,192,151355,128,0,151605:0:0:0:0:
64,192,151480,1,0,0:0:0:0:
192,192,151605,1,0,0:0:0:0:
448,192,151730,128,0,151855:0:0:0:0:
320,192,151730,1,0,0:0:0:0:
192,192,151855,1,0,0:0:0:0:
64,192,151855,1,0,0:0:0:0:
448,192,151980,1,0,0:0:0:0:
64,192,151980,1,0,0:0:0:0:
320,192,151980,128,0,152105:0:0:0:0:
192,192,152105,1,0,0:0:0:0:
448,192,152230,1,0,0:0:0:0:
320,192,152355,1,0,0:0:0:0:
64,192,152355,128,0,152417:0:0:0:0:
320,192,152480,1,0,0:0:0:0:
64,192,152480,128,0,152605:0:0:0:0:
192,192,152605,1,0,0:0:0:0:
448,192,152730,1,0,0:0:0:0:
192,192,152855,1,0,0:0:0:0:
320,192,152855,128,0,152980:0:0:0:0:
64,192,152980,1,0,0:0:0:0:
192,192,152980,1,0,0:0:0:0:
448,192,152980,1,0,0:0:0:0:
448,192,153105,1,0,0:0:0:0:
320,192,153230,1,0,0:0:0:0:
64,192,153355,1,0,0:0:0:0:
192,192,153355,128,0,153480:0:0:0:0:
448,192,153480,1,0,0:0:0:0:
192,192,153605,1,0,0:0:0:0:
448,192,153730,1,0,0:0:0:0:
64,192,153730,128,0,153855:0:0:0:0:
320,192,153855,1,0,0:0:0:0:
192,192,153980,1,0,0:0:0:0:
64,192,153980,1,0,0:0:0:0:
448,192,153980,128,0,154105:0:0:0:0:
320,192,154105,1,0,0:0:0:0:
192,192,154230,1,0,0:0:0:0:
64,192,154355,1,0,0:0:0:0:
448,192,154355,128,0,154417:0:0:0:0:
64,192,154480,1,0,0:0:0:0:
448,192,154480,128,0,154605:0:0:0:0:
320,192,154605,1,0,0:0:0:0:
192,192,154730,1,0,0:0:0:0:
448,192,154855,1,0,0:0:0:0:
192,192,154855,128,0,154980:0:0:0:0:
320,192,154980,1,0,0:0:0:0:
64,192,154980,1,0,0:0:0:0:
448,192,154980,1,0,0:0:0:0:
64,192,155105,1,0,0:0:0:0:
448,192,155230,1,0,0:0:0:0:
320,192,155355,1,0,0:0:0:0:
192,192,155355,128,0,155480:0:0:0:0:
64,192,155480,1,0,0:0:0:0:
448,192,155605,1,0,0:0:0:0:
64,192,155730,1,0,0:0:0:0:
320,192,155730,128,0,155855:0:0:0:0:
192,192,155855,1,0,0:0:0:0:
448,192,155980,1,0,0:0:0:0:
320,192,155980,1,0,0:0:0:0:
64,192,155980,128,0,156105:0:0:0:0:
192,192,156105,1,0,0:0:0:0:
64,192,156230,1,0,0:0:0:0:
448,192,156355,1,0,0:0:0:0:
320,192,156355,128,0,156417:0:0:0:0:
448,192,156480,1,0,0:0:0:0:
320,192,156480,128,0,156605:0:0:0:0:
192,192,156605,1,0,0:0:0:0:
448,192,156730,1,0,0:0:0:0:
320,192,156855,1,0,0:0:0:0:
192,192,156855,128,0,156980:0:0:0:0:
64,192,156980,1,0,0:0:0:0:
320,192,156980,1,0,0:0:0:0:
448,192,156980,1,0,0:0:0:0:
64,192,157105,1,0,0:0:0:0:
448,192,157230,1,0,0:0:0:0:
192,192,157230,1,0,0:0:0:0:
320,192,157355,1,0,0:0:0:0:
448,192,157355,128,0,157480:0:0:0:0:
64,192,157480,1,0,0:0:0:0:
192,192,157480,1,0,0:0:0:0:
192,192,157605,1,0,0:0:0:0:
64,192,157605,1,0,0:0:0:0:
448,192,157730,1,0,0:0:0:0:
320,192,157730,1,0,0:0:0:0:
320,192,157855,1,0,0:0:0:0:
448,192,157855,1,0,0:0:0:0:
192,192,157980,1,0,0:0:0:0:
64,192,157980,1,0,0:0:0:0:
320,192,158042,1,0,0:0:0:0:
448,192,158105,1,0,0:0:0:0:
192,192,158167,1,0,0:0:0:0:
320,192,158230,1,0,0:0:0:0:
64,192,158292,1,0,0:0:0:0:
192,192,158355,1,0,0:0:0:0:
448,192,158355,1,0,0:0:0:0:
320,192,158417,1,0,0:0:0:0:
192,192,158480,1,0,0:0:0:0:
320,192,158542,1,0,0:0:0:0:
64,192,158605,1,0,0:0:0:0:
320,192,158730,1,0,0:0:0:0:
448,192,158730,1,0,0:0:0:0:
192,192,158792,1,0,0:0:0:0:
64,192,158855,1,0,0:0:0:0:
320,192,158917,1,0,0:0:0:0:
192,192,158980,1,0,0:0:0:0:
448,192,159042,1,0,0:0:0:0:
64,192,159105,1,0,0:0:0:0:
320,192,159105,1,0,0:0:0:0:
192,192,159167,1,0,0:0:0:0:
320,192,159230,1,0,0:0:0:0:
192,192,159292,1,0,0:0:0:0:
448,192,159355,1,0,0:0:0:0:
192,192,159480,1,0,0:0:0:0:
64,192,159480,1,0,0:0:0:0:
320,192,159542,1,0,0:0:0:0:
64,192,159605,1,0,0:0:0:0:
448,192,159667,1,0,0:0:0:0:
320,192,159730,1,0,0:0:0:0:
192,192,159792,1,0,0:0:0:0:
448,192,159855,1,0,0:0:0:0:
64,192,159855,1,0,0:0:0:0:
320,192,159917,1,0,0:0:0:0:
64,192,159980,1,0,0:0:0:0:
320,192,160042,1,0,0:0:0:0:
192,192,160105,1,0,0:0:0:0:
320,192,160230,1,0,0:0:0:0:
448,192,160230,1,0,0:0:0:0:
192,192,160292,1,0,0:0:0:0:
448,192,160355,1,0,0:0:0:0:
64,192,160417,1,0,0:0:0:0:
192,192,160480,1,0,0:0:0:0:
320,192,160542,1,0,0:0:0:0:
64,192,160605,1,0,0:0:0:0:
448,192,160605,1,0,0:0:0:0:
192,192,160667,1,0,0:0:0:0:
448,192,160730,1,0,0:0:0:0:
192,192,160792,1,0,0:0:0:0:
320,192,160855,1,0,0:0:0:0:
448,192,160980,1,0,0:0:0:0:
64,192,160980,1,0,0:0:0:0:
192,192,161042,1,0,0:0:0:0:
448,192,161105,1,0,0:0:0:0:
64,192,161167,1,0,0:0:0:0:
320,192,161230,1,0,0:0:0:0:
64,192,161292,1,0,0:0:0:0:
448,192,161355,1,0,0:0:0:0:
320,192,161417,1,0,0:0:0:0:
192,192,161480,1,0,0:0:0:0:
320,192,161542,1,0,0:0:0:0:
192,192,161605,1,0,0:0:0:0:
64,192,161730,1,0,0:0:0:0:
448,192,161730,1,0,0:0:0:0:
320,192,161792,1,0,0:0:0:0:
192,192,161855,1,0,0:0:0:0:
64,192,161855,1,0,0:0:0:0:
448,192,161917,1,0,0:0:0:0:
320,192,161980,1,0,0:0:0:0:
192,192,161980,1,0,0:0:0:0:
64,192,162042,1,0,0:0:0:0:
320,192,162105,1,0,0:0:0:0:
448,192,162105,1,0,0:0:0:0:
192,192,162167,1,0,0:0:0:0:
448,192,162230,1,0,0:0:0:0:
64,192,162230,1,0,0:0:0:0:
320,192,162292,1,0,0:0:0:0:
192,192,162355,1,0,0:0:0:0:
64,192,162355,1,0,0:0:0:0:
320,192,162417,1,0,0:0:0:0:
192,192,170980,5,0,0:0:0:0:
320,192,171042,1,0,0:0:0:0:
448,192,171105,1,0,0:0:0:0:
64,192,171167,1,0,0:0:0:0:
192,192,171230,1,0,0:0:0:0:
320,192,171292,1,0,0:0:0:0:
448,192,171355,1,0,0:0:0:0:
64,192,171417,1,0,0:0:0:0:
192,192,171480,1,0,0:0:0:0:
320,192,171480,128,0,171605:0:0:0:0:
448,192,171480,128,0,171730:0:0:0:0:
64,192,171730,1,0,0:0:0:0:
192,192,171792,1,0,0:0:0:0:
320,192,171855,1,0,0:0:0:0:
448,192,171855,1,0,0:0:0:0:
192,192,171917,1,0,0:0:0:0:
320,192,171980,1,0,0:0:0:0:
448,192,172042,1,0,0:0:0:0:
64,192,172105,1,0,0:0:0:0:
192,192,172105,1,0,0:0:0:0:
320,192,172167,1,0,0:0:0:0:
64,192,172230,1,0,0:0:0:0:
448,192,172292,1,0,0:0:0:0:
192,192,172355,1,0,0:0:0:0:
320,192,172417,1,0,0:0:0:0:
64,192,172480,1,0,0:0:0:0:
448,192,172480,1,0,0:0:0:0:
448,192,172730,1,0,0:0:0:0:
320,192,172792,1,0,0:0:0:0:
192,192,172855,1,0,0:0:0:0:
64,192,172855,1,0,0:0:0:0:
320,192,172917,1,0,0:0:0:0:
192,192,172980,1,0,0:0:0:0:
64,192,173042,1,0,0:0:0:0:
448,192,173105,1,0,0:0:0:0:
320,192,173105,1,0,0:0:0:0:
192,192,173167,1,0,0:0:0:0:
448,192,173230,1,0,0:0:0:0:
64,192,173292,1,0,0:0:0:0:
320,192,173355,1,0,0:0:0:0:
192,192,173417,1,0,0:0:0:0:
448,192,173480,1,0,0:0:0:0:
64,192,173480,1,0,0:0:0:0:
448,192,173730,1,0,0:0:0:0:
64,192,173792,1,0,0:0:0:0:
448,192,173855,1,0,0:0:0:0:
192,192,173855,1,0,0:0:0:0:
320,192,173917,1,0,0:0:0:0:
192,192,173980,1,0,0:0:0:0:
64,192,174042,1,0,0:0:0:0:
448,192,174105,1,0,0:0:0:0:
320,192,174105,1,0,0:0:0:0:
64,192,174167,1,0,0:0:0:0:
192,192,174230,1,0,0:0:0:0:
320,192,174292,1,0,0:0:0:0:
64,192,174355,1,0,0:0:0:0:
448,192,174417,1,0,0:0:0:0:
320,192,174480,1,0,0:0:0:0:
192,192,174480,1,0,0:0:0:0:
64,192,174730,1,0,0:0:0:0:
448,192,174792,1,0,0:0:0:0:
64,192,174855,1,0,0:0:0:0:
320,192,174855,1,0,0:0:0:0:
192,192,174917,1,0,0:0:0:0:
320,192,174980,1,0,0:0:0:0:
448,192,175042,1,0,0:0:0:0:
64,192,175105,1,0,0:0:0:0:
192,192,175105,1,0,0:0:0:0:
448,192,175167,1,0,0:0:0:0:
320,192,175230,1,0,0:0:0:0:
192,192,175292,1,0,0:0:0:0:
448,192,175355,1,0,0:0:0:0:
64,192,175417,1,0,0:0:0:0:
192,192,175480,1,0,0:0:0:0:
320,192,175480,1,0,0:0:0:0:
320,192,175730,1,0,0:0:0:0:
192,192,175792,1,0,0:0:0:0:
64,192,175855,1,0,0:0:0:0:
448,192,175855,1,0,0:0:0:0:
320,192,175917,1,0,0:0:0:0:
192,192,175980,1,0,0:0:0:0:
320,192,176042,1,0,0:0:0:0:
448,192,176105,1,0,0:0:0:0:
64,192,176105,1,0,0:0:0:0:
192,192,176167,1,0,0:0:0:0:
320,192,176230,1,0,0:0:0:0:
192,192,176292,1,0,0:0:0:0:
64,192,176355,1,0,0:0:0:0:
320,192,176417,1,0,0:0:0:0:
192,192,176480,1,0,0:0:0:0:
448,192,176480,1,0,0:0:0:0:
192,192,176730,1,0,0:0:0:0:
320,192,176792,1,0,0:0:0:0:
448,192,176855,1,0,0:0:0:0:
64,192,176855,1,0,0:0:0:0:
192,192,176917,1,0,0:0:0:0:
320,192,176980,1,0,0:0:0:0:
192,192,177042,1,0,0:0:0:0:
64,192,177105,1,0,0:0:0:0:
448,192,177105,1,0,0:0:0:0:
320,192,177167,1,0,0:0:0:0:
192,192,177230,1,0,0:0:0:0:
320,192,177292,1,0,0:0:0:0:
448,192,177355,1,0,0:0:0:0:
192,192,177417,1,0,0:0:0:0:
320,192,177480,1,0,0:0:0:0:
64,192,177480,1,0,0:0:0:0:
448,192,177730,1,0,0:0:0:0:
320,192,177792,1,0,0:0:0:0:
192,192,177855,1,0,0:0:0:0:
64,192,177855,1,0,0:0:0:0:
320,192,177917,1,0,0:0:0:0:
192,192,177980,1,0,0:0:0:0:
64,192,178042,1,0,0:0:0:0:
448,192,178105,1,0,0:0:0:0:
320,192,178105,1,0,0:0:0:0:
192,192,178167,1,0,0:0:0:0:
448,192,178230,1,0,0:0:0:0:
64,192,178292,1,0,0:0:0:0:
320,192,178355,1,0,0:0:0:0:
192,192,178417,1,0,0:0:0:0:
64,192,178480,1,0,0:0:0:0:
448,192,178480,1,0,0:0:0:0:
64,192,178730,1,0,0:0:0:0:
192,192,178792,1,0,0:0:0:0:
320,192,178855,1,0,0:0:0:0:
448,192,178855,1,0,0:0:0:0:
192,192,178917,1,0,0:0:0:0:
320,192,178980,1,0,0:0:0:0:
448,192,179042,1,0,0:0:0:0:
64,192,179105,1,0,0:0:0:0:
192,192,179105,1,0,0:0:0:0:
320,192,179167,1,0,0:0:0:0:
64,192,179230,1,0,0:0:0:0:
448,192,179292,1,0,0:0:0:0:
192,192,179355,1,0,0:0:0:0:
320,192,179417,1,0,0:0:0:0:
192,192,179480,1,0,0:0:0:0:
64,192,179480,128,0,179605:0:0:0:0:
448,192,179480,128,0,179730:0:0:0:0:
64,192,179730,1,0,0:0:0:0:
192,192,179792,1,0,0:0:0:0:
320,192,179855,1,0,0:0:0:0:
448,192,179855,1,0,0:0:0:0:
192,192,179917,1,0,0:0:0:0:
320,192,179980,1,0,0:0:0:0:
448,192,180042,1,0,0:0:0:0:
64,192,180105,1,0,0:0:0:0:
192,192,180105,1,0,0:0:0:0:
320,192,180167,1,0,0:0:0:0:
64,192,180230,1,0,0:0:0:0:
448,192,180292,1,0,0:0:0:0:
192,192,180355,1,0,0:0:0:0:
320,192,180417,1,0,0:0:0:0:
64,192,180480,1,0,0:0:0:0:
448,192,180480,1,0,0:0:0:0:
192,192,180480,1,0,0:0:0:0:
448,192,180730,1,0,0:0:0:0:
320,192,180792,1,0,0:0:0:0:
192,192,180855,1,0,0:0:0:0:
64,192,180855,1,0,0:0:0:0:
320,192,180917,1,0,0:0:0:0:
192,192,180980,1,0,0:0:0:0:
64,192,181042,1,0,0:0:0:0:
448,192,181105,1,0,0:0:0:0:
320,192,181105,1,0,0:0:0:0:
192,192,181167,1,0,0:0:0:0:
448,192,181230,1,0,0:0:0:0:
64,192,181292,1,0,0:0:0:0:
320,192,181355,1,0,0:0:0:0:
192,192,181417,1,0,0:0:0:0:
448,192,181480,1,0,0:0:0:0:
64,192,181480,1,0,0:0:0:0:
320,192,181480,1,0,0:0:0:0:
448,192,181730,1,0,0:0:0:0:
64,192,181792,1,0,0:0:0:0:
448,192,181855,1,0,0:0:0:0:
192,192,181855,1,0,0:0:0:0:
320,192,181917,1,0,0:0:0:0:
192,192,181980,1,0,0:0:0:0:
64,192,182042,1,0,0:0:0:0:
448,192,182105,1,0,0:0:0:0:
320,192,182105,1,0,0:0:0:0:
64,192,182167,1,0,0:0:0:0:
192,192,182230,1,0,0:0:0:0:
320,192,182292,1,0,0:0:0:0:
64,192,182355,1,0,0:0:0:0:
448,192,182417,1,0,0:0:0:0:
320,192,182480,1,0,0:0:0:0:
192,192,182480,1,0,0:0:0:0:
64,192,182480,1,0,0:0:0:0:
64,192,182730,1,0,0:0:0:0:
448,192,182792,1,0,0:0:0:0:
64,192,182855,1,0,0:0:0:0:
320,192,182855,1,0,0:0:0:0:
192,192,182917,1,0,0:0:0:0:
320,192,182980,1,0,0:0:0:0:
448,192,183042,1,0,0:0:0:0:
64,192,183105,1,0,0:0:0:0:
192,192,183105,1,0,0:0:0:0:
448,192,183167,1,0,0:0:0:0:
320,192,183230,1,0,0:0:0:0:
192,192,183292,1,0,0:0:0:0:
448,192,183355,1,0,0:0:0:0:
64,192,183417,1,0,0:0:0:0:
192,192,183480,1,0,0:0:0:0:
320,192,183480,1,0,0:0:0:0:
448,192,183480,1,0,0:0:0:0:
320,192,183730,1,0,0:0:0:0:
192,192,183792,1,0,0:0:0:0:
64,192,183855,1,0,0:0:0:0:
448,192,183855,1,0,0:0:0:0:
320,192,183917,1,0,0:0:0:0:
192,192,183980,1,0,0:0:0:0:
320,192,184042,1,0,0:0:0:0:
448,192,184105,1,0,0:0:0:0:
64,192,184105,1,0,0:0:0:0:
192,192,184167,1,0,0:0:0:0:
320,192,184230,1,0,0:0:0:0:
192,192,184292,1,0,0:0:0:0:
64,192,184355,1,0,0:0:0:0:
320,192,184417,1,0,0:0:0:0:
192,192,184480,1,0,0:0:0:0:
64,192,184480,1,0,0:0:0:0:
448,192,184480,1,0,0:0:0:0:
192,192,184730,1,0,0:0:0:0:
320,192,184792,1,0,0:0:0:0:
448,192,184855,1,0,0:0:0:0:
64,192,184855,1,0,0:0:0:0:
192,192,184917,1,0,0:0:0:0:
320,192,184980,1,0,0:0:0:0:
192,192,185042,1,0,0:0:0:0:
64,192,185105,1,0,0:0:0:0:
448,192,185105,1,0,0:0:0:0:
320,192,185167,1,0,0:0:0:0:
192,192,185230,1,0,0:0:0:0:
320,192,185292,1,0,0:0:0:0:
448,192,185355,1,0,0:0:0:0:
192,192,185417,1,0,0:0:0:0:
64,192,185480,1,0,0:0:0:0:
320,192,185480,1,0,0:0:0:0:
192,192,185605,1,0,0:0:0:0:
320,192,185605,1,0,0:0:0:0:
64,192,185730,1,0,0:0:0:0:
448,192,185730,1,0,0:0:0:0:
320,192,185855,1,0,0:0:0:0:
64,192,185855,1,0,0:0:0:0:
192,192,185980,1,0,0:0:0:0:
448,192,185980,1,0,0:0:0:0:
320,192,186105,1,0,0:0:0:0:
448,192,186105,1,0,0:0:0:0:
64,192,186230,1,0,0:0:0:0:
192,192,186230,1,0,0:0:0:0:
320,192,186292,1,0,0:0:0:0:
192,192,186355,1,0,0:0:0:0:
320,192,186480,1,0,0:0:0:0:
448,192,186480,1,0,0:0:0:0:
448,192,186605,1,0,0:0:0:0:
64,192,186605,1,0,0:0:0:0:
64,192,186730,1,0,0:0:0:0:
192,192,186730,1,0,0:0:0:0:
320,192,186855,1,0,0:0:0:0:
448,192,186855,1,0,0:0:0:0:
192,192,186917,1,0,0:0:0:0:
320,192,186980,1,0,0:0:0:0:
64,192,187105,1,0,0:0:0:0:
448,192,187105,1,0,0:0:0:0:
320,192,187230,1,0,0:0:0:0:
64,192,187230,1,0,0:0:0:0:
448,192,187355,1,0,0:0:0:0:
192,192,187355,1,0,0:0:0:0:
320,192,187480,1,0,0:0:0:0:
64,192,187480,128,0,187730:0:0:0:0:
448,192,187480,128,0,187605:0:0:0:0:
448,192,187730,1,0,0:0:0:0:
320,192,187792,1,0,0:0:0:0:
192,192,187855,1,0,0:0:0:0:
64,192,187855,1,0,0:0:0:0:
320,192,187917,1,0,0:0:0:0:
192,192,187980,1,0,0:0:0:0:
64,192,188042,1,0,0:0:0:0:
448,192,188105,1,0,0:0:0:0:
320,192,188105,1,0,0:0:0:0:
192,192,188167,1,0,0:0:0:0:
448,192,188230,1,0,0:0:0:0:
64,192,188292,1,0,0:0:0:0:
320,192,188355,1,0,0:0:0:0:
192,192,188417,1,0,0:0:0:0:
448,192,188480,1,0,0:0:0:0:
64,192,188480,1,0,0:0:0:0:
320,192,188480,1,0,0:0:0:0:
64,192,188730,1,0,0:0:0:0:
192,192,188792,1,0,0:0:0:0:
320,192,188855,1,0,0:0:0:0:
448,192,188855,1,0,0:0:0:0:
192,192,188917,1,0,0:0:0:0:
320,192,188980,1,0,0:0:0:0:
448,192,189042,1,0,0:0:0:0:
64,192,189105,1,0,0:0:0:0:
192,192,189105,1,0,0:0:0:0:
320,192,189167,1,0,0:0:0:0:
64,192,189230,1,0,0:0:0:0:
448,192,189292,1,0,0:0:0:0:
192,192,189355,1,0,0:0:0:0:
320,192,189417,1,0,0:0:0:0:
64,192,189480,1,0,0:0:0:0:
448,192,189480,1,0,0:0:0:0:
192,192,189480,1,0,0:0:0:0:
64,192,189730,1,0,0:0:0:0:
448,192,189792,1,0,0:0:0:0:
64,192,189855,1,0,0:0:0:0:
320,192,189855,1,0,0:0:0:0:
192,192,189917,1,0,0:0:0:0:
320,192,189980,1,0,0:0:0:0:
448,192,190042,1,0,0:0:0:0:
64,192,190105,1,0,0:0:0:0:
192,192,190105,1,0,0:0:0:0:
448,192,190167,1,0,0:0:0:0:
320,192,190230,1,0,0:0:0:0:
192,192,190292,1,0,0:0:0:0:
448,192,190355,1,0,0:0:0:0:
64,192,190417,1,0,0:0:0:0:
192,192,190480,1,0,0:0:0:0:
320,192,190480,1,0,0:0:0:0:
448,192,190480,1,0,0:0:0:0:
448,192,190730,1,0,0:0:0:0:
64,192,190792,1,0,0:0:0:0:
448,192,190855,1,0,0:0:0:0:
192,192,190855,1,0,0:0:0:0:
320,192,190917,1,0,0:0:0:0:
192,192,190980,1,0,0:0:0:0:
64,192,191042,1,0,0:0:0:0:
448,192,191105,1,0,0:0:0:0:
320,192,191105,1,0,0:0:0:0:
64,192,191167,1,0,0:0:0:0:
192,192,191230,1,0,0:0:0:0:
320,192,191292,1,0,0:0:0:0:
64,192,191355,1,0,0:0:0:0:
448,192,191417,1,0,0:0:0:0:
320,192,191480,1,0,0:0:0:0:
192,192,191480,1,0,0:0:0:0:
64,192,191480,1,0,0:0:0:0:
192,192,191730,1,0,0:0:0:0:
320,192,191792,1,0,0:0:0:0:
448,192,191855,1,0,0:0:0:0:
64,192,191855,1,0,0:0:0:0:
192,192,191917,1,0,0:0:0:0:
320,192,191980,1,0,0:0:0:0:
192,192,192042,1,0,0:0:0:0:
64,192,192105,1,0,0:0:0:0:
448,192,192105,1,0,0:0:0:0:
320,192,192167,1,0,0:0:0:0:
192,192,192230,1,0,0:0:0:0:
320,192,192292,1,0,0:0:0:0:
448,192,192355,1,0,0:0:0:0:
192,192,192417,1,0,0:0:0:0:
320,192,192480,1,0,0:0:0:0:
64,192,192480,1,0,0:0:0:0:
448,192,192480,1,0,0:0:0:0:
320,192,192730,1,0,0:0:0:0:
192,192,192792,1,0,0:0:0:0:
64,192,192855,1,0,0:0:0:0:
448,192,192855,1,0,0:0:0:0:
320,192,192917,1,0,0:0:0:0:
192,192,192980,1,0,0:0:0:0:
320,192,193042,1,0,0:0:0:0:
448,192,193105,1,0,0:0:0:0:
64,192,193105,1,0,0:0:0:0:
192,192,193167,1,0,0:0:0:0:
320,192,193230,1,0,0:0:0:0:
192,192,193292,1,0,0:0:0:0:
64,192,193355,1,0,0:0:0:0:
320,192,193417,1,0,0:0:0:0:
192,192,193480,1,0,0:0:0:0:
64,192,193480,1,0,0:0:0:0:
448,192,193480,1,0,0:0:0:0:
64,192,193730,1,0,0:0:0:0:
192,192,193792,1,0,0:0:0:0:
320,192,193855,1,0,0:0:0:0:
448,192,193855,1,0,0:0:0:0:
192,192,193917,1,0,0:0:0:0:
320,192,193980,1,0,0:0:0:0:
448,192,194042,1,0,0:0:0:0:
64,192,194105,1,0,0:0:0:0:
192,192,194105,1,0,0:0:0:0:
320,192,194167,1,0,0:0:0:0:
64,192,194230,1,0,0:0:0:0:
448,192,194292,1,0,0:0:0:0:
192,192,194355,1,0,0:0:0:0:
320,192,194417,1,0,0:0:0:0:
448,192,194480,1,0,0:0:0:0:
64,192,194480,1,0,0:0:0:0:
192,192,194480,1,0,0:0:0:0:
448,192,194730,1,0,0:0:0:0:
320,192,194792,1,0,0:0:0:0:
192,192,194855,1,0,0:0:0:0:
64,192,194855,1,0,0:0:0:0:
320,192,194917,1,0,0:0:0:0:
192,192,194980,1,0,0:0:0:0:
64,192,195042,1,0,0:0:0:0:
448,192,195105,1,0,0:0:0:0:
320,192,195105,1,0,0:0:0:0:
192,192,195167,1,0,0:0:0:0:
448,192,195230,1,0,0:0:0:0:
64,192,195292,1,0,0:0:0:0:
320,192,195355,1,0,0:0:0:0:
192,192,195417,1,0,0:0:0:0:
448,192,195480,1,0,0:0:0:0:
64,192,195480,1,0,0:0:0:0:
320,192,195480,1,0,0:0:0:0:
192,192,195605,1,0,0:0:0:0:
320,192,195730,1,0,0:0:0:0:
448,192,195730,1,0,0:0:0:0:
192,192,195855,1,0,0:0:0:0:
64,192,195855,1,0,0:0:0:0:
64,192,195980,1,0,0:0:0:0:
320,192,196105,1,0,0:0:0:0:
448,192,196105,1,0,0:0:0:0:
192,192,196230,1,0,0:0:0:0:
64,192,196230,1,0,0:0:0:0:
448,192,196230,1,0,0:0:0:0:
320,192,196355,1,0,0:0:0:0:
192,192,196480,1,0,0:0:0:0:
64,192,196480,1,0,0:0:0:0:
320,192,196605,1,0,0:0:0:0:
448,192,196605,1,0,0:0:0:0:
448,192,196730,1,0,0:0:0:0:
192,192,196855,1,0,0:0:0:0:
64,192,196855,1,0,0:0:0:0:
64,192,196980,1,0,0:0:0:0:
448,192,196980,1,0,0:0:0:0:
192,192,197146,1,0,0:0:0:0:
320,192,197146,1,0,0:0:0:0:
64,192,197313,1,0,0:0:0:0:
448,192,197313,1,0,0:0:0:0:
192,192,197480,1,0,0:0:0:0:
320,192,197480,1,0,0:0:0:0:
448,192,197480,1,0,0:0:0:0:
64,192,197605,1,0,0:0:0:0:
320,192,197730,1,0,0:0:0:0:
448,192,197730,1,0,0:0:0:0:
192,192,197855,1,0,0:0:0:0:
64,192,197855,1,0,0:0:0:0:
448,192,197980,1,0,0:0:0:0:
64,192,198105,1,0,0:0:0:0:
192,192,198105,1,0,0:0:0:0:
320,192,198230,1,0,0:0:0:0:
192,192,198230,1,0,0:0:0:0:
64,192,198230,1,0,0:0:0:0:
448,192,198355,1,0,0:0:0:0:
192,192,198480,1,0,0:0:0:0:
64,192,198480,1,0,0:0:0:0:
320,192,198605,1,0,0:0:0:0:
448,192,198605,1,0,0:0:0:0:
64,192,198730,1,0,0:0:0:0:
448,192,198855,1,0,0:0:0:0:
320,192,198855,1,0,0:0:0:0:
192,192,198980,1,0,0:0:0:0:
320,192,198980,1,0,0:0:0:0:
64,192,199146,1,0,0:0:0:0:
448,192,199146,1,0,0:0:0:0:
192,192,199313,1,0,0:0:0:0:
320,192,199313,1,0,0:0:0:0:
64,192,199480,1,0,0:0:0:0:
448,192,199480,1,0,0:0:0:0:
192,192,199480,1,0,0:0:0:0:
320,192,199605,1,0,0:0:0:0:
192,192,199730,1,0,0:0:0:0:
64,192,199730,1,0,0:0:0:0:
320,192,199855,1,0,0:0:0:0:
448,192,199855,1,0,0:0:0:0:
448,192,199980,1,0,0:0:0:0:
192,192,200105,1,0,0:0:0:0:
320,192,200105,1,0,0:0:0:0:
320,192,200230,1,0,0:0:0:0:
448,192,200230,1,0,0:0:0:0:
64,192,200230,1,0,0:0:0:0:
192,192,200355,1,0,0:0:0:0:
320,192,200480,1,0,0:0:0:0:
448,192,200480,1,0,0:0:0:0:
192,192,200605,1,0,0:0:0:0:
64,192,200605,1,0,0:0:0:0:
64,192,200730,1,0,0:0:0:0:
320,192,200855,1,0,0:0:0:0:
448,192,200855,1,0,0:0:0:0:
448,192,200980,1,0,0:0:0:0:
64,192,200980,1,0,0:0:0:0:
320,192,201146,1,0,0:0:0:0:
192,192,201146,1,0,0:0:0:0:
448,192,201313,1,0,0:0:0:0:
64,192,201313,1,0,0:0:0:0:
320,192,201480,1,0,0:0:0:0:
192,192,201480,1,0,0:0:0:0:
64,192,201480,1,0,0:0:0:0:
448,192,201605,1,0,0:0:0:0:
192,192,201730,1,0,0:0:0:0:
64,192,201730,1,0,0:0:0:0:
320,192,201855,5,0,0:0:0:0:
448,192,201855,1,0,0:0:0:0:
64,192,201980,1,0,0:0:0:0:
448,192,202105,1,0,0:0:0:0:
320,192,202105,1,0,0:0:0:0:
192,192,202230,1,0,0:0:0:0:
320,192,202230,1,0,0:0:0:0:
448,192,202230,1,0,0:0:0:0:
64,192,202355,1,0,0:0:0:0:
320,192,202480,1,0,0:0:0:0:
448,192,202480,1,0,0:0:0:0:
192,192,202605,1,0,0:0:0:0:
64,192,202605,1,0,0:0:0:0:
448,192,202730,1,0,0:0:0:0:
192,192,202855,1,0,0:0:0:0:
320,192,202855,1,0,0:0:0:0:
320,192,202980,5,0,0:0:0:0:
448,192,202980,1,0,0:0:0:0:
192,192,203063,1,0,0:0:0:0:
64,192,203063,1,0,0:0:0:0:
320,192,203146,1,0,0:0:0:0:
448,192,203146,1,0,0:0:0:0:
192,192,203230,1,0,0:0:0:0:
64,192,203230,1,0,0:0:0:0:
320,192,203313,1,0,0:0:0:0:
448,192,203313,1,0,0:0:0:0:
192,192,203396,1,0,0:0:0:0:
320,192,203480,1,0,0:0:0:0:
448,192,203480,1,0,0:0:0:0:
64,192,203480,1,0,0:0:0:0:
192,192,203605,1,0,0:0:0:0:
64,192,203605,1,0,0:0:0:0:
320,192,203730,1,0,0:0:0:0:
448,192,203730,1,0,0:0:0:0:
192,192,203855,1,0,0:0:0:0:
64,192,203980,1,0,0:0:0:0:
448,192,203980,1,0,0:0:0:0:
320,192,204105,1,0,0:0:0:0:
192,192,204105,1,0,0:0:0:0:
448,192,204230,1,0,0:0:0:0:
320,192,204230,1,0,0:0:0:0:
192,192,204355,1,0,0:0:0:0:
64,192,204355,1,0,0:0:0:0:
448,192,204480,1,0,0:0:0:0:
64,192,204480,1,0,0:0:0:0:
320,192,204605,1,0,0:0:0:0:
448,192,204730,1,0,0:0:0:0:
192,192,204730,1,0,0:0:0:0:
64,192,204855,1,0,0:0:0:0:
320,192,204855,1,0,0:0:0:0:
448,192,204980,1,0,0:0:0:0:
64,192,204980,1,0,0:0:0:0:
192,192,205146,1,0,0:0:0:0:
320,192,205146,1,0,0:0:0:0:
64,192,205313,1,0,0:0:0:0:
448,192,205313,1,0,0:0:0:0:
192,192,205480,1,0,0:0:0:0:
320,192,205480,1,0,0:0:0:0:
448,192,205480,1,0,0:0:0:0:
64,192,205605,1,0,0:0:0:0:
192,192,205605,1,0,0:0:0:0:
320,192,205730,1,0,0:0:0:0:
448,192,205730,1,0,0:0:0:0:
192,192,205855,1,0,0:0:0:0:
64,192,205855,1,0,0:0:0:0:
448,192,205980,1,0,0:0:0:0:
320,192,205980,1,0,0:0:0:0:
64,192,206105,1,0,0:0:0:0:
448,192,206105,1,0,0:0:0:0:
192,192,206230,1,0,0:0:0:0:
320,192,206230,1,0,0:0:0:0:
448,192,206355,1,0,0:0:0:0:
192,192,206480,1,0,0:0:0:0:
64,192,206480,1,0,0:0:0:0:
320,192,206605,1,0,0:0:0:0:
64,192,206730,1,0,0:0:0:0:
192,192,206730,1,0,0:0:0:0:
320,192,206855,1,0,0:0:0:0:
448,192,206855,1,0,0:0:0:0:
192,192,206980,1,0,0:0:0:0:
320,192,206980,1,0,0:0:0:0:
64,192,207146,1,0,0:0:0:0:
448,192,207146,1,0,0:0:0:0:
192,192,207313,1,0,0:0:0:0:
320,192,207313,1,0,0:0:0:0:
64,192,207480,1,0,0:0:0:0:
448,192,207480,1,0,0:0:0:0:
192,192,207480,1,0,0:0:0:0:
320,192,207605,1,0,0:0:0:0:
448,192,207605,1,0,0:0:0:0:
192,192,207730,1,0,0:0:0:0:
64,192,207730,1,0,0:0:0:0:
320,192,207855,1,0,0:0:0:0:
448,192,207980,1,0,0:0:0:0:
64,192,207980,1,0,0:0:0:0:
320,192,208105,1,0,0:0:0:0:
192,192,208105,1,0,0:0:0:0:
448,192,208230,1,0,0:0:0:0:
64,192,208230,1,0,0:0:0:0:
192,192,208355,1,0,0:0:0:0:
64,192,208355,1,0,0:0:0:0:
320,192,208480,1,0,0:0:0:0:
448,192,208480,1,0,0:0:0:0:
192,192,208605,1,0,0:0:0:0:
64,192,208730,1,0,0:0:0:0:
320,192,208730,1,0,0:0:0:0:
448,192,208855,1,0,0:0:0:0:
192,192,208855,1,0,0:0:0:0:
64,192,208980,1,0,0:0:0:0:
448,192,208980,1,0,0:0:0:0:
192,192,209146,1,0,0:0:0:0:
64,192,209146,1,0,0:0:0:0:
320,192,209313,1,0,0:0:0:0:
448,192,209313,1,0,0:0:0:0:
320,192,209480,1,0,0:0:0:0:
192,192,209480,1,0,0:0:0:0:
64,192,209480,1,0,0:0:0:0:
448,192,209542,1,0,0:0:0:0:
64,192,209605,1,0,0:0:0:0:
320,192,209730,1,0,0:0:0:0:
192,192,209730,1,0,0:0:0:0:
64,192,209792,1,0,0:0:0:0:
448,192,209855,1,0,0:0:0:0:
320,192,209980,1,0,0:0:0:0:
448,192,209980,1,0,0:0:0:0:
64,192,210042,1,0,0:0:0:0:
192,192,210105,1,0,0:0:0:0:
64,192,210230,1,0,0:0:0:0:
448,192,210230,1,0,0:0:0:0:
320,192,210292,1,0,0:0:0:0:
192,192,210355,1,0,0:0:0:0:
64,192,210480,1,0,0:0:0:0:
448,192,210480,1,0,0:0:0:0:
320,192,210542,1,0,0:0:0:0:
192,192,210605,1,0,0:0:0:0:
320,192,210667,1,0,0:0:0:0:
64,192,210730,1,0,0:0:0:0:
448,192,210730,1,0,0:0:0:0:
192,192,210792,1,0,0:0:0:0:
320,192,210855,1,0,0:0:0:0:
64,192,210917,1,0,0:0:0:0:
192,192,210980,1,0,0:0:0:0:
320,192,210980,1,0,0:0:0:0:
448,192,210980,1,0,0:0:0:0:
64,192,211105,1,0,0:0:0:0:
448,192,211105,1,0,0:0:0:0:
64,192,211230,1,0,0:0:0:0:
192,192,211230,1,0,0:0:0:0:
192,192,211355,1,0,0:0:0:0:
448,192,211355,1,0,0:0:0:0:
320,192,211355,1,0,0:0:0:0:
