osu file format v14

[General]
AudioFilename: audio.ogg
AudioLeadIn: 0
PreviewTime: 114555
Countdown: 0
SampleSet: Normal
StackLeniency: 0.7
Mode: 1
LetterboxInBreaks: 0
WidescreenStoryboard: 1

[Editor]
Bookmarks: 993,5118,13118,21118,28368,35618,43618,51618,59618,67618,75618,83618,90868,96868,102868,108868,115368,123368,131368,143993,151993,163493,171493,179493,187493,195493,203493
DistanceSpacing: 0.1
BeatDivisor: 4
GridSize: 32
TimelineZoom: 3.099999

[Metadata]
Title:KINGWORLD
TitleUnicode:KINGWORLD
Artist:sasakure.UK feat. Shirakami Fubuki
ArtistUnicode:sasakure.UK feat. 白上フブキ
Creator:Faputa
Version:2199'S INNER ONI
Source:
Tags:gaston_2199 sasakureuk 8-bit 8bit electronic japanese hololive ホロライブ vtuber virtual youtuber 2nd original song j-pop jpop pop jubeat ave. rhythm video game videogame
BeatmapID:3679506
BeatmapSetID:1784288

[Difficulty]
HPDrainRate:6
CircleSize:2
OverallDifficulty:6.5
ApproachRate:10
SliderMultiplier:1.4
SliderTickRate:1

[Events]
//Background and Video events
0,0,"world.jpg",0,0
Video,-93,"kinghalo.mp4"
//Break Periods
//Storyboard Layer 0 (Background)
//Storyboard Layer 1 (Fail)
//Storyboard Layer 2 (Pass)
//Storyboard Layer 3 (Foreground)
//Storyboard Layer 4 (Overlay)
//Storyboard Sound Samples

[TimingPoints]
-2007,250,3,1,0,60,1,0
118,-111.111111111111,3,1,0,60,0,0
990,-90.9090909090909,3,1,0,80,0,0
1115,-91.743119266055,3,1,0,80,0,0
1240,-92.5925925925926,3,1,0,80,0,0
1365,-93.4579439252336,3,1,0,80,0,0
1490,-94.3396226415094,3,1,0,80,0,0
1615,-95.2380952380952,3,1,0,80,0,0
1740,-96.1538461538461,3,1,0,80,0,0
1865,-97.0873786407767,3,1,0,80,0,0
1990,-98.0392156862745,3,1,0,80,0,0
2115,-99.009900990099,3,1,0,80,0,0
2240,-100,3,1,0,80,0,0
2365,-101.010101010101,3,1,0,80,0,0
2490,-102.040816326531,3,1,0,80,0,0
2615,-103.092783505155,3,1,0,80,0,0
2740,-104.166666666667,3,1,0,80,0,0
2865,-105.263157894737,3,1,0,80,0,0
2990,-106.382978723404,3,1,0,80,0,0
3115,-107.52688172043,3,1,0,80,0,0
3240,-108.695652173913,3,1,0,80,0,0
3365,-109.89010989011,3,1,0,80,0,0
3490,-111.111111111111,3,1,0,80,0,0
3993,250,5,1,0,40,1,0
3993,-200,5,1,0,40,0,0
5118,250,4,1,0,90,1,0
21243,-111.111111111111,4,1,0,70,0,0
22868,250,4,1,0,70,1,0
22868,-111.111111111111,4,1,0,70,0,0
24618,250,4,1,0,70,1,0
24618,-111.111111111111,4,1,0,70,0,0
26368,250,4,1,0,70,1,0
26368,-105.263157894737,4,1,0,80,0,0
26490,-104.265402843602,4,1,0,80,0,0
26552,-103.777501037775,4,1,0,80,0,0
26615,-103.286384976526,4,1,0,80,0,0
26740,-102.325581395349,4,1,0,80,0,0
26865,-101.382488479263,4,1,0,80,0,0
26927,-100.92113472054,4,1,0,80,0,0
26990,-100.456621004566,4,1,0,80,0,0
27115,-99.5475113122172,4,1,0,80,0,0
27240,-98.6547085201794,4,1,0,80,0,0
27490,-96.9162995594714,4,1,0,80,0,0
27615,-96.0698689956332,4,1,0,80,0,0
27740,-95.2380952380952,4,1,0,80,0,0
28368,-105.263157894737,4,1,0,75,0,0
30118,250,4,1,0,75,1,0
30118,-105.263157894737,4,1,0,75,0,0
31868,250,4,1,0,75,1,0
31868,-105.263157894737,4,1,0,75,0,0
33618,250,4,1,0,80,1,0
33740,-99.0990990990991,4,1,0,80,0,0
33802,-98.6582478295185,4,1,0,80,0,0
33865,-98.2142857142857,4,1,0,80,0,0
33990,-97.3451327433628,4,1,0,80,0,0
34115,-96.4912280701754,4,1,0,80,0,0
34177,-96.0732252655115,4,1,0,80,0,0
34240,-95.6521739130435,4,1,0,80,0,0
34365,-94.8275862068965,4,1,0,80,0,0
34490,-94.017094017094,4,1,0,80,0,0
34740,-92.436974789916,4,1,0,80,0,0
34865,-91.6666666666667,4,1,0,80,0,0
34990,-90.9090909090909,4,1,0,80,0,0
35618,-117.647058823529,4,1,0,70,0,0
42677,-116.795141322121,4,1,0,70,0,0
42740,-115.942028985507,4,1,0,70,0,0
42865,-114.285714285714,4,1,0,70,0,0
42927,-113.481615978212,4,1,0,70,0,0
42990,-112.676056338028,4,1,0,70,0,0
43115,-111.111111111111,4,1,0,70,0,0
43240,-109.58904109589,4,1,0,70,0,0
43302,-108.849461195167,4,1,0,70,0,0
43365,-108.108108108108,4,1,0,70,0,0
43427,-107.388316151203,4,1,0,70,0,0
43490,-106.666666666667,4,1,0,70,0,0
43615,-105.263157894737,4,1,0,80,0,0
50618,-125,4,1,0,70,0,0
51618,-100,4,1,0,90,0,1
65618,-100,4,1,0,90,0,0
65868,-111.111111111111,4,1,0,80,0,0
67615,-100,4,1,0,90,0,0
75743,-105.263157894737,4,1,0,80,0,0
81615,-100,4,1,0,80,0,0
81740,-99.0990990990991,4,1,0,80,0,0
81802,-98.6582478295185,4,1,0,80,0,0
81865,-98.2142857142857,4,1,0,80,0,0
81990,-97.3451327433628,4,1,0,80,0,0
82115,-96.4912280701754,4,1,0,80,0,0
82177,-96.0732252655115,4,1,0,80,0,0
82240,-95.6521739130435,4,1,0,80,0,0
82365,-94.8275862068965,4,1,0,80,0,0
82490,-94.017094017094,4,1,0,80,0,0
82740,-92.436974789916,4,1,0,80,0,0
82865,-91.6666666666667,4,1,0,80,0,0
82990,-90.9090909090909,4,1,0,80,0,0
83618,-111.111111111111,4,1,0,75,0,0
85368,250,4,1,0,75,1,0
85368,-111.111111111111,4,1,0,75,0,0
87118,250,4,1,0,75,1,0
87118,-111.111111111111,4,1,0,75,0,0
88868,250,4,1,0,80,1,0
88868,-105.263157894737,4,1,0,80,0,0
88990,-104.265402843602,4,1,0,80,0,0
89052,-103.777501037775,4,1,0,80,0,0
89115,-103.286384976526,4,1,0,80,0,0
89240,-102.325581395349,4,1,0,80,0,0
89365,-101.382488479263,4,1,0,80,0,0
89427,-100.92113472054,4,1,0,80,0,0
89490,-100.456621004566,4,1,0,80,0,0
89615,-99.5475113122172,4,1,0,80,0,0
89740,-98.6547085201794,4,1,0,80,0,0
89990,-96.9162995594714,4,1,0,80,0,0
90115,-96.0698689956332,4,1,0,80,0,0
90240,-95.2380952380952,4,1,0,80,0,0
90868,250,6,1,0,70,1,0
90868,-125,6,1,0,70,0,0
101490,-123.076923076923,6,1,0,70,0,0
101615,-121.212121212121,6,1,0,70,0,0
101740,-119.402985074627,6,1,0,70,0,0
101865,-117.647058823529,6,1,0,70,0,0
101990,-115.942028985507,6,1,0,70,0,0
102115,-114.285714285714,6,1,0,70,0,0
102240,-112.676056338028,6,1,0,70,0,0
102365,-111.111111111111,6,1,0,70,0,0
102490,-109.58904109589,6,1,0,70,0,0
102615,-108.108108108108,6,1,0,70,0,0
102698,-107.146683810136,6,1,0,70,0,0
102781,-106.202209005947,6,1,0,70,0,0
102865,-105.263157894737,6,1,0,80,0,0
113365,-104.477611940299,6,1,0,80,0,0
113427,-104.092315013086,6,1,0,80,0,0
113490,-103.703703703704,6,1,0,80,0,0
113615,-102.941176470588,6,1,0,80,0,0
113677,-102.567108193647,6,1,0,80,0,0
113740,-102.189781021898,6,1,0,80,0,0
113802,-101.821143887822,6,1,0,80,0,0
113865,-101.449275362319,6,1,0,80,0,0
113927,-101.08595194085,6,1,0,80,0,0
113990,-100.719424460432,6,1,0,80,0,0
114118,-100,6,1,0,80,0,0
114368,250,4,1,0,80,1,0
114555,-125,5,1,0,70,0,0
115368,-100,4,1,0,90,0,1
131368,250,3,1,0,90,1,0
131368,-90.9090909090909,3,1,0,90,0,0
132118,-100,3,1,0,90,0,0
132868,-90.9090909090909,3,1,0,90,0,0
133618,-100,3,1,0,90,0,0
134366,-90.9090909090909,3,1,0,90,0,0
135116,-100,3,1,0,90,0,0
135864,-90.9090909090909,3,1,0,90,0,0
136614,-100,3,1,0,90,0,0
137362,-90.9090909090909,3,1,0,80,0,0
137486,-91.743119266055,3,1,0,80,0,0
137612,-92.5925925925926,3,1,0,80,0,0
137737,-93.4579439252336,3,1,0,80,0,0
137862,-94.3396226415094,3,1,0,80,0,0
137987,-95.2380952380952,3,1,0,80,0,0
138112,-96.1538461538461,3,1,0,80,0,0
138237,-97.0873786407767,3,1,0,80,0,0
138362,-98.0392156862745,3,1,0,80,0,0
138487,-99.009900990099,3,1,0,80,0,0
138612,-100,3,1,0,80,0,0
138737,-101.010101010101,3,1,0,80,0,0
138862,-102.040816326531,3,1,0,80,0,0
138987,-103.092783505155,3,1,0,80,0,0
139112,-104.166666666667,3,1,0,80,0,0
139237,-105.263157894737,3,1,0,80,0,0
139362,-106.382978723404,3,1,0,80,0,0
139487,-107.52688172043,3,1,0,80,0,0
139612,-108.695652173913,3,1,0,80,0,0
139737,-109.89010989011,3,1,0,80,0,0
139862,-111.111111111111,3,1,0,80,0,0
141868,250,3,1,0,60,1,8
141993,250,4,1,0,70,1,0
141993,-111.111111111111,7,1,0,60,0,0
142118,-125,7,1,0,60,0,0
143993,-125,4,1,0,70,0,0
151990,-105.263157894737,4,1,0,80,0,0
157993,250,3,1,0,90,1,0
157993,-90.9090909090909,3,1,0,90,0,0
161052,-90.5687718874532,3,1,0,90,0,0
161115,-90.2255639097744,3,1,0,90,0,0
161240,-89.5522388059701,3,1,0,90,0,0
161365,-88.8888888888889,3,1,0,90,0,0
161427,-88.5635000295212,3,1,0,90,0,0
161490,-88.2352941176471,3,1,0,90,0,0
161615,-87.5912408759124,3,1,0,90,0,0
161740,-86.9565217391304,3,1,0,90,0,0
161802,-86.6451016635859,3,1,0,90,0,0
161865,-86.3309352517986,3,1,0,90,0,0
161927,-86.0239720135344,3,1,0,90,0,0
161990,-85.7142857142857,3,1,0,90,0,0
162115,-85.1063829787234,3,1,0,90,0,0
162177,-84.8080511109855,3,1,0,90,0,0
162240,-84.5070422535211,3,1,0,90,0,0
162302,-84.2128901863912,3,1,0,90,0,0
162365,-83.9160839160839,3,1,0,90,0,0
162427,-83.6260244187991,3,1,0,90,0,0
162493,250,4,1,0,90,1,0
162493,-83.3333333333333,4,1,0,40,0,0
163490,-111.111111111111,4,1,0,70,0,0
171493,-100,4,1,0,90,0,1
178615,-99.3788819875776,4,1,0,90,0,1
178677,-99.0736612671521,4,1,0,90,0,1
178740,-98.7654320987654,4,1,0,90,0,1
178865,-98.159509202454,4,1,0,90,0,1
178990,-97.5609756097561,4,1,0,90,0,1
179052,-97.2668028401906,4,1,0,90,0,1
179115,-96.969696969697,4,1,0,90,0,1
179177,-96.6790738144728,4,1,0,90,0,1
179240,-96.3855421686747,4,1,0,90,0,1
179302,-96.0984047664809,4,1,0,90,0,1
179365,-95.8083832335329,4,1,0,90,0,1
179490,-95.2380952380952,4,1,0,100,0,1
195493,250,3,1,0,100,1,0
195493,-95.2380952380952,4,1,0,100,0,0
195618,-100,4,1,0,80,0,0
197493,250,3,1,0,80,1,0
199493,250,3,1,0,80,1,0
201493,250,3,1,0,80,1,0
203493,250,3,1,0,80,1,0
203493,-111.111111111111,3,1,0,70,0,0
205493,250,3,1,0,70,1,0
205493,-111.111111111111,3,1,0,70,0,0
207493,250,3,1,0,70,1,0
207493,-111.111111111111,3,1,0,70,0,0
209493,250,3,1,0,70,1,0
209493,-111.111111111111,3,1,0,70,0,0
210990,-90.9090909090909,3,1,0,90,0,0

[HitObjects]
249,177,493,5,8,0:0:0:0:
249,177,555,1,8,0:0:0:0:
249,177,618,1,8,0:0:0:0:
249,177,680,1,8,0:0:0:0:
249,177,743,1,0,0:0:0:0:
249,177,805,1,0,0:0:0:0:
249,174,868,1,0,0:0:0:0:
249,177,993,1,8,0:0:0:0:
248,171,1118,1,0,0:0:0:0:
249,177,1243,1,8,0:0:0:0:
249,177,1368,1,8,0:0:0:0:
249,177,1493,1,0,0:0:0:0:
249,177,1618,1,8,0:0:0:0:
249,177,1743,1,0,0:0:0:0:
249,177,1868,1,0,0:0:0:0:
249,177,1993,1,8,0:0:0:0:
249,177,2118,1,0,0:0:0:0:
249,177,2243,1,0,0:0:0:0:
249,177,2368,1,8,0:0:0:0:
249,177,2493,1,8,0:0:0:0:
249,177,2618,1,0,0:0:0:0:
249,177,2743,1,8,0:0:0:0:
249,177,2868,1,8,0:0:0:0:
249,177,2993,1,0,0:0:0:0:
249,177,3118,1,8,0:0:0:0:
249,177,3243,1,0,0:0:0:0:
249,177,3368,1,0,0:0:0:0:
249,177,3493,1,8,0:0:0:0:
249,177,3618,1,4,0:0:0:0:
249,177,3784,1,4,0:0:0:0:
249,177,3951,1,4,0:0:0:0:
249,177,5118,1,4,0:0:0:0:
249,177,5368,1,8,0:0:0:0:
249,177,5493,1,0,0:0:0:0:
249,177,5555,1,0,0:0:0:0:
249,177,5618,1,8,0:0:0:0:
249,177,5743,1,0,0:0:0:0:
249,177,5868,1,8,0:0:0:0:
249,177,5930,1,0,0:0:0:0:
249,177,5993,1,8,0:0:0:0:
249,177,6055,1,8,0:0:0:0:
249,177,6118,1,0,0:0:0:0:
249,177,6243,1,0,0:0:0:0:
249,177,6368,1,8,0:0:0:0:
249,177,6493,1,0,0:0:0:0:
249,177,6555,1,8,0:0:0:0:
249,177,6618,1,0,0:0:0:0:
249,177,6743,1,0,0:0:0:0:
249,177,6868,1,8,0:0:0:0:
249,177,6993,1,8,0:0:0:0:
249,177,7118,1,0,0:0:0:0:
249,177,7243,1,0,0:0:0:0:
249,177,7368,1,8,0:0:0:0:
249,177,7493,1,0,0:0:0:0:
252,157,7555,1,8,0:0:0:0:
249,177,7618,5,0,0:0:0:0:
249,177,7743,1,0,0:0:0:0:
249,177,7868,1,8,0:0:0:0:
249,177,7993,1,8,0:0:0:0:
246,154,8055,1,0,0:0:0:0:
249,177,8118,1,0,0:0:0:0:
249,177,8243,1,8,0:0:0:0:
249,177,8368,1,0,0:0:0:0:
249,177,8493,1,0,0:0:0:0:
250,164,8555,1,0,0:0:0:0:
249,177,8618,1,8,0:0:0:0:
249,177,8743,1,0,0:0:0:0:
249,177,8868,1,8,0:0:0:0:
249,177,8993,1,8,0:0:0:0:
249,177,9118,1,4,0:0:0:0:
249,177,9368,1,8,0:0:0:0:
249,177,9493,1,0,0:0:0:0:
249,177,9555,1,0,0:0:0:0:
249,177,9618,1,8,0:0:0:0:
249,177,9743,1,0,0:0:0:0:
249,177,9868,1,8,0:0:0:0:
249,177,9930,1,0,0:0:0:0:
249,177,9993,1,8,0:0:0:0:
249,177,10055,1,8,0:0:0:0:
249,177,10118,1,0,0:0:0:0:
249,177,10243,1,0,0:0:0:0:
249,177,10368,1,8,0:0:0:0:
249,177,10493,1,0,0:0:0:0:
249,177,10555,1,8,0:0:0:0:
249,177,10618,1,0,0:0:0:0:
249,177,10743,1,0,0:0:0:0:
249,177,10868,1,8,0:0:0:0:
249,177,10993,1,8,0:0:0:0:
249,177,11118,1,0,0:0:0:0:
249,177,11243,1,0,0:0:0:0:
249,177,11368,1,8,0:0:0:0:
249,177,11493,1,0,0:0:0:0:
252,157,11555,1,0,0:0:0:0:
249,177,11618,5,0,0:0:0:0:
249,177,11743,1,0,0:0:0:0:
249,177,11868,1,8,0:0:0:0:
249,177,11993,1,0,0:0:0:0:
246,154,12055,1,0,0:0:0:0:
249,177,12118,1,8,0:0:0:0:
249,177,12243,1,0,0:0:0:0:
249,177,12368,1,8,0:0:0:0:
249,177,12493,1,8,0:0:0:0:
249,177,12743,1,8,0:0:0:0:
249,177,12868,1,8,0:0:0:0:
246,154,12930,1,0,0:0:0:0:
249,177,12993,1,8,0:0:0:0:
249,177,13118,1,4,0:0:0:0:
249,177,13368,1,8,0:0:0:0:
249,177,13493,1,0,0:0:0:0:
249,177,13555,1,0,0:0:0:0:
249,177,13618,1,8,0:0:0:0:
249,177,13743,1,0,0:0:0:0:
249,177,13868,1,8,0:0:0:0:
249,177,13930,1,0,0:0:0:0:
249,177,13993,1,8,0:0:0:0:
249,177,14055,1,8,0:0:0:0:
249,177,14118,1,0,0:0:0:0:
249,177,14243,1,0,0:0:0:0:
249,177,14368,1,8,0:0:0:0:
249,177,14493,1,0,0:0:0:0:
249,177,14555,1,8,0:0:0:0:
249,177,14618,1,0,0:0:0:0:
249,177,14743,1,0,0:0:0:0:
249,177,14868,1,8,0:0:0:0:
228,123,14993,1,8,0:0:0:0:
249,177,15118,1,0,0:0:0:0:
249,177,15243,1,0,0:0:0:0:
249,177,15368,1,8,0:0:0:0:
249,177,15493,1,0,0:0:0:0:
252,157,15555,1,8,0:0:0:0:
249,177,15618,5,0,0:0:0:0:
249,177,15743,1,0,0:0:0:0:
249,177,15868,1,8,0:0:0:0:
249,177,15993,1,8,0:0:0:0:
246,154,16055,1,0,0:0:0:0:
249,177,16118,1,0,0:0:0:0:
249,177,16243,1,8,0:0:0:0:
249,177,16368,1,0,0:0:0:0:
249,177,16493,1,0,0:0:0:0:
250,164,16555,1,0,0:0:0:0:
249,177,16618,1,8,0:0:0:0:
249,177,16743,1,0,0:0:0:0:
249,177,16868,1,8,0:0:0:0:
249,177,16993,1,8,0:0:0:0:
249,177,17118,1,4,0:0:0:0:
249,177,17368,1,8,0:0:0:0:
249,177,17493,1,0,0:0:0:0:
249,177,17555,1,0,0:0:0:0:
249,177,17618,1,8,0:0:0:0:
249,177,17743,1,0,0:0:0:0:
249,177,17868,1,8,0:0:0:0:
249,177,17930,1,0,0:0:0:0:
249,177,17993,1,8,0:0:0:0:
249,177,18055,1,8,0:0:0:0:
249,177,18118,1,0,0:0:0:0:
249,177,18243,1,0,0:0:0:0:
249,177,18368,1,8,0:0:0:0:
249,177,18493,1,0,0:0:0:0:
249,177,18555,1,8,0:0:0:0:
249,177,18618,1,0,0:0:0:0:
249,177,18743,1,0,0:0:0:0:
249,177,18868,1,8,0:0:0:0:
249,177,18993,1,8,0:0:0:0:
249,177,19118,1,0,0:0:0:0:
249,177,19243,1,0,0:0:0:0:
249,177,19368,1,8,0:0:0:0:
249,177,19493,1,0,0:0:0:0:
252,157,19555,1,0,0:0:0:0:
249,177,19618,5,0,0:0:0:0:
249,177,19743,1,0,0:0:0:0:
249,177,19868,1,8,0:0:0:0:
249,177,19993,1,0,0:0:0:0:
246,154,20055,1,0,0:0:0:0:
249,177,20118,1,8,0:0:0:0:
249,177,20243,1,0,0:0:0:0:
249,177,20368,1,8,0:0:0:0:
249,177,20493,1,8,0:0:0:0:
249,177,20743,1,8,0:0:0:0:
249,177,20868,1,8,0:0:0:0:
246,154,20930,1,0,0:0:0:0:
249,177,20993,1,8,0:0:0:0:
249,177,21118,1,4,0:0:0:0:
249,177,21368,1,8,0:0:0:0:
249,177,21493,1,0,0:0:0:0:
249,177,21618,1,8,0:0:0:0:
249,177,21868,1,0,0:0:0:0:
249,177,21930,1,8,0:0:0:0:
249,177,21993,1,0,0:0:0:0:
249,177,22243,1,8,0:0:0:0:
249,177,22368,1,8,0:0:0:0:
249,177,22493,1,0,0:0:0:0:
263,146,22555,1,0,0:0:0:0:
249,177,22618,1,0,0:0:0:0:
249,177,22743,1,0,0:0:0:0:
249,177,22868,1,8,0:0:0:0:
249,177,23118,1,0,0:0:0:0:
249,177,23243,1,8,0:0:0:0:
249,177,23368,1,0,0:0:0:0:
249,177,23618,1,8,0:0:0:0:
249,177,23743,1,0,0:0:0:0:
249,177,23993,1,8,0:0:0:0:
249,177,24118,1,8,0:0:0:0:
249,177,24243,1,0,0:0:0:0:
249,177,24368,1,0,0:0:0:0:
249,177,24493,1,0,0:0:0:0:
220,155,24618,1,8,0:0:0:0:
249,177,24868,1,8,0:0:0:0:
249,177,24993,1,0,0:0:0:0:
249,177,25118,1,8,0:0:0:0:
220,155,25368,1,8,0:0:0:0:
220,155,25430,1,0,0:0:0:0:
220,155,25493,1,8,0:0:0:0:
220,155,25743,1,8,0:0:0:0:
220,155,25868,1,8,0:0:0:0:
230,166,25993,1,0,0:0:0:0:
246,130,26055,1,0,0:0:0:0:
242,185,26118,1,0,0:0:0:0:
220,155,26243,1,0,0:0:0:0:
220,155,26368,1,12,0:0:0:0:
220,155,26618,1,0,0:0:0:0:
220,155,26743,1,12,0:0:0:0:
220,155,26993,1,0,0:0:0:0:
220,155,27118,1,8,0:0:0:0:
220,155,27243,1,4,0:0:0:0:
220,155,27493,1,8,0:0:0:0:
220,155,27618,1,0,0:0:0:0:
220,155,27743,1,12,0:0:0:0:
249,177,28368,1,4,0:0:0:0:
249,177,28618,1,8,0:0:0:0:
249,177,28743,1,0,0:0:0:0:
249,177,28868,1,8,0:0:0:0:
236,145,28993,1,8,0:0:0:0:
249,177,29118,1,0,0:0:0:0:
249,177,29180,1,8,0:0:0:0:
249,177,29243,1,0,0:0:0:0:
249,177,29493,1,8,0:0:0:0:
249,177,29618,1,8,0:0:0:0:
249,177,29743,1,0,0:0:0:0:
236,145,29805,1,0,0:0:0:0:
249,177,29868,1,0,0:0:0:0:
249,177,29993,1,0,0:0:0:0:
249,177,30118,1,8,0:0:0:0:
249,177,30243,1,0,0:0:0:0:
249,177,30368,1,8,0:0:0:0:
249,177,30493,1,8,0:0:0:0:
249,177,30618,1,0,0:0:0:0:
243,131,30743,1,0,0:0:0:0:
249,177,30868,1,8,0:0:0:0:
249,177,30993,1,0,0:0:0:0:
249,177,31243,1,8,0:0:0:0:
243,131,31305,1,0,0:0:0:0:
249,177,31368,1,8,0:0:0:0:
249,177,31493,1,0,0:0:0:0:
249,177,31618,1,0,0:0:0:0:
249,177,31743,1,0,0:0:0:0:
220,155,31868,1,8,0:0:0:0:
249,177,31993,1,0,0:0:0:0:
249,177,32118,1,8,0:0:0:0:
249,177,32243,1,0,0:0:0:0:
249,177,32368,1,8,0:0:0:0:
249,177,32493,1,0,0:0:0:0:
220,155,32618,1,8,0:0:0:0:
220,155,32680,1,0,0:0:0:0:
220,155,32743,1,8,0:0:0:0:
220,155,32993,1,8,0:0:0:0:
220,155,33118,1,8,0:0:0:0:
230,166,33243,1,0,0:0:0:0:
249,177,33305,1,0,0:0:0:0:
242,185,33368,1,0,0:0:0:0:
220,155,33493,1,0,0:0:0:0:
220,155,33618,1,12,0:0:0:0:
220,155,33868,1,0,0:0:0:0:
220,155,33993,1,12,0:0:0:0:
220,155,34243,1,0,0:0:0:0:
220,155,34368,1,8,0:0:0:0:
220,155,34493,1,4,0:0:0:0:
220,155,34743,1,8,0:0:0:0:
220,155,34868,1,0,0:0:0:0:
220,155,34993,1,12,0:0:0:0:
220,155,35618,1,4,0:0:0:0:
220,155,35868,1,0,0:0:0:0:
220,155,35993,1,0,0:0:0:0:
220,155,36118,1,8,0:0:0:0:
220,155,36368,1,8,0:0:0:0:
220,155,36493,1,0,0:0:0:0:
220,155,36743,1,0,0:0:0:0:
220,155,36868,1,8,0:0:0:0:
220,155,36993,1,8,0:0:0:0:
200,184,37118,1,0,0:0:0:0:
200,184,37368,1,8,0:0:0:0:
213,151,37618,1,8,0:0:0:0:
220,155,37743,1,0,0:0:0:0:
220,155,37868,1,8,0:0:0:0:
213,151,37993,1,8,0:0:0:0:
213,151,38118,1,0,0:0:0:0:
213,151,38243,1,8,0:0:0:0:
213,151,38493,1,8,0:0:0:0:
220,155,38618,1,0,0:0:0:0:
213,151,38868,1,8,0:0:0:0:
213,151,39118,1,8,0:0:0:0:
213,151,39243,1,0,0:0:0:0:
213,151,39368,1,8,0:0:0:0:
213,151,39618,1,0,0:0:0:0:
213,151,39868,1,0,0:0:0:0:
213,151,39993,1,0,0:0:0:0:
213,151,40118,1,8,0:0:0:0:
213,151,40368,1,8,0:0:0:0:
213,151,40493,1,0,0:0:0:0:
213,151,40743,1,0,0:0:0:0:
213,151,40868,1,8,0:0:0:0:
213,151,40993,1,8,0:0:0:0:
213,151,41118,1,0,0:0:0:0:
213,151,41368,1,8,0:0:0:0:
213,151,41618,1,0,0:0:0:0:
213,151,41868,1,8,0:0:0:0:
213,151,41993,1,0,0:0:0:0:
213,151,42118,1,8,0:0:0:0:
213,151,42368,1,8,0:0:0:0:
213,151,42493,1,0,0:0:0:0:
213,151,42743,1,0,0:0:0:0:
213,151,42868,1,8,0:0:0:0:
213,151,43118,1,8,0:0:0:0:
213,151,43243,1,0,0:0:0:0:
213,151,43368,1,8,0:0:0:0:
213,151,43430,1,0,0:0:0:0:
213,151,43493,1,8,0:0:0:0:
213,151,43618,1,4,0:0:0:0:
213,151,43868,1,8,0:0:0:0:
213,151,43993,1,0,0:0:0:0:
213,151,44118,1,8,0:0:0:0:
213,151,44243,1,8,0:0:0:0:
213,151,44368,1,0,0:0:0:0:
213,151,44493,1,8,0:0:0:0:
213,151,44743,1,0,0:0:0:0:
213,151,44868,1,8,0:0:0:0:
213,151,44993,1,0,0:0:0:0:
213,151,45055,1,0,0:0:0:0:
213,151,45118,1,8,0:0:0:0:
213,151,45243,1,0,0:0:0:0:
213,151,45368,1,8,0:0:0:0:
213,151,45493,1,8,0:0:0:0:
213,151,45618,1,0,0:0:0:0:
213,151,45868,1,8,0:0:0:0:
213,151,45993,1,8,0:0:0:0:
213,151,46118,1,0,0:0:0:0:
213,151,46243,1,0,0:0:0:0:
213,151,46368,1,8,0:0:0:0:
213,151,46493,1,0,0:0:0:0:
213,151,46618,1,8,0:0:0:0:
213,151,46868,1,8,0:0:0:0:
213,151,46993,1,8,0:0:0:0:
213,151,47118,1,0,0:0:0:0:
213,151,47243,1,8,0:0:0:0:
207,130,47305,1,0,0:0:0:0:
213,151,47368,1,8,0:0:0:0:
213,151,47493,1,8,0:0:0:0:
213,151,47618,1,0,0:0:0:0:
213,151,47868,1,8,0:0:0:0:
213,151,47993,1,0,0:0:0:0:
213,151,48118,1,0,0:0:0:0:
213,151,48243,1,8,0:0:0:0:
213,151,48368,1,8,0:0:0:0:
213,151,48493,1,8,0:0:0:0:
213,151,48618,1,0,0:0:0:0:
213,151,48868,1,8,0:0:0:0:
213,151,48993,1,0,0:0:0:0:
213,151,49118,1,8,0:0:0:0:
213,151,49243,1,0,0:0:0:0:
214,138,49305,1,0,0:0:0:0:
213,151,49368,1,8,0:0:0:0:
213,151,49493,1,8,0:0:0:0:
213,151,50868,1,8,0:0:0:0:
213,151,51118,1,0,0:0:0:0:
213,151,51368,1,8,0:0:0:0:
217,63,51618,1,4,0:0:0:0:
213,160,51868,1,8,0:0:0:0:
213,151,51993,1,0,0:0:0:0:
213,151,52055,1,0,0:0:0:0:
213,151,52118,1,8,0:0:0:0:
213,151,52243,1,0,0:0:0:0:
213,151,52368,1,8,0:0:0:0:
213,151,52493,1,8,0:0:0:0:
213,151,52555,1,8,0:0:0:0:
213,151,52618,1,0,0:0:0:0:
213,151,52743,1,0,0:0:0:0:
213,151,52868,1,8,0:0:0:0:
204,124,52930,1,0,0:0:0:0:
213,151,52993,1,8,0:0:0:0:
213,151,53055,1,8,0:0:0:0:
213,151,53118,1,0,0:0:0:0:
213,151,53243,1,0,0:0:0:0:
213,151,53368,1,8,0:0:0:0:
213,151,53493,1,0,0:0:0:0:
208,128,53555,1,0,0:0:0:0:
227,119,53618,1,8,0:0:0:0:
227,119,53868,1,8,0:0:0:0:
227,119,53993,1,0,0:0:0:0:
227,119,54055,1,0,0:0:0:0:
227,119,54118,1,8,0:0:0:0:
227,119,54243,1,0,0:0:0:0:
227,119,54368,1,8,0:0:0:0:
208,128,54493,1,0,0:0:0:0:
227,119,54555,1,8,0:0:0:0:
227,119,54618,1,0,0:0:0:0:
227,119,54743,1,0,0:0:0:0:
227,119,54868,1,8,0:0:0:0:
227,119,54993,1,8,0:0:0:0:
227,119,55055,1,8,0:0:0:0:
227,119,55118,1,0,0:0:0:0:
227,119,55180,1,0,0:0:0:0:
227,119,55243,1,0,0:0:0:0:
208,128,55368,1,8,0:0:0:0:
227,119,55493,1,0,0:0:0:0:
227,119,55555,1,0,0:0:0:0:
227,119,55618,1,8,0:0:0:0:
227,119,55868,1,8,0:0:0:0:
227,119,55993,1,0,0:0:0:0:
227,119,56055,1,8,0:0:0:0:
227,119,56118,1,0,0:0:0:0:
227,119,56243,1,0,0:0:0:0:
227,119,56368,1,8,0:0:0:0:
227,119,56493,1,8,0:0:0:0:
227,119,56555,1,8,0:0:0:0:
213,109,56618,1,0,0:0:0:0:
213,109,56743,1,0,0:0:0:0:
213,109,56868,1,8,0:0:0:0:
213,109,56993,1,8,0:0:0:0:
213,109,57055,1,8,0:0:0:0:
213,109,57118,1,0,0:0:0:0:
213,109,57243,1,0,0:0:0:0:
213,109,57368,1,8,0:0:0:0:
218,75,57493,1,0,0:0:0:0:
218,75,57555,1,0,0:0:0:0:
218,75,57618,1,8,0:0:0:0:
213,109,57680,1,0,0:0:0:0:
213,109,57743,1,0,0:0:0:0:
213,109,57868,1,8,0:0:0:0:
213,109,57993,1,0,0:0:0:0:
213,109,58055,1,0,0:0:0:0:
213,109,58118,1,8,0:0:0:0:
213,109,58243,1,0,0:0:0:0:
218,75,58368,1,8,0:0:0:0:
218,75,58430,1,8,0:0:0:0:
218,75,58493,1,8,0:0:0:0:
213,109,58618,1,0,0:0:0:0:
213,109,58743,1,0,0:0:0:0:
223,95,58805,1,0,0:0:0:0:
213,109,58868,1,8,0:0:0:0:
218,75,58930,1,8,0:0:0:0:
218,75,58993,1,0,0:0:0:0:
218,75,59055,1,0,0:0:0:0:
218,75,59118,1,8,0:0:0:0:
218,75,59243,1,0,0:0:0:0:
218,75,59368,1,8,0:0:0:0:
218,75,59430,1,0,0:0:0:0:
218,75,59493,1,8,0:0:0:0:
217,63,59618,1,4,0:0:0:0:
213,160,59868,1,8,0:0:0:0:
213,151,59993,1,0,0:0:0:0:
213,151,60118,1,8,0:0:0:0:
213,151,60243,1,8,0:0:0:0:
207,130,60305,1,0,0:0:0:0:
213,151,60368,1,8,0:0:0:0:
213,151,60493,1,0,0:0:0:0:
185,124,60618,1,8,0:0:0:0:
213,151,60743,1,0,0:0:0:0:
205,127,60805,1,0,0:0:0:0:
213,151,60868,1,8,0:0:0:0:
213,151,60993,1,8,0:0:0:0:
213,151,61055,1,8,0:0:0:0:
213,151,61118,1,0,0:0:0:0:
213,151,61243,1,8,0:0:0:0:
213,151,61368,1,0,0:0:0:0:
212,131,61430,1,0,0:0:0:0:
213,151,61493,1,8,0:0:0:0:
208,128,61555,1,8,0:0:0:0:
227,119,61618,1,0,0:0:0:0:
227,119,61868,1,8,0:0:0:0:
227,119,61993,1,0,0:0:0:0:
227,119,62118,1,8,0:0:0:0:
227,119,62243,1,0,0:0:0:0:
227,112,62305,1,0,0:0:0:0:
227,119,62368,1,8,0:0:0:0:
208,128,62493,1,0,0:0:0:0:
227,112,62555,1,8,0:0:0:0:
227,119,62618,1,0,0:0:0:0:
227,119,62743,1,0,0:0:0:0:
227,119,62868,1,8,0:0:0:0:
227,112,62930,1,0,0:0:0:0:
227,119,62993,1,8,0:0:0:0:
227,119,63055,1,8,0:0:0:0:
227,119,63118,1,0,0:0:0:0:
227,119,63243,1,0,0:0:0:0:
208,128,63368,1,8,0:0:0:0:
227,119,63493,1,0,0:0:0:0:
227,119,63555,1,0,0:0:0:0:
227,119,63618,1,8,0:0:0:0:
227,119,63868,1,8,0:0:0:0:
227,119,63993,1,0,0:0:0:0:
227,119,64055,1,0,0:0:0:0:
227,119,64118,1,8,0:0:0:0:
227,119,64243,1,0,0:0:0:0:
227,119,64368,1,8,0:0:0:0:
227,119,64493,1,0,0:0:0:0:
227,119,64555,1,8,0:0:0:0:
213,109,64618,1,0,0:0:0:0:
213,109,64743,1,0,0:0:0:0:
213,109,64868,1,8,0:0:0:0:
213,109,64993,1,8,0:0:0:0:
213,109,65055,1,8,0:0:0:0:
213,109,65118,1,8,0:0:0:0:
227,119,65180,1,8,0:0:0:0:
213,109,65243,1,0,0:0:0:0:
213,109,65368,1,8,0:0:0:0:
218,75,65493,1,0,0:0:0:0:
218,75,65555,1,0,0:0:0:0:
218,75,65618,1,8,0:0:0:0:
213,109,65868,1,8,0:0:0:0:
213,109,65993,1,0,0:0:0:0:
213,109,66118,1,8,0:0:0:0:
218,75,66493,1,0,0:0:0:0:
213,109,66618,1,8,0:0:0:0:
213,109,66743,1,0,0:0:0:0:
213,109,66868,1,8,0:0:0:0:
218,75,66993,1,0,0:0:0:0:
218,75,67243,1,0,0:0:0:0:
218,75,67368,1,8,0:0:0:0:
249,177,67618,1,4,0:0:0:0:
249,177,67868,1,8,0:0:0:0:
249,177,67993,1,0,0:0:0:0:
249,177,68055,1,0,0:0:0:0:
249,177,68118,1,8,0:0:0:0:
249,177,68243,1,0,0:0:0:0:
249,177,68368,1,8,0:0:0:0:
249,177,68430,1,0,0:0:0:0:
249,177,68493,1,8,0:0:0:0:
249,177,68555,1,8,0:0:0:0:
249,177,68618,1,8,0:0:0:0:
249,177,68743,1,0,0:0:0:0:
249,177,68868,1,8,0:0:0:0:
249,177,68993,1,0,0:0:0:0:
249,177,69055,1,8,0:0:0:0:
249,177,69118,1,0,0:0:0:0:
249,177,69243,1,0,0:0:0:0:
249,177,69368,1,8,0:0:0:0:
249,177,69493,1,8,0:0:0:0:
249,177,69618,1,0,0:0:0:0:
249,177,69743,1,0,0:0:0:0:
249,177,69868,1,8,0:0:0:0:
249,177,69993,1,0,0:0:0:0:
252,157,70055,1,8,0:0:0:0:
249,177,70118,5,0,0:0:0:0:
249,177,70243,1,0,0:0:0:0:
249,177,70368,1,8,0:0:0:0:
249,177,70493,1,8,0:0:0:0:
246,154,70555,1,8,0:0:0:0:
249,177,70618,1,0,0:0:0:0:
249,177,70743,1,8,0:0:0:0:
249,177,70868,1,0,0:0:0:0:
249,177,70993,1,0,0:0:0:0:
250,164,71055,1,0,0:0:0:0:
249,177,71118,1,8,0:0:0:0:
249,177,71243,1,0,0:0:0:0:
249,177,71368,1,8,0:0:0:0:
249,177,71493,1,8,0:0:0:0:
249,177,71618,1,4,0:0:0:0:
249,177,71868,1,8,0:0:0:0:
249,177,71993,1,0,0:0:0:0:
249,177,72055,1,0,0:0:0:0:
249,177,72118,1,8,0:0:0:0:
249,177,72243,1,0,0:0:0:0:
249,177,72368,1,8,0:0:0:0:
249,177,72430,1,0,0:0:0:0:
249,177,72493,1,8,0:0:0:0:
249,177,72555,1,8,0:0:0:0:
249,177,72618,1,8,0:0:0:0:
249,177,72743,1,0,0:0:0:0:
249,177,72868,1,8,0:0:0:0:
249,177,72993,1,0,0:0:0:0:
249,177,73055,1,8,0:0:0:0:
249,177,73118,1,0,0:0:0:0:
249,177,73243,1,0,0:0:0:0:
249,177,73368,1,8,0:0:0:0:
249,177,73493,1,8,0:0:0:0:
249,177,73618,1,0,0:0:0:0:
249,177,73743,1,0,0:0:0:0:
249,177,73868,1,8,0:0:0:0:
249,177,73993,1,0,0:0:0:0:
252,157,74055,1,8,0:0:0:0:
249,177,74118,5,0,0:0:0:0:
249,177,74243,1,0,0:0:0:0:
249,177,74368,1,8,0:0:0:0:
249,177,74493,1,0,0:0:0:0:
246,154,74555,1,0,0:0:0:0:
249,177,74618,1,8,0:0:0:0:
249,177,74743,1,0,0:0:0:0:
249,177,74868,1,8,0:0:0:0:
249,177,74993,1,8,0:0:0:0:
249,177,75243,1,8,0:0:0:0:
249,177,75368,1,8,0:0:0:0:
246,154,75430,1,0,0:0:0:0:
249,177,75493,1,8,0:0:0:0:
249,177,75618,1,4,0:0:0:0:
249,177,75868,1,8,0:0:0:0:
249,177,75993,1,8,0:0:0:0:
249,177,76118,1,0,0:0:0:0:
249,177,76243,1,0,0:0:0:0:
246,154,76368,1,8,0:0:0:0:
246,154,76430,1,8,0:0:0:0:
246,154,76493,1,0,0:0:0:0:
249,177,76618,1,8,0:0:0:0:
249,177,76743,1,8,0:0:0:0:
249,177,76868,1,0,0:0:0:0:
249,177,76993,1,0,0:0:0:0:
249,177,77118,1,8,0:0:0:0:
246,154,77284,1,8,0:0:0:0:
249,177,77451,1,8,0:0:0:0:
227,126,77618,1,0,0:0:0:0:
246,154,77868,1,8,0:0:0:0:
246,154,77993,1,0,0:0:0:0:
246,154,78118,1,8,0:0:0:0:
227,126,78243,1,8,0:0:0:0:
227,126,78368,1,0,0:0:0:0:
249,177,78430,1,0,0:0:0:0:
246,154,78493,1,0,0:0:0:0:
246,154,78618,1,8,0:0:0:0:
246,154,78743,1,0,0:0:0:0:
246,154,78868,1,8,0:0:0:0:
246,154,78993,1,8,0:0:0:0:
227,126,79118,1,0,0:0:0:0:
227,126,79284,1,0,0:0:0:0:
246,154,79451,1,0,0:0:0:0:
246,154,79618,1,8,0:0:0:0:
249,177,79868,1,8,0:0:0:0:
249,177,79993,1,8,0:0:0:0:
249,177,80118,1,0,0:0:0:0:
249,177,80243,1,0,0:0:0:0:
246,154,80368,1,8,0:0:0:0:
246,154,80430,1,8,0:0:0:0:
246,154,80493,1,0,0:0:0:0:
249,177,80618,1,8,0:0:0:0:
249,177,80743,1,8,0:0:0:0:
249,177,80868,1,0,0:0:0:0:
249,177,80993,1,0,0:0:0:0:
249,177,81118,1,8,0:0:0:0:
246,154,81284,1,8,0:0:0:0:
249,177,81451,1,8,0:0:0:0:
227,126,81618,1,4,0:0:0:0:
246,154,81868,1,8,0:0:0:0:
246,154,81993,1,4,0:0:0:0:
227,126,82243,1,8,0:0:0:0:
227,126,82368,1,0,0:0:0:0:
246,154,82493,1,12,0:0:0:0:
246,154,82743,1,0,0:0:0:0:
246,154,82868,1,8,0:0:0:0:
246,154,82993,1,4,0:0:0:0:
249,177,83618,1,4,0:0:0:0:
249,177,83868,1,8,0:0:0:0:
249,177,83993,1,0,0:0:0:0:
249,177,84118,1,8,0:0:0:0:
236,145,84243,1,8,0:0:0:0:
249,177,84368,1,0,0:0:0:0:
249,177,84430,1,8,0:0:0:0:
249,177,84493,1,0,0:0:0:0:
249,177,84743,1,8,0:0:0:0:
249,177,84868,1,8,0:0:0:0:
249,177,84993,1,0,0:0:0:0:
236,145,85055,1,0,0:0:0:0:
249,177,85118,1,0,0:0:0:0:
249,177,85243,1,0,0:0:0:0:
249,177,85368,1,8,0:0:0:0:
249,177,85493,1,0,0:0:0:0:
249,177,85618,1,8,0:0:0:0:
249,177,85743,1,8,0:0:0:0:
249,177,85868,1,0,0:0:0:0:
243,131,85993,1,0,0:0:0:0:
249,177,86118,1,8,0:0:0:0:
249,177,86243,1,0,0:0:0:0:
249,177,86493,1,8,0:0:0:0:
243,131,86555,1,0,0:0:0:0:
249,177,86618,1,8,0:0:0:0:
249,177,86743,1,0,0:0:0:0:
249,177,86868,1,0,0:0:0:0:
249,177,86993,1,0,0:0:0:0:
220,155,87118,1,8,0:0:0:0:
249,177,87243,1,0,0:0:0:0:
249,177,87368,1,8,0:0:0:0:
249,177,87493,1,0,0:0:0:0:
249,177,87555,1,0,0:0:0:0:
249,177,87618,1,8,0:0:0:0:
249,177,87743,1,0,0:0:0:0:
220,155,87868,1,8,0:0:0:0:
220,155,87930,1,0,0:0:0:0:
220,155,87993,1,8,0:0:0:0:
220,155,88243,1,8,0:0:0:0:
220,155,88368,1,8,0:0:0:0:
230,166,88493,1,0,0:0:0:0:
249,177,88555,1,0,0:0:0:0:
242,185,88618,1,0,0:0:0:0:
220,155,88743,1,0,0:0:0:0:
220,155,88868,1,12,0:0:0:0:
220,155,89118,1,0,0:0:0:0:
220,155,89243,1,12,0:0:0:0:
220,155,89493,1,0,0:0:0:0:
220,155,89618,1,8,0:0:0:0:
220,155,89743,1,4,0:0:0:0:
220,155,89993,1,8,0:0:0:0:
220,155,90118,1,0,0:0:0:0:
220,155,90243,1,12,0:0:0:0:
220,155,90868,1,0,0:0:0:0:
220,155,91118,1,8,0:0:0:0:
220,155,91368,1,0,0:0:0:0:
220,155,91618,1,8,0:0:0:0:
220,155,91743,1,0,0:0:0:0:
220,155,91993,1,8,0:0:0:0:
64,160,92368,1,0,0:0:0:0:
220,155,92618,1,8,0:0:0:0:
219,144,92743,1,8,0:0:0:0:
219,144,92993,1,0,0:0:0:0:
219,144,93118,1,8,0:0:0:0:
219,144,93243,1,0,0:0:0:0:
223,150,93493,1,8,0:0:0:0:
223,145,93868,1,0,0:0:0:0:
223,135,94118,1,8,0:0:0:0:
223,130,94243,1,0,0:0:0:0:
223,124,94368,1,8,0:0:0:0:
223,117,94493,1,0,0:0:0:0:
223,117,94743,1,0,0:0:0:0:
223,117,94868,1,8,0:0:0:0:
223,111,94993,1,0,0:0:0:0:
223,111,95243,1,8,0:0:0:0:
223,111,95368,1,0,0:0:0:0:
223,111,95618,1,8,0:0:0:0:
223,111,95868,1,8,0:0:0:0:
223,111,95993,1,0,0:0:0:0:
223,111,96118,1,0,0:0:0:0:
223,111,96243,1,8,0:0:0:0:
223,111,96493,1,8,0:0:0:0:
223,111,96868,1,0,0:0:0:0:
223,111,97118,1,8,0:0:0:0:
223,111,97368,1,0,0:0:0:0:
223,111,97618,1,8,0:0:0:0:
223,111,97743,1,0,0:0:0:0:
223,111,97993,1,0,0:0:0:0:
223,111,98118,1,8,0:0:0:0:
223,111,98368,1,0,0:0:0:0:
223,111,98618,1,8,0:0:0:0:
223,111,98743,1,0,0:0:0:0:
223,111,98868,1,8,0:0:0:0:
223,111,99118,1,8,0:0:0:0:
223,111,99243,1,8,0:0:0:0:
223,111,99493,1,0,0:0:0:0:
223,111,99743,1,8,0:0:0:0:
223,111,99868,1,0,0:0:0:0:
223,111,100118,1,8,0:0:0:0:
223,111,100368,1,0,0:0:0:0:
223,111,100493,1,0,0:0:0:0:
223,111,100618,1,8,0:0:0:0:
223,111,100743,1,0,0:0:0:0:
223,111,100993,1,8,0:0:0:0:
223,111,101118,1,8,0:0:0:0:
223,111,101368,1,0,0:0:0:0:
225,105,101493,1,8,0:0:0:0:
223,111,101618,1,0,0:0:0:0:
223,111,101743,1,0,0:0:0:0:
223,111,101868,1,8,0:0:0:0:
223,111,101993,1,0,0:0:0:0:
223,111,102118,1,8,0:0:0:0:
223,111,102243,1,8,0:0:0:0:
223,111,102368,1,0,0:0:0:0:
223,111,102493,1,0,0:0:0:0:
223,111,102618,1,8,0:0:0:0:
223,111,102701,1,8,0:0:0:0:
223,111,102784,1,8,0:0:0:0:
220,155,102868,1,0,0:0:0:0:
220,155,103118,1,8,0:0:0:0:
224,153,103243,1,0,0:0:0:0:
220,155,103368,1,8,0:0:0:0:
223,111,103430,1,8,0:0:0:0:
224,152,103493,1,0,0:0:0:0:
220,155,103618,1,8,0:0:0:0:
220,155,103743,1,0,0:0:0:0:
220,151,103805,1,0,0:0:0:0:
220,150,103868,1,0,0:0:0:0:
220,155,103993,1,0,0:0:0:0:
224,152,104118,1,8,0:0:0:0:
224,152,104243,1,8,0:0:0:0:
64,160,104368,1,0,0:0:0:0:
220,155,104618,1,8,0:0:0:0:
219,144,104743,1,0,0:0:0:0:
218,139,104805,1,0,0:0:0:0:
217,137,104868,1,8,0:0:0:0:
219,144,104993,1,0,0:0:0:0:
219,144,105118,1,8,0:0:0:0:
219,144,105243,1,8,0:0:0:0:
217,142,105305,1,8,0:0:0:0:
217,138,105368,1,0,0:0:0:0:
223,150,105493,1,0,0:0:0:0:
224,128,105618,1,8,0:0:0:0:
221,121,105743,1,8,0:0:0:0:
223,145,105868,1,0,0:0:0:0:
223,135,106118,1,8,0:0:0:0:
223,130,106243,1,0,0:0:0:0:
223,124,106368,1,8,0:0:0:0:
223,124,106430,1,0,0:0:0:0:
223,117,106493,1,8,0:0:0:0:
223,117,106618,1,0,0:0:0:0:
223,117,106743,1,8,0:0:0:0:
223,117,106868,1,0,0:0:0:0:
223,124,106930,1,0,0:0:0:0:
223,111,106993,1,8,0:0:0:0:
220,106,107118,1,0,0:0:0:0:
223,111,107243,1,8,0:0:0:0:
223,111,107368,1,0,0:0:0:0:
223,111,107618,1,8,0:0:0:0:
220,105,107743,1,0,0:0:0:0:
223,117,107805,1,0,0:0:0:0:
223,111,107868,1,8,0:0:0:0:
220,106,107993,1,0,0:0:0:0:
220,106,108118,1,8,0:0:0:0:
223,111,108243,1,8,0:0:0:0:
223,111,108305,1,8,0:0:0:0:
220,106,108368,1,8,0:0:0:0:
223,111,108493,1,0,0:0:0:0:
220,106,108618,1,8,0:0:0:0:
220,106,108743,1,8,0:0:0:0:
220,155,108868,1,0,0:0:0:0:
220,155,109118,1,8,0:0:0:0:
224,153,109243,1,0,0:0:0:0:
223,111,109305,1,0,0:0:0:0:
220,155,109368,1,8,0:0:0:0:
224,152,109493,1,0,0:0:0:0:
220,155,109618,1,8,0:0:0:0:
220,155,109743,1,8,0:0:0:0:
220,151,109805,1,0,0:0:0:0:
220,150,109868,1,8,0:0:0:0:
220,155,109993,1,0,0:0:0:0:
224,152,110118,1,8,0:0:0:0:
224,152,110243,1,8,0:0:0:0:
64,160,110368,1,0,0:0:0:0:
220,155,110618,1,8,0:0:0:0:
219,144,110743,1,8,0:0:0:0:
218,139,110805,1,8,0:0:0:0:
217,137,110868,1,0,0:0:0:0:
219,144,110993,1,0,0:0:0:0:
219,144,111118,1,8,0:0:0:0:
219,144,111243,1,0,0:0:0:0:
217,142,111305,1,8,0:0:0:0:
217,138,111368,1,0,0:0:0:0:
223,150,111493,1,0,0:0:0:0:
224,128,111618,1,8,0:0:0:0:
221,121,111743,1,8,0:0:0:0:
223,145,111868,1,0,0:0:0:0:
223,135,112118,1,8,0:0:0:0:
223,130,112243,1,0,0:0:0:0:
223,124,112368,1,8,0:0:0:0:
223,124,112430,1,8,0:0:0:0:
223,117,112493,1,0,0:0:0:0:
223,117,112618,1,8,0:0:0:0:
223,117,112743,1,0,0:0:0:0:
223,117,112868,1,8,0:0:0:0:
223,124,112930,1,0,0:0:0:0:
223,111,112993,1,8,0:0:0:0:
220,106,113118,1,0,0:0:0:0:
223,111,113243,1,0,0:0:0:0:
223,111,113368,1,8,0:0:0:0:
223,111,113430,1,8,0:0:0:0:
223,117,113493,1,0,0:0:0:0:
223,111,113618,1,8,0:0:0:0:
220,112,113680,1,0,0:0:0:0:
220,105,113743,1,8,0:0:0:0:
223,117,113805,1,8,0:0:0:0:
223,111,113868,1,0,0:0:0:0:
226,110,113930,1,0,0:0:0:0:
220,106,113993,1,8,0:0:0:0:
220,106,114118,1,0,0:0:0:0:
240,117,114618,1,0,0:0:0:0:
240,117,114868,1,0,0:0:0:0:
240,117,115118,1,8,0:0:0:0:
217,63,115368,1,4,0:0:0:0:
213,160,115618,1,8,0:0:0:0:
213,151,115743,1,0,0:0:0:0:
213,151,115805,1,0,0:0:0:0:
213,151,115868,1,8,0:0:0:0:
213,151,115993,1,0,0:0:0:0:
213,151,116118,1,8,0:0:0:0:
213,151,116243,1,8,0:0:0:0:
213,151,116305,1,8,0:0:0:0:
213,151,116368,1,0,0:0:0:0:
213,151,116493,1,0,0:0:0:0:
213,151,116618,1,8,0:0:0:0:
204,124,116680,1,0,0:0:0:0:
213,151,116743,1,8,0:0:0:0:
213,151,116805,1,8,0:0:0:0:
213,151,116868,1,0,0:0:0:0:
213,151,116993,1,0,0:0:0:0:
213,151,117118,1,8,0:0:0:0:
213,151,117243,1,0,0:0:0:0:
208,128,117305,1,0,0:0:0:0:
227,119,117368,1,8,0:0:0:0:
227,119,117618,1,8,0:0:0:0:
227,119,117743,1,0,0:0:0:0:
227,119,117805,1,0,0:0:0:0:
227,119,117868,1,8,0:0:0:0:
227,119,117993,1,0,0:0:0:0:
227,119,118118,1,8,0:0:0:0:
208,128,118243,1,0,0:0:0:0:
227,119,118305,1,8,0:0:0:0:
227,119,118368,1,0,0:0:0:0:
227,119,118493,1,0,0:0:0:0:
227,119,118618,1,8,0:0:0:0:
227,119,118743,1,8,0:0:0:0:
227,119,118805,1,8,0:0:0:0:
227,119,118868,1,0,0:0:0:0:
227,119,118930,1,0,0:0:0:0:
227,119,118993,1,0,0:0:0:0:
208,128,119118,1,8,0:0:0:0:
227,119,119243,1,0,0:0:0:0:
227,119,119305,1,0,0:0:0:0:
227,119,119368,1,8,0:0:0:0:
227,119,119618,1,8,0:0:0:0:
227,119,119743,1,0,0:0:0:0:
227,119,119805,1,8,0:0:0:0:
227,119,119868,1,0,0:0:0:0:
227,119,119993,1,0,0:0:0:0:
227,119,120118,1,8,0:0:0:0:
227,119,120243,1,0,0:0:0:0:
227,119,120305,1,0,0:0:0:0:
213,109,120368,1,8,0:0:0:0:
213,109,120493,1,0,0:0:0:0:
213,109,120618,1,8,0:0:0:0:
213,109,120743,1,8,0:0:0:0:
213,109,120805,1,8,0:0:0:0:
213,109,120868,1,8,0:0:0:0:
213,109,120993,1,0,0:0:0:0:
213,109,121118,1,8,0:0:0:0:
218,75,121243,1,0,0:0:0:0:
218,75,121305,1,0,0:0:0:0:
218,75,121368,1,8,0:0:0:0:
213,109,121430,1,8,0:0:0:0:
213,109,121493,1,0,0:0:0:0:
213,109,121618,1,8,0:0:0:0:
213,109,121743,1,0,0:0:0:0:
213,109,121805,1,0,0:0:0:0:
213,109,121868,1,8,0:0:0:0:
213,109,121993,1,0,0:0:0:0:
218,75,122118,1,8,0:0:0:0:
218,75,122180,1,0,0:0:0:0:
218,75,122243,1,8,0:0:0:0:
213,109,122368,1,0,0:0:0:0:
213,109,122493,1,0,0:0:0:0:
223,95,122555,1,0,0:0:0:0:
213,109,122618,1,8,0:0:0:0:
218,75,122743,1,0,0:0:0:0:
218,75,122868,1,8,0:0:0:0:
218,75,122930,1,8,0:0:0:0:
218,75,122993,1,0,0:0:0:0:
218,75,123055,1,0,0:0:0:0:
218,75,123118,1,8,0:0:0:0:
218,75,123180,1,0,0:0:0:0:
218,75,123243,1,8,0:0:0:0:
217,63,123368,1,4,0:0:0:0:
213,160,123618,1,8,0:0:0:0:
213,150,123743,1,0,0:0:0:0:
214,147,123805,1,0,0:0:0:0:
213,151,123868,1,8,0:0:0:0:
213,148,123930,1,8,0:0:0:0:
213,151,123993,1,0,0:0:0:0:
213,151,124118,1,8,0:0:0:0:
213,151,124243,1,0,0:0:0:0:
212,147,124305,1,0,0:0:0:0:
185,124,124368,1,0,0:0:0:0:
213,151,124493,1,0,0:0:0:0:
213,151,124618,1,8,0:0:0:0:
213,151,124743,1,8,0:0:0:0:
213,151,124805,1,8,0:0:0:0:
213,151,124868,1,0,0:0:0:0:
213,151,124993,1,8,0:0:0:0:
213,151,125118,1,0,0:0:0:0:
212,131,125180,1,0,0:0:0:0:
213,151,125243,1,8,0:0:0:0:
227,119,125368,1,0,0:0:0:0:
227,119,125618,1,8,0:0:0:0:
227,119,125743,1,0,0:0:0:0:
227,112,125805,1,0,0:0:0:0:
227,119,125868,1,8,0:0:0:0:
227,119,125993,1,0,0:0:0:0:
227,119,126118,1,8,0:0:0:0:
208,128,126243,1,0,0:0:0:0:
227,112,126305,1,8,0:0:0:0:
227,119,126368,1,0,0:0:0:0:
227,119,126493,1,0,0:0:0:0:
227,119,126618,1,8,0:0:0:0:
227,112,126680,1,8,0:0:0:0:
227,119,126743,1,8,0:0:0:0:
227,119,126805,1,8,0:0:0:0:
227,119,126868,1,0,0:0:0:0:
227,119,126993,1,0,0:0:0:0:
208,128,127118,1,8,0:0:0:0:
227,119,127243,1,0,0:0:0:0:
227,119,127305,1,0,0:0:0:0:
227,119,127368,1,8,0:0:0:0:
227,119,127618,1,8,0:0:0:0:
227,119,127743,1,0,0:0:0:0:
227,119,127805,1,0,0:0:0:0:
227,119,127868,1,8,0:0:0:0:
227,119,127993,1,0,0:0:0:0:
227,119,128118,1,8,0:0:0:0:
227,119,128243,1,0,0:0:0:0:
227,119,128305,1,8,0:0:0:0:
213,109,128368,1,0,0:0:0:0:
213,109,128493,1,0,0:0:0:0:
213,109,128618,1,8,0:0:0:0:
213,109,128743,1,8,0:0:0:0:
213,109,128805,1,8,0:0:0:0:
213,109,128868,1,0,0:0:0:0:
213,109,128993,1,0,0:0:0:0:
213,109,129118,1,8,0:0:0:0:
218,75,129180,1,0,0:0:0:0:
218,75,129243,1,0,0:0:0:0:
218,75,129305,1,0,0:0:0:0:
218,75,129368,1,8,0:0:0:0:
213,109,129618,1,8,0:0:0:0:
213,109,129743,1,0,0:0:0:0:
218,75,129805,1,0,0:0:0:0:
213,109,129868,1,8,0:0:0:0:
213,109,129930,1,8,0:0:0:0:
218,75,129993,1,0,0:0:0:0:
218,75,130118,1,8,0:0:0:0:
218,75,130243,1,0,0:0:0:0:
213,109,130368,1,8,0:0:0:0:
218,75,130430,1,0,0:0:0:0:
218,75,130493,1,8,0:0:0:0:
213,109,130618,1,0,0:0:0:0:
218,75,130743,1,8,0:0:0:0:
213,109,130868,1,0,0:0:0:0:
213,109,130930,1,0,0:0:0:0:
218,75,130993,1,0,0:0:0:0:
218,75,131055,1,0,0:0:0:0:
218,75,131118,1,8,0:0:0:0:
213,109,131243,1,0,0:0:0:0:
249,177,131368,1,12,0:0:0:0:
213,109,131493,1,12,0:0:0:0:
216,112,131618,1,12,0:0:0:0:
216,112,131743,1,12,0:0:0:0:
249,177,132118,1,4,0:0:0:0:
249,177,132243,1,4,0:0:0:0:
249,177,132368,1,4,0:0:0:0:
249,177,132493,1,4,0:0:0:0:
249,177,132868,1,4,0:0:0:0:
249,177,132993,1,4,0:0:0:0:
249,177,133118,1,12,0:0:0:0:
249,177,133243,1,12,0:0:0:0:
249,177,133618,1,12,0:0:0:0:
249,177,133743,1,12,0:0:0:0:
249,177,133868,1,4,0:0:0:0:
249,177,133993,1,4,0:0:0:0:
249,177,134368,1,12,0:0:0:0:
249,177,134493,1,12,0:0:0:0:
249,177,134618,1,12,0:0:0:0:
249,177,134743,1,12,0:0:0:0:
249,177,135118,1,4,0:0:0:0:
249,177,135243,1,4,0:0:0:0:
249,177,135368,1,4,0:0:0:0:
249,177,135493,1,4,0:0:0:0:
249,177,135868,1,4,0:0:0:0:
249,177,135993,1,4,0:0:0:0:
249,177,136118,1,12,0:0:0:0:
249,177,136243,1,12,0:0:0:0:
249,177,136618,1,12,0:0:0:0:
249,177,136743,1,12,0:0:0:0:
249,177,136868,1,4,0:0:0:0:
249,177,136993,1,4,0:0:0:0:
249,177,137118,1,12,0:0:0:0:
249,177,137243,1,12,0:0:0:0:
249,177,137368,1,4,0:0:0:0:
242,163,137493,1,0,0:0:0:0:
249,177,137618,1,8,0:0:0:0:
249,177,137743,1,8,0:0:0:0:
249,177,137868,1,0,0:0:0:0:
249,177,137993,1,8,0:0:0:0:
249,177,138118,1,0,0:0:0:0:
249,177,138243,1,0,0:0:0:0:
249,177,138368,1,8,0:0:0:0:
249,177,138493,1,0,0:0:0:0:
249,177,138618,1,0,0:0:0:0:
249,177,138743,1,8,0:0:0:0:
249,177,138868,1,8,0:0:0:0:
249,177,138993,1,0,0:0:0:0:
249,177,139118,1,8,0:0:0:0:
249,177,139243,1,8,0:0:0:0:
249,177,139368,1,0,0:0:0:0:
249,177,139493,1,8,0:0:0:0:
249,177,139618,1,0,0:0:0:0:
249,177,139743,1,0,0:0:0:0:
249,177,139868,1,8,0:0:0:0:
256,192,139993,1,4,0:0:0:0:
256,192,140157,1,4,0:0:0:0:
256,192,140322,1,4,0:0:0:0:
256,192,140487,1,4,0:0:0:0:
256,192,140652,1,4,0:0:0:0:
256,192,140816,1,4,0:0:0:0:
256,192,140981,1,4,0:0:0:0:
256,192,141146,1,4,0:0:0:0:
256,192,141311,1,4,0:0:0:0:
256,192,141475,1,4,0:0:0:0:
256,192,141640,1,4,0:0:0:0:
256,192,141804,1,4,0:0:0:0:
256,192,143993,1,4,0:0:0:0:
256,192,144368,1,8,0:0:0:0:
256,192,144493,1,8,0:0:0:0:
256,192,144868,1,0,0:0:0:0:
256,192,145118,1,0,0:0:0:0:
256,192,145368,1,0,0:0:0:0:
256,192,145618,1,0,0:0:0:0:
252,196,145743,1,8,0:0:0:0:
256,192,145993,1,0,0:0:0:0:
256,192,146368,1,8,0:0:0:0:
256,192,146493,1,8,0:0:0:0:
256,192,146743,1,0,0:0:0:0:
256,192,146868,1,0,0:0:0:0:
256,192,147118,1,0,0:0:0:0:
256,192,147243,1,0,0:0:0:0:
256,192,147368,1,8,0:0:0:0:
256,192,147618,1,8,0:0:0:0:
256,192,147743,1,0,0:0:0:0:
245,194,147993,1,8,0:0:0:0:
245,194,148243,1,0,0:0:0:0:
240,195,148368,1,8,0:0:0:0:
240,195,148618,1,0,0:0:0:0:
240,195,148868,1,8,0:0:0:0:
230,198,149118,1,0,0:0:0:0:
240,195,149243,1,8,0:0:0:0:
230,198,149368,1,8,0:0:0:0:
230,198,149493,1,0,0:0:0:0:
230,198,149743,1,8,0:0:0:0:
220,201,149993,1,0,0:0:0:0:
220,201,150243,1,8,0:0:0:0:
220,201,150368,1,0,0:0:0:0:
230,198,150493,1,8,0:0:0:0:
220,201,150743,1,8,0:0:0:0:
220,201,150868,1,0,0:0:0:0:
220,201,151118,1,0,0:0:0:0:
216,204,151243,1,8,0:0:0:0:
212,206,151368,1,0,0:0:0:0:
207,211,151493,1,8,0:0:0:0:
207,211,151618,1,0,0:0:0:0:
207,211,151743,1,8,0:0:0:0:
206,207,151805,1,0,0:0:0:0:
206,207,151868,1,8,0:0:0:0:
213,151,151993,1,4,0:0:0:0:
213,151,152243,1,8,0:0:0:0:
213,151,152368,1,0,0:0:0:0:
213,151,152493,1,8,0:0:0:0:
213,151,152618,1,8,0:0:0:0:
213,151,152743,1,0,0:0:0:0:
213,151,152868,1,8,0:0:0:0:
213,151,153118,1,0,0:0:0:0:
213,151,153243,1,8,0:0:0:0:
213,151,153368,1,0,0:0:0:0:
213,151,153430,1,0,0:0:0:0:
213,151,153493,1,8,0:0:0:0:
213,151,153618,1,0,0:0:0:0:
213,151,153743,1,8,0:0:0:0:
213,151,153868,1,8,0:0:0:0:
213,151,153993,1,0,0:0:0:0:
213,151,154243,1,8,0:0:0:0:
213,151,154368,1,8,0:0:0:0:
213,151,154493,1,0,0:0:0:0:
213,151,154618,1,0,0:0:0:0:
213,151,154743,1,8,0:0:0:0:
213,151,154868,1,0,0:0:0:0:
213,151,154993,1,8,0:0:0:0:
213,151,155243,1,8,0:0:0:0:
213,151,155368,1,8,0:0:0:0:
213,151,155493,1,0,0:0:0:0:
213,151,155618,1,8,0:0:0:0:
207,130,155680,1,0,0:0:0:0:
213,151,155743,1,8,0:0:0:0:
213,151,155868,1,8,0:0:0:0:
213,151,155993,1,0,0:0:0:0:
213,151,156243,1,8,0:0:0:0:
213,151,156368,1,0,0:0:0:0:
213,151,156493,1,0,0:0:0:0:
213,151,156618,1,8,0:0:0:0:
213,151,156743,1,0,0:0:0:0:
213,151,156868,1,8,0:0:0:0:
213,151,156993,1,0,0:0:0:0:
213,151,157243,1,8,0:0:0:0:
213,151,157368,1,0,0:0:0:0:
213,151,157493,1,8,0:0:0:0:
213,151,157618,1,0,0:0:0:0:
214,138,157680,1,0,0:0:0:0:
213,151,157743,1,8,0:0:0:0:
213,151,157868,1,8,0:0:0:0:
213,151,157993,1,4,0:0:0:0:
254,146,158118,1,0,0:0:0:0:
254,146,158243,1,0,0:0:0:0:
213,151,158368,1,12,0:0:0:0:
223,148,158493,1,8,0:0:0:0:
223,148,158618,1,8,0:0:0:0:
213,151,158743,1,4,0:0:0:0:
254,137,158868,1,0,0:0:0:0:
254,137,158993,1,0,0:0:0:0:
213,151,159118,1,12,0:0:0:0:
254,137,159243,1,8,0:0:0:0:
254,137,159368,1,8,0:0:0:0:
213,151,159493,1,4,0:0:0:0:
254,137,159618,1,0,0:0:0:0:
254,137,159743,1,0,0:0:0:0:
213,151,159868,1,12,0:0:0:0:
254,137,159993,1,8,0:0:0:0:
254,137,160118,1,8,0:0:0:0:
214,129,160243,1,4,0:0:0:0:
254,137,160368,1,0,0:0:0:0:
254,137,160493,1,0,0:0:0:0:
214,129,160618,1,12,0:0:0:0:
254,137,160743,1,8,0:0:0:0:
254,137,160868,1,8,0:0:0:0:
214,129,160993,1,0,0:0:0:0:
214,129,161055,1,0,0:0:0:0:
214,129,161118,1,8,0:0:0:0:
214,129,161243,1,0,0:0:0:0:
214,129,161368,1,8,0:0:0:0:
216,124,161430,1,8,0:0:0:0:
214,129,161493,1,0,0:0:0:0:
216,124,161618,1,8,0:0:0:0:
222,124,161743,1,0,0:0:0:0:
225,124,161805,1,0,0:0:0:0:
228,124,161868,1,8,0:0:0:0:
232,124,161930,1,8,0:0:0:0:
235,124,161993,1,0,0:0:0:0:
235,124,162118,1,8,0:0:0:0:
225,124,162180,1,8,0:0:0:0:
235,124,162243,1,0,0:0:0:0:
225,124,162305,1,0,0:0:0:0:
225,124,162368,1,8,0:0:0:0:
225,124,162430,1,8,0:0:0:0:
248,175,163493,1,0,0:0:0:0:
248,175,163743,1,8,0:0:0:0:
248,175,163868,1,0,0:0:0:0:
248,175,163993,1,8,0:0:0:0:
248,175,164118,1,0,0:0:0:0:
248,175,164368,1,8,0:0:0:0:
248,175,164493,1,0,0:0:0:0:
248,175,164618,1,0,0:0:0:0:
248,175,164743,1,8,0:0:0:0:
248,175,164868,1,8,0:0:0:0:
248,175,164993,1,0,0:0:0:0:
235,175,165243,1,0,0:0:0:0:
235,175,165368,1,8,0:0:0:0:
235,175,165493,1,0,0:0:0:0:
248,175,165743,1,8,0:0:0:0:
248,175,165868,1,0,0:0:0:0:
248,175,165993,1,8,0:0:0:0:
235,175,166118,1,0,0:0:0:0:
235,175,166368,1,8,0:0:0:0:
235,175,166493,1,0,0:0:0:0:
248,175,166618,1,0,0:0:0:0:
248,175,166743,1,8,0:0:0:0:
248,175,166868,1,0,0:0:0:0:
248,175,166993,1,8,0:0:0:0:
235,175,167243,1,0,0:0:0:0:
235,175,167368,1,8,0:0:0:0:
235,175,167493,1,0,0:0:0:0:
235,175,167743,1,8,0:0:0:0:
235,175,167868,1,0,0:0:0:0:
235,175,167993,1,8,0:0:0:0:
235,175,168118,1,0,0:0:0:0:
235,175,168368,1,8,0:0:0:0:
191,175,168493,1,0,0:0:0:0:
191,175,168618,1,8,0:0:0:0:
191,175,168868,1,0,0:0:0:0:
191,175,168993,1,8,0:0:0:0:
191,175,169118,1,0,0:0:0:0:
191,175,169368,1,8,0:0:0:0:
232,148,169493,1,0,0:0:0:0:
191,175,169618,1,8,0:0:0:0:
191,175,169743,1,0,0:0:0:0:
191,175,169868,1,0,0:0:0:0:
191,175,169993,1,8,0:0:0:0:
191,175,170243,1,8,0:0:0:0:
191,175,170493,1,0,0:0:0:0:
191,175,170743,1,8,0:0:0:0:
191,175,170868,1,0,0:0:0:0:
191,175,170993,1,8,0:0:0:0:
191,173,171118,1,0,0:0:0:0:
191,170,171180,1,0,0:0:0:0:
191,175,171243,1,8,0:0:0:0:
191,172,171305,1,8,0:0:0:0:
191,175,171368,1,0,0:0:0:0:
217,63,171493,1,12,0:0:0:0:
213,160,171743,1,8,0:0:0:0:
213,151,171868,1,0,0:0:0:0:
213,151,171993,1,8,0:0:0:0:
213,151,172118,1,8,0:0:0:0:
207,130,172180,1,0,0:0:0:0:
213,151,172243,1,8,0:0:0:0:
213,151,172368,1,0,0:0:0:0:
185,124,172493,1,8,0:0:0:0:
213,151,172618,1,0,0:0:0:0:
205,127,172680,1,0,0:0:0:0:
213,151,172743,1,8,0:0:0:0:
213,151,172868,1,8,0:0:0:0:
213,151,172930,1,8,0:0:0:0:
213,151,172993,1,0,0:0:0:0:
213,151,173118,1,8,0:0:0:0:
213,151,173243,1,8,0:0:0:0:
212,131,173305,1,0,0:0:0:0:
213,151,173368,1,8,0:0:0:0:
208,128,173430,1,8,0:0:0:0:
227,119,173493,1,0,0:0:0:0:
227,119,173743,1,8,0:0:0:0:
227,119,173868,1,0,0:0:0:0:
227,119,173993,1,8,0:0:0:0:
227,119,174118,1,0,0:0:0:0:
227,112,174180,1,0,0:0:0:0:
227,119,174243,1,8,0:0:0:0:
208,128,174368,1,0,0:0:0:0:
227,112,174430,1,8,0:0:0:0:
227,119,174493,1,0,0:0:0:0:
227,119,174618,1,0,0:0:0:0:
227,119,174743,1,8,0:0:0:0:
227,112,174805,1,0,0:0:0:0:
227,119,174868,1,8,0:0:0:0:
227,119,174930,1,8,0:0:0:0:
227,119,174993,1,8,0:0:0:0:
227,119,175118,1,0,0:0:0:0:
208,128,175243,1,8,0:0:0:0:
227,119,175368,1,0,0:0:0:0:
227,119,175430,1,0,0:0:0:0:
227,119,175493,1,8,0:0:0:0:
227,119,175743,1,8,0:0:0:0:
227,119,175868,1,0,0:0:0:0:
227,119,175930,1,0,0:0:0:0:
227,119,175993,1,8,0:0:0:0:
227,119,176118,1,0,0:0:0:0:
227,119,176243,1,8,0:0:0:0:
227,119,176368,1,8,0:0:0:0:
227,119,176430,1,8,0:0:0:0:
213,109,176493,1,0,0:0:0:0:
213,109,176618,1,0,0:0:0:0:
213,109,176743,1,8,0:0:0:0:
213,109,176868,1,8,0:0:0:0:
213,109,176930,1,8,0:0:0:0:
213,109,176993,1,8,0:0:0:0:
227,119,177055,1,8,0:0:0:0:
213,109,177118,1,0,0:0:0:0:
213,109,177243,1,8,0:0:0:0:
218,75,177368,1,0,0:0:0:0:
218,75,177430,1,0,0:0:0:0:
218,75,177493,1,8,0:0:0:0:
213,109,177618,1,0,0:0:0:0:
213,109,177743,1,8,0:0:0:0:
213,109,177868,1,0,0:0:0:0:
213,109,177930,1,0,0:0:0:0:
213,109,177993,1,8,0:0:0:0:
227,119,178055,1,8,0:0:0:0:
213,109,178118,1,0,0:0:0:0:
211,104,178243,1,8,0:0:0:0:
218,75,178368,1,8,0:0:0:0:
213,109,178493,1,0,0:0:0:0:
213,109,178618,1,0,0:0:0:0:
218,75,178680,1,0,0:0:0:0:
213,109,178743,1,8,0:0:0:0:
218,75,178868,1,0,0:0:0:0:
218,75,178993,1,8,0:0:0:0:
218,75,179055,1,8,0:0:0:0:
218,75,179118,1,0,0:0:0:0:
218,75,179180,1,0,0:0:0:0:
218,75,179243,1,8,0:0:0:0:
218,75,179305,1,0,0:0:0:0:
218,75,179368,1,8,0:0:0:0:
217,63,179493,1,4,0:0:0:0:
213,160,179743,1,8,0:0:0:0:
213,151,179868,1,0,0:0:0:0:
213,151,179930,1,0,0:0:0:0:
213,151,179993,1,8,0:0:0:0:
213,151,180118,1,0,0:0:0:0:
213,151,180243,1,8,0:0:0:0:
213,151,180368,1,8,0:0:0:0:
213,151,180430,1,8,0:0:0:0:
213,151,180493,1,0,0:0:0:0:
213,151,180618,1,0,0:0:0:0:
213,151,180743,1,8,0:0:0:0:
204,124,180805,1,0,0:0:0:0:
213,151,180868,1,8,0:0:0:0:
213,151,180930,1,8,0:0:0:0:
213,151,180993,1,0,0:0:0:0:
213,151,181118,1,0,0:0:0:0:
213,151,181243,1,8,0:0:0:0:
213,151,181368,1,0,0:0:0:0:
208,128,181430,1,0,0:0:0:0:
227,119,181493,1,8,0:0:0:0:
224,112,181618,1,0,0:0:0:0:
227,119,181743,1,8,0:0:0:0:
227,119,181868,1,0,0:0:0:0:
227,119,181930,1,0,0:0:0:0:
227,119,181993,1,8,0:0:0:0:
224,112,182055,1,8,0:0:0:0:
227,119,182118,1,0,0:0:0:0:
227,119,182243,1,8,0:0:0:0:
208,128,182368,1,0,0:0:0:0:
227,119,182430,1,8,0:0:0:0:
227,119,182493,1,0,0:0:0:0:
227,119,182618,1,0,0:0:0:0:
227,119,182743,1,8,0:0:0:0:
227,119,182868,1,8,0:0:0:0:
227,119,182930,1,8,0:0:0:0:
227,119,182993,1,0,0:0:0:0:
227,119,183055,1,0,0:0:0:0:
227,119,183118,1,0,0:0:0:0:
208,128,183243,1,8,0:0:0:0:
227,119,183368,1,0,0:0:0:0:
227,119,183430,1,0,0:0:0:0:
227,119,183493,1,8,0:0:0:0:
227,119,183743,1,8,0:0:0:0:
227,119,183868,1,0,0:0:0:0:
227,119,183930,1,8,0:0:0:0:
227,119,183993,1,0,0:0:0:0:
227,119,184118,1,0,0:0:0:0:
227,119,184243,1,8,0:0:0:0:
227,119,184368,1,8,0:0:0:0:
227,119,184430,1,8,0:0:0:0:
213,109,184493,1,0,0:0:0:0:
227,119,184618,1,0,0:0:0:0:
227,119,184680,1,0,0:0:0:0:
213,109,184743,1,8,0:0:0:0:
213,109,184868,1,8,0:0:0:0:
213,109,184930,1,8,0:0:0:0:
213,109,184993,1,0,0:0:0:0:
213,109,185118,1,0,0:0:0:0:
213,109,185243,1,8,0:0:0:0:
218,75,185368,1,0,0:0:0:0:
218,75,185430,1,0,0:0:0:0:
218,75,185493,1,8,0:0:0:0:
213,109,185555,1,0,0:0:0:0:
213,109,185618,1,0,0:0:0:0:
213,109,185743,1,8,0:0:0:0:
213,109,185868,1,0,0:0:0:0:
213,109,185930,1,0,0:0:0:0:
213,109,185993,1,8,0:0:0:0:
213,109,186118,1,0,0:0:0:0:
218,75,186243,1,8,0:0:0:0:
218,75,186305,1,8,0:0:0:0:
218,75,186368,1,8,0:0:0:0:
213,109,186493,1,0,0:0:0:0:
213,109,186618,1,0,0:0:0:0:
223,95,186680,1,0,0:0:0:0:
213,109,186743,1,8,0:0:0:0:
218,75,186805,1,8,0:0:0:0:
218,75,186868,1,0,0:0:0:0:
218,75,186930,1,0,0:0:0:0:
218,75,186993,1,8,0:0:0:0:
218,75,187118,1,0,0:0:0:0:
218,75,187243,1,8,0:0:0:0:
218,75,187305,1,0,0:0:0:0:
218,75,187368,1,8,0:0:0:0:
217,63,187493,1,4,0:0:0:0:
213,160,187743,1,8,0:0:0:0:
213,151,187868,1,0,0:0:0:0:
213,151,187993,1,8,0:0:0:0:
213,151,188118,1,8,0:0:0:0:
207,130,188180,1,0,0:0:0:0:
213,151,188243,1,8,0:0:0:0:
213,151,188368,1,0,0:0:0:0:
185,124,188493,1,8,0:0:0:0:
185,120,188555,1,8,0:0:0:0:
213,151,188618,1,0,0:0:0:0:
205,127,188680,1,0,0:0:0:0:
213,151,188743,1,8,0:0:0:0:
213,151,188868,1,8,0:0:0:0:
213,151,188930,1,8,0:0:0:0:
213,151,188993,1,0,0:0:0:0:
213,151,189118,1,8,0:0:0:0:
213,151,189243,1,0,0:0:0:0:
212,131,189305,1,0,0:0:0:0:
213,151,189368,1,8,0:0:0:0:
208,128,189430,1,8,0:0:0:0:
227,119,189493,1,0,0:0:0:0:
205,127,189618,1,0,0:0:0:0:
227,119,189743,1,8,0:0:0:0:
212,131,189805,1,8,0:0:0:0:
227,119,189868,1,0,0:0:0:0:
227,119,189993,1,8,0:0:0:0:
227,119,190118,1,0,0:0:0:0:
227,112,190180,1,0,0:0:0:0:
227,119,190243,1,8,0:0:0:0:
208,128,190368,1,0,0:0:0:0:
227,112,190430,1,8,0:0:0:0:
227,119,190493,1,0,0:0:0:0:
227,119,190618,1,0,0:0:0:0:
227,119,190743,1,8,0:0:0:0:
227,112,190805,1,8,0:0:0:0:
227,119,190868,1,8,0:0:0:0:
227,119,190930,1,8,0:0:0:0:
227,119,190993,1,0,0:0:0:0:
227,119,191118,1,0,0:0:0:0:
208,128,191243,1,8,0:0:0:0:
227,119,191368,1,0,0:0:0:0:
227,119,191430,1,0,0:0:0:0:
227,119,191493,1,8,0:0:0:0:
227,119,191743,1,8,0:0:0:0:
227,119,191868,1,0,0:0:0:0:
227,119,191930,1,0,0:0:0:0:
227,119,191993,1,8,0:0:0:0:
227,119,192055,1,8,0:0:0:0:
227,119,192118,1,0,0:0:0:0:
227,119,192243,1,8,0:0:0:0:
227,119,192368,1,0,0:0:0:0:
227,119,192430,1,8,0:0:0:0:
213,109,192493,1,0,0:0:0:0:
213,109,192618,1,0,0:0:0:0:
213,109,192743,1,8,0:0:0:0:
213,109,192868,1,8,0:0:0:0:
213,109,192930,1,8,0:0:0:0:
213,109,192993,1,8,0:0:0:0:
227,119,193055,1,8,0:0:0:0:
213,109,193118,1,0,0:0:0:0:
213,109,193243,1,8,0:0:0:0:
218,75,193368,1,0,0:0:0:0:
218,75,193430,1,0,0:0:0:0:
218,75,193493,1,8,0:0:0:0:
224,71,193618,1,0,0:0:0:0:
213,109,193743,1,8,0:0:0:0:
218,75,193805,1,8,0:0:0:0:
213,109,193868,1,0,0:0:0:0:
218,75,193930,1,0,0:0:0:0:
213,109,193993,1,8,0:0:0:0:
211,112,194055,1,8,0:0:0:0:
218,75,194118,1,0,0:0:0:0:
218,75,194243,1,8,0:0:0:0:
218,75,194368,1,0,0:0:0:0:
218,75,194430,1,0,0:0:0:0:
213,109,194493,1,8,0:0:0:0:
213,109,194618,1,0,0:0:0:0:
213,109,194743,1,8,0:0:0:0:
218,75,194868,1,8,0:0:0:0:
218,75,194930,1,8,0:0:0:0:
218,75,194993,1,0,0:0:0:0:
218,75,195055,1,8,0:0:0:0:
218,75,195118,1,0,0:0:0:0:
216,72,195180,1,0,0:0:0:0:
218,75,195243,1,8,0:0:0:0:
218,75,195368,1,8,0:0:0:0:
249,177,195493,1,4,0:0:0:0:
249,177,195743,1,8,0:0:0:0:
249,177,195868,1,8,0:0:0:0:
249,177,195993,1,0,0:0:0:0:
249,177,196118,1,0,0:0:0:0:
246,154,196243,1,8,0:0:0:0:
246,154,196305,1,8,0:0:0:0:
246,154,196368,1,0,0:0:0:0:
249,177,196493,1,8,0:0:0:0:
249,177,196618,1,8,0:0:0:0:
249,177,196743,1,0,0:0:0:0:
249,177,196868,1,0,0:0:0:0:
249,177,196993,1,8,0:0:0:0:
246,154,197159,1,8,0:0:0:0:
249,177,197326,1,8,0:0:0:0:
227,126,197493,1,0,0:0:0:0:
246,154,197743,1,8,0:0:0:0:
246,154,197868,1,0,0:0:0:0:
246,154,197993,1,8,0:0:0:0:
227,126,198118,1,8,0:0:0:0:
227,126,198243,1,0,0:0:0:0:
249,177,198305,1,0,0:0:0:0:
246,154,198368,1,0,0:0:0:0:
246,154,198493,1,8,0:0:0:0:
246,154,198618,1,0,0:0:0:0:
246,154,198743,1,8,0:0:0:0:
246,154,198868,1,8,0:0:0:0:
227,126,198993,1,0,0:0:0:0:
227,126,199159,1,0,0:0:0:0:
246,154,199326,1,0,0:0:0:0:
246,154,199493,1,8,0:0:0:0:
249,177,199743,1,8,0:0:0:0:
249,177,199868,1,8,0:0:0:0:
249,177,199993,1,0,0:0:0:0:
249,177,200118,1,0,0:0:0:0:
246,154,200243,1,8,0:0:0:0:
246,154,200305,1,8,0:0:0:0:
246,154,200368,1,0,0:0:0:0:
249,177,200493,1,8,0:0:0:0:
249,177,200618,1,8,0:0:0:0:
249,177,200743,1,0,0:0:0:0:
249,177,200868,1,0,0:0:0:0:
249,177,200993,1,8,0:0:0:0:
246,154,201159,1,8,0:0:0:0:
249,177,201326,1,8,0:0:0:0:
227,126,201493,1,0,0:0:0:0:
246,154,201743,1,8,0:0:0:0:
246,154,201868,1,0,0:0:0:0:
246,154,201993,1,8,0:0:0:0:
227,126,202118,1,8,0:0:0:0:
227,126,202243,1,0,0:0:0:0:
249,177,202305,1,0,0:0:0:0:
246,154,202368,1,0,0:0:0:0:
246,154,202493,1,8,0:0:0:0:
246,154,202618,1,0,0:0:0:0:
246,154,202743,1,8,0:0:0:0:
246,154,202868,1,8,0:0:0:0:
256,192,202993,12,0,203368,0:0:0:0:
246,154,203493,5,4,0:0:0:0:
249,177,203743,1,8,0:0:0:0:
249,177,203868,1,0,0:0:0:0:
227,126,203930,1,0,0:0:0:0:
249,177,203993,1,8,0:0:0:0:
249,177,204118,1,0,0:0:0:0:
246,154,204243,1,8,0:0:0:0:
246,154,204305,1,8,0:0:0:0:
246,154,204368,1,0,0:0:0:0:
246,154,204430,1,0,0:0:0:0:
249,177,204493,1,8,0:0:0:0:
249,177,204618,1,8,0:0:0:0:
249,177,204743,1,0,0:0:0:0:
249,177,204868,1,0,0:0:0:0:
249,177,204993,1,8,0:0:0:0:
246,154,205159,1,8,0:0:0:0:
249,177,205326,1,8,0:0:0:0:
227,126,205493,1,0,0:0:0:0:
246,154,205743,1,8,0:0:0:0:
246,154,205868,1,0,0:0:0:0:
246,152,205930,1,0,0:0:0:0:
246,154,205993,1,8,0:0:0:0:
227,126,206118,1,0,0:0:0:0:
227,126,206243,1,8,0:0:0:0:
249,177,206305,1,0,0:0:0:0:
246,154,206368,1,0,0:0:0:0:
246,154,206430,1,0,0:0:0:0:
246,154,206493,1,8,0:0:0:0:
246,154,206618,1,0,0:0:0:0:
246,154,206743,1,8,0:0:0:0:
246,154,206868,1,8,0:0:0:0:
227,126,206993,1,0,0:0:0:0:
227,126,207159,1,0,0:0:0:0:
246,154,207326,1,0,0:0:0:0:
246,154,207493,1,8,0:0:0:0:
249,177,207743,1,8,0:0:0:0:
249,177,207868,1,0,0:0:0:0:
227,126,207930,1,0,0:0:0:0:
249,177,207993,1,8,0:0:0:0:
249,177,208118,1,0,0:0:0:0:
246,154,208243,1,8,0:0:0:0:
246,154,208305,1,8,0:0:0:0:
246,154,208368,1,0,0:0:0:0:
246,154,208430,1,0,0:0:0:0:
249,177,208493,1,8,0:0:0:0:
249,177,208618,1,8,0:0:0:0:
249,177,208743,1,0,0:0:0:0:
249,177,208868,1,0,0:0:0:0:
249,177,208993,1,8,0:0:0:0:
246,154,209159,1,8,0:0:0:0:
249,177,209326,1,8,0:0:0:0:
227,126,209493,1,0,0:0:0:0:
246,154,209743,1,8,0:0:0:0:
246,154,209868,1,0,0:0:0:0:
244,150,209930,1,0,0:0:0:0:
246,154,209993,1,8,0:0:0:0:
227,126,210118,1,0,0:0:0:0:
227,126,210243,1,8,0:0:0:0:
249,177,210305,1,0,0:0:0:0:
246,154,210368,1,0,0:0:0:0:
246,154,210430,1,0,0:0:0:0:
246,154,210493,1,8,0:0:0:0:
246,154,210618,1,0,0:0:0:0:
246,154,210743,1,8,0:0:0:0:
246,154,210868,1,8,0:0:0:0:
227,126,210993,1,4,0:0:0:0:
227,126,211118,1,4,0:0:0:0:
226,115,211243,1,4,0:0:0:0:
224,110,211368,1,4,0:0:0:0:
