osu file format v14

[General]
AudioFilename: audio.mp3
AudioLeadIn: 0
PreviewTime: 55479
Countdown: 0
SampleSet: None
StackLeniency: 0.7
Mode: 1
LetterboxInBreaks: 0
WidescreenStoryboard: 1

[Editor]
DistanceSpacing: 0.8
BeatDivisor: 4
GridSize: 32
TimelineZoom: 2.4

[Metadata]
Title:SAMPLING MONSTER
TitleUnicode:S∀MPLING MΘNSTER
Artist:sasakure.UK feat. Hatsune Miku
ArtistUnicode:sasakure.UK feat. 初音ミク
Creator:Diva Days
Version:Muzukashii
Source:
Tags:vocaloid 白猫プロジェクト white cat project collab infr4
BeatmapID:1480508
BeatmapSetID:699098

[Difficulty]
HPDrainRate:5
CircleSize:2
OverallDifficulty:5
ApproachRate:0
SliderMultiplier:1.4
SliderTickRate:1

[Events]
//Background and Video events
0,0,"bg.jpg",0,0
//Break Periods
//Storyboard Layer 0 (Background)
//Storyboard Layer 1 (Fail)
//Storyboard Layer 2 (Pass)
//Storyboard Layer 3 (Foreground)
//Storyboard Sound Samples

[TimingPoints]
31,413.793103448276,4,1,0,40,1,0
6651,-100,4,1,0,60,0,0
13272,-100,4,1,0,50,0,0
39755,-100,4,1,0,40,0,0
46375,-100,4,1,0,60,0,0
55479,-100,4,1,0,50,0,0
56306,-100,4,1,0,70,0,1
82789,-100,4,1,0,50,0,0
94375,-100,4,1,0,45,0,0
97686,-100,4,1,0,70,0,1
110927,-100,4,1,0,60,0,0
117548,-100,4,1,0,40,0,0

[HitObjects]
256,192,31,5,4,0:0:0:0:
256,192,444,1,8,0:0:0:0:
256,192,1065,1,0,0:0:0:0:
256,192,1479,1,8,0:0:0:0:
256,192,1893,1,8,0:0:0:0:
256,192,2513,1,0,0:0:0:0:
256,192,2927,1,8,0:0:0:0:
256,192,3341,1,0,0:0:0:0:
256,192,3755,1,8,0:0:0:0:
256,192,4375,1,0,0:0:0:0:
256,192,4789,1,8,0:0:0:0:
256,192,5203,1,8,0:0:0:0:
256,192,5824,1,8,0:0:0:0:
256,192,6237,1,8,0:0:0:0:
256,192,6651,1,4,0:0:0:0:
256,192,7065,1,8,0:0:0:0:
256,192,7272,1,0,0:0:0:0:
256,192,7686,1,0,0:0:0:0:
256,192,8099,1,8,0:0:0:0:
256,192,8306,1,0,0:0:0:0:
256,192,8720,1,8,0:0:0:0:
256,192,8927,1,8,0:0:0:0:
256,192,9134,1,0,0:0:0:0:
256,192,9548,1,8,0:0:0:0:
256,192,9962,1,0,0:0:0:0:
256,192,10375,1,8,0:0:0:0:
256,192,10582,1,0,0:0:0:0:
256,192,10996,1,0,0:0:0:0:
256,192,11410,1,8,0:0:0:0:
256,192,11617,1,0,0:0:0:0:
256,192,11824,1,0,0:0:0:0:
256,192,12031,1,8,0:0:0:0:
256,192,12134,1,8,0:0:0:0:
256,192,12237,1,8,0:0:0:0:
256,192,12444,1,0,0:0:0:0:
256,192,12651,1,8,0:0:0:0:
256,192,12858,1,8,0:0:0:0:
256,192,13065,1,8,0:0:0:0:
256,192,13272,1,4,0:0:0:0:
256,192,13686,1,8,0:0:0:0:
256,192,14099,1,0,0:0:0:0:
256,192,14513,1,8,0:0:0:0:
256,192,14720,1,8,0:0:0:0:
256,192,14927,1,0,0:0:0:0:
256,192,15341,1,8,0:0:0:0:
256,192,15755,1,0,0:0:0:0:
256,192,15962,1,0,0:0:0:0:
256,192,16168,1,8,0:0:0:0:
256,192,16375,1,8,0:0:0:0:
256,192,16582,1,0,0:0:0:0:
256,192,16996,1,8,0:0:0:0:
256,192,17410,1,0,0:0:0:0:
256,192,17824,1,8,0:0:0:0:
256,192,18031,1,8,0:0:0:0:
256,192,18237,1,0,0:0:0:0:
256,192,18651,1,8,0:0:0:0:
256,192,19065,1,0,0:0:0:0:
256,192,19272,1,8,0:0:0:0:
256,192,19686,1,8,0:0:0:0:
256,192,19893,1,4,0:0:0:0:
256,192,20306,1,8,0:0:0:0:
256,192,20720,1,0,0:0:0:0:
256,192,21134,1,8,0:0:0:0:
256,192,21341,1,8,0:0:0:0:
256,192,21548,1,0,0:0:0:0:
256,192,21962,1,8,0:0:0:0:
256,192,22375,1,0,0:0:0:0:
256,192,22582,1,0,0:0:0:0:
256,192,22789,1,8,0:0:0:0:
256,192,22996,1,8,0:0:0:0:
256,192,23203,1,0,0:0:0:0:
256,192,23617,1,8,0:0:0:0:
256,192,24031,1,0,0:0:0:0:
256,192,24444,1,8,0:0:0:0:
256,192,24651,1,8,0:0:0:0:
256,192,24858,1,0,0:0:0:0:
256,192,25272,1,8,0:0:0:0:
256,192,25686,1,0,0:0:0:0:
256,192,25893,1,8,0:0:0:0:
256,192,26306,1,8,0:0:0:0:
256,192,26513,1,4,0:0:0:0:
256,192,26927,1,8,0:0:0:0:
256,192,27134,1,0,0:0:0:0:
256,192,27548,1,0,0:0:0:0:
256,192,27755,1,8,0:0:0:0:
256,192,28168,1,0,0:0:0:0:
256,192,28582,1,8,0:0:0:0:
256,192,28789,1,0,0:0:0:0:
256,192,28996,1,0,0:0:0:0:
256,192,29410,1,8,0:0:0:0:
256,192,29824,1,0,0:0:0:0:
256,192,30237,1,8,0:0:0:0:
256,192,30444,1,0,0:0:0:0:
256,192,30858,1,0,0:0:0:0:
256,192,31065,1,8,0:0:0:0:
256,192,31479,1,0,0:0:0:0:
256,192,31893,1,8,0:0:0:0:
256,192,32099,1,0,0:0:0:0:
256,192,32306,1,0,0:0:0:0:
256,192,32720,1,8,0:0:0:0:
256,192,33134,1,4,0:0:0:0:
256,192,33548,1,8,0:0:0:0:
256,192,33755,1,0,0:0:0:0:
256,192,34168,1,0,0:0:0:0:
256,192,34375,1,8,0:0:0:0:
256,192,34789,1,0,0:0:0:0:
256,192,35203,1,8,0:0:0:0:
256,192,35410,1,0,0:0:0:0:
256,192,35617,1,0,0:0:0:0:
256,192,36031,1,8,0:0:0:0:
256,192,36444,1,0,0:0:0:0:
256,192,36858,1,8,0:0:0:0:
256,192,37065,1,0,0:0:0:0:
256,192,37479,1,0,0:0:0:0:
256,192,37686,1,8,0:0:0:0:
256,192,38099,1,0,0:0:0:0:
256,192,38203,1,0,0:0:0:0:
256,192,38306,1,0,0:0:0:0:
256,192,38513,1,8,0:0:0:0:
256,192,38720,1,8,0:0:0:0:
256,192,38927,1,0,0:0:0:0:
256,192,39134,1,8,0:0:0:0:
256,192,39237,1,8,0:0:0:0:
256,192,39548,1,8,0:0:0:0:
256,192,39755,1,0,0:0:0:0:
256,192,40168,1,8,0:0:0:0:
256,192,40375,1,8,0:0:0:0:
256,192,40789,1,0,0:0:0:0:
256,192,41203,1,8,0:0:0:0:
256,192,41410,1,0,0:0:0:0:
256,192,41824,1,8,0:0:0:0:
256,192,42031,1,8,0:0:0:0:
256,192,42237,1,0,0:0:0:0:
256,192,42651,1,8,0:0:0:0:
256,192,43065,1,0,0:0:0:0:
256,192,43479,1,8,0:0:0:0:
256,192,43686,1,8,0:0:0:0:
256,192,44099,1,0,0:0:0:0:
256,192,44513,1,8,0:0:0:0:
256,192,44720,1,0,0:0:0:0:
256,192,45134,1,8,0:0:0:0:
256,192,45341,1,8,0:0:0:0:
256,192,45548,1,0,0:0:0:0:
256,192,45962,1,8,0:0:0:0:
256,192,46375,1,4,0:0:0:0:
256,192,46996,1,4,0:0:0:0:
256,192,47617,1,12,0:0:0:0:
256,192,48237,1,12,0:0:0:0:
256,192,48858,1,4,0:0:0:0:
256,192,49065,1,0,0:0:0:0:
256,192,49168,1,0,0:0:0:0:
256,192,49272,1,0,0:0:0:0:
256,192,49479,1,8,0:0:0:0:
256,192,49686,1,4,0:0:0:0:
256,192,50306,1,4,0:0:0:0:
256,192,50927,1,12,0:0:0:0:
256,192,51548,1,12,0:0:0:0:
256,192,52168,1,12,0:0:0:0:
256,192,52375,1,8,0:0:0:0:
256,192,52582,1,0,0:0:0:0:
256,192,52789,1,8,0:0:0:0:
256,192,52996,12,0,55479,0:0:0:0:
256,192,55893,5,8,0:0:0:0:
256,192,56306,1,4,0:0:0:0:
256,192,56720,1,8,0:0:0:0:
256,192,56927,1,0,0:0:0:0:
256,192,57341,1,8,0:0:0:0:
256,192,57548,1,8,0:0:0:0:
256,192,57755,1,8,0:0:0:0:
256,192,57962,1,0,0:0:0:0:
256,192,58375,1,8,0:0:0:0:
256,192,58582,1,0,0:0:0:0:
256,192,58996,1,8,0:0:0:0:
256,192,59099,1,8,0:0:0:0:
256,192,59203,1,8,0:0:0:0:
256,192,59410,1,8,0:0:0:0:
256,192,59617,1,0,0:0:0:0:
256,192,60031,1,8,0:0:0:0:
256,192,60237,1,0,0:0:0:0:
256,192,60651,1,0,0:0:0:0:
256,192,60858,1,8,0:0:0:0:
256,192,61065,1,0,0:0:0:0:
256,192,61272,1,0,0:0:0:0:
256,192,61686,1,8,0:0:0:0:
256,192,61893,1,0,0:0:0:0:
256,192,62099,1,8,0:0:0:0:
256,192,62513,1,8,0:0:0:0:
256,192,62927,1,4,0:0:0:0:
256,192,63341,1,8,0:0:0:0:
256,192,63548,1,0,0:0:0:0:
256,192,63962,1,0,0:0:0:0:
256,192,64168,1,8,0:0:0:0:
256,192,64375,1,8,0:0:0:0:
256,192,64582,1,0,0:0:0:0:
256,192,64996,1,8,0:0:0:0:
256,192,65203,1,0,0:0:0:0:
256,192,65617,1,8,0:0:0:0:
256,192,65720,1,8,0:0:0:0:
256,192,65824,1,8,0:0:0:0:
256,192,66031,1,8,0:0:0:0:
256,192,66237,1,0,0:0:0:0:
256,192,66651,1,8,0:0:0:0:
256,192,66858,1,0,0:0:0:0:
256,192,67272,1,0,0:0:0:0:
256,192,67479,1,8,0:0:0:0:
256,192,67686,1,0,0:0:0:0:
256,192,67893,1,0,0:0:0:0:
256,192,67996,1,0,0:0:0:0:
256,192,68099,1,0,0:0:0:0:
256,192,68306,1,8,0:0:0:0:
256,192,68513,1,8,0:0:0:0:
256,192,68720,1,8,0:0:0:0:
256,192,69134,1,8,0:0:0:0:
256,192,69548,1,4,0:0:0:0:
256,192,69962,1,8,0:0:0:0:
256,192,70168,1,0,0:0:0:0:
256,192,70582,1,8,0:0:0:0:
256,192,70789,1,8,0:0:0:0:
256,192,70996,1,8,0:0:0:0:
256,192,71203,1,0,0:0:0:0:
256,192,71617,1,8,0:0:0:0:
256,192,71824,1,0,0:0:0:0:
256,192,72237,1,8,0:0:0:0:
256,192,72341,1,8,0:0:0:0:
256,192,72444,1,8,0:0:0:0:
256,192,72651,1,8,0:0:0:0:
256,192,72858,1,0,0:0:0:0:
256,192,73272,1,8,0:0:0:0:
256,192,73479,1,0,0:0:0:0:
256,192,73893,1,0,0:0:0:0:
256,192,74099,1,8,0:0:0:0:
256,192,74306,1,0,0:0:0:0:
256,192,74513,1,0,0:0:0:0:
256,192,74927,1,8,0:0:0:0:
256,192,75134,1,0,0:0:0:0:
256,192,75341,1,8,0:0:0:0:
256,192,75755,1,8,0:0:0:0:
256,192,76168,1,4,0:0:0:0:
256,192,76582,1,8,0:0:0:0:
256,192,76789,1,0,0:0:0:0:
256,192,77203,1,8,0:0:0:0:
256,192,77410,1,0,0:0:0:0:
256,192,77617,1,8,0:0:0:0:
256,192,77824,1,0,0:0:0:0:
256,192,78237,1,8,0:0:0:0:
256,192,78444,1,0,0:0:0:0:
256,192,78858,1,8,0:0:0:0:
256,192,78962,1,8,0:0:0:0:
256,192,79065,1,8,0:0:0:0:
256,192,79272,1,8,0:0:0:0:
256,192,79479,1,0,0:0:0:0:
256,192,79893,1,8,0:0:0:0:
256,192,80099,1,0,0:0:0:0:
256,192,80513,1,0,0:0:0:0:
256,192,80720,1,8,0:0:0:0:
256,192,80927,1,0,0:0:0:0:
256,192,81134,1,0,0:0:0:0:
256,192,81237,1,0,0:0:0:0:
256,192,81341,1,0,0:0:0:0:
256,192,81548,1,8,0:0:0:0:
256,192,81755,1,0,0:0:0:0:
256,192,81962,1,8,0:0:0:0:
256,192,82375,1,8,0:0:0:0:
256,192,82789,1,4,0:0:0:0:
256,192,83203,1,8,0:0:0:0:
256,192,83617,1,0,0:0:0:0:
256,192,84031,1,8,0:0:0:0:
256,192,84444,1,0,0:0:0:0:
256,192,84651,1,0,0:0:0:0:
256,192,84858,1,8,0:0:0:0:
256,192,85272,1,8,0:0:0:0:
256,192,85479,1,0,0:0:0:0:
256,192,85686,1,8,0:0:0:0:
256,192,86099,1,0,0:0:0:0:
256,192,86513,1,8,0:0:0:0:
256,192,86927,1,0,0:0:0:0:
256,192,87341,1,8,0:0:0:0:
256,192,87755,1,0,0:0:0:0:
256,192,87962,1,0,0:0:0:0:
256,192,88168,1,8,0:0:0:0:
256,192,88582,1,12,0:0:0:0:
256,192,88789,1,0,0:0:0:0:
256,192,88996,1,8,0:0:0:0:
256,192,89410,1,0,0:0:0:0:
256,192,89824,1,0,0:0:0:0:
256,192,90237,1,8,0:0:0:0:
256,192,90651,1,0,0:0:0:0:
256,192,91065,1,0,0:0:0:0:
256,192,91272,1,0,0:0:0:0:
256,192,91479,1,0,0:0:0:0:
256,192,91893,1,8,0:0:0:0:
256,192,92099,1,8,0:0:0:0:
256,192,92306,1,8,0:0:0:0:
256,192,92513,1,8,0:0:0:0:
256,192,92720,1,0,0:0:0:0:
256,192,93134,1,8,0:0:0:0:
256,192,93341,1,0,0:0:0:0:
256,192,93548,1,0,0:0:0:0:
256,192,93651,1,0,0:0:0:0:
256,192,93755,1,0,0:0:0:0:
256,192,93962,1,8,0:0:0:0:
256,192,94168,1,8,0:0:0:0:
256,192,94375,1,0,0:0:0:0:
256,192,94479,1,0,0:0:0:0:
256,192,94582,1,0,0:0:0:0:
256,192,94789,1,8,0:0:0:0:
256,192,95203,1,8,0:0:0:0:
256,192,95306,1,8,0:0:0:0:
256,192,95410,1,8,0:0:0:0:
256,192,95617,1,0,0:0:0:0:
256,192,95824,1,8,0:0:0:0:
256,192,96031,1,0,0:0:0:0:
256,192,96134,1,0,0:0:0:0:
256,192,96237,1,0,0:0:0:0:
256,192,96444,1,8,0:0:0:0:
256,192,96858,1,8,0:0:0:0:
256,192,96962,1,8,0:0:0:0:
256,192,97065,1,8,0:0:0:0:
256,192,97272,1,0,0:0:0:0:
256,192,97479,1,8,0:0:0:0:
256,192,97686,1,4,0:0:0:0:
256,192,98099,1,8,0:0:0:0:
256,192,98306,1,0,0:0:0:0:
256,192,98720,1,8,0:0:0:0:
256,192,98824,1,8,0:0:0:0:
256,192,98927,1,8,0:0:0:0:
256,192,99134,1,8,0:0:0:0:
256,192,99341,1,0,0:0:0:0:
256,192,99548,1,8,0:0:0:0:
256,192,99755,1,0,0:0:0:0:
256,192,99962,1,8,0:0:0:0:
256,192,100375,1,0,0:0:0:0:
256,192,100479,1,0,0:0:0:0:
256,192,100582,1,0,0:0:0:0:
256,192,100789,1,8,0:0:0:0:
256,192,100996,1,0,0:0:0:0:
256,192,101410,1,8,0:0:0:0:
256,192,101617,1,0,0:0:0:0:
256,192,102031,1,0,0:0:0:0:
256,192,102237,1,8,0:0:0:0:
256,192,102444,1,8,0:0:0:0:
256,192,102651,1,0,0:0:0:0:
256,192,103065,1,8,0:0:0:0:
256,192,103272,1,8,0:0:0:0:
256,192,103479,1,0,0:0:0:0:
256,192,103686,1,8,0:0:0:0:
256,192,104306,1,12,0:0:0:0:
256,192,104617,1,8,0:0:0:0:
256,192,104927,1,4,0:0:0:0:
256,192,105341,1,8,0:0:0:0:
256,192,105548,1,0,0:0:0:0:
256,192,105755,1,8,0:0:0:0:
256,192,105962,1,0,0:0:0:0:
256,192,106065,1,0,0:0:0:0:
256,192,106168,1,0,0:0:0:0:
256,192,106375,1,8,0:0:0:0:
256,192,106582,1,0,0:0:0:0:
256,192,106996,1,8,0:0:0:0:
256,192,107099,1,8,0:0:0:0:
256,192,107203,1,8,0:0:0:0:
256,192,107410,1,8,0:0:0:0:
256,192,107617,1,0,0:0:0:0:
256,192,108031,1,8,0:0:0:0:
256,192,108237,1,0,0:0:0:0:
256,192,108444,1,8,0:0:0:0:
256,192,108651,1,8,0:0:0:0:
256,192,109065,1,0,0:0:0:0:
256,192,109272,1,8,0:0:0:0:
256,192,109375,1,8,0:0:0:0:
256,192,109479,1,8,0:0:0:0:
256,192,109686,1,8,0:0:0:0:
256,192,109893,1,0,0:0:0:0:
256,192,110099,1,8,0:0:0:0:
256,192,110513,1,8,0:0:0:0:
256,192,110927,1,4,0:0:0:0:
256,192,111341,1,0,0:0:0:0:
256,192,111548,1,8,0:0:0:0:
256,192,111962,1,8,0:0:0:0:
256,192,112375,1,8,0:0:0:0:
256,192,112582,1,0,0:0:0:0:
256,192,112996,1,8,0:0:0:0:
256,192,113203,1,8,0:0:0:0:
256,192,113410,1,0,0:0:0:0:
256,192,113824,1,8,0:0:0:0:
256,192,114237,1,0,0:0:0:0:
256,192,114651,1,0,0:0:0:0:
256,192,114858,1,8,0:0:0:0:
256,192,115272,1,8,0:0:0:0:
256,192,115686,1,8,0:0:0:0:
256,192,115893,1,0,0:0:0:0:
256,192,116306,1,0,0:0:0:0:
256,192,116513,1,8,0:0:0:0:
256,192,116720,1,0,0:0:0:0:
256,192,116927,1,8,0:0:0:0:
256,192,117134,1,8,0:0:0:0:
256,192,117548,1,4,0:0:0:0:
256,192,117962,1,8,0:0:0:0:
256,192,118168,1,0,0:0:0:0:
256,192,118582,1,0,0:0:0:0:
256,192,118996,1,8,0:0:0:0:
256,192,119410,1,8,0:0:0:0:
256,192,119824,1,0,0:0:0:0:
256,192,120237,1,0,0:0:0:0:
256,192,120858,1,0,0:0:0:0:
256,192,121272,1,8,0:0:0:0:
256,192,121479,1,0,0:0:0:0:
256,192,121893,1,0,0:0:0:0:
256,192,122306,1,8,0:0:0:0:
256,192,122513,1,0,0:0:0:0:
256,192,122617,1,0,0:0:0:0:
256,192,122720,1,0,0:0:0:0:
256,192,122927,1,8,0:0:0:0:
256,192,123341,1,8,0:0:0:0:
256,192,123444,1,8,0:0:0:0:
256,192,123548,1,8,0:0:0:0:
256,192,123755,1,8,0:0:0:0:
256,192,123962,1,8,0:0:0:0:
