osu file format v14

[General]
AudioFilename: audio.mp3
AudioLeadIn: 0
PreviewTime: 55273
Countdown: 0
SampleSet: Normal
StackLeniency: 0.7
Mode: 1
LetterboxInBreaks: 0
WidescreenStoryboard: 0

[Editor]
DistanceSpacing: 1.3
BeatDivisor: 4
GridSize: 32
TimelineZoom: 4.499998

[Metadata]
Title:Replica feat. Hatsune Miku
TitleUnicode:レプリカ feat. 初音ミク
Artist:sasakure.UK
ArtistUnicode:sasakure.UK
Creator:Skull Kid
Version:Mitosis
Source:
Tags:Japanese Electronic Rock Novelty Vocaloid エルゴスム ergosum 革蝉 kawasemi sasakuration ササクレイション C97 Comic Market Comiket 佐々木秀尚 Sasaki Hidehisa mami Kqrth Ulqui HiroK eae
BeatmapID:2171581
BeatmapSetID:1038855

[Difficulty]
HPDrainRate:5.5
CircleSize:4
OverallDifficulty:7
ApproachRate:9
SliderMultiplier:1.4
SliderTickRate:1

[Events]
//Background and Video events
0,0,"BG.jpg",0,-30
//Break Periods
2,181661,192924
//Storyboard Layer 0 (Background)
//Storyboard Layer 1 (Fail)
//Storyboard Layer 2 (Pass)
//Storyboard Layer 3 (Foreground)
//Storyboard Layer 4 (Overlay)
//Storyboard Sound Samples

[TimingPoints]
524,250,4,1,0,90,1,0
524,-83.3333333333333,4,1,0,90,0,0
649,-90.9090909090909,4,1,0,90,0,0
711,-92.5925925925926,4,1,0,90,0,0
774,-94.3396226415094,4,1,0,90,0,0
899,-96.1538461538461,4,1,0,90,0,0
1024,-98.0392156862745,4,1,0,90,0,0
1149,-100,4,1,0,90,0,0
1211,-102.040816326531,4,1,0,90,0,0
1274,-104.166666666667,4,1,0,90,0,0
1399,-106.382978723404,4,1,0,90,0,0
1524,-83.3333333333333,4,1,0,90,0,0
1649,-90.9090909090909,4,1,0,90,0,0
1711,-92.5925925925926,4,1,0,90,0,0
1774,-94.3396226415094,4,1,0,90,0,0
1899,-96.1538461538461,4,1,0,90,0,0
2024,-98.0392156862745,4,1,0,90,0,0
2086,-100,4,1,0,90,0,0
2149,-102.040816326531,4,1,0,90,0,0
2211,-104.166666666667,4,1,0,90,0,0
2274,-106.382978723404,4,1,0,90,0,0
2399,-108.695652173913,4,1,0,90,0,0
2524,-83.3333333333333,4,1,0,90,0,0
2649,-90.9090909090909,4,1,0,90,0,0
2711,-92.5925925925926,4,1,0,90,0,0
2774,-94.3396226415094,4,1,0,90,0,0
2899,-96.1538461538461,4,1,0,90,0,0
3024,-98.0392156862745,4,1,0,90,0,0
3149,-100,4,1,0,90,0,0
3211,-102.040816326531,4,1,0,90,0,0
3274,-104.166666666667,4,1,0,90,0,0
3399,-106.382978723404,4,1,0,90,0,0
3524,-83.3333333333333,4,1,0,90,0,0
3649,-90.9090909090909,4,1,0,90,0,0
3711,-92.5925925925926,4,1,0,90,0,0
3774,-94.3396226415094,4,1,0,90,0,0
3899,-96.1538461538461,4,1,0,90,0,0
3961,-98.0392156862745,4,1,0,90,0,0
4024,-100,4,1,0,90,0,0
4086,-102.040816326531,4,1,0,90,0,0
4149,-104.166666666667,4,1,0,90,0,0
4211,-106.382978723404,4,1,0,90,0,0
4274,-108.695652173913,4,1,0,90,0,0
4399,-111.111111111111,4,1,0,90,0,0
4524,-83.3333333333333,4,1,0,90,0,0
4649,-90.9090909090909,4,1,0,90,0,0
4711,-92.5925925925926,4,1,0,90,0,0
4774,-94.3396226415094,4,1,0,90,0,0
4899,-96.1538461538461,4,1,0,90,0,0
5024,-98.0392156862745,4,1,0,90,0,0
5149,-100,4,1,0,90,0,0
5211,-102.040816326531,4,1,0,90,0,0
5274,-104.166666666667,4,1,0,90,0,0
5399,-106.382978723404,4,1,0,90,0,0
5524,-83.3333333333333,4,1,0,90,0,0
5649,-90.9090909090909,4,1,0,90,0,0
5711,-92.5925925925926,4,1,0,90,0,0
5774,-94.3396226415094,4,1,0,90,0,0
5899,-96.1538461538461,4,1,0,90,0,0
6024,-98.0392156862745,4,1,0,90,0,0
6149,-100,4,1,0,90,0,0
6274,-102.040816326531,4,1,0,90,0,0
6399,-104.166666666667,4,1,0,90,0,0
6524,-106.382978723404,4,1,0,90,0,0
7399,-100,4,1,0,80,0,0
7774,-111.111111111111,4,1,0,80,0,0
11524,-100,4,1,0,80,0,0
11774,-111.111111111111,4,1,0,80,0,0
15524,-100,4,1,0,80,0,0
15774,-111.111111111111,4,1,0,80,0,0
19524,-100,4,1,0,80,0,0
19774,-111.111111111111,4,1,0,80,0,0
23524,-100,4,1,0,80,0,0
23649,-125,4,1,0,70,0,0
39399,-76.9230769230769,4,1,0,90,0,0
39649,-83.3333333333333,4,1,0,90,0,0
39711,-85.4700854700855,4,1,0,90,0,0
39774,-87.719298245614,4,1,0,90,0,0
39899,-90.0900900900901,4,1,0,90,0,0
40024,-92.5925925925926,4,1,0,90,0,0
40149,-95.2380952380952,4,1,0,90,0,0
40211,-98.0392156862745,4,1,0,90,0,0
40274,-101.010101010101,4,1,0,90,0,0
40399,-104.166666666667,4,1,0,90,0,0
40524,-76.9230769230769,4,1,0,90,0,0
40649,-83.3333333333333,4,1,0,90,0,0
40711,-85.4700854700855,4,1,0,90,0,0
40774,-87.719298245614,4,1,0,90,0,0
40899,-90.0900900900901,4,1,0,90,0,0
41024,-92.5925925925926,4,1,0,90,0,0
41086,-95.2380952380952,4,1,0,90,0,0
41149,-98.0392156862745,4,1,0,90,0,0
41211,-101.010101010101,4,1,0,90,0,0
41274,-104.166666666667,4,1,0,90,0,0
41399,-107.52688172043,4,1,0,90,0,0
41524,-76.9230769230769,4,1,0,90,0,0
41649,-83.3333333333333,4,1,0,90,0,0
41711,-85.4700854700855,4,1,0,90,0,0
41774,-87.719298245614,4,1,0,90,0,0
41899,-90.0900900900901,4,1,0,90,0,0
42024,-92.5925925925926,4,1,0,90,0,0
42149,-95.2380952380952,4,1,0,90,0,0
42211,-98.0392156862745,4,1,0,90,0,0
42274,-101.010101010101,4,1,0,90,0,0
42399,-104.166666666667,4,1,0,90,0,0
42524,-76.9230769230769,4,1,0,90,0,0
42649,-83.3333333333333,4,1,0,90,0,0
42711,-85.4700854700855,4,1,0,90,0,0
42774,-87.719298245614,4,1,0,90,0,0
42899,-90.0900900900901,4,1,0,90,0,0
42961,-92.5925925925926,4,1,0,90,0,0
43024,-95.2380952380952,4,1,0,90,0,0
43086,-98.0392156862745,4,1,0,90,0,0
43149,-101.010101010101,4,1,0,90,0,0
43211,-104.166666666667,4,1,0,90,0,0
43274,-107.52688172043,4,1,0,90,0,0
43399,-111.111111111111,4,1,0,90,0,0
43524,-76.9230769230769,4,1,0,90,0,0
43649,-83.3333333333333,4,1,0,90,0,0
43711,-85.4700854700855,4,1,0,90,0,0
43774,-87.719298245614,4,1,0,90,0,0
43899,-90.0900900900901,4,1,0,90,0,0
44024,-92.5925925925926,4,1,0,90,0,0
44149,-95.2380952380952,4,1,0,90,0,0
44211,-98.0392156862745,4,1,0,90,0,0
44274,-101.010101010101,4,1,0,90,0,0
44399,-104.166666666667,4,1,0,90,0,0
44524,-76.9230769230769,4,1,0,90,0,0
44649,-83.3333333333333,4,1,0,90,0,0
44711,-85.4700854700855,4,1,0,90,0,0
44774,-87.719298245614,4,1,0,90,0,0
44899,-90.0900900900901,4,1,0,90,0,0
45024,-92.5925925925926,4,1,0,90,0,0
45086,-95.2380952380952,4,1,0,90,0,0
45149,-98.0392156862745,4,1,0,90,0,0
45211,-101.010101010101,4,1,0,90,0,0
45274,-104.166666666667,4,1,0,90,0,0
45399,-107.52688172043,4,1,0,90,0,0
45524,-76.9230769230769,4,1,0,90,0,0
45649,-83.3333333333333,4,1,0,90,0,0
45711,-84.7457627118644,4,1,0,90,0,0
45774,-86.2068965517241,4,1,0,90,0,0
45899,-87.719298245614,4,1,0,90,0,0
46024,-89.2857142857143,4,1,0,90,0,0
46149,-90.9090909090909,4,1,0,90,0,0
46211,-92.5925925925926,4,1,0,90,0,0
46274,-94.3396226415094,4,1,0,90,0,0
46399,-96.1538461538461,4,1,0,90,0,0
46524,-98.0392156862745,4,1,0,90,0,0
46649,-100,4,1,0,90,0,0
46711,-102.040816326531,4,1,0,90,0,0
46774,-104.166666666667,4,1,0,90,0,0
46836,-106.382978723404,4,1,0,90,0,0
46899,-108.695652173913,4,1,0,90,0,0
47024,-111.111111111111,4,1,0,90,0,0
47086,-113.636363636364,4,1,0,90,0,0
47149,-116.279069767442,4,1,0,90,0,0
47211,-119.047619047619,4,1,0,90,0,0
47274,-121.951219512195,4,1,0,90,0,0
47399,-125,4,1,0,90,0,0
47524,-76.9230769230769,4,1,0,90,0,0
47648,-83.3333333333333,4,1,0,90,0,0
47710,-85.4700854700855,4,1,0,90,0,0
47773,-87.719298245614,4,1,0,90,0,0
47898,-90.0900900900901,4,1,0,90,0,0
48023,-92.5925925925926,4,1,0,90,0,0
48148,-95.2380952380952,4,1,0,90,0,0
48210,-98.0392156862745,4,1,0,90,0,0
48273,-101.010101010101,4,1,0,90,0,0
48398,-104.166666666667,4,1,0,90,0,0
48523,-76.9230769230769,4,1,0,90,0,0
48648,-83.3333333333333,4,1,0,90,0,0
48710,-85.4700854700855,4,1,0,90,0,0
48773,-87.719298245614,4,1,0,90,0,0
48898,-90.0900900900901,4,1,0,90,0,0
49023,-92.5925925925926,4,1,0,90,0,0
49085,-95.2380952380952,4,1,0,90,0,0
49148,-98.0392156862745,4,1,0,90,0,0
49210,-101.010101010101,4,1,0,90,0,0
49273,-104.166666666667,4,1,0,90,0,0
49398,-107.52688172043,4,1,0,90,0,0
49523,-76.9230769230769,4,1,0,90,0,0
49648,-83.3333333333333,4,1,0,90,0,0
49710,-85.4700854700855,4,1,0,90,0,0
49773,-87.719298245614,4,1,0,90,0,0
49898,-90.0900900900901,4,1,0,90,0,0
50023,-92.5925925925926,4,1,0,90,0,0
50148,-95.2380952380952,4,1,0,90,0,0
50210,-98.0392156862745,4,1,0,90,0,0
50273,-101.010101010101,4,1,0,90,0,0
50398,-104.166666666667,4,1,0,90,0,0
50523,-76.9230769230769,4,1,0,90,0,0
50648,-83.3333333333333,4,1,0,90,0,0
50710,-85.4700854700855,4,1,0,90,0,0
50773,-87.719298245614,4,1,0,90,0,0
50898,-90.0900900900901,4,1,0,90,0,0
50960,-92.5925925925926,4,1,0,90,0,0
51023,-95.2380952380952,4,1,0,90,0,0
51085,-98.0392156862745,4,1,0,90,0,0
51148,-101.010101010101,4,1,0,90,0,0
51210,-104.166666666667,4,1,0,90,0,0
51273,-107.52688172043,4,1,0,90,0,0
51398,-111.111111111111,4,1,0,90,0,0
51523,-76.9230769230769,4,1,0,90,0,0
51648,-83.3333333333333,4,1,0,90,0,0
51710,-85.4700854700855,4,1,0,90,0,0
51773,-87.719298245614,4,1,0,90,0,0
51898,-90.0900900900901,4,1,0,90,0,0
52023,-92.5925925925926,4,1,0,90,0,0
52148,-95.2380952380952,4,1,0,90,0,0
52210,-98.0392156862745,4,1,0,90,0,0
52273,-101.010101010101,4,1,0,90,0,0
52398,-104.166666666667,4,1,0,90,0,0
52523,-76.9230769230769,4,1,0,90,0,0
52648,-83.3333333333333,4,1,0,90,0,0
52710,-85.4700854700855,4,1,0,90,0,0
52773,-87.719298245614,4,1,0,90,0,0
52898,-90.0900900900901,4,1,0,90,0,0
53023,-92.5925925925926,4,1,0,90,0,0
53085,-95.2380952380952,4,1,0,90,0,0
53148,-98.0392156862745,4,1,0,90,0,0
53210,-101.010101010101,4,1,0,90,0,0
53273,-104.166666666667,4,1,0,90,0,0
53398,-107.52688172043,4,1,0,90,0,0
53523,-111.111111111111,4,1,0,90,0,0
55399,-111.111111111111,4,1,0,100,0,0
55524,-71.4285714285714,4,1,0,100,0,1
55649,-83.3333333333333,4,1,0,100,0,1
55774,-86.9565217391304,4,1,0,100,0,1
55836,-90.9090909090909,4,1,0,100,0,1
55899,-95.2380952380952,4,1,0,100,0,1
55961,-100,4,1,0,100,0,1
56024,-66.6666666666667,4,1,0,100,0,1
56149,-83.3333333333333,4,1,0,100,0,1
56274,-86.9565217391304,4,1,0,100,0,1
56336,-90.9090909090909,4,1,0,100,0,1
56399,-95.2380952380952,4,1,0,100,0,1
56461,-100,4,1,0,100,0,1
56524,-62.5,4,1,0,100,0,1
56649,-83.3333333333333,4,1,0,100,0,1
56774,-86.9565217391304,4,1,0,100,0,1
56836,-90.9090909090909,4,1,0,100,0,1
56899,-95.2380952380952,4,1,0,100,0,1
56961,-100,4,1,0,100,0,1
57024,-58.8235294117647,4,1,0,100,0,1
57149,-83.3333333333333,4,1,0,100,0,1
57211,-86.2068965517241,4,1,0,100,0,1
57274,-89.2857142857143,4,1,0,100,0,1
57336,-92.5925925925926,4,1,0,100,0,1
57399,-96.1538461538461,4,1,0,100,0,1
57461,-100,4,1,0,100,0,1
57524,-71.4285714285714,4,1,0,100,0,1
57649,-83.3333333333333,4,1,0,100,0,1
57774,-86.9565217391304,4,1,0,100,0,1
57836,-90.9090909090909,4,1,0,100,0,1
57899,-95.2380952380952,4,1,0,100,0,1
57961,-100,4,1,0,100,0,1
58024,-66.6666666666667,4,1,0,100,0,1
58149,-83.3333333333333,4,1,0,100,0,1
58274,-86.9565217391304,4,1,0,100,0,1
58336,-90.9090909090909,4,1,0,100,0,1
58399,-95.2380952380952,4,1,0,100,0,1
58461,-100,4,1,0,100,0,1
58524,-62.5,4,1,0,100,0,1
58649,-83.3333333333333,4,1,0,100,0,1
58774,-86.9565217391304,4,1,0,100,0,1
58836,-90.9090909090909,4,1,0,100,0,1
58899,-95.2380952380952,4,1,0,100,0,1
58961,-100,4,1,0,100,0,1
59024,-58.8235294117647,4,1,0,100,0,1
59149,-83.3333333333333,4,1,0,100,0,1
59190,-86.9565217391304,4,1,0,100,0,1
59232,-90.9090909090909,4,1,0,100,0,1
59274,-95.2380952380952,4,1,0,100,0,1
59399,-100,4,1,0,100,0,1
59524,-71.4285714285714,4,1,0,100,0,1
59649,-83.3333333333333,4,1,0,100,0,1
59774,-86.9565217391304,4,1,0,100,0,1
59836,-90.9090909090909,4,1,0,100,0,1
59899,-95.2380952380952,4,1,0,100,0,1
59961,-100,4,1,0,100,0,1
60024,-66.6666666666667,4,1,0,100,0,1
60149,-83.3333333333333,4,1,0,100,0,1
60274,-86.9565217391304,4,1,0,100,0,1
60336,-90.9090909090909,4,1,0,100,0,1
60399,-95.2380952380952,4,1,0,100,0,1
60461,-100,4,1,0,100,0,1
60524,-62.5,4,1,0,100,0,1
60649,-83.3333333333333,4,1,0,100,0,1
60774,-86.9565217391304,4,1,0,100,0,1
60836,-90.9090909090909,4,1,0,100,0,1
60899,-95.2380952380952,4,1,0,100,0,1
60961,-100,4,1,0,100,0,1
61024,-58.8235294117647,4,1,0,100,0,1
61149,-83.3333333333333,4,1,0,100,0,1
61211,-86.2068965517241,4,1,0,100,0,1
61274,-89.2857142857143,4,1,0,100,0,1
61336,-92.5925925925926,4,1,0,100,0,1
61399,-96.1538461538461,4,1,0,100,0,1
61461,-100,4,1,0,100,0,1
61524,-71.4285714285714,4,1,0,100,0,1
61649,-83.3333333333333,4,1,0,100,0,1
61774,-86.9565217391304,4,1,0,100,0,1
61836,-90.9090909090909,4,1,0,100,0,1
61899,-95.2380952380952,4,1,0,100,0,1
61961,-100,4,1,0,100,0,1
62024,-66.6666666666667,4,1,0,100,0,1
62149,-83.3333333333333,4,1,0,100,0,1
62274,-86.9565217391304,4,1,0,100,0,1
62336,-90.9090909090909,4,1,0,100,0,1
62399,-95.2380952380952,4,1,0,100,0,1
62461,-100,4,1,0,100,0,1
62524,-62.5,4,1,0,100,0,1
62649,-83.3333333333333,4,1,0,100,0,1
62774,-86.9565217391304,4,1,0,100,0,1
62836,-90.9090909090909,4,1,0,100,0,1
62899,-95.2380952380952,4,1,0,100,0,1
62961,-100,4,1,0,100,0,1
63024,-58.8235294117647,4,1,0,100,0,1
63149,-90.9090909090909,4,1,0,100,0,1
63274,-95.2380952380952,4,1,0,100,0,1
63399,-100,4,1,0,100,0,1
63524,-71.4285714285714,4,1,0,100,0,1
63648,-83.3333333333333,4,1,0,100,0,1
63773,-86.9565217391304,4,1,0,100,0,1
63835,-90.9090909090909,4,1,0,100,0,1
63898,-95.2380952380952,4,1,0,100,0,1
63960,-100,4,1,0,100,0,1
64023,-66.6666666666667,4,1,0,100,0,1
64148,-83.3333333333333,4,1,0,100,0,1
64273,-86.9565217391304,4,1,0,100,0,1
64335,-90.9090909090909,4,1,0,100,0,1
64398,-95.2380952380952,4,1,0,100,0,1
64460,-100,4,1,0,100,0,1
64523,-62.5,4,1,0,100,0,1
64648,-83.3333333333333,4,1,0,100,0,1
64773,-86.9565217391304,4,1,0,100,0,1
64835,-90.9090909090909,4,1,0,100,0,1
64898,-95.2380952380952,4,1,0,100,0,1
64960,-100,4,1,0,100,0,1
65023,-58.8235294117647,4,1,0,100,0,1
65148,-83.3333333333333,4,1,0,100,0,1
65210,-86.2068965517241,4,1,0,100,0,1
65273,-89.2857142857143,4,1,0,100,0,1
65335,-92.5925925925926,4,1,0,100,0,1
65398,-96.1538461538461,4,1,0,100,0,1
65460,-100,4,1,0,100,0,1
65523,-71.4285714285714,4,1,0,100,0,1
65648,-83.3333333333333,4,1,0,100,0,1
65773,-86.9565217391304,4,1,0,100,0,1
65835,-90.9090909090909,4,1,0,100,0,1
65898,-95.2380952380952,4,1,0,100,0,1
65960,-100,4,1,0,100,0,1
66023,-66.6666666666667,4,1,0,100,0,1
66148,-83.3333333333333,4,1,0,100,0,1
66273,-86.9565217391304,4,1,0,100,0,1
66335,-90.9090909090909,4,1,0,100,0,1
66398,-95.2380952380952,4,1,0,100,0,1
66460,-100,4,1,0,100,0,1
66523,-62.5,4,1,0,100,0,1
66648,-83.3333333333333,4,1,0,100,0,1
66773,-86.9565217391304,4,1,0,100,0,1
66835,-90.9090909090909,4,1,0,100,0,1
66898,-95.2380952380952,4,1,0,100,0,1
66960,-100,4,1,0,100,0,1
67023,-58.8235294117647,4,1,0,100,0,1
67148,-83.3333333333333,4,1,0,100,0,1
67189,-86.9565217391304,4,1,0,100,0,1
67231,-90.9090909090909,4,1,0,100,0,1
67273,-95.2380952380952,4,1,0,100,0,1
67398,-100,4,1,0,100,0,1
67523,-71.4285714285714,4,1,0,100,0,1
67648,-83.3333333333333,4,1,0,100,0,1
67773,-86.9565217391304,4,1,0,100,0,1
67835,-90.9090909090909,4,1,0,100,0,1
67898,-95.2380952380952,4,1,0,100,0,1
67960,-100,4,1,0,100,0,1
68023,-66.6666666666667,4,1,0,100,0,1
68148,-83.3333333333333,4,1,0,100,0,1
68273,-86.9565217391304,4,1,0,100,0,1
68335,-90.9090909090909,4,1,0,100,0,1
68398,-95.2380952380952,4,1,0,100,0,1
68460,-100,4,1,0,100,0,1
68523,-62.5,4,1,0,100,0,1
68648,-83.3333333333333,4,1,0,100,0,1
68773,-86.9565217391304,4,1,0,100,0,1
68835,-90.9090909090909,4,1,0,100,0,1
68898,-95.2380952380952,4,1,0,100,0,1
68960,-100,4,1,0,100,0,1
69023,-58.8235294117647,4,1,0,100,0,1
69148,-83.3333333333333,4,1,0,100,0,1
69210,-86.2068965517241,4,1,0,100,0,1
69273,-89.2857142857143,4,1,0,100,0,1
69335,-92.5925925925926,4,1,0,100,0,1
69398,-96.1538461538461,4,1,0,100,0,1
69460,-100,4,1,0,100,0,1
69523,-71.4285714285714,4,1,0,100,0,1
69648,-83.3333333333333,4,1,0,100,0,1
69773,-86.9565217391304,4,1,0,100,0,1
69835,-90.9090909090909,4,1,0,100,0,1
69898,-95.2380952380952,4,1,0,100,0,1
69960,-100,4,1,0,100,0,1
70023,-66.6666666666667,4,1,0,100,0,1
70148,-83.3333333333333,4,1,0,100,0,1
70273,-86.9565217391304,4,1,0,100,0,1
70335,-90.9090909090909,4,1,0,100,0,1
70398,-95.2380952380952,4,1,0,100,0,1
70460,-100,4,1,0,100,0,1
70524,-105.263157894737,4,1,0,100,0,0
71399,-100,4,1,0,80,0,0
71774,-111.111111111111,4,1,0,80,0,0
75524,-100,4,1,0,80,0,0
75774,-111.111111111111,4,1,0,80,0,0
79524,-100,4,1,0,80,0,0
79774,-111.111111111111,4,1,0,80,0,0
83524,-100,4,1,0,80,0,0
83774,-111.111111111111,4,1,0,80,0,0
87524,-100,4,1,0,80,0,0
87649,-125,4,1,0,70,0,0
103399,-76.9230769230769,4,1,0,90,0,0
103648,-83.3333333333333,4,1,0,90,0,0
103710,-85.4700854700855,4,1,0,90,0,0
103773,-87.719298245614,4,1,0,90,0,0
103898,-90.0900900900901,4,1,0,90,0,0
104023,-92.5925925925926,4,1,0,90,0,0
104148,-95.2380952380952,4,1,0,90,0,0
104210,-98.0392156862745,4,1,0,90,0,0
104273,-101.010101010101,4,1,0,90,0,0
104398,-104.166666666667,4,1,0,90,0,0
104523,-76.9230769230769,4,1,0,90,0,0
104648,-83.3333333333333,4,1,0,90,0,0
104710,-85.4700854700855,4,1,0,90,0,0
104773,-87.719298245614,4,1,0,90,0,0
104898,-90.0900900900901,4,1,0,90,0,0
105023,-92.5925925925926,4,1,0,90,0,0
105085,-95.2380952380952,4,1,0,90,0,0
105148,-98.0392156862745,4,1,0,90,0,0
105210,-101.010101010101,4,1,0,90,0,0
105273,-104.166666666667,4,1,0,90,0,0
105398,-107.52688172043,4,1,0,90,0,0
105523,-76.9230769230769,4,1,0,90,0,0
105648,-83.3333333333333,4,1,0,90,0,0
105710,-85.4700854700855,4,1,0,90,0,0
105773,-87.719298245614,4,1,0,90,0,0
105898,-90.0900900900901,4,1,0,90,0,0
106023,-92.5925925925926,4,1,0,90,0,0
106148,-95.2380952380952,4,1,0,90,0,0
106210,-98.0392156862745,4,1,0,90,0,0
106273,-101.010101010101,4,1,0,90,0,0
106398,-104.166666666667,4,1,0,90,0,0
106523,-76.9230769230769,4,1,0,90,0,0
106648,-83.3333333333333,4,1,0,90,0,0
106710,-85.4700854700855,4,1,0,90,0,0
106773,-87.719298245614,4,1,0,90,0,0
106898,-90.0900900900901,4,1,0,90,0,0
106960,-92.5925925925926,4,1,0,90,0,0
107023,-95.2380952380952,4,1,0,90,0,0
107085,-98.0392156862745,4,1,0,90,0,0
107148,-101.010101010101,4,1,0,90,0,0
107210,-104.166666666667,4,1,0,90,0,0
107273,-107.52688172043,4,1,0,90,0,0
107398,-111.111111111111,4,1,0,90,0,0
107523,-76.9230769230769,4,1,0,90,0,0
107648,-83.3333333333333,4,1,0,90,0,0
107710,-85.4700854700855,4,1,0,90,0,0
107773,-87.719298245614,4,1,0,90,0,0
107898,-90.0900900900901,4,1,0,90,0,0
108023,-92.5925925925926,4,1,0,90,0,0
108148,-95.2380952380952,4,1,0,90,0,0
108210,-98.0392156862745,4,1,0,90,0,0
108273,-101.010101010101,4,1,0,90,0,0
108398,-104.166666666667,4,1,0,90,0,0
108523,-76.9230769230769,4,1,0,90,0,0
108648,-83.3333333333333,4,1,0,90,0,0
108710,-85.4700854700855,4,1,0,90,0,0
108773,-87.719298245614,4,1,0,90,0,0
108898,-90.0900900900901,4,1,0,90,0,0
109023,-92.5925925925926,4,1,0,90,0,0
109085,-95.2380952380952,4,1,0,90,0,0
109148,-98.0392156862745,4,1,0,90,0,0
109210,-101.010101010101,4,1,0,90,0,0
109273,-104.166666666667,4,1,0,90,0,0
109398,-107.52688172043,4,1,0,90,0,0
109523,-76.9230769230769,4,1,0,90,0,0
109648,-83.3333333333333,4,1,0,90,0,0
109710,-84.7457627118644,4,1,0,90,0,0
109773,-86.2068965517241,4,1,0,90,0,0
109898,-87.719298245614,4,1,0,90,0,0
110023,-89.2857142857143,4,1,0,90,0,0
110148,-90.9090909090909,4,1,0,90,0,0
110210,-92.5925925925926,4,1,0,90,0,0
110273,-94.3396226415094,4,1,0,90,0,0
110398,-96.1538461538461,4,1,0,90,0,0
110523,-98.0392156862745,4,1,0,90,0,0
110648,-100,4,1,0,90,0,0
110710,-102.040816326531,4,1,0,90,0,0
110773,-104.166666666667,4,1,0,90,0,0
110835,-106.382978723404,4,1,0,90,0,0
110898,-108.695652173913,4,1,0,90,0,0
111023,-111.111111111111,4,1,0,90,0,0
111085,-113.636363636364,4,1,0,90,0,0
111148,-116.279069767442,4,1,0,90,0,0
111210,-119.047619047619,4,1,0,90,0,0
111273,-121.951219512195,4,1,0,90,0,0
111398,-125,4,1,0,90,0,0
111523,-76.9230769230769,4,1,0,90,0,0
111647,-83.3333333333333,4,1,0,90,0,0
111709,-85.4700854700855,4,1,0,90,0,0
111772,-87.719298245614,4,1,0,90,0,0
111897,-90.0900900900901,4,1,0,90,0,0
112022,-92.5925925925926,4,1,0,90,0,0
112147,-95.2380952380952,4,1,0,90,0,0
112209,-98.0392156862745,4,1,0,90,0,0
112272,-101.010101010101,4,1,0,90,0,0
112397,-104.166666666667,4,1,0,90,0,0
112522,-76.9230769230769,4,1,0,90,0,0
112647,-83.3333333333333,4,1,0,90,0,0
112709,-85.4700854700855,4,1,0,90,0,0
112772,-87.719298245614,4,1,0,90,0,0
112897,-90.0900900900901,4,1,0,90,0,0
113022,-92.5925925925926,4,1,0,90,0,0
113084,-95.2380952380952,4,1,0,90,0,0
113147,-98.0392156862745,4,1,0,90,0,0
113209,-101.010101010101,4,1,0,90,0,0
113272,-104.166666666667,4,1,0,90,0,0
113397,-107.52688172043,4,1,0,90,0,0
113522,-76.9230769230769,4,1,0,90,0,0
113647,-83.3333333333333,4,1,0,90,0,0
113709,-85.4700854700855,4,1,0,90,0,0
113772,-87.719298245614,4,1,0,90,0,0
113897,-90.0900900900901,4,1,0,90,0,0
114022,-92.5925925925926,4,1,0,90,0,0
114147,-95.2380952380952,4,1,0,90,0,0
114209,-98.0392156862745,4,1,0,90,0,0
114272,-101.010101010101,4,1,0,90,0,0
114397,-104.166666666667,4,1,0,90,0,0
114522,-76.9230769230769,4,1,0,90,0,0
114647,-83.3333333333333,4,1,0,90,0,0
114709,-85.4700854700855,4,1,0,90,0,0
114772,-87.719298245614,4,1,0,90,0,0
114897,-90.0900900900901,4,1,0,90,0,0
114959,-92.5925925925926,4,1,0,90,0,0
115022,-95.2380952380952,4,1,0,90,0,0
115084,-98.0392156862745,4,1,0,90,0,0
115147,-101.010101010101,4,1,0,90,0,0
115209,-104.166666666667,4,1,0,90,0,0
115272,-107.52688172043,4,1,0,90,0,0
115397,-111.111111111111,4,1,0,90,0,0
115522,-76.9230769230769,4,1,0,90,0,0
115647,-83.3333333333333,4,1,0,90,0,0
115709,-85.4700854700855,4,1,0,90,0,0
115772,-87.719298245614,4,1,0,90,0,0
115897,-90.0900900900901,4,1,0,90,0,0
116022,-92.5925925925926,4,1,0,90,0,0
116147,-95.2380952380952,4,1,0,90,0,0
116209,-98.0392156862745,4,1,0,90,0,0
116272,-101.010101010101,4,1,0,90,0,0
116397,-104.166666666667,4,1,0,90,0,0
116522,-76.9230769230769,4,1,0,90,0,0
116647,-83.3333333333333,4,1,0,90,0,0
116709,-85.4700854700855,4,1,0,90,0,0
116772,-87.719298245614,4,1,0,90,0,0
116897,-90.0900900900901,4,1,0,90,0,0
117022,-92.5925925925926,4,1,0,90,0,0
117084,-95.2380952380952,4,1,0,90,0,0
117147,-98.0392156862745,4,1,0,90,0,0
117209,-101.010101010101,4,1,0,90,0,0
117272,-104.166666666667,4,1,0,90,0,0
117397,-107.52688172043,4,1,0,90,0,0
117522,-76.9230769230769,4,1,0,90,0,0
117648,-83.3333333333333,4,1,0,90,0,0
117710,-84.7457627118644,4,1,0,90,0,0
117773,-86.2068965517241,4,1,0,90,0,0
117898,-87.719298245614,4,1,0,90,0,0
118023,-89.2857142857143,4,1,0,90,0,0
118148,-90.9090909090909,4,1,0,90,0,0
118210,-92.5925925925926,4,1,0,90,0,0
118273,-94.3396226415094,4,1,0,90,0,0
118398,-96.1538461538461,4,1,0,90,0,0
118523,-98.0392156862745,4,1,0,90,0,0
118648,-100,4,1,0,90,0,0
118710,-102.040816326531,4,1,0,90,0,0
118773,-104.166666666667,4,1,0,90,0,0
118835,-106.382978723404,4,1,0,90,0,0
118898,-108.695652173913,4,1,0,90,0,0
119023,-111.111111111111,4,1,0,90,0,0
119085,-113.636363636364,4,1,0,90,0,0
119148,-116.279069767442,4,1,0,90,0,0
119210,-119.047619047619,4,1,0,90,0,0
119273,-121.951219512195,4,1,0,90,0,0
119335,-125,4,1,0,90,0,0
119398,-128.205128205128,4,1,0,90,0,0
119460,-131.578947368421,4,1,0,90,0,0
119492,-135.135135135135,4,1,0,45,0,0
127461,-100,4,1,0,90,0,0
127649,-102.040816326531,4,1,0,90,0,0
127774,-104.166666666667,4,1,0,90,0,0
127836,-106.382978723404,4,1,0,90,0,0
127899,-108.695652173913,4,1,0,90,0,0
127961,-111.111111111111,4,1,0,90,0,0
128024,-95.2380952380952,4,1,0,90,0,0
128149,-97.0873786407767,4,1,0,90,0,0
128274,-99.009900990099,4,1,0,90,0,0
128336,-101.010101010101,4,1,0,90,0,0
128399,-103.092783505155,4,1,0,90,0,0
128461,-105.263157894737,4,1,0,90,0,0
128524,-90.9090909090909,4,1,0,90,0,0
128649,-92.5925925925926,4,1,0,90,0,0
128774,-94.3396226415094,4,1,0,90,0,0
128836,-96.1538461538461,4,1,0,90,0,0
128899,-98.0392156862745,4,1,0,90,0,0
128961,-100,4,1,0,90,0,0
129024,-86.9565217391304,4,1,0,90,0,0
129149,-88.4955752212389,4,1,0,90,0,0
129211,-90.0900900900901,4,1,0,90,0,0
129274,-91.743119266055,4,1,0,90,0,0
129336,-93.4579439252336,4,1,0,90,0,0
129399,-95.2380952380952,4,1,0,90,0,0
129461,-97.0873786407767,4,1,0,90,0,0
129524,-83.3333333333333,4,1,0,90,0,0
129649,-84.7457627118644,4,1,0,90,0,0
129774,-86.2068965517241,4,1,0,90,0,0
129836,-87.719298245614,4,1,0,90,0,0
129899,-89.2857142857143,4,1,0,90,0,0
129961,-90.9090909090909,4,1,0,90,0,0
130024,-80,4,1,0,90,0,0
130149,-81.3008130081301,4,1,0,90,0,0
130274,-82.6446280991736,4,1,0,90,0,0
130336,-84.0336134453781,4,1,0,90,0,0
130399,-85.4700854700855,4,1,0,90,0,0
130461,-86.9565217391304,4,1,0,90,0,0
130524,-76.9230769230769,4,1,0,90,0,0
130649,-78.125,4,1,0,90,0,0
130774,-79.3650793650794,4,1,0,90,0,0
130836,-80.6451612903226,4,1,0,90,0,0
130899,-81.9672131147541,4,1,0,90,0,0
130961,-83.3333333333333,4,1,0,90,0,0
131024,-74.0740740740741,4,1,0,90,0,0
131149,-75.187969924812,4,1,0,90,0,0
131211,-76.3358778625954,4,1,0,90,0,0
131274,-77.5193798449612,4,1,0,90,0,0
131336,-78.7401574803149,4,1,0,90,0,0
131399,-80,4,1,0,90,0,0
131461,-81.3008130081301,4,1,0,90,0,0
131524,-71.4285714285714,4,1,0,90,0,0
131649,-72.463768115942,4,1,0,90,0,0
131774,-73.5294117647059,4,1,0,90,0,0
131836,-74.6268656716418,4,1,0,90,0,0
131899,-75.7575757575758,4,1,0,90,0,0
131961,-76.9230769230769,4,1,0,90,0,0
132024,-68.9655172413793,4,1,0,90,0,0
132149,-69.9300699300699,4,1,0,90,0,0
132274,-70.9219858156028,4,1,0,90,0,0
132336,-71.9424460431655,4,1,0,90,0,0
132399,-72.992700729927,4,1,0,90,0,0
132461,-74.0740740740741,4,1,0,90,0,0
132524,-66.6666666666667,4,1,0,90,0,0
132649,-67.5675675675676,4,1,0,90,0,0
132774,-68.4931506849315,4,1,0,90,0,0
132836,-69.4444444444444,4,1,0,90,0,0
132899,-70.4225352112676,4,1,0,90,0,0
132961,-71.4285714285714,4,1,0,90,0,0
133024,-64.5161290322581,4,1,0,90,0,0
133149,-66.6666666666667,4,1,0,90,0,0
133211,-68.9655172413793,4,1,0,90,0,0
133274,-71.4285714285714,4,1,0,90,0,0
133399,-74.0740740740741,4,1,0,90,0,0
133524,-76.9230769230769,4,1,0,90,0,0
134524,-111.111111111111,4,1,0,70,0,0
135524,-100,4,1,0,70,0,0
135774,-111.111111111111,4,1,0,70,0,0
137524,-100,4,1,0,70,0,0
137774,-111.111111111111,4,1,0,70,0,0
139524,-100,4,1,0,70,0,0
139774,-111.111111111111,4,1,0,70,0,0
141524,-100,4,1,0,70,0,0
141774,-111.111111111111,4,1,0,70,0,0
143524,-100,4,1,0,70,0,0
143774,-111.111111111111,4,1,0,70,0,0
145524,-100,4,1,0,70,0,0
145774,-111.111111111111,4,1,0,70,0,0
147524,-100,4,1,0,70,0,0
147774,-111.111111111111,4,1,0,70,0,0
149524,-100,4,1,0,70,0,0
149774,-111.111111111111,4,1,0,70,0,0
151399,-111.111111111111,4,1,0,100,0,0
151524,-71.4285714285714,4,1,0,100,0,1
151649,-83.3333333333333,4,1,0,100,0,1
151774,-86.9565217391304,4,1,0,100,0,1
151836,-90.9090909090909,4,1,0,100,0,1
151899,-95.2380952380952,4,1,0,100,0,1
151961,-100,4,1,0,100,0,1
152024,-66.6666666666667,4,1,0,100,0,1
152149,-83.3333333333333,4,1,0,100,0,1
152274,-86.9565217391304,4,1,0,100,0,1
152336,-90.9090909090909,4,1,0,100,0,1
152399,-95.2380952380952,4,1,0,100,0,1
152461,-100,4,1,0,100,0,1
152524,-62.5,4,1,0,100,0,1
152649,-83.3333333333333,4,1,0,100,0,1
152774,-86.9565217391304,4,1,0,100,0,1
152836,-90.9090909090909,4,1,0,100,0,1
152899,-95.2380952380952,4,1,0,100,0,1
152961,-100,4,1,0,100,0,1
153024,-58.8235294117647,4,1,0,100,0,1
153149,-83.3333333333333,4,1,0,100,0,1
153211,-86.2068965517241,4,1,0,100,0,1
153274,-89.2857142857143,4,1,0,100,0,1
153336,-92.5925925925926,4,1,0,100,0,1
153399,-96.1538461538461,4,1,0,100,0,1
153461,-100,4,1,0,100,0,1
153524,-71.4285714285714,4,1,0,100,0,1
153649,-83.3333333333333,4,1,0,100,0,1
153774,-86.9565217391304,4,1,0,100,0,1
153836,-90.9090909090909,4,1,0,100,0,1
153899,-95.2380952380952,4,1,0,100,0,1
153961,-100,4,1,0,100,0,1
154024,-66.6666666666667,4,1,0,100,0,1
154149,-83.3333333333333,4,1,0,100,0,1
154274,-86.9565217391304,4,1,0,100,0,1
154336,-90.9090909090909,4,1,0,100,0,1
154399,-95.2380952380952,4,1,0,100,0,1
154461,-100,4,1,0,100,0,1
154524,-62.5,4,1,0,100,0,1
154649,-83.3333333333333,4,1,0,100,0,1
154774,-86.9565217391304,4,1,0,100,0,1
154836,-90.9090909090909,4,1,0,100,0,1
154899,-95.2380952380952,4,1,0,100,0,1
154961,-100,4,1,0,100,0,1
155024,-58.8235294117647,4,1,0,100,0,1
155149,-83.3333333333333,4,1,0,100,0,1
155190,-86.9565217391304,4,1,0,100,0,1
155232,-90.9090909090909,4,1,0,100,0,1
155274,-95.2380952380952,4,1,0,100,0,1
155399,-100,4,1,0,100,0,1
155524,-71.4285714285714,4,1,0,100,0,1
155649,-83.3333333333333,4,1,0,100,0,1
155774,-86.9565217391304,4,1,0,100,0,1
155836,-90.9090909090909,4,1,0,100,0,1
155899,-95.2380952380952,4,1,0,100,0,1
155961,-100,4,1,0,100,0,1
156024,-66.6666666666667,4,1,0,100,0,1
156149,-83.3333333333333,4,1,0,100,0,1
156274,-86.9565217391304,4,1,0,100,0,1
156336,-90.9090909090909,4,1,0,100,0,1
156399,-95.2380952380952,4,1,0,100,0,1
156461,-100,4,1,0,100,0,1
156524,-62.5,4,1,0,100,0,1
156649,-83.3333333333333,4,1,0,100,0,1
156774,-86.9565217391304,4,1,0,100,0,1
156836,-90.9090909090909,4,1,0,100,0,1
156899,-95.2380952380952,4,1,0,100,0,1
156961,-100,4,1,0,100,0,1
157024,-58.8235294117647,4,1,0,100,0,1
157149,-83.3333333333333,4,1,0,100,0,1
157211,-86.2068965517241,4,1,0,100,0,1
157274,-89.2857142857143,4,1,0,100,0,1
157336,-92.5925925925926,4,1,0,100,0,1
157399,-96.1538461538461,4,1,0,100,0,1
157461,-100,4,1,0,100,0,1
157524,-71.4285714285714,4,1,0,100,0,1
157649,-83.3333333333333,4,1,0,100,0,1
157774,-86.9565217391304,4,1,0,100,0,1
157836,-90.9090909090909,4,1,0,100,0,1
157899,-95.2380952380952,4,1,0,100,0,1
157961,-100,4,1,0,100,0,1
158024,-66.6666666666667,4,1,0,100,0,1
158149,-83.3333333333333,4,1,0,100,0,1
158274,-86.9565217391304,4,1,0,100,0,1
158336,-90.9090909090909,4,1,0,100,0,1
158399,-95.2380952380952,4,1,0,100,0,1
158461,-100,4,1,0,100,0,1
158524,-62.5,4,1,0,100,0,1
158649,-83.3333333333333,4,1,0,100,0,1
158774,-86.9565217391304,4,1,0,100,0,1
158836,-90.9090909090909,4,1,0,100,0,1
158899,-95.2380952380952,4,1,0,100,0,1
158961,-100,4,1,0,100,0,1
159024,-58.8235294117647,4,1,0,100,0,1
159149,-90.9090909090909,4,1,0,100,0,1
159274,-95.2380952380952,4,1,0,100,0,1
159399,-100,4,1,0,100,0,1
159524,-71.4285714285714,4,1,0,100,0,1
159648,-83.3333333333333,4,1,0,100,0,1
159773,-86.9565217391304,4,1,0,100,0,1
159835,-90.9090909090909,4,1,0,100,0,1
159898,-95.2380952380952,4,1,0,100,0,1
159960,-100,4,1,0,100,0,1
160023,-66.6666666666667,4,1,0,100,0,1
160148,-83.3333333333333,4,1,0,100,0,1
160273,-86.9565217391304,4,1,0,100,0,1
160335,-90.9090909090909,4,1,0,100,0,1
160398,-95.2380952380952,4,1,0,100,0,1
160460,-100,4,1,0,100,0,1
160523,-62.5,4,1,0,100,0,1
160648,-83.3333333333333,4,1,0,100,0,1
160773,-86.9565217391304,4,1,0,100,0,1
160835,-90.9090909090909,4,1,0,100,0,1
160898,-95.2380952380952,4,1,0,100,0,1
160960,-100,4,1,0,100,0,1
161023,-58.8235294117647,4,1,0,100,0,1
161148,-83.3333333333333,4,1,0,100,0,1
161210,-86.2068965517241,4,1,0,100,0,1
161273,-89.2857142857143,4,1,0,100,0,1
161335,-92.5925925925926,4,1,0,100,0,1
161398,-96.1538461538461,4,1,0,100,0,1
161460,-100,4,1,0,100,0,1
161523,-71.4285714285714,4,1,0,100,0,1
161648,-83.3333333333333,4,1,0,100,0,1
161773,-86.9565217391304,4,1,0,100,0,1
161835,-90.9090909090909,4,1,0,100,0,1
161898,-95.2380952380952,4,1,0,100,0,1
161960,-100,4,1,0,100,0,1
162023,-66.6666666666667,4,1,0,100,0,1
162148,-83.3333333333333,4,1,0,100,0,1
162273,-86.9565217391304,4,1,0,100,0,1
162335,-90.9090909090909,4,1,0,100,0,1
162398,-95.2380952380952,4,1,0,100,0,1
162460,-100,4,1,0,100,0,1
162523,-62.5,4,1,0,100,0,1
162648,-83.3333333333333,4,1,0,100,0,1
162773,-86.9565217391304,4,1,0,100,0,1
162835,-90.9090909090909,4,1,0,100,0,1
162898,-95.2380952380952,4,1,0,100,0,1
162960,-100,4,1,0,100,0,1
163023,-58.8235294117647,4,1,0,100,0,1
163148,-83.3333333333333,4,1,0,100,0,1
163189,-86.9565217391304,4,1,0,100,0,1
163231,-90.9090909090909,4,1,0,100,0,1
163273,-95.2380952380952,4,1,0,100,0,1
163398,-100,4,1,0,100,0,1
163523,-71.4285714285714,4,1,0,100,0,1
163648,-83.3333333333333,4,1,0,100,0,1
163773,-86.9565217391304,4,1,0,100,0,1
163835,-90.9090909090909,4,1,0,100,0,1
163898,-95.2380952380952,4,1,0,100,0,1
163960,-100,4,1,0,100,0,1
164023,-66.6666666666667,4,1,0,100,0,1
164148,-83.3333333333333,4,1,0,100,0,1
164273,-86.9565217391304,4,1,0,100,0,1
164335,-90.9090909090909,4,1,0,100,0,1
164398,-95.2380952380952,4,1,0,100,0,1
164460,-100,4,1,0,100,0,1
164523,-62.5,4,1,0,100,0,1
164648,-83.3333333333333,4,1,0,100,0,1
164773,-86.9565217391304,4,1,0,100,0,1
164835,-90.9090909090909,4,1,0,100,0,1
164898,-95.2380952380952,4,1,0,100,0,1
164960,-100,4,1,0,100,0,1
165023,-58.8235294117647,4,1,0,100,0,1
165148,-83.3333333333333,4,1,0,100,0,1
165210,-86.2068965517241,4,1,0,100,0,1
165273,-89.2857142857143,4,1,0,100,0,1
165335,-92.5925925925926,4,1,0,100,0,1
165398,-96.1538461538461,4,1,0,100,0,1
165460,-100,4,1,0,100,0,1
165523,-71.4285714285714,4,1,0,100,0,1
165648,-83.3333333333333,4,1,0,100,0,1
165773,-86.9565217391304,4,1,0,100,0,1
165835,-90.9090909090909,4,1,0,100,0,1
165898,-95.2380952380952,4,1,0,100,0,1
165960,-100,4,1,0,100,0,1
166023,-66.6666666666667,4,1,0,100,0,1
166148,-83.3333333333333,4,1,0,100,0,1
166273,-86.9565217391304,4,1,0,100,0,1
166335,-90.9090909090909,4,1,0,100,0,1
166398,-95.2380952380952,4,1,0,100,0,1
166460,-100,4,1,0,100,0,1
166524,-62.5,4,1,0,100,0,1
166649,-83.3333333333333,4,1,0,100,0,1
166774,-86.9565217391304,4,1,0,100,0,1
166836,-90.9090909090909,4,1,0,100,0,1
166899,-95.2380952380952,4,1,0,100,0,1
166961,-100,4,1,0,100,0,1
167024,-58.8235294117647,4,1,0,100,0,1
167149,-83.3333333333333,4,1,0,100,0,1
167211,-86.9565217391304,4,1,0,100,0,1
167274,-90.9090909090909,4,1,0,100,0,1
167336,-95.2380952380952,4,1,0,100,0,1
167399,-100,4,1,0,100,0,1
167461,-105.263157894737,4,1,0,100,0,1
167524,-83.3333333333333,4,1,0,100,0,1
167649,-90.9090909090909,4,1,0,100,0,1
167899,-83.3333333333333,4,1,0,100,0,1
168024,-90.9090909090909,4,1,0,100,0,1
168274,-83.3333333333333,4,1,0,100,0,1
168399,-90.9090909090909,4,1,0,100,0,1
168524,-83.3333333333333,4,1,0,100,0,1
168649,-90.9090909090909,4,1,0,100,0,1
168899,-83.3333333333333,4,1,0,100,0,1
169024,-90.9090909090909,4,1,0,100,0,1
169274,-83.3333333333333,4,1,0,100,0,1
169399,-90.9090909090909,4,1,0,100,0,1
169524,-83.3333333333333,4,1,0,100,0,1
169649,-90.9090909090909,4,1,0,100,0,1
169899,-83.3333333333333,4,1,0,100,0,1
170024,-90.9090909090909,4,1,0,100,0,1
170274,-83.3333333333333,4,1,0,100,0,1
170399,-90.9090909090909,4,1,0,100,0,1
170524,-83.3333333333333,4,1,0,100,0,1
170649,-90.9090909090909,4,1,0,100,0,1
171524,-83.3333333333333,4,1,0,100,0,1
171649,-90.9090909090909,4,1,0,100,0,1
171899,-83.3333333333333,4,1,0,100,0,1
172024,-90.9090909090909,4,1,0,100,0,1
172274,-83.3333333333333,4,1,0,100,0,1
172399,-90.9090909090909,4,1,0,100,0,1
172524,-83.3333333333333,4,1,0,100,0,1
172649,-90.9090909090909,4,1,0,100,0,1
172899,-83.3333333333333,4,1,0,100,0,1
173024,-90.9090909090909,4,1,0,100,0,1
173274,-83.3333333333333,4,1,0,100,0,1
173399,-90.9090909090909,4,1,0,100,0,1
173524,-83.3333333333333,4,1,0,100,0,1
173649,-90.9090909090909,4,1,0,100,0,1
173899,-83.3333333333333,4,1,0,100,0,1
174024,-90.9090909090909,4,1,0,100,0,1
174274,-83.3333333333333,4,1,0,100,0,1
174399,-90.9090909090909,4,1,0,100,0,1
174524,-83.3333333333333,4,1,0,100,0,1
174649,-90.9090909090909,4,1,0,100,0,1
175524,-83.3333333333333,4,1,0,100,0,1
175649,-90.9090909090909,4,1,0,100,0,1
175899,-83.3333333333333,4,1,0,100,0,1
176024,-90.9090909090909,4,1,0,100,0,1
176274,-83.3333333333333,4,1,0,100,0,1
176399,-90.9090909090909,4,1,0,100,0,1
176524,-83.3333333333333,4,1,0,100,0,1
176649,-90.9090909090909,4,1,0,100,0,1
176899,-83.3333333333333,4,1,0,100,0,1
177024,-90.9090909090909,4,1,0,100,0,1
177274,-83.3333333333333,4,1,0,100,0,1
177399,-90.9090909090909,4,1,0,100,0,1
177524,-83.3333333333333,4,1,0,100,0,1
177649,-90.9090909090909,4,1,0,100,0,1
177899,-83.3333333333333,4,1,0,100,0,1
178024,-90.9090909090909,4,1,0,100,0,1
178274,-83.3333333333333,4,1,0,100,0,1
178399,-90.9090909090909,4,1,0,100,0,1
178524,-83.3333333333333,4,1,0,100,0,1
178649,-90.9090909090909,4,1,0,100,0,1
179524,-83.3333333333333,4,1,0,100,0,1
179649,-90.9090909090909,4,1,0,100,0,1
179899,-83.3333333333333,4,1,0,100,0,1
180024,-90.9090909090909,4,1,0,100,0,1
180274,-83.3333333333333,4,1,0,100,0,1
180399,-90.9090909090909,4,1,0,100,0,1
180524,-83.3333333333333,4,1,0,100,0,1
180649,-90.9090909090909,4,1,0,100,0,1
180899,-83.3333333333333,4,1,0,100,0,1
181024,-90.9090909090909,4,1,0,100,0,1
181524,250,48,1,0,5,1,0
181524,-90.9090909090909,48,1,0,5,0,0
193274,-90.9090909090909,4,1,0,80,0,0
193524,250,4,1,0,80,1,0
193524,-100,4,1,0,80,0,0
193774,-111.111111111111,4,1,0,80,0,0
197524,-100,4,1,0,80,0,0
197774,-111.111111111111,4,1,0,80,0,0
201524,-100,4,1,0,80,0,0
201774,-111.111111111111,4,1,0,80,0,0
205524,-100,4,1,0,80,0,0
205774,-111.111111111111,4,1,0,80,0,0

[HitObjects]
256,192,524,5,12,0:0:0:0:
256,192,649,1,0,0:0:0:0:
256,192,711,1,0,0:0:0:0:
256,192,774,1,0,0:0:0:0:
256,192,899,1,8,0:0:0:0:
256,192,1024,1,0,0:0:0:0:
256,192,1149,1,0,0:0:0:0:
256,192,1211,1,0,0:0:0:0:
256,192,1274,1,8,0:0:0:0:
256,192,1399,1,0,0:0:0:0:
256,192,1524,1,12,0:0:0:0:
256,192,1649,1,0,0:0:0:0:
256,192,1711,1,0,0:0:0:0:
256,192,1774,1,0,0:0:0:0:
256,192,1899,1,8,0:0:0:0:
256,192,2024,1,0,0:0:0:0:
256,192,2086,1,0,0:0:0:0:
256,192,2149,1,8,0:0:0:0:
256,192,2211,1,8,0:0:0:0:
256,192,2274,1,0,0:0:0:0:
256,192,2399,1,0,0:0:0:0:
256,192,2524,1,12,0:0:0:0:
256,192,2649,1,0,0:0:0:0:
256,192,2711,1,0,0:0:0:0:
256,192,2774,1,0,0:0:0:0:
256,192,2899,1,8,0:0:0:0:
256,192,3024,1,0,0:0:0:0:
256,192,3149,1,0,0:0:0:0:
256,192,3211,1,0,0:0:0:0:
256,192,3274,1,8,0:0:0:0:
256,192,3399,1,0,0:0:0:0:
256,192,3524,1,12,0:0:0:0:
256,192,3649,1,0,0:0:0:0:
256,192,3711,1,0,0:0:0:0:
256,192,3774,1,0,0:0:0:0:
256,192,3899,1,8,0:0:0:0:
256,192,3961,1,8,0:0:0:0:
256,192,4024,1,0,0:0:0:0:
256,192,4086,1,8,0:0:0:0:
256,192,4149,1,0,0:0:0:0:
256,192,4211,1,0,0:0:0:0:
256,192,4274,1,8,0:0:0:0:
256,192,4399,1,0,0:0:0:0:
256,192,4524,1,12,0:0:0:0:
256,192,4649,1,0,0:0:0:0:
256,192,4711,1,0,0:0:0:0:
256,192,4774,1,0,0:0:0:0:
256,192,4899,1,8,0:0:0:0:
256,192,5024,1,0,0:0:0:0:
256,192,5149,1,0,0:0:0:0:
256,192,5211,1,0,0:0:0:0:
256,192,5274,1,8,0:0:0:0:
256,192,5399,1,0,0:0:0:0:
256,192,5524,1,12,0:0:0:0:
256,192,5649,1,0,0:0:0:0:
256,192,5711,1,0,0:0:0:0:
256,192,5774,1,0,0:0:0:0:
256,192,5899,1,8,0:0:0:0:
256,192,6024,1,0,0:0:0:0:
256,192,6149,1,8,0:0:0:0:
256,192,6274,1,8,0:0:0:0:
256,192,6399,1,8,0:0:0:0:
256,192,6524,1,0,0:0:0:0:
256,192,7524,1,4,0:0:0:0:
256,192,7774,1,8,0:0:0:0:
256,192,7857,1,8,0:0:0:0:
256,192,7940,1,8,0:0:0:0:
256,192,8024,1,0,0:0:0:0:
256,192,8149,1,8,0:0:0:0:
256,192,8274,1,0,0:0:0:0:
256,192,8399,1,0,0:0:0:0:
256,192,8524,1,8,0:0:0:0:
256,192,8649,1,0,0:0:0:0:
256,192,8774,1,8,0:0:0:0:
256,192,8899,1,8,0:0:0:0:
256,192,9024,1,0,0:0:0:0:
256,192,9274,1,8,0:0:0:0:
256,192,9399,1,0,0:0:0:0:
256,192,9524,1,8,0:0:0:0:
256,192,9774,1,0,0:0:0:0:
256,192,9857,1,8,0:0:0:0:
256,192,9940,1,8,0:0:0:0:
256,192,10024,1,0,0:0:0:0:
256,192,10149,1,8,0:0:0:0:
256,192,10274,1,0,0:0:0:0:
256,192,10399,1,0,0:0:0:0:
256,192,10524,1,8,0:0:0:0:
256,192,10649,1,0,0:0:0:0:
256,192,10774,1,8,0:0:0:0:
256,192,10899,1,8,0:0:0:0:
256,192,11024,1,0,0:0:0:0:
256,192,11149,1,8,0:0:0:0:
256,192,11274,1,8,0:0:0:0:
256,192,11524,1,4,0:0:0:0:
256,192,11774,1,8,0:0:0:0:
256,192,11857,1,8,0:0:0:0:
256,192,11940,1,8,0:0:0:0:
256,192,12024,1,0,0:0:0:0:
256,192,12149,1,8,0:0:0:0:
256,192,12274,1,0,0:0:0:0:
256,192,12399,1,0,0:0:0:0:
256,192,12524,1,8,0:0:0:0:
256,192,12649,1,0,0:0:0:0:
256,192,12774,1,8,0:0:0:0:
256,192,12899,1,8,0:0:0:0:
256,192,13024,1,0,0:0:0:0:
256,192,13274,1,8,0:0:0:0:
256,192,13399,1,8,0:0:0:0:
256,192,13524,1,8,0:0:0:0:
256,192,13774,1,0,0:0:0:0:
256,192,13857,1,0,0:0:0:0:
256,192,13940,1,0,0:0:0:0:
256,192,14024,1,8,0:0:0:0:
256,192,14149,1,0,0:0:0:0:
256,192,14274,1,8,0:0:0:0:
256,192,14399,1,8,0:0:0:0:
256,192,14524,1,0,0:0:0:0:
256,192,14649,1,8,0:0:0:0:
256,192,14774,1,0,0:0:0:0:
256,192,14899,1,0,0:0:0:0:
256,192,15024,1,8,0:0:0:0:
256,192,15274,1,8,0:0:0:0:
256,192,15399,1,8,0:0:0:0:
256,192,15524,1,4,0:0:0:0:
256,192,15774,1,8,0:0:0:0:
256,192,15857,1,8,0:0:0:0:
256,192,15940,1,8,0:0:0:0:
256,192,16024,1,0,0:0:0:0:
256,192,16149,1,8,0:0:0:0:
256,192,16274,1,0,0:0:0:0:
256,192,16399,1,0,0:0:0:0:
256,192,16524,1,8,0:0:0:0:
256,192,16649,1,0,0:0:0:0:
256,192,16774,1,8,0:0:0:0:
256,192,16899,1,8,0:0:0:0:
256,192,17024,1,0,0:0:0:0:
256,192,17274,1,8,0:0:0:0:
256,192,17399,1,0,0:0:0:0:
256,192,17524,1,8,0:0:0:0:
256,192,17774,1,0,0:0:0:0:
256,192,17857,1,8,0:0:0:0:
256,192,17940,1,8,0:0:0:0:
256,192,18024,1,0,0:0:0:0:
256,192,18149,1,8,0:0:0:0:
256,192,18274,1,0,0:0:0:0:
256,192,18399,1,0,0:0:0:0:
256,192,18524,1,8,0:0:0:0:
256,192,18649,1,0,0:0:0:0:
256,192,18774,1,8,0:0:0:0:
256,192,18899,1,8,0:0:0:0:
256,192,19024,1,0,0:0:0:0:
256,192,19149,1,8,0:0:0:0:
256,192,19274,1,8,0:0:0:0:
256,192,19524,1,4,0:0:0:0:
256,192,19774,1,8,0:0:0:0:
256,192,19857,1,8,0:0:0:0:
256,192,19940,1,8,0:0:0:0:
256,192,20024,1,0,0:0:0:0:
256,192,20149,1,8,0:0:0:0:
256,192,20274,1,0,0:0:0:0:
256,192,20399,1,0,0:0:0:0:
256,192,20524,1,8,0:0:0:0:
256,192,20649,1,0,0:0:0:0:
256,192,20774,1,8,0:0:0:0:
256,192,20899,1,8,0:0:0:0:
256,192,21024,1,0,0:0:0:0:
256,192,21274,1,8,0:0:0:0:
256,192,21399,1,8,0:0:0:0:
256,192,21524,1,8,0:0:0:0:
256,192,21774,1,0,0:0:0:0:
256,192,21857,1,0,0:0:0:0:
256,192,21940,1,0,0:0:0:0:
256,192,22024,1,8,0:0:0:0:
256,192,22149,1,0,0:0:0:0:
256,192,22274,1,8,0:0:0:0:
256,192,22399,1,8,0:0:0:0:
256,192,22524,1,0,0:0:0:0:
256,192,22649,1,8,0:0:0:0:
256,192,22774,1,0,0:0:0:0:
256,192,22899,1,0,0:0:0:0:
256,192,23024,1,8,0:0:0:0:
256,192,23274,1,8,0:0:0:0:
256,192,23399,1,8,0:0:0:0:
256,192,23524,1,4,0:0:0:0:
256,192,23774,1,8,0:0:0:0:
256,192,24024,1,0,0:0:0:0:
256,192,24149,1,8,0:0:0:0:
256,192,24399,1,8,0:0:0:0:
256,192,24524,1,0,0:0:0:0:
256,192,25024,1,0,0:0:0:0:
256,192,25524,1,0,0:0:0:0:
256,192,25649,1,0,0:0:0:0:
256,192,25774,1,8,0:0:0:0:
256,192,26024,1,0,0:0:0:0:
256,192,26149,1,8,0:0:0:0:
256,192,26399,1,8,0:0:0:0:
256,192,26524,1,0,0:0:0:0:
256,192,27024,1,0,0:0:0:0:
256,192,27524,1,0,0:0:0:0:
256,192,27774,1,8,0:0:0:0:
256,192,28024,1,0,0:0:0:0:
256,192,28149,1,8,0:0:0:0:
256,192,28399,1,8,0:0:0:0:
256,192,28524,1,0,0:0:0:0:
256,192,29024,1,0,0:0:0:0:
256,192,29524,1,0,0:0:0:0:
256,192,29649,1,0,0:0:0:0:
256,192,29774,1,8,0:0:0:0:
256,192,30024,1,0,0:0:0:0:
256,192,30149,1,8,0:0:0:0:
256,192,30399,1,8,0:0:0:0:
256,192,30524,1,0,0:0:0:0:
256,192,30649,1,8,0:0:0:0:
256,192,30774,1,8,0:0:0:0:
256,192,31024,1,0,0:0:0:0:
256,192,31524,1,0,0:0:0:0:
256,192,31774,1,8,0:0:0:0:
256,192,32024,1,0,0:0:0:0:
256,192,32149,1,8,0:0:0:0:
256,192,32399,1,8,0:0:0:0:
256,192,32524,1,0,0:0:0:0:
256,192,33024,1,0,0:0:0:0:
256,192,33524,1,0,0:0:0:0:
256,192,33649,1,0,0:0:0:0:
256,192,33774,1,8,0:0:0:0:
256,192,34024,1,0,0:0:0:0:
256,192,34149,1,8,0:0:0:0:
256,192,34399,1,8,0:0:0:0:
256,192,34524,1,0,0:0:0:0:
256,192,35024,1,0,0:0:0:0:
256,192,35524,1,0,0:0:0:0:
256,192,35774,1,8,0:0:0:0:
256,192,36024,1,0,0:0:0:0:
256,192,36149,1,8,0:0:0:0:
256,192,36399,1,8,0:0:0:0:
256,192,36524,1,0,0:0:0:0:
256,192,37024,1,0,0:0:0:0:
256,192,37524,1,0,0:0:0:0:
256,192,37649,1,0,0:0:0:0:
256,192,37774,1,8,0:0:0:0:
256,192,38024,1,0,0:0:0:0:
256,192,38149,1,8,0:0:0:0:
256,192,38399,1,8,0:0:0:0:
256,192,38524,1,0,0:0:0:0:
256,192,38649,1,8,0:0:0:0:
256,192,38774,1,8,0:0:0:0:
256,192,39024,1,0,0:0:0:0:
256,192,39524,1,12,0:0:0:0:
256,192,39649,1,0,0:0:0:0:
256,192,39711,1,0,0:0:0:0:
256,192,39774,1,0,0:0:0:0:
256,192,39899,1,8,0:0:0:0:
256,192,40024,1,0,0:0:0:0:
256,192,40149,1,0,0:0:0:0:
256,192,40211,1,0,0:0:0:0:
256,192,40274,1,8,0:0:0:0:
256,192,40399,1,0,0:0:0:0:
256,192,40524,1,12,0:0:0:0:
256,192,40649,1,0,0:0:0:0:
256,192,40711,1,0,0:0:0:0:
256,192,40774,1,0,0:0:0:0:
256,192,40899,1,8,0:0:0:0:
256,192,41024,1,0,0:0:0:0:
256,192,41086,1,0,0:0:0:0:
256,192,41149,1,8,0:0:0:0:
256,192,41211,1,8,0:0:0:0:
256,192,41274,1,0,0:0:0:0:
256,192,41399,1,0,0:0:0:0:
256,192,41524,1,12,0:0:0:0:
256,192,41649,1,0,0:0:0:0:
256,192,41711,1,0,0:0:0:0:
256,192,41774,1,0,0:0:0:0:
256,192,41899,1,8,0:0:0:0:
256,192,42024,1,0,0:0:0:0:
256,192,42149,1,0,0:0:0:0:
256,192,42211,1,0,0:0:0:0:
256,192,42274,1,8,0:0:0:0:
256,192,42399,1,0,0:0:0:0:
256,192,42524,1,12,0:0:0:0:
256,192,42649,1,0,0:0:0:0:
256,192,42711,1,0,0:0:0:0:
256,192,42774,1,0,0:0:0:0:
256,192,42899,1,8,0:0:0:0:
256,192,42961,1,8,0:0:0:0:
256,192,43024,1,0,0:0:0:0:
256,192,43086,1,8,0:0:0:0:
256,192,43149,1,0,0:0:0:0:
256,192,43211,1,0,0:0:0:0:
256,192,43274,1,8,0:0:0:0:
256,192,43399,1,0,0:0:0:0:
256,192,43524,1,12,0:0:0:0:
256,192,43649,1,0,0:0:0:0:
256,192,43711,1,0,0:0:0:0:
256,192,43774,1,0,0:0:0:0:
256,192,43899,1,8,0:0:0:0:
256,192,44024,1,0,0:0:0:0:
256,192,44149,1,8,0:0:0:0:
256,192,44211,1,8,0:0:0:0:
256,192,44274,1,0,0:0:0:0:
256,192,44399,1,0,0:0:0:0:
256,192,44524,1,12,0:0:0:0:
256,192,44649,1,0,0:0:0:0:
256,192,44711,1,0,0:0:0:0:
256,192,44774,1,0,0:0:0:0:
256,192,44899,1,8,0:0:0:0:
256,192,45024,1,0,0:0:0:0:
256,192,45086,1,8,0:0:0:0:
256,192,45149,1,0,0:0:0:0:
256,192,45211,1,0,0:0:0:0:
256,192,45274,1,8,0:0:0:0:
256,192,45399,1,0,0:0:0:0:
256,192,45524,1,12,0:0:0:0:
256,192,45649,1,0,0:0:0:0:
256,192,45711,1,0,0:0:0:0:
256,192,45774,1,0,0:0:0:0:
256,192,45899,1,8,0:0:0:0:
256,192,46024,1,0,0:0:0:0:
256,192,46149,1,8,0:0:0:0:
256,192,46211,1,8,0:0:0:0:
256,192,46274,1,0,0:0:0:0:
256,192,46399,1,0,0:0:0:0:
256,192,46524,1,8,0:0:0:0:
256,192,46649,1,0,0:0:0:0:
256,192,46711,1,8,0:0:0:0:
256,192,46774,1,0,0:0:0:0:
256,192,46836,1,0,0:0:0:0:
256,192,46899,1,8,0:0:0:0:
256,192,47024,1,0,0:0:0:0:
256,192,47086,1,0,0:0:0:0:
256,192,47149,1,8,0:0:0:0:
256,192,47211,1,8,0:0:0:0:
256,192,47274,1,0,0:0:0:0:
256,192,47399,1,0,0:0:0:0:
256,192,47524,1,12,0:0:0:0:
256,192,47649,1,0,0:0:0:0:
256,192,47711,1,0,0:0:0:0:
256,192,47774,1,0,0:0:0:0:
256,192,47899,1,8,0:0:0:0:
256,192,48024,1,0,0:0:0:0:
256,192,48149,1,0,0:0:0:0:
256,192,48211,1,0,0:0:0:0:
256,192,48274,1,8,0:0:0:0:
256,192,48399,1,0,0:0:0:0:
256,192,48524,1,12,0:0:0:0:
256,192,48649,1,0,0:0:0:0:
256,192,48711,1,0,0:0:0:0:
256,192,48774,1,0,0:0:0:0:
256,192,48899,1,8,0:0:0:0:
256,192,49024,1,0,0:0:0:0:
256,192,49086,1,0,0:0:0:0:
256,192,49149,1,8,0:0:0:0:
256,192,49211,1,8,0:0:0:0:
256,192,49274,1,0,0:0:0:0:
256,192,49399,1,0,0:0:0:0:
256,192,49524,1,12,0:0:0:0:
256,192,49649,1,0,0:0:0:0:
256,192,49711,1,0,0:0:0:0:
256,192,49774,1,0,0:0:0:0:
256,192,49899,1,8,0:0:0:0:
256,192,50024,1,0,0:0:0:0:
256,192,50149,1,0,0:0:0:0:
256,192,50211,1,0,0:0:0:0:
256,192,50274,1,8,0:0:0:0:
256,192,50399,1,0,0:0:0:0:
256,192,50524,1,12,0:0:0:0:
256,192,50649,1,0,0:0:0:0:
256,192,50711,1,0,0:0:0:0:
256,192,50774,1,0,0:0:0:0:
256,192,50899,1,8,0:0:0:0:
256,192,50961,1,8,0:0:0:0:
256,192,51024,1,0,0:0:0:0:
256,192,51086,1,8,0:0:0:0:
256,192,51149,1,0,0:0:0:0:
256,192,51211,1,0,0:0:0:0:
256,192,51274,1,8,0:0:0:0:
256,192,51399,1,0,0:0:0:0:
256,192,51524,1,12,0:0:0:0:
256,192,51649,1,0,0:0:0:0:
256,192,51711,1,0,0:0:0:0:
256,192,51774,1,0,0:0:0:0:
256,192,51899,1,8,0:0:0:0:
256,192,52024,1,0,0:0:0:0:
256,192,52149,1,8,0:0:0:0:
256,192,52211,1,8,0:0:0:0:
256,192,52274,1,0,0:0:0:0:
256,192,52399,1,0,0:0:0:0:
256,192,52524,1,12,0:0:0:0:
256,192,52649,1,0,0:0:0:0:
256,192,52711,1,0,0:0:0:0:
256,192,52774,1,0,0:0:0:0:
256,192,52899,1,8,0:0:0:0:
256,192,53024,1,0,0:0:0:0:
256,192,53086,1,8,0:0:0:0:
256,192,53149,1,0,0:0:0:0:
256,192,53211,1,0,0:0:0:0:
256,192,53274,1,8,0:0:0:0:
256,192,53399,1,8,0:0:0:0:
256,192,53524,1,0,0:0:0:0:
256,192,55524,1,4,0:0:0:0:
256,192,55649,1,0,0:0:0:0:
256,192,55774,1,8,0:0:0:0:
256,192,55836,1,8,0:0:0:0:
256,192,55899,1,8,0:0:0:0:
256,192,55961,1,8,0:0:0:0:
256,192,56024,1,4,0:0:0:0:
256,192,56149,1,0,0:0:0:0:
256,192,56274,1,8,0:0:0:0:
256,192,56336,1,0,0:0:0:0:
256,192,56399,1,8,0:0:0:0:
256,192,56461,1,8,0:0:0:0:
256,192,56524,1,4,0:0:0:0:
256,192,56649,1,0,0:0:0:0:
256,192,56774,1,8,0:0:0:0:
256,192,56836,1,8,0:0:0:0:
256,192,56899,1,8,0:0:0:0:
256,192,56961,1,8,0:0:0:0:
256,192,57024,1,4,0:0:0:0:
256,192,57149,1,0,0:0:0:0:
256,192,57211,1,0,0:0:0:0:
256,192,57274,1,8,0:0:0:0:
256,192,57336,1,0,0:0:0:0:
256,192,57399,1,8,0:0:0:0:
256,192,57461,1,8,0:0:0:0:
256,192,57524,1,4,0:0:0:0:
256,192,57649,1,0,0:0:0:0:
256,192,57774,1,8,0:0:0:0:
256,192,57836,1,8,0:0:0:0:
256,192,57899,1,8,0:0:0:0:
256,192,57961,1,8,0:0:0:0:
256,192,58024,1,4,0:0:0:0:
256,192,58149,1,0,0:0:0:0:
256,192,58274,1,8,0:0:0:0:
256,192,58336,1,0,0:0:0:0:
256,192,58399,1,8,0:0:0:0:
256,192,58461,1,8,0:0:0:0:
256,192,58524,1,4,0:0:0:0:
256,192,58649,1,0,0:0:0:0:
256,192,58774,1,8,0:0:0:0:
256,192,58836,1,8,0:0:0:0:
256,192,58899,1,8,0:0:0:0:
256,192,58961,1,8,0:0:0:0:
256,192,59024,1,4,0:0:0:0:
256,192,59149,1,8,0:0:0:0:
256,192,59190,1,8,0:0:0:0:
256,192,59232,1,0,0:0:0:0:
256,192,59274,1,0,0:0:0:0:
256,192,59399,1,0,0:0:0:0:
256,192,59524,1,12,0:0:0:0:
256,192,59649,1,0,0:0:0:0:
256,192,59774,1,8,0:0:0:0:
256,192,59836,1,8,0:0:0:0:
256,192,59899,1,0,0:0:0:0:
256,192,59961,1,0,0:0:0:0:
256,192,60024,1,12,0:0:0:0:
256,192,60149,1,0,0:0:0:0:
256,192,60274,1,8,0:0:0:0:
256,192,60336,1,0,0:0:0:0:
256,192,60399,1,0,0:0:0:0:
256,192,60461,1,0,0:0:0:0:
256,192,60524,1,12,0:0:0:0:
256,192,60649,1,0,0:0:0:0:
256,192,60774,1,8,0:0:0:0:
256,192,60836,1,8,0:0:0:0:
256,192,60899,1,0,0:0:0:0:
256,192,60961,1,0,0:0:0:0:
256,192,61024,1,12,0:0:0:0:
256,192,61149,1,0,0:0:0:0:
256,192,61211,1,8,0:0:0:0:
256,192,61274,1,8,0:0:0:0:
256,192,61336,1,0,0:0:0:0:
256,192,61399,1,0,0:0:0:0:
256,192,61461,1,0,0:0:0:0:
256,192,61524,1,12,0:0:0:0:
256,192,61649,1,0,0:0:0:0:
256,192,61774,1,8,0:0:0:0:
256,192,61836,1,8,0:0:0:0:
256,192,61899,1,0,0:0:0:0:
256,192,61961,1,0,0:0:0:0:
256,192,62024,1,12,0:0:0:0:
256,192,62149,1,0,0:0:0:0:
256,192,62274,1,8,0:0:0:0:
256,192,62336,1,0,0:0:0:0:
256,192,62399,1,0,0:0:0:0:
256,192,62461,1,0,0:0:0:0:
256,192,62524,1,12,0:0:0:0:
256,192,62649,1,0,0:0:0:0:
256,192,62774,1,8,0:0:0:0:
256,192,62836,1,8,0:0:0:0:
256,192,62899,1,0,0:0:0:0:
256,192,62961,1,0,0:0:0:0:
256,192,63024,1,12,0:0:0:0:
256,192,63149,1,0,0:0:0:0:
256,192,63274,1,8,0:0:0:0:
256,192,63399,1,8,0:0:0:0:
256,192,63524,1,4,0:0:0:0:
256,192,63649,1,0,0:0:0:0:
256,192,63774,1,8,0:0:0:0:
256,192,63836,1,8,0:0:0:0:
256,192,63899,1,8,0:0:0:0:
256,192,63961,1,8,0:0:0:0:
256,192,64024,1,4,0:0:0:0:
256,192,64149,1,0,0:0:0:0:
256,192,64274,1,8,0:0:0:0:
256,192,64336,1,0,0:0:0:0:
256,192,64399,1,8,0:0:0:0:
256,192,64461,1,8,0:0:0:0:
256,192,64524,1,4,0:0:0:0:
256,192,64648,1,0,0:0:0:0:
256,192,64773,1,8,0:0:0:0:
256,192,64836,1,8,0:0:0:0:
256,192,64898,1,8,0:0:0:0:
256,192,64961,1,8,0:0:0:0:
256,192,65023,1,4,0:0:0:0:
256,192,65148,1,0,0:0:0:0:
256,192,65211,1,0,0:0:0:0:
256,192,65273,1,8,0:0:0:0:
256,192,65336,1,0,0:0:0:0:
256,192,65398,1,8,0:0:0:0:
256,192,65461,1,8,0:0:0:0:
256,192,65524,1,4,0:0:0:0:
256,192,65649,1,0,0:0:0:0:
256,192,65774,1,8,0:0:0:0:
256,192,65836,1,8,0:0:0:0:
256,192,65899,1,8,0:0:0:0:
256,192,65961,1,8,0:0:0:0:
256,192,66024,1,4,0:0:0:0:
256,192,66149,1,0,0:0:0:0:
256,192,66274,1,8,0:0:0:0:
256,192,66336,1,0,0:0:0:0:
256,192,66399,1,8,0:0:0:0:
256,192,66461,1,8,0:0:0:0:
256,192,66524,1,4,0:0:0:0:
256,192,66649,1,0,0:0:0:0:
256,192,66774,1,8,0:0:0:0:
256,192,66836,1,8,0:0:0:0:
256,192,66899,1,8,0:0:0:0:
256,192,66961,1,8,0:0:0:0:
256,192,67024,1,4,0:0:0:0:
256,192,67149,1,8,0:0:0:0:
256,192,67190,1,8,0:0:0:0:
256,192,67232,1,0,0:0:0:0:
256,192,67274,1,0,0:0:0:0:
256,192,67399,1,0,0:0:0:0:
256,192,67524,1,12,0:0:0:0:
256,192,67649,1,0,0:0:0:0:
256,192,67774,1,8,0:0:0:0:
256,192,67836,1,8,0:0:0:0:
256,192,67899,1,0,0:0:0:0:
256,192,67961,1,0,0:0:0:0:
256,192,68024,1,12,0:0:0:0:
256,192,68149,1,0,0:0:0:0:
256,192,68274,1,8,0:0:0:0:
256,192,68336,1,0,0:0:0:0:
256,192,68399,1,0,0:0:0:0:
256,192,68461,1,0,0:0:0:0:
256,192,68524,1,12,0:0:0:0:
256,192,68649,1,0,0:0:0:0:
256,192,68774,1,8,0:0:0:0:
256,192,68836,1,8,0:0:0:0:
256,192,68899,1,0,0:0:0:0:
256,192,68961,1,0,0:0:0:0:
256,192,69024,1,12,0:0:0:0:
256,192,69149,1,0,0:0:0:0:
256,192,69211,1,8,0:0:0:0:
256,192,69274,1,8,0:0:0:0:
256,192,69336,1,0,0:0:0:0:
256,192,69399,1,0,0:0:0:0:
256,192,69461,1,0,0:0:0:0:
256,192,69524,1,12,0:0:0:0:
256,192,69649,1,0,0:0:0:0:
256,192,69774,1,8,0:0:0:0:
256,192,69836,1,8,0:0:0:0:
256,192,69899,1,0,0:0:0:0:
256,192,69961,1,0,0:0:0:0:
256,192,70024,1,12,0:0:0:0:
256,192,70149,1,0,0:0:0:0:
256,192,70274,1,8,0:0:0:0:
256,192,70336,1,0,0:0:0:0:
256,192,70399,1,8,0:0:0:0:
256,192,70461,1,8,0:0:0:0:
256,192,71524,1,4,0:0:0:0:
256,192,71774,1,8,0:0:0:0:
256,192,71857,1,8,0:0:0:0:
256,192,71940,1,8,0:0:0:0:
256,192,72024,1,0,0:0:0:0:
256,192,72149,1,8,0:0:0:0:
256,192,72274,1,0,0:0:0:0:
256,192,72399,1,0,0:0:0:0:
256,192,72524,1,8,0:0:0:0:
256,192,72649,1,0,0:0:0:0:
256,192,72774,1,8,0:0:0:0:
256,192,72899,1,8,0:0:0:0:
256,192,73024,1,0,0:0:0:0:
256,192,73274,1,8,0:0:0:0:
256,192,73399,1,0,0:0:0:0:
256,192,73524,1,8,0:0:0:0:
256,192,73774,1,0,0:0:0:0:
256,192,73857,1,8,0:0:0:0:
256,192,73940,1,8,0:0:0:0:
256,192,74024,1,0,0:0:0:0:
256,192,74149,1,8,0:0:0:0:
256,192,74274,1,0,0:0:0:0:
256,192,74399,1,0,0:0:0:0:
256,192,74524,1,8,0:0:0:0:
256,192,74649,1,0,0:0:0:0:
256,192,74774,1,8,0:0:0:0:
256,192,74899,1,8,0:0:0:0:
256,192,75024,1,0,0:0:0:0:
256,192,75149,1,8,0:0:0:0:
256,192,75274,1,8,0:0:0:0:
256,192,75524,1,4,0:0:0:0:
256,192,75774,1,8,0:0:0:0:
256,192,75857,1,8,0:0:0:0:
256,192,75940,1,8,0:0:0:0:
256,192,76024,1,0,0:0:0:0:
256,192,76149,1,8,0:0:0:0:
256,192,76274,1,0,0:0:0:0:
256,192,76399,1,0,0:0:0:0:
256,192,76524,1,8,0:0:0:0:
256,192,76649,1,0,0:0:0:0:
256,192,76774,1,8,0:0:0:0:
256,192,76899,1,8,0:0:0:0:
256,192,77024,1,0,0:0:0:0:
256,192,77274,1,8,0:0:0:0:
256,192,77399,1,8,0:0:0:0:
256,192,77524,1,8,0:0:0:0:
256,192,77774,1,0,0:0:0:0:
256,192,77857,1,0,0:0:0:0:
256,192,77940,1,0,0:0:0:0:
256,192,78024,1,8,0:0:0:0:
256,192,78149,1,0,0:0:0:0:
256,192,78274,1,8,0:0:0:0:
256,192,78399,1,8,0:0:0:0:
256,192,78524,1,0,0:0:0:0:
256,192,78649,1,8,0:0:0:0:
256,192,78774,1,0,0:0:0:0:
256,192,78899,1,0,0:0:0:0:
256,192,79024,1,8,0:0:0:0:
256,192,79274,1,8,0:0:0:0:
256,192,79399,1,8,0:0:0:0:
256,192,79524,1,4,0:0:0:0:
256,192,79774,1,8,0:0:0:0:
256,192,79857,1,8,0:0:0:0:
256,192,79940,1,8,0:0:0:0:
256,192,80024,1,0,0:0:0:0:
256,192,80149,1,8,0:0:0:0:
256,192,80274,1,0,0:0:0:0:
256,192,80399,1,0,0:0:0:0:
256,192,80524,1,8,0:0:0:0:
256,192,80649,1,0,0:0:0:0:
256,192,80774,1,8,0:0:0:0:
256,192,80899,1,8,0:0:0:0:
256,192,81024,1,0,0:0:0:0:
256,192,81274,1,8,0:0:0:0:
256,192,81399,1,0,0:0:0:0:
256,192,81524,1,8,0:0:0:0:
256,192,81774,1,0,0:0:0:0:
256,192,81857,1,8,0:0:0:0:
256,192,81940,1,8,0:0:0:0:
256,192,82024,1,0,0:0:0:0:
256,192,82149,1,8,0:0:0:0:
256,192,82274,1,0,0:0:0:0:
256,192,82399,1,0,0:0:0:0:
256,192,82524,1,8,0:0:0:0:
256,192,82649,1,0,0:0:0:0:
256,192,82774,1,8,0:0:0:0:
256,192,82899,1,8,0:0:0:0:
256,192,83024,1,0,0:0:0:0:
256,192,83149,1,8,0:0:0:0:
256,192,83274,1,8,0:0:0:0:
256,192,83524,1,4,0:0:0:0:
256,192,83774,1,8,0:0:0:0:
256,192,83857,1,8,0:0:0:0:
256,192,83940,1,8,0:0:0:0:
256,192,84024,1,0,0:0:0:0:
256,192,84149,1,8,0:0:0:0:
256,192,84274,1,0,0:0:0:0:
256,192,84399,1,0,0:0:0:0:
256,192,84524,1,8,0:0:0:0:
256,192,84649,1,0,0:0:0:0:
256,192,84774,1,8,0:0:0:0:
256,192,84899,1,8,0:0:0:0:
256,192,85024,1,0,0:0:0:0:
256,192,85274,1,8,0:0:0:0:
256,192,85399,1,8,0:0:0:0:
256,192,85524,1,8,0:0:0:0:
256,192,85774,1,0,0:0:0:0:
256,192,85857,1,0,0:0:0:0:
256,192,85940,1,0,0:0:0:0:
256,192,86024,1,8,0:0:0:0:
256,192,86149,1,0,0:0:0:0:
256,192,86274,1,8,0:0:0:0:
256,192,86399,1,8,0:0:0:0:
256,192,86524,1,0,0:0:0:0:
256,192,86649,1,8,0:0:0:0:
256,192,86774,1,0,0:0:0:0:
256,192,86899,1,0,0:0:0:0:
256,192,87024,1,8,0:0:0:0:
256,192,87274,1,8,0:0:0:0:
256,192,87399,1,8,0:0:0:0:
256,192,87524,1,4,0:0:0:0:
256,192,87774,1,8,0:0:0:0:
256,192,87857,1,8,0:0:0:0:
256,192,87940,1,8,0:0:0:0:
256,192,88024,1,0,0:0:0:0:
256,192,88149,1,8,0:0:0:0:
256,192,88399,1,8,0:0:0:0:
256,192,88524,1,0,0:0:0:0:
256,192,88649,1,8,0:0:0:0:
256,192,88899,1,8,0:0:0:0:
256,192,89024,1,0,0:0:0:0:
256,192,89274,1,8,0:0:0:0:
256,192,89524,1,0,0:0:0:0:
256,192,89774,1,8,0:0:0:0:
256,192,89857,1,8,0:0:0:0:
256,192,89940,1,8,0:0:0:0:
256,192,90024,1,0,0:0:0:0:
256,192,90149,1,8,0:0:0:0:
256,192,90399,1,8,0:0:0:0:
256,192,90524,1,0,0:0:0:0:
256,192,90649,1,8,0:0:0:0:
256,192,90774,1,8,0:0:0:0:
256,192,91024,1,0,0:0:0:0:
256,192,91274,1,8,0:0:0:0:
256,192,91524,1,0,0:0:0:0:
256,192,91774,1,8,0:0:0:0:
256,192,91857,1,8,0:0:0:0:
256,192,91940,1,8,0:0:0:0:
256,192,92024,1,0,0:0:0:0:
256,192,92149,1,8,0:0:0:0:
256,192,92399,1,8,0:0:0:0:
256,192,92524,1,0,0:0:0:0:
256,192,92649,1,8,0:0:0:0:
256,192,92899,1,8,0:0:0:0:
256,192,93024,1,0,0:0:0:0:
256,192,93274,1,8,0:0:0:0:
256,192,93524,1,0,0:0:0:0:
256,192,93774,1,8,0:0:0:0:
256,192,93857,1,8,0:0:0:0:
256,192,93940,1,8,0:0:0:0:
256,192,94024,1,0,0:0:0:0:
256,192,94149,1,8,0:0:0:0:
256,192,94399,1,8,0:0:0:0:
256,192,94524,1,0,0:0:0:0:
256,192,94649,1,8,0:0:0:0:
256,192,94774,1,8,0:0:0:0:
256,192,94899,1,8,0:0:0:0:
256,192,95024,1,0,0:0:0:0:
256,192,95274,1,8,0:0:0:0:
256,192,95524,1,4,0:0:0:0:
256,192,95774,1,8,0:0:0:0:
256,192,95857,1,8,0:0:0:0:
256,192,95940,1,8,0:0:0:0:
256,192,96024,1,0,0:0:0:0:
256,192,96149,1,8,0:0:0:0:
256,192,96399,1,8,0:0:0:0:
256,192,96524,1,0,0:0:0:0:
256,192,96649,1,8,0:0:0:0:
256,192,96899,1,8,0:0:0:0:
256,192,97024,1,0,0:0:0:0:
256,192,97274,1,8,0:0:0:0:
256,192,97524,1,0,0:0:0:0:
256,192,97774,1,8,0:0:0:0:
256,192,97857,1,8,0:0:0:0:
256,192,97940,1,8,0:0:0:0:
256,192,98024,1,0,0:0:0:0:
256,192,98149,1,8,0:0:0:0:
256,192,98399,1,8,0:0:0:0:
256,192,98524,1,0,0:0:0:0:
256,192,98649,1,8,0:0:0:0:
256,192,98774,1,8,0:0:0:0:
256,192,99024,1,0,0:0:0:0:
256,192,99274,1,8,0:0:0:0:
256,192,99524,1,0,0:0:0:0:
256,192,99774,1,8,0:0:0:0:
256,192,99857,1,8,0:0:0:0:
256,192,99940,1,8,0:0:0:0:
256,192,100024,1,0,0:0:0:0:
256,192,100149,1,8,0:0:0:0:
256,192,100399,1,8,0:0:0:0:
256,192,100524,1,0,0:0:0:0:
256,192,100649,1,8,0:0:0:0:
256,192,100899,1,8,0:0:0:0:
256,192,101024,1,0,0:0:0:0:
256,192,101274,1,8,0:0:0:0:
256,192,101524,1,0,0:0:0:0:
256,192,101774,1,8,0:0:0:0:
256,192,101857,1,8,0:0:0:0:
256,192,101940,1,8,0:0:0:0:
256,192,102024,1,0,0:0:0:0:
256,192,102149,1,8,0:0:0:0:
256,192,102399,1,8,0:0:0:0:
256,192,102524,1,0,0:0:0:0:
256,192,102649,1,8,0:0:0:0:
256,192,102774,1,8,0:0:0:0:
256,192,102899,1,8,0:0:0:0:
256,192,103024,1,0,0:0:0:0:
256,192,103274,1,0,0:0:0:0:
256,192,103524,1,12,0:0:0:0:
256,192,103649,1,0,0:0:0:0:
256,192,103711,1,0,0:0:0:0:
256,192,103774,1,0,0:0:0:0:
256,192,103899,1,8,0:0:0:0:
256,192,104024,1,0,0:0:0:0:
256,192,104149,1,0,0:0:0:0:
256,192,104211,1,0,0:0:0:0:
256,192,104274,1,8,0:0:0:0:
256,192,104399,1,0,0:0:0:0:
256,192,104524,1,12,0:0:0:0:
256,192,104649,1,0,0:0:0:0:
256,192,104711,1,0,0:0:0:0:
256,192,104774,1,0,0:0:0:0:
256,192,104899,1,8,0:0:0:0:
256,192,105024,1,0,0:0:0:0:
256,192,105086,1,0,0:0:0:0:
256,192,105149,1,8,0:0:0:0:
256,192,105211,1,8,0:0:0:0:
256,192,105274,1,0,0:0:0:0:
256,192,105399,1,0,0:0:0:0:
256,192,105524,1,12,0:0:0:0:
256,192,105649,1,0,0:0:0:0:
256,192,105711,1,0,0:0:0:0:
256,192,105774,1,0,0:0:0:0:
256,192,105899,1,8,0:0:0:0:
256,192,106024,1,0,0:0:0:0:
256,192,106149,1,0,0:0:0:0:
256,192,106211,1,0,0:0:0:0:
256,192,106274,1,8,0:0:0:0:
256,192,106399,1,0,0:0:0:0:
256,192,106524,1,12,0:0:0:0:
256,192,106649,1,0,0:0:0:0:
256,192,106711,1,0,0:0:0:0:
256,192,106774,1,0,0:0:0:0:
256,192,106899,1,8,0:0:0:0:
256,192,106961,1,8,0:0:0:0:
256,192,107024,1,0,0:0:0:0:
256,192,107086,1,8,0:0:0:0:
256,192,107149,1,0,0:0:0:0:
256,192,107211,1,0,0:0:0:0:
256,192,107274,1,8,0:0:0:0:
256,192,107399,1,0,0:0:0:0:
256,192,107524,1,12,0:0:0:0:
256,192,107649,1,0,0:0:0:0:
256,192,107711,1,0,0:0:0:0:
256,192,107774,1,0,0:0:0:0:
256,192,107899,1,8,0:0:0:0:
256,192,108024,1,0,0:0:0:0:
256,192,108149,1,8,0:0:0:0:
256,192,108211,1,8,0:0:0:0:
256,192,108274,1,0,0:0:0:0:
256,192,108399,1,0,0:0:0:0:
256,192,108524,1,12,0:0:0:0:
256,192,108649,1,0,0:0:0:0:
256,192,108711,1,0,0:0:0:0:
256,192,108774,1,0,0:0:0:0:
256,192,108899,1,8,0:0:0:0:
256,192,109024,1,0,0:0:0:0:
256,192,109086,1,8,0:0:0:0:
256,192,109149,1,0,0:0:0:0:
256,192,109211,1,0,0:0:0:0:
256,192,109274,1,8,0:0:0:0:
256,192,109399,1,0,0:0:0:0:
256,192,109524,1,12,0:0:0:0:
256,192,109649,1,0,0:0:0:0:
256,192,109711,1,0,0:0:0:0:
256,192,109774,1,0,0:0:0:0:
256,192,109899,1,8,0:0:0:0:
256,192,110024,1,0,0:0:0:0:
256,192,110149,1,8,0:0:0:0:
256,192,110211,1,8,0:0:0:0:
256,192,110274,1,0,0:0:0:0:
256,192,110399,1,0,0:0:0:0:
256,192,110524,1,8,0:0:0:0:
256,192,110649,1,0,0:0:0:0:
256,192,110711,1,8,0:0:0:0:
256,192,110774,1,0,0:0:0:0:
256,192,110836,1,0,0:0:0:0:
256,192,110899,1,8,0:0:0:0:
256,192,111024,1,0,0:0:0:0:
256,192,111086,1,0,0:0:0:0:
256,192,111149,1,8,0:0:0:0:
256,192,111211,1,8,0:0:0:0:
256,192,111274,1,0,0:0:0:0:
256,192,111399,1,0,0:0:0:0:
256,192,111524,1,12,0:0:0:0:
256,192,111649,1,0,0:0:0:0:
256,192,111711,1,0,0:0:0:0:
256,192,111774,1,0,0:0:0:0:
256,192,111899,1,8,0:0:0:0:
256,192,112024,1,0,0:0:0:0:
256,192,112149,1,0,0:0:0:0:
256,192,112211,1,0,0:0:0:0:
256,192,112274,1,8,0:0:0:0:
256,192,112399,1,0,0:0:0:0:
256,192,112524,1,12,0:0:0:0:
256,192,112649,1,0,0:0:0:0:
256,192,112711,1,0,0:0:0:0:
256,192,112774,1,0,0:0:0:0:
256,192,112899,1,8,0:0:0:0:
256,192,113024,1,0,0:0:0:0:
256,192,113086,1,0,0:0:0:0:
256,192,113149,1,8,0:0:0:0:
256,192,113211,1,8,0:0:0:0:
256,192,113274,1,0,0:0:0:0:
256,192,113399,1,0,0:0:0:0:
256,192,113524,1,12,0:0:0:0:
256,192,113649,1,0,0:0:0:0:
256,192,113711,1,0,0:0:0:0:
256,192,113774,1,0,0:0:0:0:
256,192,113899,1,8,0:0:0:0:
256,192,114024,1,0,0:0:0:0:
256,192,114149,1,0,0:0:0:0:
256,192,114211,1,0,0:0:0:0:
256,192,114274,1,8,0:0:0:0:
256,192,114399,1,0,0:0:0:0:
256,192,114524,1,12,0:0:0:0:
256,192,114649,1,0,0:0:0:0:
256,192,114711,1,0,0:0:0:0:
256,192,114774,1,0,0:0:0:0:
256,192,114899,1,8,0:0:0:0:
256,192,114961,1,8,0:0:0:0:
256,192,115024,1,0,0:0:0:0:
256,192,115086,1,8,0:0:0:0:
256,192,115149,1,0,0:0:0:0:
256,192,115211,1,0,0:0:0:0:
256,192,115274,1,8,0:0:0:0:
256,192,115399,1,0,0:0:0:0:
256,192,115524,1,12,0:0:0:0:
256,192,115649,1,0,0:0:0:0:
256,192,115711,1,0,0:0:0:0:
256,192,115774,1,0,0:0:0:0:
256,192,115899,1,8,0:0:0:0:
256,192,116024,1,0,0:0:0:0:
256,192,116149,1,8,0:0:0:0:
256,192,116211,1,8,0:0:0:0:
256,192,116274,1,0,0:0:0:0:
256,192,116399,1,0,0:0:0:0:
256,192,116524,1,12,0:0:0:0:
256,192,116649,1,0,0:0:0:0:
256,192,116711,1,0,0:0:0:0:
256,192,116774,1,0,0:0:0:0:
256,192,116899,1,8,0:0:0:0:
256,192,117024,1,0,0:0:0:0:
256,192,117086,1,8,0:0:0:0:
256,192,117149,1,0,0:0:0:0:
256,192,117211,1,0,0:0:0:0:
256,192,117274,1,8,0:0:0:0:
256,192,117399,1,0,0:0:0:0:
256,192,117524,1,12,0:0:0:0:
256,192,117649,1,0,0:0:0:0:
256,192,117711,1,0,0:0:0:0:
256,192,117774,1,0,0:0:0:0:
256,192,117899,1,8,0:0:0:0:
256,192,118024,1,0,0:0:0:0:
256,192,118149,1,8,0:0:0:0:
256,192,118211,1,8,0:0:0:0:
256,192,118274,1,0,0:0:0:0:
256,192,118399,1,0,0:0:0:0:
256,192,118524,1,8,0:0:0:0:
256,192,118649,1,0,0:0:0:0:
256,192,118711,1,8,0:0:0:0:
256,192,118774,1,0,0:0:0:0:
256,192,118836,1,0,0:0:0:0:
256,192,118899,1,8,0:0:0:0:
256,192,119024,1,0,0:0:0:0:
256,192,119086,1,8,0:0:0:0:
256,192,119149,1,0,0:0:0:0:
256,192,119211,1,0,0:0:0:0:
256,192,119274,1,8,0:0:0:0:
256,192,119336,1,8,0:0:0:0:
256,192,119399,1,8,0:0:0:0:
256,192,119461,1,8,0:0:0:0:
256,192,119524,1,0,0:0:0:0:
256,192,119649,1,0,0:0:0:0:
256,192,119774,1,0,0:0:0:0:
256,192,119899,1,8,0:0:0:0:
256,192,120024,1,0,0:0:0:0:
256,192,120149,1,0,0:0:0:0:
256,192,120274,1,8,0:0:0:0:
256,192,120399,1,0,0:0:0:0:
256,192,120524,1,8,0:0:0:0:
256,192,120649,1,8,0:0:0:0:
256,192,120711,1,8,0:0:0:0:
256,192,120774,1,0,0:0:0:0:
256,192,120899,1,8,0:0:0:0:
256,192,121024,1,0,0:0:0:0:
256,192,121149,1,8,0:0:0:0:
256,192,121274,1,8,0:0:0:0:
256,192,121399,1,8,0:0:0:0:
256,192,121524,1,0,0:0:0:0:
256,192,121649,1,0,0:0:0:0:
256,192,121774,1,0,0:0:0:0:
256,192,121899,1,8,0:0:0:0:
256,192,122024,1,0,0:0:0:0:
256,192,122149,1,0,0:0:0:0:
256,192,122274,1,8,0:0:0:0:
256,192,122399,1,0,0:0:0:0:
256,192,122524,1,0,0:0:0:0:
256,192,122649,1,8,0:0:0:0:
256,192,122774,1,0,0:0:0:0:
256,192,122899,1,8,0:0:0:0:
256,192,122961,1,8,0:0:0:0:
256,192,123024,1,8,0:0:0:0:
256,192,123149,1,0,0:0:0:0:
256,192,123274,1,8,0:0:0:0:
256,192,123399,1,8,0:0:0:0:
256,192,123524,1,0,0:0:0:0:
256,192,123649,1,0,0:0:0:0:
256,192,123774,1,0,0:0:0:0:
256,192,123899,1,8,0:0:0:0:
256,192,124024,1,0,0:0:0:0:
256,192,124149,1,0,0:0:0:0:
256,192,124274,1,8,0:0:0:0:
256,192,124399,1,0,0:0:0:0:
256,192,124524,1,8,0:0:0:0:
256,192,124649,1,8,0:0:0:0:
256,192,124711,1,8,0:0:0:0:
256,192,124774,1,0,0:0:0:0:
256,192,124899,1,8,0:0:0:0:
256,192,125024,1,0,0:0:0:0:
256,192,125149,1,8,0:0:0:0:
256,192,125274,1,8,0:0:0:0:
256,192,125399,1,8,0:0:0:0:
256,192,125524,1,0,0:0:0:0:
256,192,125649,1,0,0:0:0:0:
256,192,125774,1,0,0:0:0:0:
256,192,125899,1,8,0:0:0:0:
256,192,126024,1,0,0:0:0:0:
256,192,126149,1,0,0:0:0:0:
256,192,126274,1,8,0:0:0:0:
256,192,126399,1,0,0:0:0:0:
256,192,126524,1,0,0:0:0:0:
256,192,126649,1,8,0:0:0:0:
256,192,126774,1,0,0:0:0:0:
256,192,126899,1,8,0:0:0:0:
256,192,126961,1,8,0:0:0:0:
256,192,127024,1,8,0:0:0:0:
256,192,127149,1,0,0:0:0:0:
256,192,127274,1,8,0:0:0:0:
256,192,127399,1,8,0:0:0:0:
256,192,127524,1,4,0:0:0:0:
256,192,127649,1,0,0:0:0:0:
256,192,127774,1,8,0:0:0:0:
256,192,127836,1,8,0:0:0:0:
256,192,127899,1,0,0:0:0:0:
256,192,127961,1,0,0:0:0:0:
256,192,128024,1,12,0:0:0:0:
256,192,128149,1,0,0:0:0:0:
256,192,128274,1,8,0:0:0:0:
256,192,128336,1,8,0:0:0:0:
256,192,128399,1,8,0:0:0:0:
256,192,128461,1,8,0:0:0:0:
256,192,128524,1,4,0:0:0:0:
256,192,128649,1,0,0:0:0:0:
256,192,128774,1,8,0:0:0:0:
256,192,128836,1,8,0:0:0:0:
256,192,128899,1,0,0:0:0:0:
256,192,128961,1,0,0:0:0:0:
256,192,129024,1,12,0:0:0:0:
256,192,129149,1,0,0:0:0:0:
256,192,129211,1,0,0:0:0:0:
256,192,129274,1,8,0:0:0:0:
256,192,129336,1,0,0:0:0:0:
256,192,129399,1,8,0:0:0:0:
256,192,129461,1,8,0:0:0:0:
256,192,129524,1,4,0:0:0:0:
256,192,129649,1,0,0:0:0:0:
256,192,129774,1,8,0:0:0:0:
256,192,129836,1,8,0:0:0:0:
256,192,129899,1,0,0:0:0:0:
256,192,129961,1,0,0:0:0:0:
256,192,130024,1,12,0:0:0:0:
256,192,130149,1,0,0:0:0:0:
256,192,130274,1,8,0:0:0:0:
256,192,130336,1,8,0:0:0:0:
256,192,130399,1,8,0:0:0:0:
256,192,130461,1,8,0:0:0:0:
256,192,130524,1,4,0:0:0:0:
256,192,130649,1,0,0:0:0:0:
256,192,130774,1,8,0:0:0:0:
256,192,130836,1,8,0:0:0:0:
256,192,130899,1,0,0:0:0:0:
256,192,130961,1,0,0:0:0:0:
256,192,131024,1,12,0:0:0:0:
256,192,131149,1,0,0:0:0:0:
256,192,131211,1,8,0:0:0:0:
256,192,131274,1,0,0:0:0:0:
256,192,131336,1,0,0:0:0:0:
256,192,131399,1,8,0:0:0:0:
256,192,131461,1,8,0:0:0:0:
256,192,131524,1,4,0:0:0:0:
256,192,131649,1,0,0:0:0:0:
256,192,131774,1,8,0:0:0:0:
256,192,131836,1,8,0:0:0:0:
256,192,131899,1,0,0:0:0:0:
256,192,131961,1,0,0:0:0:0:
256,192,132024,1,12,0:0:0:0:
256,192,132149,1,0,0:0:0:0:
256,192,132274,1,8,0:0:0:0:
256,192,132336,1,8,0:0:0:0:
256,192,132399,1,8,0:0:0:0:
256,192,132461,1,8,0:0:0:0:
256,192,132524,1,4,0:0:0:0:
256,192,132649,1,0,0:0:0:0:
256,192,132774,1,8,0:0:0:0:
256,192,132836,1,8,0:0:0:0:
256,192,132899,1,0,0:0:0:0:
256,192,132961,1,0,0:0:0:0:
256,192,133024,1,12,0:0:0:0:
256,192,133149,1,0,0:0:0:0:
256,192,133211,1,8,0:0:0:0:
256,192,133274,1,8,0:0:0:0:
256,192,133399,1,8,0:0:0:0:
256,192,133524,1,0,0:0:0:0:
256,192,135524,1,4,0:0:0:0:
256,192,135774,1,8,0:0:0:0:
256,192,135857,1,8,0:0:0:0:
256,192,135940,1,8,0:0:0:0:
256,192,136024,1,0,0:0:0:0:
256,192,136190,1,8,0:0:0:0:
256,192,136357,1,0,0:0:0:0:
256,192,136524,1,8,0:0:0:0:
256,192,136690,1,0,0:0:0:0:
256,192,136857,1,0,0:0:0:0:
256,192,137024,1,8,0:0:0:0:
256,192,137274,1,8,0:0:0:0:
256,192,137524,1,4,0:0:0:0:
256,192,137774,1,8,0:0:0:0:
256,192,137857,1,8,0:0:0:0:
256,192,137940,1,8,0:0:0:0:
256,192,138024,1,0,0:0:0:0:
256,192,138190,1,8,0:0:0:0:
256,192,138357,1,0,0:0:0:0:
256,192,138524,1,8,0:0:0:0:
256,192,138690,1,0,0:0:0:0:
256,192,138857,1,0,0:0:0:0:
256,192,139024,1,8,0:0:0:0:
256,192,139274,1,8,0:0:0:0:
256,192,139524,1,4,0:0:0:0:
256,192,139774,1,8,0:0:0:0:
256,192,139857,1,8,0:0:0:0:
256,192,139940,1,8,0:0:0:0:
256,192,140024,1,0,0:0:0:0:
256,192,140149,1,8,0:0:0:0:
256,192,140399,1,8,0:0:0:0:
256,192,140524,1,0,0:0:0:0:
256,192,140649,1,8,0:0:0:0:
256,192,140899,1,8,0:0:0:0:
256,192,141024,1,0,0:0:0:0:
256,192,141274,1,8,0:0:0:0:
256,192,141524,1,4,0:0:0:0:
256,192,141774,1,8,0:0:0:0:
256,192,141857,1,8,0:0:0:0:
256,192,141940,1,8,0:0:0:0:
256,192,142024,1,0,0:0:0:0:
256,192,142149,1,8,0:0:0:0:
256,192,142399,1,8,0:0:0:0:
256,192,142524,1,0,0:0:0:0:
256,192,142649,1,8,0:0:0:0:
256,192,142899,1,8,0:0:0:0:
256,192,143024,1,0,0:0:0:0:
256,192,143274,1,8,0:0:0:0:
256,192,143524,1,4,0:0:0:0:
256,192,143774,1,8,0:0:0:0:
256,192,143857,1,8,0:0:0:0:
256,192,143940,1,8,0:0:0:0:
256,192,144024,1,0,0:0:0:0:
256,192,144190,1,8,0:0:0:0:
256,192,144357,1,0,0:0:0:0:
256,192,144524,1,8,0:0:0:0:
256,192,144690,1,0,0:0:0:0:
256,192,144857,1,0,0:0:0:0:
256,192,145024,1,8,0:0:0:0:
256,192,145274,1,8,0:0:0:0:
256,192,145524,1,4,0:0:0:0:
256,192,145774,1,8,0:0:0:0:
256,192,145857,1,8,0:0:0:0:
256,192,145940,1,8,0:0:0:0:
256,192,146024,1,0,0:0:0:0:
256,192,146190,1,8,0:0:0:0:
256,192,146357,1,0,0:0:0:0:
256,192,146524,1,8,0:0:0:0:
256,192,146690,1,0,0:0:0:0:
256,192,146857,1,0,0:0:0:0:
256,192,147024,1,8,0:0:0:0:
256,192,147274,1,8,0:0:0:0:
256,192,147524,1,4,0:0:0:0:
256,192,147774,1,8,0:0:0:0:
256,192,147857,1,8,0:0:0:0:
256,192,147940,1,8,0:0:0:0:
256,192,148024,1,0,0:0:0:0:
256,192,148149,1,8,0:0:0:0:
256,192,148399,1,8,0:0:0:0:
256,192,148524,1,0,0:0:0:0:
256,192,148649,1,8,0:0:0:0:
256,192,148899,1,8,0:0:0:0:
256,192,149024,1,0,0:0:0:0:
256,192,149274,1,8,0:0:0:0:
256,192,149524,1,4,0:0:0:0:
256,192,149774,1,8,0:0:0:0:
256,192,149857,1,8,0:0:0:0:
256,192,149940,1,8,0:0:0:0:
256,192,150024,1,0,0:0:0:0:
256,192,150149,1,8,0:0:0:0:
256,192,150399,1,8,0:0:0:0:
256,192,150524,1,0,0:0:0:0:
256,192,151524,1,4,0:0:0:0:
256,192,151649,1,0,0:0:0:0:
256,192,151774,1,8,0:0:0:0:
256,192,151836,1,8,0:0:0:0:
256,192,151899,1,8,0:0:0:0:
256,192,151961,1,8,0:0:0:0:
256,192,152024,1,4,0:0:0:0:
256,192,152149,1,0,0:0:0:0:
256,192,152274,1,8,0:0:0:0:
256,192,152336,1,0,0:0:0:0:
256,192,152399,1,8,0:0:0:0:
256,192,152461,1,8,0:0:0:0:
256,192,152524,1,4,0:0:0:0:
256,192,152649,1,0,0:0:0:0:
256,192,152774,1,8,0:0:0:0:
256,192,152836,1,8,0:0:0:0:
256,192,152899,1,8,0:0:0:0:
256,192,152961,1,8,0:0:0:0:
256,192,153024,1,4,0:0:0:0:
256,192,153149,1,0,0:0:0:0:
256,192,153211,1,0,0:0:0:0:
256,192,153274,1,8,0:0:0:0:
256,192,153336,1,0,0:0:0:0:
256,192,153399,1,8,0:0:0:0:
256,192,153461,1,8,0:0:0:0:
256,192,153524,1,4,0:0:0:0:
256,192,153649,1,0,0:0:0:0:
256,192,153774,1,8,0:0:0:0:
256,192,153836,1,8,0:0:0:0:
256,192,153899,1,8,0:0:0:0:
256,192,153961,1,8,0:0:0:0:
256,192,154024,1,4,0:0:0:0:
256,192,154149,1,0,0:0:0:0:
256,192,154274,1,8,0:0:0:0:
256,192,154336,1,0,0:0:0:0:
256,192,154399,1,8,0:0:0:0:
256,192,154461,1,8,0:0:0:0:
256,192,154524,1,4,0:0:0:0:
256,192,154649,1,0,0:0:0:0:
256,192,154774,1,8,0:0:0:0:
256,192,154836,1,8,0:0:0:0:
256,192,154899,1,8,0:0:0:0:
256,192,154961,1,8,0:0:0:0:
256,192,155024,1,4,0:0:0:0:
256,192,155149,1,8,0:0:0:0:
256,192,155190,1,8,0:0:0:0:
256,192,155232,1,0,0:0:0:0:
256,192,155274,1,0,0:0:0:0:
256,192,155399,1,0,0:0:0:0:
256,192,155524,1,12,0:0:0:0:
256,192,155649,1,0,0:0:0:0:
256,192,155774,1,8,0:0:0:0:
256,192,155836,1,8,0:0:0:0:
256,192,155899,1,0,0:0:0:0:
256,192,155961,1,0,0:0:0:0:
256,192,156024,1,12,0:0:0:0:
256,192,156149,1,0,0:0:0:0:
256,192,156274,1,8,0:0:0:0:
256,192,156336,1,0,0:0:0:0:
256,192,156399,1,0,0:0:0:0:
256,192,156461,1,0,0:0:0:0:
256,192,156524,1,12,0:0:0:0:
256,192,156649,1,0,0:0:0:0:
256,192,156774,1,8,0:0:0:0:
256,192,156836,1,8,0:0:0:0:
256,192,156899,1,0,0:0:0:0:
256,192,156961,1,0,0:0:0:0:
256,192,157024,1,12,0:0:0:0:
256,192,157149,1,0,0:0:0:0:
256,192,157211,1,8,0:0:0:0:
256,192,157274,1,8,0:0:0:0:
256,192,157336,1,0,0:0:0:0:
256,192,157399,1,0,0:0:0:0:
256,192,157461,1,0,0:0:0:0:
256,192,157524,1,12,0:0:0:0:
256,192,157649,1,0,0:0:0:0:
256,192,157774,1,8,0:0:0:0:
256,192,157836,1,8,0:0:0:0:
256,192,157899,1,0,0:0:0:0:
256,192,157961,1,0,0:0:0:0:
256,192,158024,1,12,0:0:0:0:
256,192,158149,1,0,0:0:0:0:
256,192,158274,1,8,0:0:0:0:
256,192,158336,1,0,0:0:0:0:
256,192,158399,1,0,0:0:0:0:
256,192,158461,1,0,0:0:0:0:
256,192,158524,1,12,0:0:0:0:
256,192,158649,1,0,0:0:0:0:
256,192,158774,1,8,0:0:0:0:
256,192,158836,1,8,0:0:0:0:
256,192,158899,1,0,0:0:0:0:
256,192,158961,1,0,0:0:0:0:
256,192,159024,1,12,0:0:0:0:
256,192,159149,1,0,0:0:0:0:
256,192,159274,1,8,0:0:0:0:
256,192,159399,1,8,0:0:0:0:
256,192,159524,1,4,0:0:0:0:
256,192,159649,1,0,0:0:0:0:
256,192,159774,1,8,0:0:0:0:
256,192,159836,1,8,0:0:0:0:
256,192,159899,1,8,0:0:0:0:
256,192,159961,1,8,0:0:0:0:
256,192,160024,1,4,0:0:0:0:
256,192,160149,1,0,0:0:0:0:
256,192,160274,1,8,0:0:0:0:
256,192,160336,1,0,0:0:0:0:
256,192,160399,1,8,0:0:0:0:
256,192,160461,1,8,0:0:0:0:
256,192,160524,1,4,0:0:0:0:
256,192,160648,1,0,0:0:0:0:
256,192,160773,1,8,0:0:0:0:
256,192,160836,1,8,0:0:0:0:
256,192,160898,1,8,0:0:0:0:
256,192,160961,1,8,0:0:0:0:
256,192,161023,1,4,0:0:0:0:
256,192,161148,1,0,0:0:0:0:
256,192,161211,1,0,0:0:0:0:
256,192,161273,1,8,0:0:0:0:
256,192,161336,1,0,0:0:0:0:
256,192,161398,1,8,0:0:0:0:
256,192,161461,1,8,0:0:0:0:
256,192,161524,1,4,0:0:0:0:
256,192,161649,1,0,0:0:0:0:
256,192,161774,1,8,0:0:0:0:
256,192,161836,1,8,0:0:0:0:
256,192,161899,1,8,0:0:0:0:
256,192,161961,1,8,0:0:0:0:
256,192,162024,1,4,0:0:0:0:
256,192,162149,1,0,0:0:0:0:
256,192,162274,1,8,0:0:0:0:
256,192,162336,1,0,0:0:0:0:
256,192,162399,1,8,0:0:0:0:
256,192,162461,1,8,0:0:0:0:
256,192,162524,1,4,0:0:0:0:
256,192,162649,1,0,0:0:0:0:
256,192,162774,1,8,0:0:0:0:
256,192,162836,1,8,0:0:0:0:
256,192,162899,1,8,0:0:0:0:
256,192,162961,1,8,0:0:0:0:
256,192,163024,1,4,0:0:0:0:
256,192,163149,1,8,0:0:0:0:
256,192,163190,1,8,0:0:0:0:
256,192,163232,1,0,0:0:0:0:
256,192,163274,1,0,0:0:0:0:
256,192,163399,1,0,0:0:0:0:
256,192,163524,1,12,0:0:0:0:
256,192,163649,1,0,0:0:0:0:
256,192,163774,1,8,0:0:0:0:
256,192,163836,1,8,0:0:0:0:
256,192,163899,1,0,0:0:0:0:
256,192,163961,1,0,0:0:0:0:
256,192,164024,1,12,0:0:0:0:
256,192,164149,1,0,0:0:0:0:
256,192,164274,1,8,0:0:0:0:
256,192,164336,1,0,0:0:0:0:
256,192,164399,1,0,0:0:0:0:
256,192,164461,1,0,0:0:0:0:
256,192,164524,1,12,0:0:0:0:
256,192,164649,1,0,0:0:0:0:
256,192,164774,1,8,0:0:0:0:
256,192,164836,1,8,0:0:0:0:
256,192,164899,1,0,0:0:0:0:
256,192,164961,1,0,0:0:0:0:
256,192,165024,1,12,0:0:0:0:
256,192,165149,1,0,0:0:0:0:
256,192,165211,1,8,0:0:0:0:
256,192,165274,1,8,0:0:0:0:
256,192,165336,1,0,0:0:0:0:
256,192,165399,1,0,0:0:0:0:
256,192,165461,1,0,0:0:0:0:
256,192,165524,1,12,0:0:0:0:
256,192,165649,1,0,0:0:0:0:
256,192,165774,1,8,0:0:0:0:
256,192,165836,1,8,0:0:0:0:
256,192,165899,1,0,0:0:0:0:
256,192,165961,1,0,0:0:0:0:
256,192,166024,1,12,0:0:0:0:
256,192,166149,1,0,0:0:0:0:
256,192,166274,1,8,0:0:0:0:
256,192,166336,1,0,0:0:0:0:
256,192,166399,1,0,0:0:0:0:
256,192,166461,1,0,0:0:0:0:
256,192,166524,1,12,0:0:0:0:
256,192,166649,1,0,0:0:0:0:
256,192,166774,1,8,0:0:0:0:
256,192,166836,1,8,0:0:0:0:
256,192,166899,1,0,0:0:0:0:
256,192,166961,1,0,0:0:0:0:
256,192,167024,1,12,0:0:0:0:
256,192,167149,1,0,0:0:0:0:
256,192,167211,1,0,0:0:0:0:
256,192,167274,1,8,0:0:0:0:
256,192,167336,1,8,0:0:0:0:
256,192,167399,1,8,0:0:0:0:
256,192,167461,1,8,0:0:0:0:
256,192,167524,1,4,0:0:0:0:
256,192,167649,1,8,0:0:0:0:
256,192,167711,1,8,0:0:0:0:
256,192,167774,1,0,0:0:0:0:
256,192,167899,1,12,0:0:0:0:
256,192,168024,1,0,0:0:0:0:
256,192,168086,1,8,0:0:0:0:
256,192,168149,1,0,0:0:0:0:
256,192,168274,1,12,0:0:0:0:
256,192,168399,1,0,0:0:0:0:
256,192,168524,1,12,0:0:0:0:
256,192,168649,1,0,0:0:0:0:
256,192,168711,1,0,0:0:0:0:
256,192,168774,1,0,0:0:0:0:
256,192,168899,1,12,0:0:0:0:
256,192,169024,1,0,0:0:0:0:
256,192,169086,1,8,0:0:0:0:
256,192,169149,1,0,0:0:0:0:
256,192,169211,1,0,0:0:0:0:
256,192,169274,1,12,0:0:0:0:
256,192,169399,1,8,0:0:0:0:
256,192,169524,1,4,0:0:0:0:
256,192,169649,1,8,0:0:0:0:
256,192,169711,1,8,0:0:0:0:
256,192,169774,1,0,0:0:0:0:
256,192,169899,1,12,0:0:0:0:
256,192,170024,1,0,0:0:0:0:
256,192,170086,1,8,0:0:0:0:
256,192,170149,1,0,0:0:0:0:
256,192,170274,1,12,0:0:0:0:
256,192,170399,1,8,0:0:0:0:
256,192,170524,1,4,0:0:0:0:
256,192,170649,1,8,0:0:0:0:
256,192,170711,1,0,0:0:0:0:
256,192,170774,1,8,0:0:0:0:
256,192,170899,1,0,0:0:0:0:
256,192,170961,1,0,0:0:0:0:
256,192,171024,1,8,0:0:0:0:
256,192,171086,1,0,0:0:0:0:
256,192,171149,1,8,0:0:0:0:
256,192,171211,1,8,0:0:0:0:
256,192,171274,1,0,0:0:0:0:
256,192,171399,1,8,0:0:0:0:
256,192,171524,1,4,0:0:0:0:
256,192,171649,1,8,0:0:0:0:
256,192,171711,1,8,0:0:0:0:
256,192,171774,1,0,0:0:0:0:
256,192,171899,1,12,0:0:0:0:
256,192,172024,1,0,0:0:0:0:
256,192,172086,1,8,0:0:0:0:
256,192,172149,1,0,0:0:0:0:
256,192,172274,1,12,0:0:0:0:
256,192,172399,1,0,0:0:0:0:
256,192,172524,1,12,0:0:0:0:
256,192,172649,1,0,0:0:0:0:
256,192,172711,1,0,0:0:0:0:
256,192,172774,1,0,0:0:0:0:
256,192,172899,1,12,0:0:0:0:
256,192,173024,1,0,0:0:0:0:
256,192,173086,1,8,0:0:0:0:
256,192,173149,1,0,0:0:0:0:
256,192,173211,1,0,0:0:0:0:
256,192,173274,1,12,0:0:0:0:
256,192,173399,1,8,0:0:0:0:
256,192,173524,1,4,0:0:0:0:
256,192,173649,1,8,0:0:0:0:
256,192,173711,1,8,0:0:0:0:
256,192,173774,1,0,0:0:0:0:
256,192,173899,1,12,0:0:0:0:
256,192,174024,1,0,0:0:0:0:
256,192,174086,1,8,0:0:0:0:
256,192,174149,1,0,0:0:0:0:
256,192,174274,1,12,0:0:0:0:
256,192,174399,1,8,0:0:0:0:
256,192,174524,1,4,0:0:0:0:
256,192,174649,1,8,0:0:0:0:
256,192,174711,1,8,0:0:0:0:
256,192,174774,1,0,0:0:0:0:
256,192,174836,1,0,0:0:0:0:
256,192,174899,1,8,0:0:0:0:
256,192,175024,1,0,0:0:0:0:
256,192,175086,1,8,0:0:0:0:
256,192,175149,1,0,0:0:0:0:
256,192,175211,1,0,0:0:0:0:
256,192,175274,1,8,0:0:0:0:
256,192,175336,1,8,0:0:0:0:
256,192,175399,1,8,0:0:0:0:
256,192,175461,1,8,0:0:0:0:
256,192,175524,1,4,0:0:0:0:
256,192,175649,1,8,0:0:0:0:
256,192,175711,1,8,0:0:0:0:
256,192,175774,1,0,0:0:0:0:
256,192,175899,1,12,0:0:0:0:
256,192,176024,1,0,0:0:0:0:
256,192,176086,1,8,0:0:0:0:
256,192,176149,1,0,0:0:0:0:
256,192,176274,1,12,0:0:0:0:
256,192,176399,1,0,0:0:0:0:
256,192,176524,1,12,0:0:0:0:
256,192,176649,1,0,0:0:0:0:
256,192,176711,1,0,0:0:0:0:
256,192,176774,1,0,0:0:0:0:
256,192,176899,1,12,0:0:0:0:
256,192,177024,1,0,0:0:0:0:
256,192,177086,1,8,0:0:0:0:
256,192,177149,1,0,0:0:0:0:
256,192,177211,1,0,0:0:0:0:
256,192,177274,1,12,0:0:0:0:
256,192,177399,1,8,0:0:0:0:
256,192,177524,1,4,0:0:0:0:
256,192,177649,1,8,0:0:0:0:
256,192,177711,1,8,0:0:0:0:
256,192,177774,1,0,0:0:0:0:
256,192,177899,1,12,0:0:0:0:
256,192,178024,1,0,0:0:0:0:
256,192,178086,1,8,0:0:0:0:
256,192,178149,1,0,0:0:0:0:
256,192,178274,1,12,0:0:0:0:
256,192,178399,1,8,0:0:0:0:
256,192,178524,1,4,0:0:0:0:
256,192,178649,1,8,0:0:0:0:
256,192,178711,1,0,0:0:0:0:
256,192,178774,1,8,0:0:0:0:
256,192,178899,1,0,0:0:0:0:
256,192,178961,1,0,0:0:0:0:
256,192,179024,1,8,0:0:0:0:
256,192,179086,1,0,0:0:0:0:
256,192,179149,1,8,0:0:0:0:
256,192,179211,1,8,0:0:0:0:
256,192,179274,1,0,0:0:0:0:
256,192,179399,1,8,0:0:0:0:
256,192,179524,1,4,0:0:0:0:
256,192,179649,1,8,0:0:0:0:
256,192,179711,1,8,0:0:0:0:
256,192,179774,1,0,0:0:0:0:
256,192,179899,1,12,0:0:0:0:
256,192,180024,1,0,0:0:0:0:
256,192,180086,1,8,0:0:0:0:
256,192,180149,1,0,0:0:0:0:
256,192,180274,1,12,0:0:0:0:
256,192,180399,1,0,0:0:0:0:
256,192,180524,1,12,0:0:0:0:
256,192,180649,1,0,0:0:0:0:
256,192,180711,1,0,0:0:0:0:
256,192,180774,1,0,0:0:0:0:
256,192,180899,1,12,0:0:0:0:
256,192,181024,1,0,0:0:0:0:
256,192,181086,1,8,0:0:0:0:
256,192,181149,1,0,0:0:0:0:
256,192,181211,1,0,0:0:0:0:
256,192,181274,1,8,0:0:0:0:
256,192,181336,1,8,0:0:0:0:
256,192,181399,1,8,0:0:0:0:
256,192,181461,1,8,0:0:0:0:
256,192,193524,5,4,0:0:0:0:
256,192,193774,1,8,0:0:0:0:
256,192,193857,1,8,0:0:0:0:
256,192,193940,1,8,0:0:0:0:
256,192,194024,5,0,0:0:0:0:
256,192,194149,1,8,0:0:0:0:
256,192,194274,1,0,0:0:0:0:
256,192,194399,1,0,0:0:0:0:
256,192,194524,1,8,0:0:0:0:
256,192,194649,1,0,0:0:0:0:
256,192,194774,1,8,0:0:0:0:
256,192,194899,1,8,0:0:0:0:
256,192,195024,1,0,0:0:0:0:
256,192,195274,1,8,0:0:0:0:
256,192,195399,1,0,0:0:0:0:
256,192,195524,1,8,0:0:0:0:
256,192,195774,1,0,0:0:0:0:
256,192,195857,1,8,0:0:0:0:
256,192,195940,1,8,0:0:0:0:
256,192,196024,1,0,0:0:0:0:
256,192,196149,1,8,0:0:0:0:
256,192,196274,1,0,0:0:0:0:
256,192,196399,1,0,0:0:0:0:
256,192,196524,1,8,0:0:0:0:
256,192,196649,1,0,0:0:0:0:
256,192,196774,1,8,0:0:0:0:
256,192,196899,1,8,0:0:0:0:
256,192,196961,1,8,0:0:0:0:
256,192,197024,1,0,0:0:0:0:
256,192,197149,1,8,0:0:0:0:
256,192,197274,1,8,0:0:0:0:
256,192,197399,1,8,0:0:0:0:
256,192,197524,1,4,0:0:0:0:
256,192,197774,1,8,0:0:0:0:
256,192,197857,1,8,0:0:0:0:
256,192,197940,1,8,0:0:0:0:
256,192,198024,1,0,0:0:0:0:
256,192,198149,1,8,0:0:0:0:
256,192,198274,1,0,0:0:0:0:
256,192,198399,1,0,0:0:0:0:
256,192,198524,1,8,0:0:0:0:
256,192,198649,1,0,0:0:0:0:
256,192,198774,1,8,0:0:0:0:
256,192,198899,1,8,0:0:0:0:
256,192,199024,1,0,0:0:0:0:
256,192,199274,1,8,0:0:0:0:
256,192,199399,1,8,0:0:0:0:
256,192,199524,1,8,0:0:0:0:
256,192,199774,1,0,0:0:0:0:
256,192,199857,1,0,0:0:0:0:
256,192,199940,1,0,0:0:0:0:
256,192,200024,1,8,0:0:0:0:
256,192,200149,1,0,0:0:0:0:
256,192,200274,1,8,0:0:0:0:
256,192,200399,1,8,0:0:0:0:
256,192,200524,1,0,0:0:0:0:
256,192,200649,1,8,0:0:0:0:
256,192,200774,1,0,0:0:0:0:
256,192,200899,1,8,0:0:0:0:
256,192,200961,1,8,0:0:0:0:
256,192,201024,1,0,0:0:0:0:
256,192,201149,1,8,0:0:0:0:
256,192,201274,1,8,0:0:0:0:
256,192,201399,1,8,0:0:0:0:
256,192,201524,1,4,0:0:0:0:
256,192,201774,1,8,0:0:0:0:
256,192,201857,1,8,0:0:0:0:
256,192,201940,1,8,0:0:0:0:
256,192,202024,1,0,0:0:0:0:
256,192,202149,1,8,0:0:0:0:
256,192,202274,1,0,0:0:0:0:
256,192,202399,1,0,0:0:0:0:
256,192,202524,1,8,0:0:0:0:
256,192,202649,1,0,0:0:0:0:
256,192,202774,1,8,0:0:0:0:
256,192,202899,1,8,0:0:0:0:
256,192,203024,1,0,0:0:0:0:
256,192,203274,1,8,0:0:0:0:
256,192,203399,1,0,0:0:0:0:
256,192,203524,1,8,0:0:0:0:
256,192,203774,1,0,0:0:0:0:
256,192,203857,1,8,0:0:0:0:
256,192,203940,1,8,0:0:0:0:
256,192,204024,1,0,0:0:0:0:
256,192,204149,1,8,0:0:0:0:
256,192,204274,1,0,0:0:0:0:
256,192,204399,1,0,0:0:0:0:
256,192,204524,1,8,0:0:0:0:
256,192,204649,1,0,0:0:0:0:
256,192,204774,1,8,0:0:0:0:
256,192,204899,1,8,0:0:0:0:
256,192,204961,1,8,0:0:0:0:
256,192,205024,1,0,0:0:0:0:
256,192,205149,1,8,0:0:0:0:
256,192,205274,1,8,0:0:0:0:
256,192,205399,1,8,0:0:0:0:
256,192,205524,1,4,0:0:0:0:
256,192,205774,1,8,0:0:0:0:
256,192,205857,1,8,0:0:0:0:
256,192,205940,1,8,0:0:0:0:
256,192,206024,1,0,0:0:0:0:
256,192,206149,1,8,0:0:0:0:
256,192,206274,1,0,0:0:0:0:
256,192,206399,1,0,0:0:0:0:
256,192,206524,1,8,0:0:0:0:
256,192,206649,1,0,0:0:0:0:
256,192,206774,1,8,0:0:0:0:
256,192,206899,1,8,0:0:0:0:
256,192,207024,1,0,0:0:0:0:
256,192,207274,1,8,0:0:0:0:
256,192,207399,1,8,0:0:0:0:
256,192,207524,1,8,0:0:0:0:
256,192,207774,1,0,0:0:0:0:
256,192,207857,1,0,0:0:0:0:
256,192,207940,1,0,0:0:0:0:
256,192,208024,1,8,0:0:0:0:
256,192,208149,1,0,0:0:0:0:
256,192,208274,1,8,0:0:0:0:
256,192,208399,1,8,0:0:0:0:
256,192,208524,1,0,0:0:0:0:
256,192,208649,1,8,0:0:0:0:
256,192,208774,1,0,0:0:0:0:
256,192,208899,1,8,0:0:0:0:
256,192,208961,1,8,0:0:0:0:
256,192,209024,1,0,0:0:0:0:
256,192,209149,1,8,0:0:0:0:
256,192,209274,1,8,0:0:0:0:
256,192,209399,1,8,0:0:0:0:
256,192,209524,1,0,0:0:0:0:
