osu file format v14

[General]
AudioFilename: audio.mp3
AudioLeadIn: 0
PreviewTime: 73117
Countdown: 0
SampleSet: Normal
StackLeniency: 0.3
Mode: 0
LetterboxInBreaks: 0
WidescreenStoryboard: 0

[Editor]
Bookmarks: 85317
DistanceSpacing: 0.2
BeatDivisor: 4
GridSize: 8
TimelineZoom: 1.7

[Metadata]
Title:a headphone actor
TitleUnicode:a headphone actor
Artist:sasakure.UK
ArtistUnicode:sasakure.UK
Creator:TastyApple
Version:Insane
Source:Mekakucity Actors
Tags:
BeatmapID:1910712
BeatmapSetID:914861

[Difficulty]
HPDrainRate:5
CircleSize:4
OverallDifficulty:6
ApproachRate:9
SliderMultiplier:1.8
SliderTickRate:1

[Events]
//Background and Video events
0,0,"_headphone_actor__by_azelilia_d4vhynx-fullview.jpg",0,0
//Break Periods
//Storyboard Layer 0 (Background)
//Storyboard Layer 1 (Fail)
//Storyboard Layer 2 (Pass)
//Storyboard Layer 3 (Foreground)
//Storyboard Sound Samples

[TimingPoints]
3517,400,4,1,0,60,1,0
45217,-200,4,1,0,60,0,0
48117,-100,4,1,0,60,0,0
51517,-200,4,1,0,60,0,0
53917,-400,4,1,0,60,0,0
54717,-200,4,1,0,60,0,0
60317,-400,4,1,0,60,0,0
61117,-200,4,1,0,60,0,0
66717,-400,4,1,0,60,0,0
67517,-200,4,1,0,60,0,0
69917,-400,4,1,0,60,0,0
70717,-200,4,1,0,60,0,0
73117,-100,4,1,0,60,0,0
73917,-100,4,1,0,60,0,1
82517,-80,4,1,0,60,0,1
83317,-66.6666666666667,4,1,0,60,0,1
84917,-80,4,1,0,60,0,1
86717,-100,4,1,0,60,0,0
99517,-100,4,1,0,60,0,1
125117,-100,4,1,0,60,0,0

[Colours]
Combo1 : 0,112,166
Combo2 : 130,130,0
Combo3 : 0,0,202
Combo4 : 221,0,0
Combo5 : 244,250,31
Combo6 : 89,89,89
Combo7 : 0,223,223

[HitObjects]
17,94,3517,6,0,P|58:63|121:66,1,90
98,160,3917,1,0,0:0:0:0:
98,160,4017,1,0,0:0:0:0:
197,107,4217,2,0,L|291:158,1,90
297,160,4517,1,0,0:0:0:0:
197,107,4717,1,0,0:0:0:0:
197,150,4817,1,0,0:0:0:0:
197,196,4917,1,0,0:0:0:0:
17,298,5117,6,0,P|58:329|121:326,1,90
98,232,5517,1,0,0:0:0:0:
98,232,5617,1,0,0:0:0:0:
197,285,5817,2,0,L|291:234,1,90
297,232,6117,1,0,0:0:0:0:
197,285,6317,1,0,0:0:0:0:
197,242,6417,1,0,0:0:0:0:
197,196,6517,1,0,0:0:0:0:
207,84,6717,6,0,P|248:53|311:56,1,90
288,150,7117,1,0,0:0:0:0:
288,150,7217,1,0,0:0:0:0:
387,97,7417,2,0,L|481:148,1,90
487,150,7717,1,0,0:0:0:0:
387,97,7917,1,0,0:0:0:0:
387,140,8017,1,0,0:0:0:0:
387,186,8117,1,0,0:0:0:0:
207,288,8317,6,0,P|248:319|311:316,1,90
288,222,8717,1,0,0:0:0:0:
288,222,8817,1,0,0:0:0:0:
387,275,9017,2,0,L|481:224,1,90
487,222,9317,1,0,0:0:0:0:
387,275,9517,1,0,0:0:0:0:
387,232,9617,1,0,0:0:0:0:
387,186,9717,1,0,0:0:0:0:
256,72,9917,6,0,L|142:99,1,90
256,140,10317,1,0,0:0:0:0:
256,196,10417,1,0,0:0:0:0:
256,261,10517,6,0,L|148:285,1,90
44,236,10917,1,0,0:0:0:0:
44,236,11117,2,0,L|152:212,1,90
333,56,11517,6,0,L|447:83,1,90
333,124,11917,1,0,0:0:0:0:
333,180,12017,1,0,0:0:0:0:
377,328,12217,2,0,P|323:342|269:308,1,90
376,280,12517,1,0,0:0:0:0:
200,288,12717,1,0,0:0:0:0:
200,288,12817,1,0,0:0:0:0:
200,288,12917,1,0,0:0:0:0:
197,80,13117,6,0,L|83:107,1,90
197,148,13517,1,0,0:0:0:0:
197,204,13617,1,0,0:0:0:0:
153,352,13817,2,0,P|207:366|261:332,1,90
154,304,14117,1,0,0:0:0:0:
330,312,14317,1,0,0:0:0:0:
330,312,14417,1,0,0:0:0:0:
330,312,14517,1,0,0:0:0:0:
230,221,14717,5,0,0:0:0:0:
80,267,14917,1,0,0:0:0:0:
66,98,15117,6,0,L|44:90,4,22.5
113,117,15417,1,0,0:0:0:0:
252,130,15617,1,0,0:0:0:0:
353,57,15717,2,0,L|369:40,2,22.5
335,189,15917,2,0,L|319:205,2,22.5
457,156,16117,2,0,L|503:115,1,45
459,354,16317,2,0,P|409:347|374:322,1,90
240,303,16717,5,0,0:0:0:0:
187,351,16817,1,0,0:0:0:0:
44,350,17017,2,0,P|19:317|53:294,1,90
170,266,17317,1,0,0:0:0:0:
76,167,17517,1,0,0:0:0:0:
56,147,17617,1,0,0:0:0:0:
35,164,17717,1,0,0:0:0:0:
160,28,17917,6,0,P|147:75|163:137,1,90
264,78,18317,1,0,0:0:0:0:
317,30,18417,1,0,0:0:0:0:
460,31,18617,2,0,P|484:63|450:86,1,90
334,115,18917,1,0,0:0:0:0:
428,214,19117,1,0,0:0:0:0:
448,234,19217,1,0,0:0:0:0:
469,217,19317,1,0,0:0:0:0:
421,107,19517,6,0,P|374:120|312:104,1,90
240,81,19917,1,0,0:0:0:0:
187,33,20017,1,0,0:0:0:0:
44,34,20217,2,0,P|19:66|53:89,1,90
170,118,20517,1,0,0:0:0:0:
76,217,20717,1,0,0:0:0:0:
56,237,20817,1,0,0:0:0:0:
35,220,20917,1,0,0:0:0:0:
160,356,21117,6,0,P|147:309|163:247,1,90
264,306,21517,1,0,0:0:0:0:
317,354,21617,1,0,0:0:0:0:
460,353,21817,2,0,P|484:320|450:297,1,90
334,269,22117,1,0,0:0:0:0:
428,170,22317,1,0,0:0:0:0:
448,150,22417,1,0,0:0:0:0:
469,167,22517,1,0,0:0:0:0:
320,128,22717,6,0,L|286:98,1,45
186,178,22917,2,0,L|141:168,1,45
69,39,23117,1,0,0:0:0:0:
46,173,23317,6,0,P|61:220|117:256,1,90
23,299,23717,2,0,L|83:333,1,45
105,348,23917,1,0,0:0:0:0:
186,178,24117,2,0,P|201:225|257:261,1,90
163,304,24517,2,0,L|223:338,1,45
245,353,24717,1,0,0:0:0:0:
325,360,24817,5,0,0:0:0:0:
462,228,25017,2,0,P|408:214|354:248,1,90
461,276,25317,1,0,0:0:0:0:
285,268,25517,1,0,0:0:0:0:
285,268,25617,1,0,0:0:0:0:
285,268,25717,1,0,0:0:0:0:
152,36,25917,6,0,L|38:63,1,90
152,104,26317,1,0,0:0:0:0:
152,160,26417,1,0,0:0:0:0:
108,308,26617,2,0,P|162:322|216:288,1,90
109,260,26917,1,0,0:0:0:0:
285,268,27117,1,0,0:0:0:0:
285,268,27217,1,0,0:0:0:0:
285,268,27317,1,0,0:0:0:0:
476,248,27517,5,0,0:0:0:0:
326,202,27717,1,0,0:0:0:0:
490,79,27917,6,0,L|512:71,4,22.5
443,98,28217,1,0,0:0:0:0:
315,100,28417,1,0,0:0:0:0:
203,38,28517,2,0,L|187:21,2,22.5
221,170,28717,2,0,L|237:186,2,22.5
99,137,28917,2,0,L|53:96,1,45
97,335,29117,2,0,P|147:328|182:303,1,90
265,230,29517,1,0,0:0:0:0:
288,179,29617,1,0,0:0:0:0:
315,124,29717,6,0,L|423:100,1,90
446,198,30117,1,0,0:0:0:0:
446,198,30317,2,0,L|338:174,1,90
476,344,30717,6,0,P|435:375|372:372,1,90
395,278,31117,1,0,0:0:0:0:
395,278,31217,1,0,0:0:0:0:
296,331,31417,2,0,L|202:280,1,90
196,278,31717,1,0,0:0:0:0:
296,331,31917,1,0,0:0:0:0:
296,288,32017,1,0,0:0:0:0:
296,242,32117,1,0,0:0:0:0:
378,72,32317,6,0,P|337:41|274:44,1,90
297,138,32717,1,0,0:0:0:0:
297,138,32817,1,0,0:0:0:0:
198,85,33017,2,0,L|104:136,1,90
98,138,33317,1,0,0:0:0:0:
198,85,33517,1,0,0:0:0:0:
198,128,33617,1,0,0:0:0:0:
198,174,33717,1,0,0:0:0:0:
17,310,33917,6,0,P|58:341|121:338,1,90
98,244,34317,1,0,0:0:0:0:
98,244,34417,1,0,0:0:0:0:
197,297,34617,2,0,L|291:246,1,90
297,244,34917,1,0,0:0:0:0:
197,297,35117,1,0,0:0:0:0:
197,254,35217,1,0,0:0:0:0:
197,208,35317,1,0,0:0:0:0:
296,45,35517,6,0,L|410:72,1,90
296,113,35917,1,0,0:0:0:0:
296,169,36017,1,0,0:0:0:0:
297,244,36117,6,0,L|405:220,1,90
428,318,36517,1,0,0:0:0:0:
428,318,36717,2,0,L|320:294,1,90
237,183,37117,6,0,P|184:191|137:238,1,90
230,301,37517,1,0,0:0:0:0:
177,349,37617,1,0,0:0:0:0:
34,348,37817,2,0,P|9:316|43:293,1,90
160,264,38117,1,0,0:0:0:0:
66,165,38317,1,0,0:0:0:0:
46,145,38417,1,0,0:0:0:0:
25,162,38517,1,0,0:0:0:0:
15,31,38717,6,0,P|2:78|18:140,1,90
119,81,39117,1,0,0:0:0:0:
172,33,39217,1,0,0:0:0:0:
315,34,39417,2,0,P|339:67|305:90,1,90
189,118,39717,1,0,0:0:0:0:
283,217,39917,1,0,0:0:0:0:
303,237,40017,1,0,0:0:0:0:
324,220,40117,1,0,0:0:0:0:
476,248,40317,5,0,0:0:0:0:
326,202,40517,1,0,0:0:0:0:
490,79,40717,6,0,L|512:71,4,22.5
443,98,41017,1,0,0:0:0:0:
323,101,41217,1,0,0:0:0:0:
220,40,41317,2,0,L|204:23,2,22.5
238,172,41517,2,0,L|254:188,2,22.5
116,139,41717,2,0,L|70:98,1,45
36,55,41917,6,0,B|17:93|17:93|17:181,1,90
17,182,42218,2,0,P|39:237|33:269,1,90
24,315,42518,2,0,P|62:335|105:323,1,90
148,301,42819,2,0,L|245:331,1,90
252,347,43117,6,0,B|290:366|290:366|373:357,1,90
394,368,43418,2,0,P|448:344|466:317,1,90
446,282,43718,2,0,P|425:243|437:200,1,90
480,166,44019,2,0,L|450:69,1,90
469,43,44317,6,0,B|431:24|431:24|343:24,1,90
343,47,44618,2,0,P|288:69|256:63,1,90
239,33,44917,2,0,P|196:23|158:45,1,90
126,66,45217,2,0,B|32:101|-3:171|-3:171|74:177|140:130|140:130|112:195|111:258|111:258|172:222|203:152|203:152|217:209,1,652.5
220,236,48317,5,0,0:0:0:0:
257,131,49117,1,0,0:0:0:0:
156,113,49917,1,0,0:0:0:0:
126,207,50717,1,0,0:0:0:0:
360,264,51517,6,0,L|305:169,1,90
230,95,52317,1,0,0:0:0:0:
102,29,53117,1,0,0:0:0:0:
54,158,53917,2,0,L|60:207,1,45
120,350,54717,6,0,L|175:255,1,90
250,181,55517,1,0,0:0:0:0:
378,115,56317,1,0,0:0:0:0:
426,244,57117,1,0,0:0:0:0:
309,42,57917,6,0,L|214:97,1,90
140,172,58717,1,0,0:0:0:0:
74,300,59517,1,0,0:0:0:0:
203,348,60317,2,0,B|232:354|232:354|274:340,1,67.5
425,330,61117,5,0,0:0:0:0:
462,225,61917,1,0,0:0:0:0:
361,207,62717,1,0,0:0:0:0:
331,301,63517,1,0,0:0:0:0:
152,120,64317,6,0,L|207:215,1,90
282,289,65117,1,0,0:0:0:0:
410,355,65917,1,0,0:0:0:0:
458,226,66717,2,0,L|452:177,1,45
392,34,67517,6,0,L|337:129,1,90
262,203,68317,1,0,0:0:0:0:
134,269,69117,1,0,0:0:0:0:
86,140,69917,1,0,0:0:0:0:
203,342,70717,6,0,L|298:287,1,90
372,212,71517,1,0,0:0:0:0:
438,84,72317,1,0,0:0:0:0:
258,71,73117,6,0,L|280:79,4,22.5
215,55,73417,1,0,0:0:0:0:
165,47,73517,1,0,0:0:0:0:
118,59,73617,1,0,0:0:0:0:
79,95,73717,1,0,0:0:0:0:
55,137,73817,1,0,0:0:0:0:
40,179,73917,6,0,P|50:247|98:278,1,90
172,209,74317,2,0,P|199:272|254:290,1,90
259,312,74617,1,0,0:0:0:0:
375,317,74717,1,0,0:0:0:0:
391,322,74817,2,0,L|457:341,2,45
347,237,75117,1,0,0:0:0:0:
172,209,75317,2,0,L|132:188,1,45
36,107,75517,6,0,P|63:43|118:25,1,90
193,104,75917,1,0,0:0:0:0:
326,128,76117,1,0,0:0:0:0:
368,142,76217,1,0,0:0:0:0:
394,105,76317,1,0,0:0:0:0:
420,63,76417,2,0,L|479:26,2,45
340,63,76717,1,0,0:0:0:0:
356,240,76917,2,0,L|322:270,1,45
459,265,77117,6,0,P|436:330|383:352,1,90
323,271,77517,2,0,P|284:328|227:336,1,90
220,357,77817,1,0,0:0:0:0:
105,342,77917,1,0,0:0:0:0:
88,344,78017,2,0,L|19:351,2,45
146,268,78317,1,0,0:0:0:0:
323,271,78517,2,0,L|366:257,1,45
455,156,78717,6,0,P|437:88|386:61,1,90
319,137,79117,2,0,P|285:75|229:62,1,90
224,43,79417,1,0,0:0:0:0:
108,48,79517,1,0,0:0:0:0:
91,44,79617,2,0,L|22:30,2,45
142,125,79917,1,0,0:0:0:0:
319,137,80117,2,0,L|360:153,1,45
502,224,80317,6,0,L|406:249,1,90
245,244,80717,1,0,0:0:0:0:
89,176,80917,6,0,P|104:223|160:259,1,90
66,302,81317,2,0,L|126:336,1,45
148,351,81517,1,0,0:0:0:0:
229,181,81717,2,0,P|244:228|300:264,1,90
206,307,82117,2,0,L|266:341,1,45
288,356,82317,1,0,0:0:0:0:
467,328,82517,6,0,P|452:281|381:233,1,112.5
452,133,82917,2,0,L|371:90,1,56.25
277,47,83117,1,0,0:0:0:0:
123,56,83317,2,0,P|91:87|90:232,1,135.000005149842
290,200,83717,2,0,L|168:144,1,135.000005149842
16,255,84117,2,0,P|78:298|181:283,1,135.000005149842
290,200,84517,2,0,L|412:256,1,135.000005149842
450,124,84917,2,0,P|436:57|365:31,1,112.5
285,82,85317,5,0,0:0:0:0:
285,82,85417,1,0,0:0:0:0:
285,82,85517,2,0,L|248:53,4,28.125
283,201,85817,1,0,0:0:0:0:
283,201,85917,2,0,L|334:245,2,56.25
155,76,86317,5,0,0:0:0:0:
147,68,86417,1,0,0:0:0:0:
138,60,86517,1,0,0:0:0:0:
129,52,86617,1,0,0:0:0:0:
120,48,86717,2,0,L|120:168,1,90
