osu file format v14

[General]
AudioFilename: audio.mp3
AudioLeadIn: 0
PreviewTime: 58437
Countdown: 1
SampleSet: Normal
StackLeniency: 0.7
Mode: 0
LetterboxInBreaks: 0
WidescreenStoryboard: 1

[Editor]
DistanceSpacing: 0.7
BeatDivisor: 4
GridSize: 32
TimelineZoom: 2.799999

[Metadata]
Title:Xlo
TitleUnicode:Xlø
Artist:sasakure.UK
ArtistUnicode:sasakure.UK
Creator:Yusomi
Version:Another
Source:beatmania IIDX 26 Rootage
Tags:NEUTRONIKA kuro
BeatmapID:2130614
BeatmapSetID:1018087

[Difficulty]
HPDrainRate:3.3
CircleSize:5
OverallDifficulty:10
ApproachRate:10
SliderMultiplier:2
SliderTickRate:1

[Events]
//Background and Video events
0,0,"Konachan.com - 283995 CROP.jpg",0,0
//Break Periods
//Storyboard Layer 0 (Background)
//Storyboard Layer 1 (Fail)
//Storyboard Layer 2 (Pass)
//Storyboard Layer 3 (Foreground)
//Storyboard Layer 4 (Overlay)
//Storyboard Sound Samples

[TimingPoints]
489,363.636363636364,4,1,0,60,1,0
28307,363.636363636364,3,1,0,60,1,0
28307,-66.6666666666667,3,1,0,60,0,0
29034,-43.4782608695652,3,1,0,60,0,0
29216,-100,3,1,0,60,0,0
29761,-50,3,1,0,60,0,0
30125,-100,3,1,0,60,0,0
30489,-66.6666666666667,3,1,0,60,0,0
31216,-43.4782608695652,3,1,0,60,0,0
31398,-100,3,1,0,60,0,0
32670,-66.6666666666667,3,1,0,60,0,0
33398,-43.4782608695652,3,1,0,60,0,0
33579,-100,3,1,0,60,0,0
34852,-66.6666666666667,3,1,0,60,0,0
35579,-43.4782608695652,3,1,0,60,0,0
35761,-100,3,1,0,60,0,0
36307,-66.6666666666667,3,1,0,60,0,0
37034,-50,3,1,0,60,0,0
41579,-83.3333333333333,3,1,0,60,0,0
43943,363.636363636364,2,1,0,60,1,0
43943,-55.5555555555556,7,1,0,60,0,0
46852,363.636363636364,4,1,0,60,1,0
58488,-50,4,1,0,60,0,0
70397,-83.3333333333333,4,1,0,60,0,0
81761,-45.4545454545455,4,1,0,60,0,0
82124,-83.3333333333333,4,1,0,60,0,0
85761,-37.037037037037,4,1,0,60,0,0
86124,-83.3333333333333,4,1,0,60,0,0
97033,-66.6666666666667,4,1,0,60,0,0
100306,-50,4,1,0,60,0,0
100488,-66.6666666666667,4,1,0,60,0,0
102124,-37.037037037037,4,1,0,60,0,0
102579,-100,4,1,0,60,0,0
102670,-50,4,1,0,60,0,0
102761,-100,4,1,0,60,0,0
102852,-50,4,1,0,60,0,0
103306,-100,4,1,0,60,0,0
113033,-76.9230769230769,4,1,0,60,0,0
113761,-37.037037037037,4,1,0,60,0,0
114124,-76.9230769230769,4,1,0,60,0,0

[Colours]
Combo1 : 255,43,43
Combo2 : 151,230,255

[HitObjects]
97,124,489,6,0,L|146:115,1,50
237,86,670,1,0,0:0:0:0:
218,154,761,1,0,0:0:0:0:
97,124,1034,6,0,L|146:115,1,50
313,137,1216,1,0,0:0:0:0:
301,30,1307,1,0,0:0:0:0:
97,124,1579,6,0,L|146:115,1,50
379,87,1761,1,0,0:0:0:0:
359,198,1852,1,0,0:0:0:0:
97,124,2125,6,0,L|146:115,1,50
465,157,2307,1,0,0:0:0:0:
395,8,2398,1,0,0:0:0:0:
376,22,2670,5,0,0:0:0:0:
355,103,2792,1,0,0:0:0:0:
275,77,2913,1,0,0:0:0:0:
249,156,3034,5,0,0:0:0:0:
329,180,3155,1,0,0:0:0:0:
303,260,3276,1,0,0:0:0:0:
486,230,3398,5,0,0:0:0:0:
406,204,3519,1,0,0:0:0:0:
382,283,3640,1,0,0:0:0:0:
222,234,3761,5,0,0:0:0:0:
275,77,3882,1,0,0:0:0:0:
112,25,4004,1,0,0:0:0:0:
116,199,4125,5,0,0:0:0:0:
93,264,4185,5,0,0:0:0:0:
109,304,4246,5,0,0:0:0:0:
127,323,4307,5,0,0:0:0:0:
132,338,4367,5,0,0:0:0:0:
132,348,4428,5,0,0:0:0:0:
128,353,4489,6,0,L|103:356,6,25
203,310,4852,5,0,0:0:0:0:
224,313,4942,1,0,0:0:0:0:
246,317,5033,1,0,0:0:0:0:
268,320,5124,1,0,0:0:0:0:
289,324,5215,1,0,0:0:0:0:
312,328,5306,1,0,0:0:0:0:
369,290,5397,5,0,0:0:0:0:
409,367,5489,1,0,0:0:0:0:
454,309,5579,5,0,0:0:0:0:
451,288,5669,1,0,0:0:0:0:
447,266,5760,1,0,0:0:0:0:
444,244,5851,1,0,0:0:0:0:
428,227,5942,1,0,0:0:0:0:
432,204,6033,1,0,0:0:0:0:
457,173,6125,1,0,0:0:0:0:
453,150,6216,1,0,0:0:0:0:
428,81,6307,6,0,L|437:25,1,50
319,153,6489,2,0,L|315:130,1,16.6666666666667
274,62,6579,2,0,P|275:37|280:12,1,50
179,160,6761,2,0,L|186:137,1,16.6666666666667
151,70,6851,2,0,P|150:46|146:14,1,50
61,198,7034,2,0,P|61:189|63:181,1,16.6666666666667
37,89,7125,2,0,P|36:80|34:72,1,16.6666666666667
47,190,7216,2,0,L|41:167,1,16.6666666666667
65,97,7307,2,0,L|71:74,1,16.6666666666667
130,215,7398,6,0,P|146:287|114:362,1,150
239,373,7761,5,0,0:0:0:0:
231,352,7852,1,0,0:0:0:0:
228,330,7943,1,0,0:0:0:0:
228,307,8034,1,0,0:0:0:0:
234,285,8125,1,0,0:0:0:0:
247,267,8216,1,0,0:0:0:0:
318,246,8307,5,0,0:0:0:0:
241,186,8398,1,0,0:0:0:0:
311,170,8489,5,0,0:0:0:0:
319,149,8580,1,0,0:0:0:0:
322,127,8671,1,0,0:0:0:0:
322,104,8762,1,0,0:0:0:0:
296,77,8853,1,0,0:0:0:0:
309,59,8944,1,0,0:0:0:0:
333,28,9034,1,0,0:0:0:0:
355,30,9125,1,0,0:0:0:0:
386,89,9216,6,0,L|443:98,1,50
278,250,9398,2,0,L|303:247,1,16.6666666666667
390,234,9489,2,0,L|415:231,1,16.6666666666667
254,218,9579,2,0,P|262:218|270:219,1,16.6666666666667
374,255,9670,2,0,P|382:254|390:253,1,16.6666666666667
338,168,9761,2,0,L|336:199,1,16.6666666666667
328,310,9852,2,0,P|326:337|327:366,1,50
159,207,10034,6,0,L|164:222,1,16.6666666666667
196,319,10125,2,0,P|196:352|194:373,1,50
53,208,10307,1,0,0:0:0:0:
32,376,10398,2,0,L|45:269,1,100
77,72,10670,5,0,0:0:0:0:
111,77,10761,1,0,0:0:0:0:
140,95,10852,1,0,0:0:0:0:
166,117,10943,1,0,0:0:0:0:
197,132,11034,1,0,0:0:0:0:
232,132,11125,1,0,0:0:0:0:
260,59,11216,5,0,0:0:0:0:
308,129,11307,1,0,0:0:0:0:
392,92,11398,5,0,0:0:0:0:
387,126,11489,1,0,0:0:0:0:
383,160,11579,1,0,0:0:0:0:
378,194,11670,1,0,0:0:0:0:
352,218,11761,1,0,0:0:0:0:
367,249,11852,1,0,0:0:0:0:
388,282,11943,1,0,0:0:0:0:
376,315,12034,1,0,0:0:0:0:
312,292,12125,6,0,P|285:290|259:289,1,50
29,276,12307,2,0,P|34:270|41:266,1,16.6666666666667
127,245,12398,2,0,P|151:243|176:242,1,50
289,188,12579,2,0,P|283:181|276:177,1,16.6666666666667
191,156,12670,2,0,P|166:154|141:153,1,50
43,0,12852,2,0,P|48:6|55:10,1,16.6666666666667
19,99,12943,2,0,P|24:92|31:88,1,16.6666666666667
117,67,13034,2,0,P|141:65|166:64,1,50
271,51,13216,6,0,L|276:16,1,25
337,106,13307,2,0,L|342:141,1,25
409,67,13398,1,0,0:0:0:0:
481,113,13489,2,0,L|486:78,1,25
458,127,13579,5,0,0:0:0:0:
468,160,13670,1,0,0:0:0:0:
471,194,13761,1,0,0:0:0:0:
468,228,13852,1,0,0:0:0:0:
460,262,13943,1,0,0:0:0:0:
448,294,14034,1,0,0:0:0:0:
458,368,14125,5,0,0:0:0:0:
377,289,14216,1,0,0:0:0:0:
386,356,14307,5,0,0:0:0:0:
353,369,14398,1,0,0:0:0:0:
318,373,14489,1,0,0:0:0:0:
284,366,14579,1,0,0:0:0:0:
255,345,14670,1,0,0:0:0:0:
223,359,14761,1,0,0:0:0:0:
187,384,14852,1,0,0:0:0:0:
155,370,14943,1,0,0:0:0:0:
86,372,15034,6,0,P|75:350|67:319,1,50
203,144,15216,2,0,P|200:152|197:160,1,16.6666666666667
102,213,15307,2,0,L|124:212,1,16.6666666666667
209,270,15398,2,0,P|207:263|202:256,1,16.6666666666667
124,138,15489,2,0,L|119:123,1,16.6666666666667
133,284,15579,2,0,L|130:301,1,16.6666666666667
257,206,15670,2,0,P|280:202|306:203,1,50
449,371,15852,6,0,P|440:372|432:371,1,16.6666666666667
360,318,15943,2,0,P|363:294|363:269,1,50
464,66,16125,1,0,0:0:0:0:
420,218,16216,2,0,P|414:168|403:119,1,100
123,25,16489,5,0,0:0:0:0:
154,145,16579,1,0,0:0:0:0:
182,117,16670,1,0,0:0:0:0:
48,102,16761,5,0,0:0:0:0:
240,18,16943,5,0,0:0:0:0:
269,232,17125,5,0,0:0:0:0:
294,295,17216,5,0,0:0:0:0:
320,167,17307,1,0,0:0:0:0:
359,262,17398,5,0,0:0:0:0:
367,291,17489,1,0,0:0:0:0:
425,242,17579,5,0,0:0:0:0:
438,203,17670,1,0,0:0:0:0:
485,284,17761,5,0,0:0:0:0:
481,365,17852,1,0,0:0:0:0:
481,365,18489,5,0,0:0:0:0:
442,356,18534,1,0,0:0:0:0:
403,348,18579,1,0,0:0:0:0:
219,364,18670,5,0,0:0:0:0:
306,310,18761,1,0,0:0:0:0:
282,19,18943,5,0,0:0:0:0:
265,20,18943,5,0,0:0:0:0:
234,89,19216,1,0,0:0:0:0:
278,195,19307,1,0,0:0:0:0:
436,183,19398,5,0,0:0:0:0:
355,165,19489,1,0,0:0:0:0:
487,333,19761,1,0,0:0:0:0:
406,315,19852,1,0,0:0:0:0:
226,286,20034,1,0,0:0:0:0:
226,286,20079,1,0,0:0:0:0:
226,286,20125,5,0,0:0:0:0:
193,309,20216,1,0,0:0:0:0:
139,321,20307,1,0,0:0:0:0:
83,299,20398,1,0,0:0:0:0:
141,207,20489,5,0,0:0:0:0:
6,152,20579,1,0,0:0:0:0:
121,78,20670,1,0,0:0:0:0:
75,11,20761,1,0,0:0:0:0:
121,78,21398,5,0,0:0:0:0:
79,137,21489,1,0,0:0:0:0:
186,109,21579,1,0,0:0:0:0:
310,54,21761,5,0,0:0:0:0:
380,155,21852,1,0,0:0:0:0:
505,39,22125,5,0,0:0:0:0:
466,123,22307,5,0,0:0:0:0:
467,236,22398,1,0,0:0:0:0:
484,218,22489,1,0,0:0:0:0:
487,193,22579,1,0,0:0:0:0:
411,184,22670,5,0,0:0:0:0:
408,70,22761,1,0,0:0:0:0:
391,88,22852,1,0,0:0:0:0:
388,113,22942,1,0,0:0:0:0:
337,174,23034,5,0,0:0:0:0:
317,169,23034,5,0,0:0:0:0:
283,102,23125,5,0,0:0:0:0:
263,107,23125,5,0,0:0:0:0:
180,257,23398,5,0,0:0:0:0:
150,249,23398,5,0,0:0:0:0:
104,165,23489,5,0,0:0:0:0:
74,173,23489,5,0,0:0:0:0:
25,23,23670,5,0,0:0:0:0:
72,10,23670,5,0,0:0:0:0:
50,319,23943,5,0,0:0:0:0:
16,309,23943,5,0,0:0:0:0:
183,341,24125,1,0,0:0:0:0:
218,349,24185,1,0,0:0:0:0:
251,333,24246,1,0,0:0:0:0:
273,303,24307,1,0,0:0:0:0:
306,287,24368,1,0,0:0:0:0:
341,295,24428,1,0,0:0:0:0:
396,341,24489,5,0,0:0:0:0:
497,317,24579,1,0,0:0:0:0:
417,274,24670,1,0,0:0:0:0:
385,189,24761,1,0,0:0:0:0:
491,131,24852,5,0,0:0:0:0:
418,122,24943,1,0,0:0:0:0:
461,68,25034,1,0,0:0:0:0:
435,4,25125,1,0,0:0:0:0:
435,9,25398,5,0,0:0:0:0:
379,59,25489,1,0,0:0:0:0:
303,80,25579,1,0,0:0:0:0:
304,75,25625,1,0,0:0:0:0:
302,70,25670,1,0,0:0:0:0:
297,67,25716,1,0,0:0:0:0:
269,51,25761,1,0,0:0:0:0:
187,36,25852,1,0,0:0:0:0:
79,228,26125,5,0,0:0:0:0:
143,217,26216,5,0,0:0:0:0:
79,228,26307,5,0,0:0:0:0:
143,217,26398,5,0,0:0:0:0:
79,228,26489,5,0,0:0:0:0:
143,217,26580,5,0,0:0:0:0:
26,172,26670,5,0,0:0:0:0:
143,61,26943,1,0,0:0:0:0:
186,69,27079,1,0,0:0:0:0:
204,139,27216,1,0,0:0:0:0:
247,126,27352,1,0,0:0:0:0:
265,56,27489,1,0,0:0:0:0:
308,69,27625,1,0,0:0:0:0:
326,139,27762,1,0,0:0:0:0:
353,135,27829,1,0,0:0:0:0:
381,128,27898,1,0,0:0:0:0:
385,42,28034,1,0,0:0:0:0:
419,52,28102,1,0,0:0:0:0:
454,61,28170,1,0,0:0:0:0:
469,151,28307,6,0,P|463:225|459:300,1,150.000005722046
348,358,28670,2,0,L|347:318,1,25.0000009536744
278,230,28852,2,0,P|226:243|208:294,1,112.500004291535
211,301,29034,2,0,L|153:304,1,57.5000010967255
15,339,29216,2,0,L|105:334,1,75
90,336,29397,5,0,0:0:0:0:
99,257,29489,1,0,0:0:0:0:
108,178,29579,1,0,0:0:0:0:
149,16,29761,6,0,P|165:34|177:56,1,50
207,156,29852,1,0,0:0:0:0:
207,156,29943,6,0,P|214:132|227:110,1,50
305,38,30034,1,0,0:0:0:0:
305,38,30125,6,0,L|297:148,1,100
461,369,30489,6,0,B|456:352|456:352|473:202,1,150.000005722046
375,69,30852,2,0,L|378:93,1,25.0000009536744
480,141,31034,2,0,B|414:131|441:178|376:169,1,112.500004291535
370,178,31216,2,0,P|342:173|322:154,1,57.5000010967255
215,68,31398,2,0,L|225:118,1,50
247,199,31579,5,0,0:0:0:0:
244,208,31640,1,0,0:0:0:0:
241,217,31701,1,0,0:0:0:0:
201,218,31761,5,0,0:0:0:0:
214,266,31822,1,0,0:0:0:0:
227,313,31882,1,0,0:0:0:0:
201,374,31943,6,0,L|204:324,1,50
134,270,32125,1,0,0:0:0:0:
130,270,32185,1,0,0:0:0:0:
126,270,32246,1,0,0:0:0:0:
102,297,32307,5,0,0:0:0:0:
54,0,32489,5,0,0:0:0:0:
35,365,32670,6,0,P|23:291|41:218,1,150.000005722046
156,21,33034,2,0,L|160:45,1,25.0000009536744
19,121,33216,2,0,P|74:126|134:134,1,112.500004291535
126,147,33398,2,0,L|193:133,1,57.5000010967255
436,121,33579,2,0,L|380:130,1,50
272,176,33761,5,0,0:0:0:0:
258,97,33852,1,0,0:0:0:0:
304,31,33943,1,0,0:0:0:0:
340,316,34125,6,0,L|335:287,1,16.6666666666667
324,231,34216,1,0,0:0:0:0:
186,299,34307,2,0,L|215:294,1,16.6666666666667
269,282,34398,1,0,0:0:0:0:
169,212,34489,2,0,P|170:264|161:330,1,100
98,0,34852,6,0,B|87:19|87:19|81:91|113:142,1,150.000005722046
387,15,35216,2,0,P|374:17|362:20,1,25.0000009536744
180,66,35398,2,0,P|237:75|307:84,1,112.500004291535
298,78,35579,2,0,L|304:135,1,57.5000010967255
458,233,35761,2,0,L|401:229,1,50
252,222,35943,5,0,0:0:0:0:
257,225,36004,1,0,0:0:0:0:
262,228,36064,1,0,0:0:0:0:
292,262,36125,5,0,0:0:0:0:
239,265,36185,1,0,0:0:0:0:
185,270,36246,1,0,0:0:0:0:
152,212,36307,6,0,B|40:216|51:377|151:337|119:280,1,225.000008583069
204,154,36670,5,0,0:0:0:0:
179,134,36731,1,0,0:0:0:0:
216,94,36792,1,0,0:0:0:0:
190,33,36852,5,0,0:0:0:0:
342,303,37034,6,0,L|468:320,3,100
401,227,37398,2,0,L|406:185,1,33.3333333333333
415,111,37579,2,0,L|420:69,1,33.3333333333333
429,5,37761,1,0,0:0:0:0:
429,5,37852,1,0,0:0:0:0:
429,5,37943,1,0,0:0:0:0:
260,160,38125,5,0,0:0:0:0:
193,182,38216,1,0,0:0:0:0:
126,159,38307,1,0,0:0:0:0:
108,91,38398,1,0,0:0:0:0:
217,53,38489,6,0,P|200:55|184:57,1,33.3333333333333
116,10,38579,1,0,0:0:0:0:
318,66,38670,2,0,P|304:56|289:48,1,33.3333333333333
234,211,38852,5,0,0:0:0:0:
303,200,38943,1,0,0:0:0:0:
198,179,39034,1,0,0:0:0:0:
170,303,39216,6,0,L|44:320,3,100
111,227,39580,2,0,L|106:185,1,33.3333333333333
97,111,39761,2,0,L|93:77,1,33.3333333333333
83,5,39943,1,0,0:0:0:0:
83,5,40034,1,0,0:0:0:0:
83,5,40125,1,0,0:0:0:0:
235,209,40307,5,0,0:0:0:0:
280,219,40367,1,0,0:0:0:0:
326,216,40428,1,0,0:0:0:0:
369,198,40489,1,0,0:0:0:0:
406,170,40549,1,0,0:0:0:0:
433,132,40610,1,0,0:0:0:0:
443,86,40670,5,0,0:0:0:0:
385,155,40761,1,0,0:0:0:0:
396,244,40852,1,0,0:0:0:0:
455,311,40943,1,0,0:0:0:0:
322,251,41034,5,0,0:0:0:0:
71,369,41216,6,0,B|76:358|76:358|262:331,1,200
244,318,41458,6,0,L|310:341,1,66.6666666666667
264,345,41579,5,0,0:0:0:0:
140,188,41943,1,0,0:0:0:0:
172,124,42125,1,0,0:0:0:0:
120,43,42307,1,0,0:0:0:0:
196,352,42489,6,0,B|236:341|273:362|316:352,1,119.999996337891
478,384,42852,1,0,0:0:0:0:
405,322,43034,1,0,0:0:0:0:
491,245,43216,1,0,0:0:0:0:
350,158,43398,1,0,0:0:0:0:
512,83,43579,1,0,0:0:0:0:
306,0,43761,1,0,0:0:0:0:
316,352,43943,6,0,B|276:341|239:362|196:352,1,119.999996337891
259,311,44185,1,0,0:0:0:0:
206,254,44307,1,0,0:0:0:0:
291,211,44428,1,0,0:0:0:0:
238,109,44549,5,0,0:0:0:0:
113,216,44670,5,0,0:0:0:0:
113,216,44731,1,0,0:0:0:0:
113,216,44792,1,0,0:0:0:0:
173,177,44913,1,0,0:0:0:0:
109,102,45034,1,0,0:0:0:0:
188,63,45155,1,0,0:0:0:0:
93,0,45276,5,0,0:0:0:0:
293,202,45398,5,0,0:0:0:0:
293,202,45458,1,0,0:0:0:0:
293,202,45519,1,0,0:0:0:0:
223,159,45640,1,0,0:0:0:0:
324,107,45761,1,0,0:0:0:0:
237,51,45882,1,0,0:0:0:0:
356,0,46004,5,0,0:0:0:0:
455,244,46125,5,0,0:0:0:0:
455,244,46185,1,0,0:0:0:0:
455,244,46246,1,0,0:0:0:0:
370,203,46367,1,0,0:0:0:0:
453,135,46489,1,0,0:0:0:0:
340,64,46610,1,0,0:0:0:0:
473,4,46731,5,0,0:0:0:0:
282,150,46852,6,0,L|233:160,1,50
191,261,47032,1,0,0:0:0:0:
191,261,47124,2,0,L|240:271,1,50
330,309,47307,1,0,0:0:0:0:
320,322,47398,5,0,0:0:0:0:
367,384,47489,1,0,0:0:0:0:
427,337,47579,1,0,0:0:0:0:
443,306,47670,1,0,0:0:0:0:
454,273,47761,1,0,0:0:0:0:
460,238,47852,1,0,0:0:0:0:
425,172,47943,5,0,0:0:0:0:
476,126,48034,1,0,0:0:0:0:
407,69,48125,1,0,0:0:0:0:
478,30,48216,1,0,0:0:0:0:
319,28,48307,5,0,0:0:0:0:
393,80,48398,1,0,0:0:0:0:
382,113,48489,1,0,0:0:0:0:
382,153,48579,1,0,0:0:0:0:
461,114,48670,5,0,0:0:0:0:
301,177,48761,1,0,0:0:0:0:
312,210,48852,1,0,0:0:0:0:
312,250,48942,1,0,0:0:0:0:
385,226,49034,5,0,0:0:0:0:
434,275,49125,1,0,0:0:0:0:
423,308,49216,1,0,0:0:0:0:
423,348,49306,1,0,0:0:0:0:
354,330,49398,5,0,0:0:0:0:
268,362,49489,1,0,0:0:0:0:
339,360,49579,1,0,0:0:0:0:
273,340,49670,1,0,0:0:0:0:
56,352,49852,1,0,0:0:0:0:
127,350,49942,1,0,0:0:0:0:
61,330,50033,1,0,0:0:0:0:
141,165,50216,1,0,0:0:0:0:
100,257,50307,5,0,0:0:0:0:
173,234,50398,1,0,0:0:0:0:
53,190,50489,5,0,0:0:0:0:
69,158,50579,1,0,0:0:0:0:
71,122,50670,1,0,0:0:0:0:
61,87,50761,1,0,0:0:0:0:
140,84,50852,1,0,0:0:0:0:
166,55,50943,1,0,0:0:0:0:
215,117,51034,5,0,0:0:0:0:
256,51,51124,1,0,0:0:0:0:
271,200,51216,5,0,0:0:0:0:
253,128,51307,1,0,0:0:0:0:
295,111,51398,1,0,0:0:0:0:
338,122,51489,1,0,0:0:0:0:
460,205,51579,5,0,0:0:0:0:
460,126,51670,1,0,0:0:0:0:
416,136,51761,1,0,0:0:0:0:
388,171,51852,1,0,0:0:0:0:
355,238,51943,5,0,0:0:0:0:
378,306,52034,1,0,0:0:0:0:
324,353,52125,1,0,0:0:0:0:
307,328,52216,1,0,0:0:0:0:
264,264,52307,1,0,0:0:0:0:
238,226,52398,1,0,0:0:0:0:
194,162,52489,1,0,0:0:0:0:
156,107,52580,1,0,0:0:0:0:
102,32,52670,5,0,0:0:0:0:
23,225,52852,5,0,0:0:0:0:
97,205,52943,1,0,0:0:0:0:
303,335,53125,5,0,0:0:0:0:
173,328,53216,1,0,0:0:0:0:
291,273,53307,1,0,0:0:0:0:
158,265,53398,1,0,0:0:0:0:
193,257,53489,1,0,0:0:0:0:
224,239,53579,1,0,0:0:0:0:
251,215,53670,1,0,0:0:0:0:
311,170,53761,5,0,0:0:0:0:
252,121,53852,1,0,0:0:0:0:
344,74,53943,1,0,0:0:0:0:
269,6,54034,1,0,0:0:0:0:
416,0,54125,5,0,0:0:0:0:
458,88,54216,1,0,0:0:0:0:
448,122,54307,1,0,0:0:0:0:
452,157,54398,1,0,0:0:0:0:
351,109,54489,5,0,0:0:0:0:
386,194,54580,1,0,0:0:0:0:
396,228,54671,1,0,0:0:0:0:
392,263,54762,1,0,0:0:0:0:
312,228,54852,5,0,0:0:0:0:
326,303,54943,1,0,0:0:0:0:
316,337,55034,1,0,0:0:0:0:
320,372,55125,1,0,0:0:0:0:
394,344,55216,5,0,0:0:0:0:
431,349,55307,1,0,0:0:0:0:
244,363,55398,1,0,0:0:0:0:
209,354,55489,1,0,0:0:0:0:
174,346,55579,1,0,0:0:0:0:
156,314,55670,1,0,0:0:0:0:
85,336,55761,5,0,0:0:0:0:
140,243,55852,1,0,0:0:0:0:
145,224,55943,1,0,0:0:0:0:
210,183,56034,5,0,0:0:0:0:
167,45,56125,1,0,0:0:0:0:
162,26,56216,1,0,0:0:0:0:
141,120,56307,1,0,0:0:0:0:
176,112,56398,1,0,0:0:0:0:
212,111,56489,1,0,0:0:0:0:
246,119,56579,1,0,0:0:0:0:
280,128,56670,1,0,0:0:0:0:
315,121,56761,1,0,0:0:0:0:
366,66,56852,5,0,0:0:0:0:
394,154,56943,1,0,0:0:0:0:
433,1,57034,5,0,0:0:0:0:
501,29,57125,1,0,0:0:0:0:
433,24,57216,1,0,0:0:0:0:
501,52,57307,1,0,0:0:0:0:
282,53,57398,5,0,0:0:0:0:
452,99,57489,1,0,0:0:0:0:
306,190,57579,5,0,0:0:0:0:
395,161,57670,1,0,0:0:0:0:
11,344,58489,5,0,0:0:0:0:
49,193,58579,1,0,0:0:0:0:
95,336,58670,5,0,0:0:0:0:
81,264,58761,1,0,0:0:0:0:
154,290,58852,5,0,0:0:0:0:
188,210,58943,1,0,0:0:0:0:
245,323,59034,5,0,0:0:0:0:
225,274,59125,1,0,0:0:0:0:
305,277,59216,6,0,B|416:252|400:311|513:279,1,200
398,45,59579,1,0,0:0:0:0:
318,124,59670,1,0,0:0:0:0:
415,119,59761,1,0,0:0:0:0:
281,42,59852,1,0,0:0:0:0:
335,197,59942,6,0,L|355:70,1,100
93,286,60215,1,0,0:0:0:0:
175,244,60306,1,0,0:0:0:0:
155,142,60397,1,0,0:0:0:0:
338,309,60670,1,0,0:0:0:0:
284,371,60761,2,0,L|259:274,1,100
415,369,61033,5,0,0:0:0:0:
431,298,61124,1,0,0:0:0:0:
495,314,61215,5,0,0:0:0:0:
472,191,61306,1,0,0:0:0:0:
507,133,61397,6,0,L|492:259,1,100
423,121,61579,1,0,0:0:0:0:
423,121,61670,1,0,0:0:0:0:
423,121,61761,2,0,P|373:117|323:110,1,100
459,33,61942,1,0,0:0:0:0:
225,175,62124,6,0,B|254:31|254:31|225:75,1,200
51,274,62488,1,0,0:0:0:0:
181,246,62579,1,0,0:0:0:0:
269,364,62670,1,0,0:0:0:0:
474,321,62761,1,0,0:0:0:0:
361,315,62852,5,0,0:0:0:0:
361,315,62942,1,0,0:0:0:0:
83,191,63215,1,0,0:0:0:0:
83,191,63306,1,0,0:0:0:0:
349,6,63579,5,0,0:0:0:0:
305,76,63670,1,0,0:0:0:0:
396,53,63761,5,0,0:0:0:0:
305,158,63852,1,0,0:0:0:0:
412,117,63943,5,0,0:0:0:0:
348,229,64034,1,0,0:0:0:0:
394,181,64125,5,0,0:0:0:0:
419,266,64216,1,0,0:0:0:0:
284,244,64306,6,0,P|191:203|187:104,1,200
208,47,64579,1,0,0:0:0:0:
199,117,64670,2,0,L|170:325,1,200
37,3,65033,2,0,B|26:23|26:23|40:199,1,200
71,362,65397,5,0,0:0:0:0:
110,269,65488,1,0,0:0:0:0:
19,318,65579,5,0,0:0:0:0:
181,318,65670,1,0,0:0:0:0:
221,153,65761,5,0,0:0:0:0:
242,384,65852,1,0,0:0:0:0:
489,226,66124,5,0,0:0:0:0:
472,357,66215,1,0,0:0:0:0:
285,59,66488,5,0,0:0:0:0:
400,168,66579,2,0,L|289:135,1,100
23,117,66761,1,0,0:0:0:0:
26,107,66852,2,0,P|34:58|41:9,1,100
117,52,67033,2,0,P|122:101|131:150,1,100
227,273,67215,6,0,L|195:262,1,33.3333333333333
89,304,67306,2,0,L|121:297,1,33.3333333333333
200,207,67397,6,0,L|193:261,1,33.3333333333333
185,368,67488,2,0,L|178:314,1,33.3333333333333
121,223,67579,1,0,0:0:0:0:
396,320,67761,5,0,0:0:0:0:
473,281,67852,1,0,0:0:0:0:
353,289,67942,6,0,L|403:301,1,33.3333333333333
494,299,68033,2,0,L|444:311,1,33.3333333333333
404,185,68124,6,0,L|412:238,1,33.3333333333333
424,284,68215,1,0,0:0:0:0:
479,204,68306,5,0,0:0:0:0:
434,381,68397,1,0,0:0:0:0:
182,72,68670,6,0,P|192:94|197:119,1,50
181,206,68761,1,0,0:0:0:0:
76,219,68852,1,0,0:0:0:0:
109,109,68942,2,0,P|121:124|130:142,1,33.3333333333333
144,286,69033,6,0,P|125:280|106:276,1,33.3333333333333
14,245,69124,2,0,P|28:231|41:217,1,33.3333333333333
176,197,69215,6,0,P|224:208|274:213,1,100
496,67,69397,6,0,B|470:47|435:45|435:45|387:53|406:125|478:107|458:29|389:30|389:30|353:39|350:113|427:95|413:8|318:25,1,400
266,70,69821,1,0,0:0:0:0:
266,70,69882,1,0,0:0:0:0:
266,70,69942,2,0,L|275:136,2,66.6666666666667
194,20,70124,5,0,0:0:0:0:
148,208,70215,2,0,B|135:252|136:214|157:139,1,100
180,23,70397,6,0,L|189:84,1,59.9999981689454
118,85,70579,2,0,L|109:25,1,59.9999981689454
22,110,70761,1,0,0:0:0:0:
81,151,70852,5,0,0:0:0:0:
11,197,70942,1,0,0:0:0:0:
9,276,71033,1,0,0:0:0:0:
75,232,71124,1,0,0:0:0:0:
146,310,71215,1,0,0:0:0:0:
70,308,71306,1,0,0:0:0:0:
23,375,71397,1,0,0:0:0:0:
156,337,71488,6,0,B|201:352|235:338|235:338|249:342|249:342|288:329|333:340,1,179.999994506836
396,375,71852,1,0,0:0:0:0:
399,366,71942,2,0,P|404:337|397:309,1,59.9999981689454
269,173,72124,1,0,0:0:0:0:
275,220,72185,1,0,0:0:0:0:
314,245,72245,1,0,0:0:0:0:
362,245,72306,5,0,0:0:0:0:
432,178,72397,2,0,P|431:148|440:119,1,59.9999981689454
484,374,72579,2,0,P|483:314|465:252,1,119.999996337891
466,9,72852,1,0,0:0:0:0:
472,32,72942,1,0,0:0:0:0:
480,55,73033,5,0,0:0:0:0:
385,36,73155,1,0,0:0:0:0:
290,17,73276,1,0,0:0:0:0:
326,92,73397,5,0,0:0:0:0:
231,73,73519,1,0,0:0:0:0:
143,61,73640,1,0,0:0:0:0:
143,61,73700,1,0,0:0:0:0:
143,61,73761,5,0,0:0:0:0:
173,135,73852,1,0,0:0:0:0:
87,144,73942,1,0,0:0:0:0:
132,159,74033,1,0,0:0:0:0:
192,234,74124,1,0,0:0:0:0:
66,237,74215,1,0,0:0:0:0:
129,276,74306,1,0,0:0:0:0:
155,344,74397,6,0,B|187:389|236:375|236:375|276:342|262:295,1,179.999994506836
334,209,74761,1,0,0:0:0:0:
334,203,74852,2,0,P|331:232|335:262,1,59.9999981689454
365,381,75033,5,0,0:0:0:0:
415,229,75124,1,0,0:0:0:0:
463,384,75215,1,0,0:0:0:0:
468,131,75397,5,0,0:0:0:0:
508,257,75488,1,0,0:0:0:0:
483,0,75761,5,0,0:0:0:0:
276,85,75942,6,0,P|246:78|216:77,1,59.9999981689454
131,112,76124,1,0,0:0:0:0:
96,34,76215,1,0,0:0:0:0:
210,160,76488,6,0,P|239:166|269:167,1,59.9999981689454
414,126,76670,1,0,0:0:0:0:
474,221,76761,1,0,0:0:0:0:
315,249,77033,6,0,P|285:241|256:239,1,59.9999981689454
146,291,77215,1,0,0:0:0:0:
49,203,77306,1,0,0:0:0:0:
230,339,77579,6,0,P|259:346|288:348,1,59.9999981689454
377,306,77761,1,0,0:0:0:0:
501,384,77852,1,0,0:0:0:0:
73,377,78124,5,0,0:0:0:0:
21,329,78214,1,0,0:0:0:0:
79,283,78305,5,0,0:0:0:0:
2,261,78396,1,0,0:0:0:0:
99,212,78487,5,0,0:0:0:0:
23,192,78578,1,0,0:0:0:0:
146,133,78670,5,0,0:0:0:0:
20,101,78761,1,0,0:0:0:0:
76,145,78852,5,0,0:0:0:0:
206,53,78942,1,0,0:0:0:0:
212,160,79033,5,0,0:0:0:0:
305,28,79124,1,0,0:0:0:0:
282,159,79215,5,0,0:0:0:0:
396,77,79306,1,0,0:0:0:0:
348,129,79397,5,0,0:0:0:0:
419,9,79488,1,0,0:0:0:0:
430,173,79579,6,0,B|421:201|436:200|425:231,2,59.9999981689454
419,96,79852,1,0,0:0:0:0:
419,96,79942,6,0,L|427:275,1,179.999994506836
473,343,80306,2,0,P|494:321|506:293,2,59.9999981689454
200,342,80670,2,0,L|232:343,1,19.9999993896485
293,368,80761,2,0,P|284:308|278:248,1,119.999996337891
229,97,81033,6,0,L|218:158,1,59.9999981689454
109,243,81215,2,0,L|105:221,1,19.9999993896485
53,171,81306,2,0,L|57:149,1,19.9999993896485
132,215,81397,6,0,L|105:213,1,19.9999993896485
19,235,81488,2,0,L|-8:233,1,19.9999993896485
85,296,81579,6,0,P|115:289|145:288,1,59.9999981689454
300,315,81761,6,0,B|353:351|408:294|408:294|474:225|541:268|525:362|428:350|408:294|408:294|386:262|346:264,1,440.000013427735
347,264,82124,6,0,L|341:223,6,29.9999990844727
412,206,82488,6,0,P|415:176|422:142,1,59.9999981689454
331,9,82670,2,0,P|338:22|356:31,1,29.9999990844727
464,45,82761,2,0,P|449:44|432:55,1,29.9999990844727
315,66,82852,6,0,L|346:62,1,19.9999993896485
472,65,82942,2,0,L|441:61,1,19.9999993896485
398,14,83033,6,0,L|404:84,1,59.9999981689454
272,167,83215,6,0,L|259:115,2,29.9999990844727
164,208,83397,6,0,L|151:260,2,29.9999990844727
72,136,83579,6,0,B|73:105|63:114|63:77,2,59.9999981689454
59,211,83852,1,0,0:0:0:0:
59,211,83942,6,0,L|65:24,1,179.999994506836
139,16,84306,2,0,P|142:47|139:80,2,59.9999981689454
325,55,84670,2,0,L|351:60,1,19.9999993896485
398,112,84761,2,0,P|463:90|523:74,1,119.999996337891
510,362,85033,6,0,P|495:336|467:327,1,59.9999981689454
276,335,85215,2,0,L|305:326,1,19.9999993896485
398,283,85306,2,0,L|391:312,1,19.9999993896485
370,359,85397,6,0,L|365:339,1,19.9999993896485
319,242,85488,2,0,L|323:261,1,19.9999993896485
265,356,85579,6,0,P|211:360|176:343,1,89.9999972534181
179,345,85761,6,0,B|198:296|171:224|86:208|49:269|71:317|109:339|134:339|164:313|173:288|178:278|182:257|184:230|183:214|178:192|167:172|136:161|101:157|63:170|52:183|48:196|60:223|68:232|93:244|125:248|149:243|180:219|197:201|208:188|210:158,1,540.000002059937
189,202,86124,6,0,L|206:157,6,29.9999990844727
154,116,86488,2,0,P|182:100|213:97,1,59.9999981689454
392,31,86670,2,0,P|384:37|397:52,1,29.9999990844727
344,143,86761,2,0,P|352:137|339:122,1,29.9999990844727
292,75,86852,5,0,0:0:0:0:
458,101,86942,1,0,0:0:0:0:
292,75,87033,5,0,0:0:0:0:
458,101,87123,1,0,0:0:0:0:
292,75,87215,5,0,0:0:0:0:
458,101,87305,1,0,0:0:0:0:
292,75,87397,5,0,0:0:0:0:
458,101,87487,1,0,0:0:0:0:
414,156,87579,6,0,P|413:186|419:216,1,59.9999981689454
484,274,87761,1,0,0:0:0:0:
413,316,87852,1,0,0:0:0:0:
306,235,88124,6,0,P|305:205|311:175,1,59.9999981689454
286,70,88306,1,0,0:0:0:0:
373,11,88397,1,0,0:0:0:0:
180,116,88670,6,0,P|179:145|185:175,1,59.9999981689454
244,314,88852,1,0,0:0:0:0:
131,364,88943,1,0,0:0:0:0:
35,320,89215,6,0,P|34:290|40:260,1,59.9999981689454
11,127,89397,1,0,0:0:0:0:
117,0,89488,1,0,0:0:0:0:
105,89,89761,5,0,0:0:0:0:
139,99,89852,1,0,0:0:0:0:
154,114,89942,1,0,0:0:0:0:
159,127,90033,1,0,0:0:0:0:
121,186,90124,5,0,0:0:0:0:
126,200,90215,1,0,0:0:0:0:
151,223,90306,1,0,0:0:0:0:
218,209,90397,1,0,0:0:0:0:
282,152,90488,5,0,0:0:0:0:
358,151,90579,1,0,0:0:0:0:
409,206,90670,5,0,0:0:0:0:
393,214,90761,1,0,0:0:0:0:
456,142,90852,5,0,0:0:0:0:
445,101,90942,1,0,0:0:0:0:
433,141,91033,1,0,0:0:0:0:
439,182,91124,1,0,0:0:0:0:
474,260,91215,5,0,0:0:0:0:
474,260,91306,1,0,0:0:0:0:
327,374,91488,2,0,L|341:314,1,59.9999981689454
301,233,91670,1,0,0:0:0:0:
312,301,91761,1,0,0:0:0:0:
110,298,91942,6,0,P|114:238|113:178,1,119.999996337891
111,194,92215,2,0,L|204:199,1,59.9999981689454
273,141,92397,1,0,0:0:0:0:
190,192,92488,1,0,0:0:0:0:
315,198,92579,1,0,0:0:0:0:
299,20,92670,6,0,L|308:87,1,59.9999981689454
412,100,92852,1,0,0:0:0:0:
436,179,92942,2,0,L|443:119,1,59.9999981689454
356,283,93215,1,0,0:0:0:0:
425,300,93306,1,0,0:0:0:0:
494,319,93397,6,0,L|418:320,1,59.9999981689454
329,349,93579,2,0,L|253:350,1,59.9999981689454
172,224,93761,5,0,0:0:0:0:
311,241,93852,1,0,0:0:0:0:
232,282,93942,5,0,0:0:0:0:
321,240,94033,1,0,0:0:0:0:
251,207,94124,6,0,L|264:138,1,59.9999981689454
393,47,94306,1,0,0:0:0:0:
316,68,94397,1,0,0:0:0:0:
368,128,94488,2,0,L|379:186,1,59.9999981689454
484,326,94670,2,0,L|495:384,1,59.9999981689454
418,296,94852,6,0,L|429:237,1,59.9999981689454
224,319,95033,1,0,0:0:0:0:
298,321,95124,2,0,L|337:275,1,59.9999981689454
170,199,95306,1,0,0:0:0:0:
75,235,95397,1,0,0:0:0:0:
232,232,95488,1,0,0:0:0:0:
91,99,95579,6,0,L|15:88,1,59.9999981689454
110,169,95761,1,0,0:0:0:0:
206,122,95852,1,0,0:0:0:0:
163,34,95942,1,0,0:0:0:0:
163,34,96033,1,0,0:0:0:0:
182,159,96124,5,0,0:0:0:0:
287,127,96215,1,0,0:0:0:0:
238,31,96306,2,0,L|172:-8,1,59.9999981689454
304,128,96488,2,0,L|372:109,1,59.9999981689454
458,91,96670,5,0,0:0:0:0:
398,0,96761,1,0,0:0:0:0:
424,161,96852,5,0,0:0:0:0:
470,0,96942,1,0,0:0:0:0:
485,93,97033,6,0,B|508:164|508:164|509:204|489:240,1,150.000005722046
456,307,97306,1,0,0:0:0:0:
414,244,97397,5,0,0:0:0:0:
402,239,97488,1,0,0:0:0:0:
349,280,97579,1,0,0:0:0:0:
299,221,97670,1,0,0:0:0:0:
247,277,97761,6,0,B|219:246|223:215|223:215|242:132,1,150.000005722046
256,67,98033,1,0,0:0:0:0:
172,104,98124,5,0,0:0:0:0:
179,113,98215,1,0,0:0:0:0:
106,61,98306,1,0,0:0:0:0:
51,119,98397,1,0,0:0:0:0:
11,53,98488,6,0,B|18:15|18:15|32:141,1,150.000005722046
18,196,98761,1,0,0:0:0:0:
89,253,98852,1,0,0:0:0:0:
46,266,98942,1,0,0:0:0:0:
126,280,99033,1,0,0:0:0:0:
169,285,99124,1,0,0:0:0:0:
215,353,99215,6,0,P|289:345|364:340,1,150.000005722046
442,324,99488,1,0,0:0:0:0:
391,268,99579,5,0,0:0:0:0:
423,352,99670,1,0,0:0:0:0:
469,230,99761,5,0,0:0:0:0:
459,300,99852,1,0,0:0:0:0:
391,254,99942,6,0,L|352:249,1,25.0000009536744
458,215,100033,2,0,L|497:210,1,25.0000009536744
373,163,100124,6,0,L|335:171,1,25.0000009536744
442,107,100215,2,0,L|480:115,1,25.0000009536744
372,71,100306,6,0,P|324:52|365:83,1,150.000005722046
365,83,100488,6,0,L|365:-5,1,75.0000028610231
211,31,100670,2,0,P|216:40|219:60,1,25.0000009536744
254,124,100761,2,0,P|246:131|228:140,1,25.0000009536744
152,108,100852,2,0,P|125:105|77:87,1,75.0000028610231
24,308,101033,6,0,L|51:303,1,25.0000009536744
171,284,101124,2,0,L|198:279,1,25.0000009536744
88,245,101215,5,0,0:0:0:0:
226,349,101306,1,0,0:0:0:0:
263,198,101397,6,0,P|266:242|282:278,1,75.0000028610231
413,336,101579,2,0,L|417:310,1,25.0000009536744
411,232,101670,1,0,0:0:0:0:
332,178,101761,6,0,P|347:195|357:199,1,25.0000009536744
500,214,101852,2,0,L|465:219,1,25.0000009536744
395,248,101942,6,0,P|409:214|415:177,1,75.0000028610231
478,46,102124,6,0,B|428:56|380:33|380:33|340:43|337:98|375:107,1,202.500000772476
375,107,102306,2,0,B|413:106|424:52|388:33|388:33|335:43|290:22,1,202.500000772476
127,47,102488,6,0,L|142:120,1,67.5000002574921
244,126,102579,6,0,L|239:150,1,25
161,184,102670,6,0,L|176:256,1,50
235,255,102761,6,0,L|230:279,1,25
197,361,102852,6,0,P|264:292|358:308,1,200
435,349,103124,2,0,B|452:360|452:360|429:283,1,100
376,229,103306,2,0,L|395:159,1,50
481,32,103488,1,0,0:0:0:0:
481,32,103579,6,0,L|494:80,1,50
485,177,103761,1,0,0:0:0:0:
350,98,103852,1,0,0:0:0:0:
273,224,103942,1,0,0:0:0:0:
221,261,104033,1,0,0:0:0:0:
96,183,104124,1,0,0:0:0:0:
90,14,104215,1,0,0:0:0:0:
90,14,104306,6,0,L|99:121,1,100
36,278,104579,1,0,0:0:0:0:
36,278,104670,2,0,L|113:289,1,50
376,311,104852,5,0,0:0:0:0:
249,243,104942,1,0,0:0:0:0:
295,115,105033,1,0,0:0:0:0:
296,330,105124,1,0,0:0:0:0:
139,384,105306,2,0,L|158:277,1,100
112,222,105579,1,0,0:0:0:0:
166,134,105670,1,0,0:0:0:0:
122,37,105761,5,0,0:0:0:0:
12,92,105852,1,0,0:0:0:0:
488,70,106124,5,0,0:0:0:0:
117,48,106215,1,0,0:0:0:0:
64,172,106397,5,0,0:0:0:0:
112,222,106488,5,0,0:0:0:0:
70,344,106579,1,0,0:0:0:0:
142,304,106670,5,0,0:0:0:0:
135,256,106761,1,0,0:0:0:0:
239,196,106852,5,0,0:0:0:0:
220,243,106942,1,0,0:0:0:0:
217,326,107033,5,0,0:0:0:0:
364,373,107124,1,0,0:0:0:0:
364,373,107215,2,0,L|363:288,1,50
348,251,107397,1,0,0:0:0:0:
455,113,107488,1,0,0:0:0:0:
455,113,107579,2,0,L|454:162,1,50
485,241,107761,1,0,0:0:0:0:
295,302,107852,1,0,0:0:0:0:
487,355,107942,6,0,L|437:355,1,50
130,337,108124,1,0,0:0:0:0:
195,296,108215,2,0,L|322:303,1,100
419,282,108488,2,0,L|414:223,1,50
364,0,108670,5,0,0:0:0:0:
278,42,108761,1,0,0:0:0:0:
323,88,108852,1,0,0:0:0:0:
386,95,108942,1,0,0:0:0:0:
482,61,109033,5,0,0:0:0:0:
506,156,109124,1,0,0:0:0:0:
453,194,109215,1,0,0:0:0:0:
389,178,109306,1,0,0:0:0:0:
291,211,109397,5,0,0:0:0:0:
306,206,109397,5,0,0:0:0:0:
220,157,109488,5,0,0:0:0:0:
235,152,109488,5,0,0:0:0:0:
159,309,109761,5,0,0:0:0:0:
184,299,109761,5,0,0:0:0:0:
85,250,109852,5,0,0:0:0:0:
114,248,109852,5,0,0:0:0:0:
70,35,110033,5,0,0:0:0:0:
23,28,110033,5,0,0:0:0:0:
28,356,110306,5,0,0:0:0:0:
60,350,110306,5,0,0:0:0:0:
221,224,110488,1,0,0:0:0:0:
301,164,110579,1,0,0:0:0:0:
396,195,110670,1,0,0:0:0:0:
436,286,110761,1,0,0:0:0:0:
334,365,110852,5,0,0:0:0:0:
334,365,110942,2,0,L|329:253,1,100
304,179,111215,1,0,0:0:0:0:
396,177,111306,1,0,0:0:0:0:
401,95,111397,5,0,0:0:0:0:
491,8,111488,1,0,0:0:0:0:
491,8,111579,6,0,L|482:71,1,50
495,287,111761,2,0,L|475:290,1,16.6666666666667
334,365,111852,2,0,L|356:359,1,16.6666666666667
512,373,111942,2,0,P|465:354|416:348,1,100
291,244,112215,1,0,0:0:0:0:
258,305,112306,6,0,P|212:322|162:325,1,100
143,181,112579,1,0,0:0:0:0:
62,145,112670,2,0,P|74:146|86:149,1,16.6666666666667
209,207,112761,2,0,P|184:210|159:209,1,50
108,84,112942,1,0,0:0:0:0:
0,20,113033,6,0,L|64:30,1,64.9999970245363
313,58,113215,1,0,0:0:0:0:
218,86,113306,1,0,0:0:0:0:
334,107,113397,6,0,L|303:94,1,21.6666656748454
203,67,113488,2,0,L|234:80,1,21.6666656748454
280,16,113579,6,0,P|285:52|289:91,1,64.9999970245363
381,240,113761,6,0,B|387:265|379:284|354:296|354:296|309:326|310:374|359:415|420:367|408:318|354:296|354:296|313:285|286:306|286:306|253:311|249:355|293:337|285:306|285:306|280:272|258:244|207:233,1,540.000002059937
221,236,114124,5,0,0:0:0:0:
177,313,114215,2,0,P|144:312|112:306,1,64.9999970245363
256,32,114488,5,0,0:0:0:0:
256,32,114579,1,0,0:0:0:0:
360,92,114670,1,0,0:0:0:0:
394,21,114761,1,0,0:0:0:0:
256,128,115033,5,0,0:0:0:0:
256,128,115124,1,0,0:0:0:0:
137,93,115215,1,0,0:0:0:0:
69,165,115306,1,0,0:0:0:0:
256,224,115579,5,0,0:0:0:0:
256,224,115670,1,0,0:0:0:0:
376,255,115761,1,0,0:0:0:0:
445,133,115852,1,0,0:0:0:0:
256,320,116124,5,0,0:0:0:0:
256,320,116215,1,0,0:0:0:0:
120,214,116306,1,0,0:0:0:0:
49,382,116397,1,0,0:0:0:0:
255,364,116670,5,0,0:0:0:0:
201,314,116761,1,0,0:0:0:0:
298,316,116852,5,0,0:0:0:0:
171,243,116942,1,0,0:0:0:0:
316,253,117033,5,0,0:0:0:0:
178,165,117124,1,0,0:0:0:0:
307,190,117215,5,0,0:0:0:0:
219,101,117306,1,0,0:0:0:0:
274,136,117397,5,0,0:0:0:0:
154,91,117488,1,0,0:0:0:0:
286,61,117579,5,0,0:0:0:0:
181,169,117670,1,0,0:0:0:0:
204,16,117760,5,0,0:0:0:0:
245,205,117851,1,0,0:0:0:0:
47,86,117942,5,0,0:0:0:0:
389,123,118033,1,0,0:0:0:0:
