osu file format v14

[General]
AudioFilename: audio.mp3
AudioLeadIn: 0
PreviewTime: 182725
Countdown: 1
SampleSet: Normal
StackLeniency: 0.7
Mode: 1
LetterboxInBreaks: 0
WidescreenStoryboard: 1

[Editor]
Bookmarks: 45001,49335,54001,63585,74335,110001,111335,119001,128335,164001,172168,172835,178168,180835,182725,194335,199001
DistanceSpacing: 0.9
BeatDivisor: 8
GridSize: 32
TimelineZoom: 3.999998

[Metadata]
Title:The illegaL QueeN
TitleUnicode:The illegaL QueeN
Artist:sasakure.UK
ArtistUnicode:sasakure.UK
Creator:tkdLolly
Version:twcLolly
Source:
Tags:
BeatmapID:1843044
BeatmapSetID:881484

[Difficulty]
HPDrainRate:3
CircleSize:4
OverallDifficulty:6.5
ApproachRate:5
SliderMultiplier:1.6
SliderTickRate:1

[Events]
//Background and Video events
0,0,"id.jpg",0,0
//Break Periods
//Storyboard Layer 0 (Background)
//Storyboard Layer 1 (Fail)
//Storyboard Layer 2 (Pass)
//Storyboard Layer 3 (Foreground)
//Storyboard Sound Samples

[TimingPoints]
169,333.333333333333,4,1,0,39,1,0
1502,333.333333333333,3,1,0,39,1,0
1502,-83.3333333333333,4,1,0,39,0,0
1667,-100,4,1,0,39,0,0
2001,-83.3333333333333,4,1,0,39,0,0
2167,-100,4,1,0,39,0,0
2501,-83.3333333333333,4,1,0,39,0,0
2667,-100,4,1,0,39,0,0
3001,-83.3333333333333,4,1,0,39,0,0
3167,-100,4,1,0,39,0,0
3501,-83.3333333333333,4,1,0,39,0,0
3667,-100,4,1,0,39,0,0
4001,-83.3333333333333,4,1,0,39,0,0
4167,-100,4,1,0,39,0,0
4501,-83.3333333333333,4,1,0,39,0,0
4667,-100,4,1,0,39,0,0
5001,-76.3358778625954,4,1,0,39,0,0
5056,-80,4,1,0,39,0,0
5112,-84.0336134453781,4,1,0,39,0,0
5167,-88.4955752212389,4,1,0,39,0,0
5223,-93.4579439252336,4,1,0,39,0,0
5279,-98.0392156862745,4,1,0,39,0,0
5334,-103.092783505155,4,1,0,39,0,0
5390,-108.695652173913,4,1,0,39,0,0
5445,-113.636363636364,4,1,0,39,0,0
5501,-120.048019207683,4,1,0,39,0,0
5502,333.333333333333,4,1,0,39,1,0
5502,-120.048019207683,4,1,0,39,0,0
6168,-100,4,1,0,39,0,0
6668,-120.048019207683,4,1,0,39,0,0
7501,-100,4,1,0,39,0,0
8001,-120.048019207683,4,1,0,39,0,0
8835,-100,4,1,0,39,0,0
9335,-120.048019207683,4,1,0,39,0,0
10168,-100,4,1,0,39,0,0
10335,-120.048019207683,4,1,0,39,0,0
11501,-100,4,1,0,39,0,0
12001,-120.048019207683,4,1,0,39,0,0
12835,-100,4,1,0,39,0,0
13335,-120.048019207683,4,1,0,39,0,0
14168,-100,4,1,0,39,0,0
14668,-120.048019207683,4,1,0,39,0,0
15501,-100,4,1,0,39,0,0
15779,-120.048019207683,4,1,0,39,0,0
15827,-117.647058823529,4,1,0,39,0,0
15875,-114.942528735632,4,1,0,39,0,0
15923,-112.359550561798,4,1,0,39,0,0
15971,-111.111111111111,4,1,0,39,0,0
16018,-108.695652173913,4,1,0,39,0,0
16066,-106.382978723404,4,1,0,39,0,0
16114,-104.166666666667,4,1,0,39,0,0
16162,-102.040816326531,4,1,0,39,0,0
16210,-100,4,1,0,39,0,0
34918,-104.166666666667,4,1,0,39,0,0
35001,-109.89010989011,4,1,0,39,0,0
35085,-114.942528735632,4,1,0,39,0,0
35168,-120.481927710843,4,1,0,39,0,0
35224,-123.456790123457,4,1,0,39,0,0
35279,-128.205128205128,4,1,0,39,0,0
35335,-131.578947368421,4,1,0,39,0,0
35390,-135.135135135135,4,1,0,39,0,0
35446,-138.888888888889,4,1,0,39,0,0
35501,-144.927536231884,4,1,0,39,0,0
35946,-135.135135135135,4,1,0,39,0,0
36001,-131.578947368421,4,1,0,39,0,0
36057,-128.205128205128,4,1,0,39,0,0
36113,-123.456790123457,4,1,0,39,0,0
36168,-120.481927710843,4,1,0,39,0,0
36224,-116.279069767442,4,1,0,39,0,0
36279,-113.636363636364,4,1,0,39,0,0
36335,-109.89010989011,4,1,0,39,0,0
36390,-106.382978723404,4,1,0,39,0,0
36446,-103.092783505155,4,1,0,39,0,0
36501,-100,4,1,0,39,0,0
36543,-95.2380952380952,4,1,0,39,0,0
36585,-90.9090909090909,4,1,0,39,0,0
36626,-86.9565217391304,4,1,0,39,0,0
36668,-83.3333333333333,4,1,0,39,0,0
37501,333.333333333333,6,1,0,39,1,8
37501,-83.3333333333333,6,1,0,39,0,0
38835,-100,4,1,0,39,0,0
38918,-102.040816326531,4,1,0,39,0,0
39001,-105.263157894737,4,1,0,39,0,0
39085,-107.52688172043,4,1,0,39,0,0
39168,-109.89010989011,4,1,0,39,0,0
39251,-112.359550561798,4,1,0,39,0,0
39335,-114.942528735632,4,1,0,39,0,0
39418,-117.647058823529,4,1,0,39,0,0
39501,333.333333333333,7,1,0,39,1,0
39501,-120.048019207683,4,1,0,39,0,0
40835,-144.927536231884,4,1,0,39,0,0
41001,-120.048019207683,4,1,0,39,0,0
42168,-144.927536231884,4,1,0,39,0,0
42835,-120.048019207683,4,1,0,39,0,0
43168,-144.927536231884,4,1,0,39,0,0
44001,-120.048019207683,4,1,0,39,0,0
45501,-144.927536231884,4,1,0,39,0,0
45668,-120.048019207683,4,1,0,39,0,0
46500,-83.3333333333333,4,1,0,39,0,0
46501,333.333333333333,3,1,0,39,1,0
46501,-83.3333333333333,4,1,0,39,0,0
46835,-100,4,1,0,39,0,0
47001,-83.3333333333333,4,1,0,39,0,0
47335,-100,4,1,0,39,0,0
47501,-83.3333333333333,4,1,0,39,0,0
47835,-100,4,1,0,39,0,0
48001,-83.3333333333333,4,1,0,39,0,0
48168,-120.048019207683,4,1,0,39,0,0
48501,333.333333333333,7,1,0,39,1,0
48501,-120.481927710843,7,1,0,39,0,0
49835,-144.927536231884,4,1,0,39,0,0
50001,-120.048019207683,4,1,0,39,0,0
51168,-144.927536231884,4,1,0,39,0,0
51835,-120.048019207683,4,1,0,39,0,0
52168,-144.927536231884,4,1,0,39,0,0
52835,-120.048019207683,4,1,0,39,0,0
54501,-144.927536231884,4,1,0,39,0,0
54668,-120.048019207683,4,1,0,39,0,0
55500,-83.3333333333333,4,1,0,39,0,0
55501,333.333333333333,3,1,0,39,1,0
55501,-83.3333333333333,4,1,0,39,0,0
55835,-100,4,1,0,39,0,0
56001,-83.3333333333333,4,1,0,39,0,0
56335,-100,4,1,0,39,0,0
56501,-83.3333333333333,4,1,0,39,0,0
56835,-100,4,1,0,39,0,0
57001,-83.3333333333333,4,1,0,39,0,0
57085,-86.2068965517241,4,1,0,39,0,0
57168,-88.4955752212389,4,1,0,39,0,0
57251,-90.9090909090909,4,1,0,39,0,0
57335,-94.3396226415094,4,1,0,39,0,0
57418,-97.0873786407767,4,1,0,39,0,0
57501,333.333333333333,4,1,0,39,1,0
57501,-100,4,1,0,39,0,0
69224,-103.092783505155,4,1,0,39,0,0
69279,-106.382978723404,4,1,0,39,0,0
69335,-109.89010989011,4,1,0,39,0,0
69501,-120.481927710843,4,1,0,39,0,0
70000,-83.3333333333333,4,1,0,39,0,0
70056,-88.4955752212389,4,1,0,39,0,0
70112,-94.3396226415094,4,1,0,39,0,0
70167,-100,4,1,0,39,0,0
70334,-83.3333333333333,4,1,0,39,0,0
70389,-88.4955752212389,4,1,0,39,0,0
70445,-94.3396226415094,4,1,0,39,0,0
70500,-100,4,1,0,39,0,0
70667,-83.3333333333333,4,1,0,39,0,0
70723,-88.4955752212389,4,1,0,39,0,0
70778,-94.3396226415094,4,1,0,39,0,0
70834,-100,4,1,0,39,0,0
71000,-83.3333333333333,4,1,0,39,0,0
71056,-88.4955752212389,4,1,0,39,0,0
71112,-94.3396226415094,4,1,0,39,0,0
71167,-100,4,1,0,39,0,0
71334,-83.3333333333333,4,1,0,39,0,0
71389,-88.4955752212389,4,1,0,39,0,0
71445,-94.3396226415094,4,1,0,39,0,0
71500,-100,4,1,0,39,0,0
71667,-83.3333333333333,4,1,0,39,0,0
71723,-88.4955752212389,4,1,0,39,0,0
71778,-94.3396226415094,4,1,0,39,0,0
71834,-100,4,1,0,39,0,0
72000,-83.3333333333333,4,1,0,39,0,0
72056,-88.4955752212389,4,1,0,39,0,0
72112,-94.3396226415094,4,1,0,39,0,0
72167,-100,4,1,0,39,0,0
72334,-83.3333333333333,4,1,0,39,0,0
72389,-88.4955752212389,4,1,0,39,0,0
72445,-94.3396226415094,4,1,0,39,0,0
72500,-100,4,1,0,39,0,0
72667,-83.3333333333333,4,1,0,39,0,0
72834,-100,4,1,0,39,0,0
72917,-102.040816326531,4,1,0,39,0,0
73000,-105.263157894737,4,1,0,39,0,0
73084,-107.52688172043,4,1,0,39,0,0
73167,-109.89010989011,4,1,0,39,0,0
73250,-112.359550561798,4,1,0,39,0,0
73334,-114.942528735632,4,1,0,39,0,0
73417,-117.647058823529,4,1,0,39,0,0
73500,-120.481927710843,4,1,0,39,0,0
73501,333.333333333333,7,1,0,39,1,0
73501,-120.481927710843,4,1,0,39,0,0
74835,-144.927536231884,4,1,0,39,0,0
75001,-120.481927710843,4,1,0,39,0,0
76168,-144.927536231884,4,1,0,39,0,0
76335,-95.2380952380952,4,1,0,39,0,0
77168,-144.927536231884,4,1,0,39,0,0
77835,-120.481927710843,4,1,0,39,0,0
79501,-144.927536231884,4,1,0,39,0,0
79668,-120.481927710843,4,1,0,39,0,0
80500,-83.3333333333333,4,1,0,39,0,0
80501,333.333333333333,3,1,0,39,1,0
80501,-83.3333333333333,4,1,0,39,0,0
80835,-100,4,1,0,39,0,0
81001,-83.3333333333333,4,1,0,39,0,0
81335,-100,4,1,0,39,0,0
81501,-83.3333333333333,4,1,0,39,0,0
81835,-100,4,1,0,39,0,0
82001,-83.3333333333333,4,1,0,39,0,0
82168,-120.481927710843,4,1,0,39,0,0
82501,333.333333333333,7,1,0,39,1,0
82501,-120.481927710843,7,1,0,39,0,0
83835,-144.927536231884,4,1,0,39,0,0
84001,-120.481927710843,4,1,0,39,0,0
85168,-144.927536231884,4,1,0,39,0,0
85335,-95.2380952380952,4,1,0,39,0,0
86168,-144.927536231884,4,1,0,39,0,0
86835,-120.481927710843,4,1,0,39,0,0
88501,-144.927536231884,4,1,0,39,0,0
88668,-120.481927710843,4,1,0,39,0,0
89500,-83.3333333333333,4,1,0,39,0,0
89501,333.333333333333,3,1,0,39,1,0
89501,-83.3333333333333,4,1,0,39,0,0
89835,-100,4,1,0,39,0,0
90001,-83.3333333333333,4,1,0,39,0,0
90335,-100,4,1,0,39,0,0
90501,-83.3333333333333,4,1,0,39,0,0
90835,-100,4,1,0,39,0,0
91001,-76.9230769230769,4,1,0,39,0,0
91057,-78.125,4,1,0,39,0,0
91113,-80.6451612903226,4,1,0,39,0,0
91168,-83.3333333333333,4,1,0,39,0,0
91224,-86.2068965517241,4,1,0,39,0,0
91279,-88.4955752212389,4,1,0,39,0,0
91335,-90.9090909090909,4,1,0,39,0,0
91390,-94.3396226415094,4,1,0,39,0,0
91446,-97.0873786407767,4,1,0,39,0,0
91501,333.333333333333,5,1,0,39,1,0
91501,-100,4,1,0,39,0,0
103168,333.333333333333,8,1,0,39,1,0
105835,333.333333333333,7,1,0,39,1,0
108168,333.333333333333,4,1,0,39,1,1
129501,-100,4,1,0,39,0,0
130001,-120.048019207683,4,1,0,39,0,0
130168,-100,4,1,0,39,0,0
130668,-120.048019207683,4,1,0,39,0,0
131501,-100,4,1,0,39,0,0
132001,-120.048019207683,4,1,0,39,0,0
132835,-100,4,1,0,39,0,0
133335,-120.048019207683,4,1,0,39,0,0
134168,-100,4,1,0,39,0,0
134335,-120.048019207683,4,1,0,39,0,0
135501,-100,4,1,0,39,0,0
136001,-120.048019207683,4,1,0,39,0,0
136835,-100,4,1,0,39,0,0
137335,-120.048019207683,4,1,0,39,0,0
138168,-100,4,1,0,39,0,0
138668,-120.048019207683,4,1,0,39,0,0
139501,-100,4,1,0,39,0,0
140167,-144.927536231884,4,1,0,39,0,0
140668,-131.578947368421,4,1,0,39,0,0
141501,-144.927536231884,4,1,0,39,0,0
142001,-131.578947368421,4,1,0,39,0,0
142834,-144.927536231884,4,1,0,39,0,0
143334,-131.578947368421,4,1,0,39,0,0
144167,-144.927536231884,4,1,0,39,0,0
144667,-131.578947368421,4,1,0,39,0,0
145500,-144.927536231884,4,1,0,39,0,0
145834,-131.578947368421,4,1,0,39,0,0
146167,-144.927536231884,4,1,0,39,0,0
146334,-131.578947368421,4,1,0,39,0,0
146500,-144.927536231884,4,1,0,39,0,0
146667,-131.578947368421,4,1,0,39,0,0
146834,-144.927536231884,4,1,0,39,0,0
147167,-131.578947368421,4,1,0,39,0,0
147500,-144.927536231884,4,1,0,39,0,0
147667,-131.578947368421,4,1,0,39,0,0
147834,-144.927536231884,4,1,0,39,0,0
148000,-131.578947368421,4,1,0,39,0,0
148084,-144.927536231884,4,1,0,39,0,0
148500,-131.578947368421,4,1,0,39,0,0
148834,-144.927536231884,4,1,0,39,0,0
149000,-131.578947368421,4,1,0,39,0,0
149167,-144.927536231884,4,1,0,39,0,0
149334,-131.578947368421,4,1,0,39,0,0
149500,-144.927536231884,4,1,0,39,0,0
149834,-131.578947368421,4,1,0,39,0,0
150167,-144.927536231884,4,1,0,39,0,0
150334,-131.578947368421,4,1,0,39,0,0
150500,-144.927536231884,4,1,0,39,0,0
150667,-131.578947368421,4,1,0,39,0,0
150750,-144.927536231884,4,1,0,39,0,0
151167,-131.578947368421,4,1,0,39,0,0
151500,-144.927536231884,4,1,0,39,0,0
151667,-131.578947368421,4,1,0,39,0,0
151834,-144.927536231884,4,1,0,39,0,0
152000,-131.578947368421,4,1,0,39,0,0
152167,-144.927536231884,4,1,0,39,0,0
152500,-131.578947368421,4,1,0,39,0,0
152667,-144.927536231884,4,1,0,39,0,0
152834,-131.578947368421,4,1,0,39,0,0
153000,-144.927536231884,4,1,0,39,0,0
153167,-131.578947368421,4,1,0,39,0,0
153500,-144.927536231884,4,1,0,39,0,0
153834,-131.578947368421,4,1,0,39,0,0
154000,-144.927536231884,4,1,0,39,0,0
154167,-131.578947368421,4,1,0,39,0,0
154334,-144.927536231884,4,1,0,39,0,0
154667,-131.578947368421,4,1,0,39,0,0
154834,-144.927536231884,4,1,0,39,0,0
155167,-131.578947368421,4,1,0,39,0,0
155334,-144.927536231884,4,1,0,39,0,0
155500,-131.578947368421,4,1,0,39,0,0
155834,-144.927536231884,4,1,0,39,0,0
156000,-131.578947368421,4,1,0,39,0,0
156167,-144.927536231884,4,1,0,39,0,0
156500,-131.578947368421,4,1,0,39,0,0
156834,-144.927536231884,4,1,0,39,0,0
157000,-131.578947368421,4,1,0,39,0,0
157167,-144.927536231884,4,1,0,39,0,0
157334,-131.578947368421,4,1,0,39,0,0
157500,-144.927536231884,4,1,0,39,0,0
157834,-131.578947368421,4,1,0,39,0,0
158167,-144.927536231884,4,1,0,39,0,0
158250,-131.578947368421,4,1,0,39,0,0
158500,-144.927536231884,4,1,0,39,0,0
158667,-131.578947368421,4,1,0,39,0,0
158834,-144.927536231884,4,1,0,39,0,0
159167,-131.578947368421,4,1,0,39,0,0
159500,-144.927536231884,4,1,0,39,0,0
159667,-131.578947368421,4,1,0,39,0,0
159750,-120.481927710843,4,1,0,39,0,0
159798,-117.647058823529,4,1,0,39,0,0
159846,-114.942528735632,4,1,0,39,0,0
159894,-112.359550561798,4,1,0,39,0,0
159942,-111.111111111111,4,1,0,39,0,0
159989,-108.695652173913,4,1,0,39,0,0
160037,-106.382978723404,4,1,0,39,0,0
160085,-104.166666666667,4,1,0,39,0,0
160133,-102.040816326531,4,1,0,39,0,0
160181,-100,4,1,0,39,0,0
161500,-83.3333333333333,4,1,0,39,0,0
162042,-120.481927710843,4,1,0,39,0,0
181959,-76.9230769230769,4,1,0,39,0,0
182014,-78.125,4,1,0,39,0,0
182070,-79.3650793650794,4,1,0,39,0,0
182125,-80.6451612903226,4,1,0,39,0,0
182181,-81.9672131147541,4,1,0,39,0,0
182236,-83.3333333333333,4,1,0,39,0,0
182292,-84.0336134453781,4,1,0,39,0,0
182347,-85.4700854700855,4,1,0,39,0,0
182403,-86.9565217391304,4,1,0,39,0,0
182451,-88.4955752212389,4,1,0,39,0,0
182499,-90.0900900900901,4,1,0,39,0,0
182547,-90.9090909090909,4,1,0,39,0,0
182595,-92.5925925925926,4,1,0,39,0,0
182642,-94.3396226415094,4,1,0,39,0,0
182690,-95.2380952380952,4,1,0,39,0,0
182738,-97.0873786407767,4,1,0,39,0,0
182786,-98.0392156862745,4,1,0,39,0,0
182834,-100,4,1,0,39,0,0
192917,-102.040816326531,4,1,0,39,0,0
193000,-105.263157894737,4,1,0,39,0,0
193084,-107.52688172043,4,1,0,39,0,0
193167,-109.89010989011,4,1,0,39,0,0
193250,-112.359550561798,4,1,0,39,0,0
193334,-114.942528735632,4,1,0,39,0,0
193417,-117.647058823529,4,1,0,39,0,0
193501,333.333333333333,7,1,0,39,1,0
193501,-120.481927710843,4,1,0,39,0,0
200501,333.333333333333,3,1,0,39,1,0
200501,-83.3333333333333,4,1,0,39,0,0
200835,-100,4,1,0,39,0,0
201001,-83.3333333333333,4,1,0,39,0,0
201335,-100,4,1,0,39,0,0
201501,-83.3333333333333,4,1,0,39,0,0
201835,-100,4,1,0,39,0,0
202001,-83.3333333333333,4,1,0,39,0,0
202335,-100,4,1,0,39,0,0
202501,-76.3358778625954,4,1,0,39,0,0
202835,-90.9090909090909,4,1,0,39,0,0
203001,-76.3358778625954,4,1,0,39,0,0
203335,-90.9090909090909,4,1,0,39,0,0
203501,-76.3358778625954,4,1,0,39,0,0
203835,-90.9090909090909,4,1,0,39,0,0
204001,-76.3358778625954,4,1,0,39,0,0
204335,-90.9090909090909,4,1,0,39,0,0
204501,-63.2911392405063,4,1,0,39,0,0
206501,-52.9100529100529,4,1,0,39,0,0
208501,333.333333333333,7,1,0,39,1,0
208501,-69.4444444444444,4,1,0,39,0,0
208585,-70.4225352112676,4,1,0,39,0,0
208668,-71.4285714285714,4,1,0,39,0,0
208751,-72.463768115942,4,1,0,39,0,0
208835,-72.992700729927,4,1,0,39,0,0
208918,-74.0740740740741,4,1,0,39,0,0
209001,-75.187969924812,4,1,0,39,0,0
209085,-76.3358778625954,4,1,0,39,0,0
209168,-76.9230769230769,4,1,0,39,0,0
209251,-78.125,4,1,0,39,0,0
209335,-79.3650793650794,4,1,0,39,0,0
209418,-80,4,1,0,39,0,0
209501,-81.3008130081301,4,1,0,39,0,0
209585,-81.9672131147541,4,1,0,39,0,0
209668,-83.3333333333333,4,1,0,39,0,0
209751,-84.7457627118644,4,1,0,39,0,0
209835,-85.4700854700855,4,1,0,39,0,0
209918,-86.9565217391304,4,1,0,39,0,0
210001,-87.719298245614,4,1,0,39,0,0
210085,-89.2857142857143,4,1,0,39,0,0
210168,-90.0900900900901,4,1,0,39,0,0
210251,-90.9090909090909,4,1,0,39,0,0
210335,-92.5925925925926,4,1,0,39,0,0
210418,-93.4579439252336,4,1,0,39,0,0
210501,-95.2380952380952,4,1,0,39,0,0
210585,-96.1538461538461,4,1,0,39,0,0
210668,-97.0873786407767,4,1,0,39,0,0
210751,-99.009900990099,4,1,0,39,0,0
210834,-100,4,1,0,39,0,0
210835,333.333333333333,4,1,0,39,1,0
210835,-100,4,1,0,39,0,0
211335,-120.481927710843,4,1,0,39,0,0
220418,-119.047619047619,4,1,0,39,0,0
220501,-117.647058823529,4,1,0,39,0,0
220585,-116.279069767442,4,1,0,39,0,0
220668,-113.636363636364,4,1,0,39,0,0
220751,-112.359550561798,4,1,0,39,0,0
220835,-111.111111111111,4,1,0,39,0,0
220918,-109.89010989011,4,1,0,39,0,0
221001,-108.695652173913,4,1,0,39,0,0
221085,-106.382978723404,4,1,0,39,0,0
221168,-105.263157894737,4,1,0,39,0,0
221251,-104.166666666667,4,1,0,39,0,0
221335,-103.092783505155,4,1,0,39,0,0
221418,-101.010101010101,4,1,0,39,0,0
221501,-100,4,1,0,39,0,1
232335,-90.9090909090909,4,1,0,39,0,1
243168,-144.927536231884,4,1,0,39,0,1
243335,-100,4,1,0,39,0,1
243501,-76.3358778625954,4,1,0,39,0,1
243668,-100,4,1,0,39,0,1
243835,-120.481927710843,4,1,0,39,0,1
244001,-100,4,1,0,39,0,1
244168,-90.9090909090909,4,1,0,39,0,1
244335,-100,4,1,0,39,0,1
244501,-144.927536231884,4,1,0,39,0,1
244668,-100,4,1,0,39,0,1
244835,-76.3358778625954,4,1,0,39,0,1
245001,-100,4,1,0,39,0,1
245168,-120.481927710843,4,1,0,39,0,1
245251,-100,4,1,0,39,0,1
245501,-90.9090909090909,4,1,0,39,0,1
245668,-100,4,1,0,39,0,1
245835,-144.927536231884,4,1,0,39,0,1
246001,-100,4,1,0,39,0,1
246168,-76.3358778625954,4,1,0,39,0,1
246335,-100,4,1,0,39,0,1
246501,-120.481927710843,4,1,0,39,0,1
246668,-100,4,1,0,39,0,1
246835,-90.9090909090909,4,1,0,39,0,1
247001,-100,4,1,0,39,0,1
247168,-144.927536231884,4,1,0,39,0,1
247335,-100,4,1,0,39,0,1
247501,-76.3358778625954,4,1,0,39,0,1
247668,-100,4,1,0,39,0,1
247835,-120.481927710843,4,1,0,39,0,1
247918,-100,4,1,0,39,0,1
248168,-90.9090909090909,4,1,0,39,0,1
248459,-100,4,1,0,39,0,1
248500,-144.927536231884,4,1,0,39,0,1
248667,-100,4,1,0,39,0,1
248834,-76.3358778625954,4,1,0,39,0,1
249000,-100,4,1,0,39,0,1
249167,-120.481927710843,4,1,0,39,0,1
249334,-100,4,1,0,39,0,1
249500,-90.9090909090909,4,1,0,39,0,1
249667,-100,4,1,0,39,0,1
249834,-144.927536231884,4,1,0,39,0,1
250000,-100,4,1,0,39,0,1
250167,-76.3358778625954,4,1,0,39,0,1
250334,-100,4,1,0,39,0,1
250500,-120.481927710843,4,1,0,39,0,1
250584,-100,4,1,0,39,0,1
250834,-90.9090909090909,4,1,0,39,0,1
251167,-144.927536231884,4,1,0,39,0,1
251334,-100,4,1,0,39,0,1
251500,-76.3358778625954,4,1,0,39,0,1
251667,-100,4,1,0,39,0,1
251834,-120.481927710843,4,1,0,39,0,1
252000,-100,4,1,0,39,0,1
252167,-90.9090909090909,4,1,0,39,0,1
252500,-144.927536231884,4,1,0,39,0,1
252667,-100,4,1,0,39,0,1
252834,-76.3358778625954,4,1,0,39,0,1
252889,-78.7401574803149,4,1,0,39,0,1
252945,-81.9672131147541,4,1,0,39,0,1
253000,-85.4700854700855,4,1,0,39,0,1
253056,-88.4955752212389,4,1,0,39,0,1
253112,-91.743119266055,4,1,0,39,0,1
253167,-95.2380952380952,4,1,0,39,0,1
253223,-99.009900990099,4,1,0,39,0,1
253278,-103.092783505155,4,1,0,39,0,1
253334,-107.52688172043,4,1,0,39,0,1
253389,-111.111111111111,4,1,0,39,0,1
253445,-114.942528735632,4,1,0,39,0,1
253500,-120.481927710843,4,1,0,39,0,0
254000,-100,4,1,0,39,0,0
254834,-120.481927710843,4,1,0,39,0,0
255334,-100,4,1,0,39,0,0
256167,-120.481927710843,4,1,0,39,0,0
256667,-100,4,1,0,39,0,0
257500,-131.578947368421,4,1,0,39,0,0
258000,-109.89010989011,4,1,0,39,0,0
258834,-90.9090909090909,4,1,0,39,0,0
259334,-76.3358778625954,4,1,0,39,0,0
260167,-90.9090909090909,4,1,0,39,0,0
260667,-76.3358778625954,4,1,0,39,0,0
261500,-90.9090909090909,4,1,0,39,0,0
262000,-76.3358778625954,4,1,0,39,0,0
262834,-120.481927710843,4,1,0,39,0,0
263334,-100,4,1,0,39,0,0
264167,-83.3333333333333,4,1,0,39,0,0
264667,-69.4444444444444,4,1,0,39,0,0
265500,-76.3358778625954,4,1,0,39,0,0
266000,-63.2911392405063,4,1,0,39,0,0
266334,-60.6060606060606,4,1,0,39,0,0
266667,-57.8034682080925,4,1,0,39,0,0
267000,-55.2486187845304,4,1,0,39,0,0
267334,-52.9100529100529,4,1,0,39,0,0
267667,-50.5050505050505,4,1,0,39,0,0
268000,-48.3091787439614,4,1,0,39,0,0
268334,-46.0829493087558,4,1,0,39,0,0
268667,-44.0528634361233,4,1,0,39,0,0
268917,-144.927536231884,4,1,0,39,0,0
269000,-138.888888888889,4,1,0,39,0,0
269084,-133.333333333333,4,1,0,39,0,0
269167,-128.205128205128,4,1,0,39,0,0
269250,-123.456790123457,4,1,0,39,0,0
269334,-119.047619047619,4,1,0,39,0,0
269417,-113.636363636364,4,1,0,39,0,0
269501,428.571428571429,4,1,0,39,1,0
269501,-85.4700854700855,4,1,0,39,0,0
269715,-86.9565217391304,4,1,0,39,0,0
269929,-89.2857142857143,4,1,0,39,0,0
270143,-90.9090909090909,4,1,0,39,0,0
270358,-93.4579439252336,4,1,0,39,0,0
270572,-95.2380952380952,4,1,0,39,0,0
270786,-98.0392156862745,4,1,0,39,0,0
271376,-104.166666666667,4,1,0,39,0,0
271536,-105.263157894737,4,1,0,39,0,0
271697,-107.52688172043,4,1,0,39,0,0
271858,-109.89010989011,4,1,0,39,0,0
271992,-111.111111111111,4,1,0,39,0,0
272179,-113.636363636364,4,1,0,39,0,0
272429,-116.279069767442,4,1,0,39,0,0
272742,-120.481927710843,4,1,0,39,0,0
273143,-1000,4,1,0,39,0,0
274643,-120.481927710843,4,1,0,39,0,0

[HitObjects]
256,192,1502,5,4,0:0:0:0:
256,192,1668,1,0,0:0:0:0:
256,192,1835,1,2,0:0:0:0:
256,192,2001,1,6,0:0:0:0:
256,192,2168,1,0,0:0:0:0:
256,192,2335,1,2,0:0:0:0:
256,192,2501,1,4,0:0:0:0:
256,192,2668,1,0,0:0:0:0:
256,192,2835,1,2,0:0:0:0:
256,192,3001,1,6,0:0:0:0:
256,192,3168,1,0,0:0:0:0:
256,192,3335,1,2,0:0:0:0:
256,192,3501,1,4,0:0:0:0:
256,192,3668,1,0,0:0:0:0:
256,192,3835,1,2,0:0:0:0:
256,192,4001,1,6,0:0:0:0:
256,192,4168,1,0,0:0:0:0:
256,192,4335,1,2,0:0:0:0:
256,192,4501,1,4,0:0:0:0:
256,192,4668,1,0,0:0:0:0:
256,192,4835,1,2,0:0:0:0:
256,192,5002,1,2,0:0:0:0:
256,192,5057,1,2,0:0:0:0:
256,192,5113,1,2,0:0:0:0:
256,192,5168,1,0,0:0:0:0:
256,192,5224,1,0,0:0:0:0:
256,192,5280,1,0,0:0:0:0:
256,192,5335,1,0,0:0:0:0:
256,192,5391,1,0,0:0:0:0:
256,192,5446,1,0,0:0:0:0:
256,192,5503,1,0,0:0:0:0:
256,192,6000,1,0,0:0:0:0:
256,192,6168,1,8,0:0:0:0:
256,192,6667,1,0,0:0:0:0:
256,192,7335,1,0,0:0:0:0:
256,192,7501,1,8,0:0:0:0:
256,192,8001,1,0,0:0:0:0:
256,192,8668,1,0,0:0:0:0:
256,192,8835,1,8,0:0:0:0:
256,192,9335,1,0,0:0:0:0:
256,192,10001,1,0,0:0:0:0:
256,192,10168,1,8,0:0:0:0:
256,192,10335,1,0,0:0:0:0:
256,192,10835,1,0,0:0:0:0:
256,192,11335,1,0,0:0:0:0:
256,192,11501,1,8,0:0:0:0:
256,192,12001,1,0,0:0:0:0:
256,192,12668,1,0,0:0:0:0:
256,192,12835,1,8,0:0:0:0:
256,192,13335,1,0,0:0:0:0:
256,192,14001,1,0,0:0:0:0:
256,192,14168,1,8,0:0:0:0:
256,192,14668,1,0,0:0:0:0:
256,192,15335,1,0,0:0:0:0:
256,192,15501,1,2,0:0:0:0:
256,192,15779,1,0,0:0:0:0:
256,192,15827,1,0,0:0:0:0:
256,192,15875,1,2,0:0:0:0:
256,192,15923,1,2,0:0:0:0:
256,192,15971,1,0,0:0:0:0:
256,192,16018,1,2,0:0:0:0:
256,192,16066,1,2,0:0:0:0:
256,192,16114,1,0,0:0:0:0:
256,192,16162,1,0,0:0:0:0:
256,192,16210,1,2,0:0:0:0:
256,192,16418,1,0,0:0:0:0:
256,192,16501,1,0,0:0:0:0:
256,192,16668,1,2,0:0:0:0:
256,192,16751,1,2,0:0:0:0:
256,192,16918,1,2,0:0:0:0:
256,192,17001,1,0,0:0:0:0:
256,192,17085,1,0,0:0:0:0:
256,192,17168,1,2,0:0:0:0:
256,192,17335,1,2,0:0:0:0:
256,192,17501,1,0,0:0:0:0:
256,192,17668,1,0,0:0:0:0:
256,192,17751,1,0,0:0:0:0:
256,192,17835,1,2,0:0:0:0:
256,192,18001,1,2,0:0:0:0:
256,192,18085,1,2,0:0:0:0:
256,192,18251,1,0,0:0:0:0:
256,192,18335,1,0,0:0:0:0:
256,192,18418,1,0,0:0:0:0:
256,192,18501,1,2,0:0:0:0:
256,192,18668,1,2,0:0:0:0:
256,192,18751,1,2,0:0:0:0:
256,192,18835,1,0,0:0:0:0:
256,192,19001,1,0,0:0:0:0:
256,192,19085,1,2,0:0:0:0:
256,192,19168,1,0,0:0:0:0:
256,192,19224,1,2,0:0:0:0:
256,192,19279,1,2,0:0:0:0:
256,192,19335,1,0,0:0:0:0:
256,192,19418,1,2,0:0:0:0:
256,192,19501,1,0,0:0:0:0:
256,192,19585,1,0,0:0:0:0:
256,192,19668,1,2,0:0:0:0:
256,192,19724,1,2,0:0:0:0:
256,192,19779,1,2,0:0:0:0:
256,192,19835,1,0,0:0:0:0:
256,192,19890,1,2,0:0:0:0:
256,192,19946,1,2,0:0:0:0:
256,192,20001,1,0,0:0:0:0:
256,192,20085,1,2,0:0:0:0:
256,192,20168,1,2,0:0:0:0:
256,192,20251,1,0,0:0:0:0:
256,192,20418,1,0,0:0:0:0:
256,192,20501,1,2,0:0:0:0:
256,192,20613,1,0,0:0:0:0:
256,192,20668,1,0,0:0:0:0:
256,192,20724,1,0,0:0:0:0:
256,192,20835,1,2,0:0:0:0:
256,192,20968,1,2,0:0:0:0:
256,192,21101,1,0,0:0:0:0:
256,192,21235,1,2,0:0:0:0:
256,192,21368,1,0,0:0:0:0:
256,192,21435,1,0,0:0:0:0:
256,192,21501,1,2,0:0:0:0:
256,192,21585,1,0,0:0:0:0:
256,192,21668,1,0,0:0:0:0:
256,192,21751,1,2,0:0:0:0:
256,192,21835,1,0,0:0:0:0:
256,192,22001,1,0,0:0:0:0:
256,192,22085,1,2,0:0:0:0:
256,192,22168,1,2,0:0:0:0:
256,192,22335,1,2,0:0:0:0:
256,192,22418,1,0,0:0:0:0:
256,192,22501,1,0,0:0:0:0:
256,192,22668,1,2,0:0:0:0:
256,192,22835,1,0,0:0:0:0:
256,192,23001,1,0,0:0:0:0:
256,192,23085,1,2,0:0:0:0:
256,192,23168,1,0,0:0:0:0:
256,192,23251,1,0,0:0:0:0:
256,192,23335,1,2,0:0:0:0:
256,192,23390,1,2,0:0:0:0:
256,192,23446,1,2,0:0:0:0:
256,192,23501,1,0,0:0:0:0:
256,192,23668,1,0,0:0:0:0:
256,192,23724,1,0,0:0:0:0:
256,192,23779,1,2,0:0:0:0:
256,192,23835,1,0,0:0:0:0:
256,192,24001,1,2,0:0:0:0:
256,192,24085,1,2,0:0:0:0:
256,192,24168,1,0,0:0:0:0:
256,192,24335,1,0,0:0:0:0:
256,192,24418,1,0,0:0:0:0:
256,192,24501,1,2,0:0:0:0:
256,192,24585,1,0,0:0:0:0:
256,192,24668,1,0,0:0:0:0:
256,192,24751,1,2,0:0:0:0:
256,192,24835,1,0,0:0:0:0:
256,192,24918,1,0,0:0:0:0:
256,192,25001,1,2,0:0:0:0:
256,192,25085,1,0,0:0:0:0:
256,192,25168,1,0,0:0:0:0:
256,192,25251,1,2,0:0:0:0:
256,192,25335,1,2,0:0:0:0:
256,192,25376,1,2,0:0:0:0:
256,192,25418,1,2,0:0:0:0:
256,192,25501,1,2,0:0:0:0:
256,192,25585,1,0,0:0:0:0:
256,192,25668,1,2,0:0:0:0:
256,192,25751,1,0,0:0:0:0:
256,192,25835,1,0,0:0:0:0:
256,192,25918,1,2,0:0:0:0:
256,192,26001,1,0,0:0:0:0:
256,192,26085,1,2,0:0:0:0:
256,192,26168,1,0,0:0:0:0:
256,192,26210,1,2,0:0:0:0:
256,192,26251,1,2,0:0:0:0:
256,192,26335,1,2,0:0:0:0:
256,192,26418,1,0,0:0:0:0:
256,192,26501,1,0,0:0:0:0:
256,192,26585,1,0,0:0:0:0:
256,192,26668,1,2,0:0:0:0:
256,192,26751,1,0,0:0:0:0:
256,192,26835,1,0,0:0:0:0:
256,192,26876,1,2,0:0:0:0:
256,192,27085,1,2,0:0:0:0:
256,192,27168,1,0,0:0:0:0:
256,192,27335,1,2,0:0:0:0:
256,192,27418,1,0,0:0:0:0:
256,192,27501,1,0,0:0:0:0:
256,192,27668,1,2,0:0:0:0:
256,192,27835,1,0,0:0:0:0:
256,192,27918,1,2,0:0:0:0:
256,192,28001,1,0,0:0:0:0:
256,192,28168,1,0,0:0:0:0:
256,192,28335,1,0,0:0:0:0:
256,192,28418,1,0,0:0:0:0:
256,192,28501,1,2,0:0:0:0:
256,192,28668,1,2,0:0:0:0:
256,192,28751,1,0,0:0:0:0:
256,192,28918,1,0,0:0:0:0:
256,192,29001,1,2,0:0:0:0:
256,192,29085,1,2,0:0:0:0:
256,192,29168,1,0,0:0:0:0:
256,192,29251,1,0,0:0:0:0:
256,192,29335,1,2,0:0:0:0:
256,192,29418,1,0,0:0:0:0:
256,192,29501,1,0,0:0:0:0:
256,192,29668,1,0,0:0:0:0:
256,192,29751,1,2,0:0:0:0:
256,192,29835,1,0,0:0:0:0:
256,192,29918,1,0,0:0:0:0:
256,192,30001,1,2,0:0:0:0:
256,192,30085,1,0,0:0:0:0:
256,192,30251,1,0,0:0:0:0:
256,192,30335,1,2,0:0:0:0:
256,192,30418,1,2,0:0:0:0:
256,192,30501,1,0,0:0:0:0:
256,192,30668,1,2,0:0:0:0:
256,192,30835,1,0,0:0:0:0:
256,192,31001,1,0,0:0:0:0:
256,192,31085,1,2,0:0:0:0:
256,192,31168,1,0,0:0:0:0:
256,192,31335,1,2,0:0:0:0:
256,192,31418,1,0,0:0:0:0:
256,192,31585,1,0,0:0:0:0:
256,192,31668,1,2,0:0:0:0:
256,192,31751,1,2,0:0:0:0:
256,192,31835,1,0,0:0:0:0:
256,192,31918,1,2,0:0:0:0:
256,192,32001,1,2,0:0:0:0:
256,192,32085,1,2,0:0:0:0:
256,192,32168,1,0,0:0:0:0:
256,192,32335,1,0,0:0:0:0:
256,192,32418,1,2,0:0:0:0:
256,192,32501,1,0,0:0:0:0:
256,192,32585,1,0,0:0:0:0:
256,192,32668,1,2,0:0:0:0:
256,192,32724,1,2,0:0:0:0:
256,192,32779,1,2,0:0:0:0:
256,192,32835,1,0,0:0:0:0:
256,192,33001,1,2,0:0:0:0:
256,192,33042,1,0,0:0:0:0:
256,192,33085,1,2,0:0:0:0:
256,192,33168,1,0,0:0:0:0:
256,192,33251,1,0,0:0:0:0:
256,192,33335,1,2,0:0:0:0:
256,192,33375,1,0,0:0:0:0:
256,192,33417,1,2,0:0:0:0:
256,192,33501,1,0,0:0:0:0:
256,192,33668,1,0,0:0:0:0:
256,192,33751,1,2,0:0:0:0:
256,192,33835,1,0,0:0:0:0:
256,192,33918,1,0,0:0:0:0:
256,192,34001,1,2,0:0:0:0:
256,192,34085,1,0,0:0:0:0:
256,192,34251,1,0,0:0:0:0:
256,192,34335,1,2,0:0:0:0:
256,192,34418,1,0,0:0:0:0:
256,192,34501,1,2,0:0:0:0:
256,192,34557,1,0,0:0:0:0:
256,192,34613,1,2,0:0:0:0:
256,192,34668,1,0,0:0:0:0:
256,192,34724,1,2,0:0:0:0:
256,192,34779,1,0,0:0:0:0:
256,192,34835,1,2,0:0:0:0:
256,192,34918,1,2,0:0:0:0:
256,192,35001,1,0,0:0:0:0:
256,192,35085,1,0,0:0:0:0:
256,192,35168,1,2,0:0:0:0:
256,192,35224,1,0,0:0:0:0:
256,192,35279,1,0,0:0:0:0:
256,192,35335,1,2,0:0:0:0:
256,192,35390,1,0,0:0:0:0:
256,192,35446,1,0,0:0:0:0:
256,192,35501,1,2,0:0:0:0:
256,192,35613,1,2,0:0:0:0:
256,192,35724,1,0,0:0:0:0:
256,192,35835,1,0,0:0:0:0:
256,192,35946,1,0,0:0:0:0:
256,192,36001,1,0,0:0:0:0:
256,192,36057,1,2,0:0:0:0:
256,192,36113,1,2,0:0:0:0:
256,192,36168,1,0,0:0:0:0:
256,192,36224,1,2,0:0:0:0:
256,192,36279,1,2,0:0:0:0:
256,192,36335,1,0,0:0:0:0:
256,192,36390,1,2,0:0:0:0:
256,192,36446,1,2,0:0:0:0:
256,192,36501,1,0,0:0:0:0:
256,192,36543,1,0,0:0:0:0:
256,192,36585,1,2,0:0:0:0:
256,192,36626,1,2,0:0:0:0:
256,192,36668,1,4,0:0:0:0:
256,192,37001,1,4,0:0:0:0:
256,192,37335,1,4,0:0:0:0:
256,192,37668,1,4,0:0:0:0:
256,192,38001,1,4,0:0:0:0:
256,192,38335,1,4,0:0:0:0:
256,192,38668,1,4,0:0:0:0:
256,192,38835,1,0,0:0:0:0:
256,192,38918,1,0,0:0:0:0:
256,192,39001,1,0,0:0:0:0:
256,192,39085,1,2,0:0:0:0:
256,192,39168,1,2,0:0:0:0:
256,192,39251,1,0,0:0:0:0:
256,192,39335,1,0,0:0:0:0:
256,192,39418,1,2,0:0:0:0:
256,192,39501,1,2,0:0:0:0:
256,192,39668,1,2,0:0:0:0:
256,192,39835,1,2,0:0:0:0:
256,192,40001,1,0,0:0:0:0:
256,192,40168,1,0,0:0:0:0:
256,192,40335,1,2,0:0:0:0:
256,192,40501,1,0,0:0:0:0:
256,192,40835,1,2,0:0:0:0:
256,192,41001,1,2,0:0:0:0:
256,192,41085,1,2,0:0:0:0:
256,192,41168,1,2,0:0:0:0:
256,192,41251,1,0,0:0:0:0:
256,192,41335,1,2,0:0:0:0:
256,192,41418,1,0,0:0:0:0:
256,192,41501,1,0,0:0:0:0:
256,192,41668,1,0,0:0:0:0:
256,192,41835,1,2,0:0:0:0:
256,192,42168,1,2,0:0:0:0:
256,192,42501,1,2,0:0:0:0:
256,192,42835,1,0,0:0:0:0:
256,192,43168,1,2,0:0:0:0:
256,192,43501,1,2,0:0:0:0:
256,192,43835,1,2,0:0:0:0:
256,192,44001,1,0,0:0:0:0:
256,192,44168,1,2,0:0:0:0:
256,192,44335,1,2,0:0:0:0:
256,192,44501,1,2,0:0:0:0:
256,192,44668,1,0,0:0:0:0:
256,192,44835,1,0,0:0:0:0:
256,192,45001,1,2,0:0:0:0:
256,192,45168,1,0,0:0:0:0:
256,192,45501,1,2,0:0:0:0:
256,192,45668,1,2,0:0:0:0:
256,192,45751,1,2,0:0:0:0:
256,192,45835,1,2,0:0:0:0:
256,192,45918,1,0,0:0:0:0:
256,192,46001,1,2,0:0:0:0:
256,192,46085,1,0,0:0:0:0:
256,192,46168,1,0,0:0:0:0:
256,192,46335,1,2,0:0:0:0:
256,192,46501,1,4,0:0:0:0:
256,192,46668,1,6,0:0:0:0:
256,192,46835,1,0,0:0:0:0:
256,192,47001,1,6,0:0:0:0:
256,192,47168,1,4,0:0:0:0:
256,192,47335,1,2,0:0:0:0:
256,192,47501,1,4,0:0:0:0:
256,192,47668,1,6,0:0:0:0:
256,192,47835,1,0,0:0:0:0:
256,192,48001,1,6,0:0:0:0:
256,192,48168,1,0,0:0:0:0:
256,192,48251,1,2,0:0:0:0:
256,192,48335,1,0,0:0:0:0:
256,192,48418,1,2,0:0:0:0:
256,192,48501,1,2,0:0:0:0:
256,192,48668,1,2,0:0:0:0:
256,192,48835,1,2,0:0:0:0:
256,192,49001,1,0,0:0:0:0:
256,192,49168,1,0,0:0:0:0:
256,192,49335,1,2,0:0:0:0:
256,192,49501,1,0,0:0:0:0:
256,192,49835,1,2,0:0:0:0:
256,192,50001,1,2,0:0:0:0:
256,192,50085,1,2,0:0:0:0:
256,192,50168,1,2,0:0:0:0:
256,192,50251,1,0,0:0:0:0:
256,192,50335,1,2,0:0:0:0:
256,192,50418,1,0,0:0:0:0:
256,192,50501,1,0,0:0:0:0:
256,192,50668,1,0,0:0:0:0:
256,192,50835,1,2,0:0:0:0:
256,192,51168,1,2,0:0:0:0:
256,192,51501,1,2,0:0:0:0:
256,192,51835,1,0,0:0:0:0:
256,192,52168,1,2,0:0:0:0:
256,192,52501,1,2,0:0:0:0:
256,192,52835,1,0,0:0:0:0:
256,192,53001,1,2,0:0:0:0:
256,192,53168,1,2,0:0:0:0:
256,192,53335,1,2,0:0:0:0:
256,192,53501,1,2,0:0:0:0:
256,192,53668,1,0,0:0:0:0:
256,192,53835,1,0,0:0:0:0:
256,192,54001,1,2,0:0:0:0:
256,192,54168,1,0,0:0:0:0:
256,192,54501,1,2,0:0:0:0:
256,192,54668,1,2,0:0:0:0:
256,192,54751,1,2,0:0:0:0:
256,192,54835,1,2,0:0:0:0:
256,192,54918,1,0,0:0:0:0:
256,192,55001,1,2,0:0:0:0:
256,192,55085,1,0,0:0:0:0:
256,192,55168,1,0,0:0:0:0:
256,192,55335,1,2,0:0:0:0:
256,192,55501,1,6,0:0:0:0:
256,192,55668,1,4,0:0:0:0:
256,192,55835,1,2,0:0:0:0:
256,192,56001,1,4,0:0:0:0:
256,192,56168,1,6,0:0:0:0:
256,192,56335,1,0,0:0:0:0:
256,192,56501,1,6,0:0:0:0:
256,192,56668,1,4,0:0:0:0:
256,192,56835,1,2,0:0:0:0:
256,192,57001,1,6,0:0:0:0:
256,192,57085,1,0,0:0:0:0:
256,192,57168,1,2,0:0:0:0:
256,192,57251,1,0,0:0:0:0:
256,192,57335,1,2,0:0:0:0:
256,192,57418,1,0,0:0:0:0:
256,192,57501,1,0,0:0:0:0:
256,192,57585,1,0,0:0:0:0:
256,192,57751,1,0,0:0:0:0:
256,192,57835,1,2,0:0:0:0:
256,192,57876,1,2,0:0:0:0:
256,192,57918,1,2,0:0:0:0:
256,192,58001,1,0,0:0:0:0:
256,192,58085,1,0,0:0:0:0:
256,192,58168,1,2,0:0:0:0:
256,192,58335,1,0,0:0:0:0:
256,192,58418,1,0,0:0:0:0:
256,192,58501,1,2,0:0:0:0:
256,192,58668,1,2,0:0:0:0:
256,192,58835,1,0,0:0:0:0:
256,192,59001,1,0,0:0:0:0:
256,192,59085,1,2,0:0:0:0:
256,192,59168,1,0,0:0:0:0:
256,192,59251,1,0,0:0:0:0:
256,192,59335,1,2,0:0:0:0:
256,192,59418,1,2,0:0:0:0:
256,192,59585,1,0,0:0:0:0:
256,192,59668,1,2,0:0:0:0:
256,192,59751,1,2,0:0:0:0:
256,192,59835,1,0,0:0:0:0:
256,192,59918,1,0,0:0:0:0:
256,192,60001,1,2,0:0:0:0:
256,192,60085,1,2,0:0:0:0:
256,192,60168,1,0,0:0:0:0:
256,192,60251,1,0,0:0:0:0:
256,192,60418,1,2,0:0:0:0:
256,192,60501,1,0,0:0:0:0:
256,192,60585,1,0,0:0:0:0:
256,192,60668,1,2,0:0:0:0:
256,192,60751,1,2,0:0:0:0:
256,192,60918,1,0,0:0:0:0:
256,192,61001,1,2,0:0:0:0:
256,192,61085,1,2,0:0:0:0:
256,192,61168,1,0,0:0:0:0:
256,192,61251,1,0,0:0:0:0:
256,192,61335,1,2,0:0:0:0:
256,192,61418,1,0,0:0:0:0:
256,192,61501,1,2,0:0:0:0:
256,192,61585,1,2,0:0:0:0:
256,192,61668,1,0,0:0:0:0:
256,192,61751,1,0,0:0:0:0:
256,192,61835,1,2,0:0:0:0:
256,192,61918,1,0,0:0:0:0:
256,192,62001,1,2,0:0:0:0:
256,192,62085,1,2,0:0:0:0:
256,192,62168,1,0,0:0:0:0:
256,192,62251,1,0,0:0:0:0:
256,192,62335,1,2,0:0:0:0:
256,192,62418,1,0,0:0:0:0:
256,192,62557,1,0,0:0:0:0:
256,192,62613,1,2,0:0:0:0:
256,192,62668,1,2,0:0:0:0:
256,192,62751,1,0,0:0:0:0:
256,192,62835,1,2,0:0:0:0:
256,192,62918,1,0,0:0:0:0:
256,192,63085,1,2,0:0:0:0:
256,192,63168,1,0,0:0:0:0:
256,192,63251,1,0,0:0:0:0:
256,192,63335,1,2,0:0:0:0:
256,192,63418,1,0,0:0:0:0:
256,192,63585,1,0,0:0:0:0:
256,192,63668,1,2,0:0:0:0:
256,192,63751,1,0,0:0:0:0:
256,192,63835,1,0,0:0:0:0:
256,192,63918,1,0,0:0:0:0:
256,192,64001,1,2,0:0:0:0:
256,192,64168,1,0,0:0:0:0:
256,192,64251,1,0,0:0:0:0:
256,192,64335,1,2,0:0:0:0:
256,192,64376,1,2,0:0:0:0:
256,192,64418,1,0,0:0:0:0:
256,192,64501,1,2,0:0:0:0:
256,192,64668,1,0,0:0:0:0:
256,192,64710,1,0,0:0:0:0:
256,192,64751,1,2,0:0:0:0:
256,192,64835,1,0,0:0:0:0:
256,192,64918,1,0,0:0:0:0:
256,192,65001,1,2,0:0:0:0:
256,192,65043,1,2,0:0:0:0:
256,192,65085,1,2,0:0:0:0:
256,192,65168,1,0,0:0:0:0:
256,192,65251,1,0,0:0:0:0:
256,192,65335,1,2,0:0:0:0:
256,192,65418,1,2,0:0:0:0:
256,192,65501,1,0,0:0:0:0:
256,192,65668,1,0,0:0:0:0:
256,192,65751,1,2,0:0:0:0:
256,192,65835,1,0,0:0:0:0:
256,192,65918,1,0,0:0:0:0:
256,192,66001,1,2,0:0:0:0:
256,192,66085,1,0,0:0:0:0:
256,192,66168,1,2,0:0:0:0:
256,192,66251,1,2,0:0:0:0:
256,192,66335,1,0,0:0:0:0:
256,192,66501,1,2,0:0:0:0:
256,192,66557,1,2,0:0:0:0:
256,192,66613,1,2,0:0:0:0:
256,192,66668,1,0,0:0:0:0:
256,192,66835,1,0,0:0:0:0:
256,192,66918,1,0,0:0:0:0:
256,192,67001,1,2,0:0:0:0:
256,192,67085,1,0,0:0:0:0:
256,192,67168,1,2,0:0:0:0:
256,192,67210,1,2,0:0:0:0:
256,192,67251,1,2,0:0:0:0:
256,192,67335,1,0,0:0:0:0:
256,192,67418,1,2,0:0:0:0:
256,192,67585,1,2,0:0:0:0:
256,192,67668,1,2,0:0:0:0:
256,192,67751,1,2,0:0:0:0:
256,192,67835,1,0,0:0:0:0:
256,192,67918,1,2,0:0:0:0:
256,192,67960,1,2,0:0:0:0:
256,192,68001,1,0,0:0:0:0:
256,192,68085,1,2,0:0:0:0:
256,192,68168,1,0,0:0:0:0:
256,192,68251,1,0,0:0:0:0:
256,192,68418,1,0,0:0:0:0:
256,192,68501,1,0,0:0:0:0:
256,192,68585,1,0,0:0:0:0:
256,192,68668,1,2,0:0:0:0:
256,192,68751,1,0,0:0:0:0:
256,192,68918,1,0,0:0:0:0:
256,192,69001,1,2,0:0:0:0:
256,192,69057,1,2,0:0:0:0:
256,192,69113,1,2,0:0:0:0:
256,192,69168,1,0,0:0:0:0:
256,192,69224,1,0,0:0:0:0:
256,192,69279,1,0,0:0:0:0:
256,192,69335,1,2,0:0:0:0:
256,192,69500,1,0,0:0:0:0:
256,192,69667,1,0,0:0:0:0:
256,192,69709,1,0,0:0:0:0:
256,192,69750,1,0,0:0:0:0:
256,192,69834,1,0,0:0:0:0:
256,192,69916,1,0,0:0:0:0:
256,192,70000,1,2,0:0:0:0:
256,192,70056,1,2,0:0:0:0:
256,192,70112,1,2,0:0:0:0:
256,192,70167,1,0,0:0:0:0:
256,192,70334,1,2,0:0:0:0:
256,192,70389,1,2,0:0:0:0:
256,192,70445,1,2,0:0:0:0:
256,192,70500,1,0,0:0:0:0:
256,192,70667,1,2,0:0:0:0:
256,192,70723,1,2,0:0:0:0:
256,192,70778,1,2,0:0:0:0:
256,192,70834,1,0,0:0:0:0:
256,192,71000,1,2,0:0:0:0:
256,192,71056,1,2,0:0:0:0:
256,192,71112,1,2,0:0:0:0:
256,192,71167,1,0,0:0:0:0:
256,192,71334,1,2,0:0:0:0:
256,192,71389,1,2,0:0:0:0:
256,192,71445,1,2,0:0:0:0:
256,192,71500,1,0,0:0:0:0:
256,192,71667,1,2,0:0:0:0:
256,192,71723,1,2,0:0:0:0:
256,192,71778,1,2,0:0:0:0:
256,192,71834,1,0,0:0:0:0:
256,192,72000,1,2,0:0:0:0:
256,192,72056,1,2,0:0:0:0:
256,192,72112,1,2,0:0:0:0:
256,192,72167,1,0,0:0:0:0:
256,192,72334,1,2,0:0:0:0:
256,192,72389,1,2,0:0:0:0:
256,192,72445,1,2,0:0:0:0:
256,192,72500,1,0,0:0:0:0:
256,192,72667,1,2,0:0:0:0:
256,192,72834,1,0,0:0:0:0:
256,192,72917,1,0,0:0:0:0:
256,192,73000,1,0,0:0:0:0:
256,192,73084,1,2,0:0:0:0:
256,192,73167,1,2,0:0:0:0:
256,192,73250,1,0,0:0:0:0:
256,192,73334,1,0,0:0:0:0:
256,192,73417,1,2,0:0:0:0:
256,192,73500,1,2,0:0:0:0:
256,192,73668,1,2,0:0:0:0:
256,192,73835,1,2,0:0:0:0:
256,192,74001,1,0,0:0:0:0:
256,192,74168,1,0,0:0:0:0:
256,192,74335,1,2,0:0:0:0:
256,192,74501,1,0,0:0:0:0:
256,192,74835,1,2,0:0:0:0:
256,192,75001,1,2,0:0:0:0:
256,192,75085,1,2,0:0:0:0:
256,192,75168,1,2,0:0:0:0:
256,192,75251,1,0,0:0:0:0:
256,192,75335,1,2,0:0:0:0:
256,192,75418,1,0,0:0:0:0:
256,192,75501,1,0,0:0:0:0:
256,192,75668,1,0,0:0:0:0:
256,192,75835,1,2,0:0:0:0:
256,192,76168,1,2,0:0:0:0:
256,192,76335,1,0,0:0:0:0:
256,192,76418,1,0,0:0:0:0:
256,192,76501,1,0,0:0:0:0:
256,192,76585,1,0,0:0:0:0:
256,192,76668,1,0,0:0:0:0:
256,192,76751,1,0,0:0:0:0:
256,192,76835,1,0,0:0:0:0:
256,192,77168,1,2,0:0:0:0:
256,192,77501,1,2,0:0:0:0:
256,192,77835,1,0,0:0:0:0:
256,192,78001,1,2,0:0:0:0:
256,192,78168,1,2,0:0:0:0:
256,192,78335,1,2,0:0:0:0:
256,192,78501,1,2,0:0:0:0:
256,192,78668,1,0,0:0:0:0:
256,192,78835,1,0,0:0:0:0:
256,192,79001,1,2,0:0:0:0:
256,192,79168,1,0,0:0:0:0:
256,192,79501,1,2,0:0:0:0:
256,192,79668,1,2,0:0:0:0:
256,192,79751,1,2,0:0:0:0:
256,192,79835,1,2,0:0:0:0:
256,192,79918,1,0,0:0:0:0:
256,192,80001,1,2,0:0:0:0:
256,192,80085,1,0,0:0:0:0:
256,192,80168,1,0,0:0:0:0:
256,192,80335,1,2,0:0:0:0:
256,192,80501,1,6,0:0:0:0:
256,192,80668,1,4,0:0:0:0:
256,192,80835,1,2,0:0:0:0:
256,192,81001,1,6,0:0:0:0:
256,192,81168,1,4,0:0:0:0:
256,192,81335,1,2,0:0:0:0:
256,192,81501,1,6,0:0:0:0:
256,192,81668,1,4,0:0:0:0:
256,192,81835,1,2,0:0:0:0:
256,192,82001,1,6,0:0:0:0:
256,192,82168,1,0,0:0:0:0:
256,192,82251,1,2,0:0:0:0:
256,192,82335,1,0,0:0:0:0:
256,192,82418,1,2,0:0:0:0:
256,192,82501,1,2,0:0:0:0:
256,192,82668,1,2,0:0:0:0:
256,192,82835,1,2,0:0:0:0:
256,192,83001,1,0,0:0:0:0:
256,192,83168,1,0,0:0:0:0:
256,192,83335,1,2,0:0:0:0:
256,192,83501,1,0,0:0:0:0:
256,192,83835,1,2,0:0:0:0:
256,192,84001,1,2,0:0:0:0:
256,192,84085,1,2,0:0:0:0:
256,192,84168,1,2,0:0:0:0:
256,192,84251,1,0,0:0:0:0:
256,192,84335,1,2,0:0:0:0:
256,192,84418,1,0,0:0:0:0:
256,192,84501,1,0,0:0:0:0:
256,192,84668,1,0,0:0:0:0:
256,192,84835,1,2,0:0:0:0:
256,192,85168,1,2,0:0:0:0:
256,192,85335,1,0,0:0:0:0:
256,192,85418,1,0,0:0:0:0:
256,192,85501,1,0,0:0:0:0:
256,192,85585,1,0,0:0:0:0:
256,192,85668,1,0,0:0:0:0:
256,192,85751,1,0,0:0:0:0:
256,192,85835,1,0,0:0:0:0:
256,192,86168,1,2,0:0:0:0:
256,192,86501,1,2,0:0:0:0:
256,192,86835,1,0,0:0:0:0:
256,192,87001,1,2,0:0:0:0:
256,192,87168,1,2,0:0:0:0:
256,192,87335,1,2,0:0:0:0:
256,192,87501,1,2,0:0:0:0:
256,192,87668,1,0,0:0:0:0:
256,192,87835,1,0,0:0:0:0:
256,192,88001,1,2,0:0:0:0:
256,192,88168,1,0,0:0:0:0:
256,192,88501,1,2,0:0:0:0:
256,192,88668,1,2,0:0:0:0:
256,192,88751,1,2,0:0:0:0:
256,192,88835,1,2,0:0:0:0:
256,192,88918,1,0,0:0:0:0:
256,192,89001,1,2,0:0:0:0:
256,192,89085,1,0,0:0:0:0:
256,192,89168,1,0,0:0:0:0:
256,192,89335,1,2,0:0:0:0:
256,192,89501,1,6,0:0:0:0:
256,192,89668,1,4,0:0:0:0:
256,192,89835,1,0,0:0:0:0:
256,192,90001,1,4,0:0:0:0:
256,192,90168,1,6,0:0:0:0:
256,192,90335,1,2,0:0:0:0:
256,192,90501,1,6,0:0:0:0:
256,192,90668,1,4,0:0:0:0:
256,192,90835,1,0,0:0:0:0:
256,192,91001,1,2,0:0:0:0:
256,192,91057,1,2,0:0:0:0:
256,192,91113,1,2,0:0:0:0:
256,192,91168,1,0,0:0:0:0:
256,192,91224,1,0,0:0:0:0:
256,192,91279,1,0,0:0:0:0:
256,192,91335,1,0,0:0:0:0:
256,192,91390,1,0,0:0:0:0:
256,192,91446,1,0,0:0:0:0:
256,192,91501,1,0,0:0:0:0:
256,192,91585,1,0,0:0:0:0:
256,192,91751,1,2,0:0:0:0:
256,192,91835,1,0,0:0:0:0:
256,192,91918,1,0,0:0:0:0:
256,192,92001,1,2,0:0:0:0:
256,192,92085,1,0,0:0:0:0:
256,192,92251,1,0,0:0:0:0:
256,192,92335,1,2,0:0:0:0:
256,192,92418,1,0,0:0:0:0:
256,192,92501,1,0,0:0:0:0:
256,192,92585,1,0,0:0:0:0:
256,192,92668,1,2,0:0:0:0:
256,192,92835,1,0,0:0:0:0:
256,192,92918,1,0,0:0:0:0:
256,192,93001,1,2,0:0:0:0:
256,192,93168,1,0,0:0:0:0:
256,192,93335,1,0,0:0:0:0:
256,192,93418,1,0,0:0:0:0:
256,192,93501,1,2,0:0:0:0:
256,192,93557,1,0,0:0:0:0:
256,192,93613,1,0,0:0:0:0:
256,192,93668,1,2,0:0:0:0:
256,192,93751,1,2,0:0:0:0:
256,192,93835,1,2,0:0:0:0:
256,192,93918,1,0,0:0:0:0:
256,192,94001,1,2,0:0:0:0:
256,192,94085,1,2,0:0:0:0:
256,192,94168,1,0,0:0:0:0:
256,192,94224,1,0,0:0:0:0:
256,192,94279,1,0,0:0:0:0:
256,192,94335,1,2,0:0:0:0:
256,192,94418,1,0,0:0:0:0:
256,192,94501,1,0,0:0:0:0:
256,192,94557,1,2,0:0:0:0:
256,192,94613,1,2,0:0:0:0:
256,192,94668,1,0,0:0:0:0:
256,192,94751,1,2,0:0:0:0:
256,192,94835,1,0,0:0:0:0:
256,192,95001,1,0,0:0:0:0:
256,192,95085,1,0,0:0:0:0:
256,192,95168,1,2,0:0:0:0:
256,192,95335,1,0,0:0:0:0:
256,192,95418,1,2,0:0:0:0:
256,192,95585,1,2,0:0:0:0:
256,192,95668,1,0,0:0:0:0:
256,192,95751,1,0,0:0:0:0:
256,192,95835,1,2,0:0:0:0:
256,192,95890,1,2,0:0:0:0:
256,192,95946,1,0,0:0:0:0:
256,192,96001,1,2,0:0:0:0:
256,192,96168,1,0,0:0:0:0:
256,192,96251,1,2,0:0:0:0:
256,192,96335,1,2,0:0:0:0:
256,192,96501,1,0,0:0:0:0:
256,192,96668,1,0,0:0:0:0:
256,192,96724,1,0,0:0:0:0:
256,192,96779,1,0,0:0:0:0:
256,192,96835,1,2,0:0:0:0:
256,192,96918,1,0,0:0:0:0:
256,192,97001,1,2,0:0:0:0:
256,192,97085,1,2,0:0:0:0:
256,192,97168,1,0,0:0:0:0:
256,192,97251,1,0,0:0:0:0:
256,192,97335,1,2,0:0:0:0:
256,192,97390,1,2,0:0:0:0:
256,192,97446,1,2,0:0:0:0:
256,192,97501,1,0,0:0:0:0:
256,192,97585,1,0,0:0:0:0:
256,192,97668,1,2,0:0:0:0:
256,192,98001,1,0,0:0:0:0:
256,192,98085,1,2,0:0:0:0:
256,192,98168,1,2,0:0:0:0:
256,192,98335,1,2,0:0:0:0:
256,192,98376,1,2,0:0:0:0:
256,192,98418,1,0,0:0:0:0:
256,192,98501,1,2,0:0:0:0:
256,192,98668,1,0,0:0:0:0:
256,192,98710,1,2,0:0:0:0:
256,192,98751,1,0,0:0:0:0:
256,192,98835,1,2,0:0:0:0:
256,192,99001,1,0,0:0:0:0:
256,192,99057,1,0,0:0:0:0:
256,192,99113,1,0,0:0:0:0:
256,192,99168,1,2,0:0:0:0:
256,192,99251,1,2,0:0:0:0:
256,192,99335,1,0,0:0:0:0:
256,192,99418,1,2,0:0:0:0:
256,192,99501,1,0,0:0:0:0:
256,192,99557,1,2,0:0:0:0:
256,192,99613,1,2,0:0:0:0:
256,192,99668,1,0,0:0:0:0:
256,192,99835,1,0,0:0:0:0:
256,192,99918,1,0,0:0:0:0:
256,192,100085,1,0,0:0:0:0:
256,192,100168,1,2,0:0:0:0:
256,192,100251,1,0,0:0:0:0:
256,192,100335,1,0,0:0:0:0:
256,192,100418,1,2,0:0:0:0:
256,192,100501,1,0,0:0:0:0:
256,192,100668,1,2,0:0:0:0:
256,192,100751,1,0,0:0:0:0:
256,192,100835,1,0,0:0:0:0:
256,192,100918,1,0,0:0:0:0:
256,192,101001,1,2,0:0:0:0:
256,192,101126,1,0,0:0:0:0:
256,192,101251,1,2,0:0:0:0:
256,192,101335,1,2,0:0:0:0:
256,192,101501,1,0,0:0:0:0:
256,192,101668,1,0,0:0:0:0:
256,192,101751,1,0,0:0:0:0:
256,192,101835,1,0,0:0:0:0:
256,192,101918,1,0,0:0:0:0:
256,192,102001,1,2,0:0:0:0:
256,192,102085,1,0,0:0:0:0:
256,192,102251,1,0,0:0:0:0:
256,192,102335,1,2,0:0:0:0:
256,192,102418,1,2,0:0:0:0:
256,192,102501,1,0,0:0:0:0:
256,192,102585,1,0,0:0:0:0:
256,192,102668,1,2,0:0:0:0:
256,192,102835,1,0,0:0:0:0:
256,192,102918,1,0,0:0:0:0:
256,192,103001,1,2,0:0:0:0:
256,192,103085,1,2,0:0:0:0:
256,192,103168,1,2,0:0:0:0:
256,192,103210,1,0,0:0:0:0:
256,192,103418,1,0,0:0:0:0:
256,192,103501,1,2,0:0:0:0:
256,192,103585,1,0,0:0:0:0:
256,192,103626,1,2,0:0:0:0:
256,192,103668,1,0,0:0:0:0:
256,192,103751,1,0,0:0:0:0:
256,192,103835,1,0,0:0:0:0:
256,192,103918,1,0,0:0:0:0:
256,192,103960,1,2,0:0:0:0:
256,192,104001,1,0,0:0:0:0:
256,192,104085,1,0,0:0:0:0:
256,192,104168,1,0,0:0:0:0:
256,192,104251,1,0,0:0:0:0:
256,192,104293,1,2,0:0:0:0:
256,192,104335,1,0,0:0:0:0:
256,192,104418,1,0,0:0:0:0:
256,192,104501,1,0,0:0:0:0:
256,192,104585,1,0,0:0:0:0:
256,192,104626,1,2,0:0:0:0:
256,192,104668,1,0,0:0:0:0:
256,192,104751,1,0,0:0:0:0:
256,192,104835,1,0,0:0:0:0:
256,192,104918,1,0,0:0:0:0:
256,192,104960,1,2,0:0:0:0:
256,192,105001,1,0,0:0:0:0:
256,192,105085,1,0,0:0:0:0:
256,192,105168,1,0,0:0:0:0:
256,192,105251,1,0,0:0:0:0:
256,192,105293,1,2,0:0:0:0:
256,192,105335,1,0,0:0:0:0:
256,192,105418,1,0,0:0:0:0:
256,192,105501,1,0,0:0:0:0:
256,192,105585,1,0,0:0:0:0:
256,192,105626,1,2,0:0:0:0:
256,192,105668,1,0,0:0:0:0:
256,192,105751,1,0,0:0:0:0:
256,192,105835,1,2,0:0:0:0:
256,192,105918,1,0,0:0:0:0:
256,192,106001,1,2,0:0:0:0:
256,192,106085,1,2,0:0:0:0:
256,192,106168,1,0,0:0:0:0:
256,192,106251,1,2,0:0:0:0:
256,192,106335,1,0,0:0:0:0:
256,192,106418,1,2,0:0:0:0:
256,192,106501,1,0,0:0:0:0:
256,192,106585,1,2,0:0:0:0:
256,192,106668,1,2,0:0:0:0:
256,192,106751,1,0,0:0:0:0:
256,192,106835,1,2,0:0:0:0:
256,192,106918,1,2,0:0:0:0:
256,192,107001,1,0,0:0:0:0:
256,192,107085,1,0,0:0:0:0:
256,192,107168,1,2,0:0:0:0:
256,192,107251,1,2,0:0:0:0:
256,192,107335,1,0,0:0:0:0:
256,192,107418,1,2,0:0:0:0:
256,192,107501,1,2,0:0:0:0:
256,192,107585,1,0,0:0:0:0:
256,192,107668,1,2,0:0:0:0:
256,192,107751,1,0,0:0:0:0:
256,192,107835,1,0,0:0:0:0:
256,192,107918,1,2,0:0:0:0:
256,192,108001,1,0,0:0:0:0:
256,192,108085,1,2,0:0:0:0:
256,192,108168,1,0,0:0:0:0:
256,192,108251,1,0,0:0:0:0:
256,192,108293,1,0,0:0:0:0:
256,192,108335,1,2,0:0:0:0:
256,192,108418,1,0,0:0:0:0:
256,192,108501,1,2,0:0:0:0:
256,192,108668,1,0,0:0:0:0:
256,192,108751,1,0,0:0:0:0:
256,192,108835,1,2,0:0:0:0:
256,192,109085,1,0,0:0:0:0:
256,192,109335,1,0,0:0:0:0:
256,192,109418,1,2,0:0:0:0:
256,192,109501,1,2,0:0:0:0:
256,192,109668,1,0,0:0:0:0:
256,192,109835,1,0,0:0:0:0:
256,192,110001,1,2,0:0:0:0:
256,192,110168,1,2,0:0:0:0:
256,192,110418,1,0,0:0:0:0:
256,192,110668,1,2,0:0:0:0:
256,192,110751,1,2,0:0:0:0:
256,192,110835,1,0,0:0:0:0:
256,192,111001,1,2,0:0:0:0:
256,192,111168,1,0,0:0:0:0:
256,192,111335,1,2,0:0:0:0:
256,192,111501,1,2,0:0:0:0:
256,192,111751,1,0,0:0:0:0:
256,192,112001,1,2,0:0:0:0:
256,192,112085,1,2,0:0:0:0:
256,192,112251,1,2,0:0:0:0:
256,192,112335,1,0,0:0:0:0:
256,192,112418,1,0,0:0:0:0:
256,192,112501,1,2,0:0:0:0:
256,192,112585,1,0,0:0:0:0:
256,192,112668,1,2,0:0:0:0:
256,192,112751,1,2,0:0:0:0:
256,192,112918,1,2,0:0:0:0:
256,192,113001,1,0,0:0:0:0:
256,192,113085,1,0,0:0:0:0:
256,192,113168,1,0,0:0:0:0:
256,192,113251,1,0,0:0:0:0:
256,192,113335,1,2,0:0:0:0:
256,192,113418,1,2,0:0:0:0:
256,192,113501,1,0,0:0:0:0:
256,192,113585,1,2,0:0:0:0:
256,192,113668,1,0,0:0:0:0:
256,192,113710,1,0,0:0:0:0:
256,192,113751,1,0,0:0:0:0:
256,192,113835,1,2,0:0:0:0:
256,192,114001,1,0,0:0:0:0:
256,192,114085,1,2,0:0:0:0:
256,192,114168,1,0,0:0:0:0:
256,192,114251,1,0,0:0:0:0:
256,192,114335,1,0,0:0:0:0:
256,192,114418,1,2,0:0:0:0:
256,192,114585,1,2,0:0:0:0:
256,192,114668,1,0,0:0:0:0:
256,192,114751,1,2,0:0:0:0:
256,192,114835,1,2,0:0:0:0:
256,192,114918,1,0,0:0:0:0:
256,192,115001,1,2,0:0:0:0:
256,192,115168,1,0,0:0:0:0:
256,192,115251,1,0,0:0:0:0:
256,192,115293,1,0,0:0:0:0:
256,192,115335,1,2,0:0:0:0:
256,192,115418,1,0,0:0:0:0:
256,192,115501,1,2,0:0:0:0:
256,192,115585,1,2,0:0:0:0:
256,192,115668,1,0,0:0:0:0:
256,192,115751,1,2,0:0:0:0:
256,192,115835,1,0,0:0:0:0:
256,192,115918,1,0,0:0:0:0:
256,192,116001,1,2,0:0:0:0:
256,192,116085,1,2,0:0:0:0:
256,192,116168,1,0,0:0:0:0:
256,192,116335,1,2,0:0:0:0:
256,192,116501,1,0,0:0:0:0:
256,192,116668,1,2,0:0:0:0:
256,192,116751,1,2,0:0:0:0:
256,192,116835,1,0,0:0:0:0:
256,192,116918,1,2,0:0:0:0:
256,192,117001,1,0,0:0:0:0:
256,192,117085,1,0,0:0:0:0:
256,192,117335,1,2,0:0:0:0:
256,192,117585,1,0,0:0:0:0:
256,192,117668,1,2,0:0:0:0:
256,192,117751,1,2,0:0:0:0:
256,192,117835,1,2,0:0:0:0:
256,192,117918,1,0,0:0:0:0:
256,192,118001,1,0,0:0:0:0:
256,192,118043,1,2,0:0:0:0:
256,192,118085,1,0,0:0:0:0:
256,192,118251,1,2,0:0:0:0:
256,192,118335,1,0,0:0:0:0:
256,192,118376,1,0,0:0:0:0:
256,192,118418,1,0,0:0:0:0:
256,192,118501,1,2,0:0:0:0:
256,192,118668,1,2,0:0:0:0:
256,192,118751,1,0,0:0:0:0:
256,192,118835,1,2,0:0:0:0:
256,192,119001,1,2,0:0:0:0:
256,192,119168,1,0,0:0:0:0:
256,192,119335,1,0,0:0:0:0:
256,192,119418,1,0,0:0:0:0:
256,192,119501,1,2,0:0:0:0:
256,192,119585,1,0,0:0:0:0:
256,192,119668,1,0,0:0:0:0:
256,192,119751,1,2,0:0:0:0:
256,192,119835,1,2,0:0:0:0:
256,192,119918,1,0,0:0:0:0:
256,192,120001,1,0,0:0:0:0:
256,192,120085,1,2,0:0:0:0:
256,192,120168,1,2,0:0:0:0:
256,192,120335,1,0,0:0:0:0:
256,192,120501,1,2,0:0:0:0:
256,192,120668,1,0,0:0:0:0:
256,192,120710,1,0,0:0:0:0:
256,192,120751,1,2,0:0:0:0:
256,192,120835,1,2,0:0:0:0:
256,192,120918,1,0,0:0:0:0:
256,192,121001,1,0,0:0:0:0:
256,192,121085,1,2,0:0:0:0:
256,192,121168,1,0,0:0:0:0:
256,192,121251,1,0,0:0:0:0:
256,192,121335,1,2,0:0:0:0:
256,192,121418,1,2,0:0:0:0:
256,192,121501,1,0,0:0:0:0:
256,192,121668,1,2,0:0:0:0:
256,192,121835,1,0,0:0:0:0:
256,192,122001,1,0,0:0:0:0:
256,192,122043,1,2,0:0:0:0:
256,192,122085,1,2,0:0:0:0:
256,192,122168,1,2,0:0:0:0:
256,192,122251,1,0,0:0:0:0:
256,192,122335,1,0,0:0:0:0:
256,192,122418,1,2,0:0:0:0:
256,192,122501,1,0,0:0:0:0:
256,192,122585,1,0,0:0:0:0:
256,192,122668,1,2,0:0:0:0:
256,192,122751,1,2,0:0:0:0:
256,192,122918,1,0,0:0:0:0:
256,192,122973,1,0,0:0:0:0:
256,192,123028,1,2,0:0:0:0:
256,192,123085,1,0,0:0:0:0:
256,192,123168,1,2,0:0:0:0:
256,192,123251,1,0,0:0:0:0:
256,192,123335,1,2,0:0:0:0:
256,192,123418,1,2,0:0:0:0:
256,192,123585,1,0,0:0:0:0:
256,192,123668,1,0,0:0:0:0:
256,192,123751,1,0,0:0:0:0:
256,192,123835,1,2,0:0:0:0:
256,192,123918,1,2,0:0:0:0:
256,192,124001,1,2,0:0:0:0:
256,192,124085,1,2,0:0:0:0:
256,192,124168,1,0,0:0:0:0:
256,192,124335,1,0,0:0:0:0:
256,192,124376,1,0,0:0:0:0:
256,192,124418,1,2,0:0:0:0:
256,192,124501,1,0,0:0:0:0:
256,192,124585,1,0,0:0:0:0:
256,192,124668,1,2,0:0:0:0:
256,192,124751,1,0,0:0:0:0:
256,192,124834,1,2,0:0:0:0:
256,192,124917,1,2,0:0:0:0:
256,192,125000,1,0,0:0:0:0:
256,192,125084,1,2,0:0:0:0:
256,192,125168,1,2,0:0:0:0:
256,192,125251,1,0,0:0:0:0:
256,192,125335,1,0,0:0:0:0:
256,192,125418,1,2,0:0:0:0:
256,192,125501,1,2,0:0:0:0:
256,192,125668,1,0,0:0:0:0:
256,192,125835,1,2,0:0:0:0:
256,192,126001,1,0,0:0:0:0:
256,192,126022,1,2,0:0:0:0:
256,192,126085,1,0,0:0:0:0:
256,192,126168,1,2,0:0:0:0:
256,192,126251,1,2,0:0:0:0:
256,192,126335,1,0,0:0:0:0:
256,192,126418,1,2,0:0:0:0:
256,192,126501,1,2,0:0:0:0:
256,192,126585,1,0,0:0:0:0:
256,192,126668,1,2,0:0:0:0:
256,192,126751,1,2,0:0:0:0:
256,192,126835,1,0,0:0:0:0:
256,192,126918,1,0,0:0:0:0:
256,192,127001,1,2,0:0:0:0:
256,192,127168,1,0,0:0:0:0:
256,192,127335,1,2,0:0:0:0:
256,192,127418,1,0,0:0:0:0:
256,192,127501,1,0,0:0:0:0:
256,192,127585,1,2,0:0:0:0:
256,192,127668,1,2,0:0:0:0:
256,192,127751,1,2,0:0:0:0:
256,192,127835,1,0,0:0:0:0:
256,192,127918,1,0,0:0:0:0:
256,192,128001,1,0,0:0:0:0:
256,192,128085,1,2,0:0:0:0:
256,192,128168,1,0,0:0:0:0:
256,192,128251,1,0,0:0:0:0:
256,192,128418,1,0,0:0:0:0:
256,192,128501,1,2,0:0:0:0:
256,192,128585,1,2,0:0:0:0:
256,192,128668,1,0,0:0:0:0:
256,192,128751,1,2,0:0:0:0:
256,192,128835,1,2,0:0:0:0:
256,192,128918,1,2,0:0:0:0:
256,192,129001,1,0,0:0:0:0:
256,192,129085,1,0,0:0:0:0:
256,192,129168,1,2,0:0:0:0:
256,192,129251,1,2,0:0:0:0:
256,192,129335,1,2,0:0:0:0:
256,192,129418,1,2,0:0:0:0:
256,192,129501,1,0,0:0:0:0:
256,192,130001,1,0,0:0:0:0:
256,192,130168,1,2,0:0:0:0:
256,192,130668,1,0,0:0:0:0:
256,192,131335,1,0,0:0:0:0:
256,192,131501,1,2,0:0:0:0:
256,192,132001,1,0,0:0:0:0:
256,192,132668,1,0,0:0:0:0:
256,192,132835,1,2,0:0:0:0:
256,192,133335,1,0,0:0:0:0:
256,192,134001,1,0,0:0:0:0:
256,192,134168,1,2,0:0:0:0:
256,192,134335,1,0,0:0:0:0:
256,192,134835,1,0,0:0:0:0:
256,192,135335,1,0,0:0:0:0:
256,192,135501,1,2,0:0:0:0:
256,192,136001,1,0,0:0:0:0:
256,192,136668,1,0,0:0:0:0:
256,192,136835,1,2,0:0:0:0:
256,192,137335,1,0,0:0:0:0:
256,192,138001,1,0,0:0:0:0:
256,192,138168,1,2,0:0:0:0:
256,192,138668,1,0,0:0:0:0:
256,192,139335,1,0,0:0:0:0:
256,192,139501,1,2,0:0:0:0:
256,192,140167,1,0,0:0:0:0:
256,192,140418,1,0,0:0:0:0:
256,192,140668,1,2,0:0:0:0:
256,192,141001,1,2,0:0:0:0:
256,192,141335,1,2,0:0:0:0:
256,192,141501,1,0,0:0:0:0:
256,192,141751,1,0,0:0:0:0:
256,192,142001,1,2,0:0:0:0:
256,192,142335,1,2,0:0:0:0:
256,192,142668,1,2,0:0:0:0:
256,192,142835,1,0,0:0:0:0:
256,192,143085,1,0,0:0:0:0:
256,192,143335,1,2,0:0:0:0:
256,192,143668,1,2,0:0:0:0:
256,192,144001,1,2,0:0:0:0:
256,192,144168,1,0,0:0:0:0:
256,192,144418,1,0,0:0:0:0:
256,192,144668,1,2,0:0:0:0:
256,192,145001,1,2,0:0:0:0:
256,192,145335,1,2,0:0:0:0:
256,192,145501,1,0,0:0:0:0:
256,192,145751,1,0,0:0:0:0:
256,192,145835,1,2,0:0:0:0:
256,192,146001,1,2,0:0:0:0:
256,192,146168,1,0,0:0:0:0:
256,192,146335,1,2,0:0:0:0:
256,192,146501,1,0,0:0:0:0:
256,192,146585,1,0,0:0:0:0:
256,192,146668,1,2,0:0:0:0:
256,192,146835,1,0,0:0:0:0:
256,192,147085,1,0,0:0:0:0:
256,192,147168,1,2,0:0:0:0:
256,192,147335,1,2,0:0:0:0:
256,192,147501,1,0,0:0:0:0:
256,192,147668,1,2,0:0:0:0:
256,192,147835,1,0,0:0:0:0:
256,192,147918,1,0,0:0:0:0:
256,192,148001,1,2,0:0:0:0:
256,192,148085,1,0,0:0:0:0:
256,192,148168,1,0,0:0:0:0:
256,192,148418,1,0,0:0:0:0:
256,192,148501,1,2,0:0:0:0:
256,192,148668,1,2,0:0:0:0:
256,192,148835,1,0,0:0:0:0:
256,192,149001,1,2,0:0:0:0:
256,192,149168,1,0,0:0:0:0:
256,192,149251,1,0,0:0:0:0:
256,192,149335,1,2,0:0:0:0:
256,192,149501,1,0,0:0:0:0:
256,192,149751,1,0,0:0:0:0:
256,192,149835,1,2,0:0:0:0:
256,192,150001,1,2,0:0:0:0:
256,192,150168,1,0,0:0:0:0:
256,192,150335,1,2,0:0:0:0:
256,192,150501,1,0,0:0:0:0:
256,192,150585,1,0,0:0:0:0:
256,192,150668,1,2,0:0:0:0:
256,192,150751,1,0,0:0:0:0:
256,192,150835,1,0,0:0:0:0:
256,192,151085,1,0,0:0:0:0:
256,192,151168,1,2,0:0:0:0:
256,192,151335,1,2,0:0:0:0:
256,192,151501,1,0,0:0:0:0:
256,192,151668,1,2,0:0:0:0:
256,192,151835,1,0,0:0:0:0:
256,192,151918,1,0,0:0:0:0:
256,192,152001,1,2,0:0:0:0:
256,192,152168,1,0,0:0:0:0:
256,192,152418,1,0,0:0:0:0:
256,192,152501,1,2,0:0:0:0:
256,192,152668,1,0,0:0:0:0:
256,192,152835,1,2,0:0:0:0:
256,192,153001,1,0,0:0:0:0:
256,192,153168,1,2,0:0:0:0:
256,192,153335,1,2,0:0:0:0:
256,192,153501,1,0,0:0:0:0:
256,192,153751,1,0,0:0:0:0:
256,192,153835,1,2,0:0:0:0:
256,192,154001,1,0,0:0:0:0:
256,192,154168,1,2,0:0:0:0:
256,192,154335,1,0,0:0:0:0:
256,192,154501,1,0,0:0:0:0:
256,192,154668,1,2,0:0:0:0:
256,192,154835,1,0,0:0:0:0:
256,192,155085,1,0,0:0:0:0:
256,192,155168,1,2,0:0:0:0:
256,192,155335,1,0,0:0:0:0:
256,192,155501,1,2,0:0:0:0:
256,192,155668,1,2,0:0:0:0:
256,192,155835,1,0,0:0:0:0:
256,192,155918,1,0,0:0:0:0:
256,192,156001,1,2,0:0:0:0:
256,192,156168,1,0,0:0:0:0:
256,192,156418,1,0,0:0:0:0:
256,192,156501,1,2,0:0:0:0:
256,192,156668,1,2,0:0:0:0:
256,192,156835,1,0,0:0:0:0:
256,192,157001,1,2,0:0:0:0:
256,192,157168,1,0,0:0:0:0:
256,192,157335,1,2,0:0:0:0:
256,192,157501,1,0,0:0:0:0:
256,192,157751,1,0,0:0:0:0:
256,192,157835,1,2,0:0:0:0:
256,192,158001,1,2,0:0:0:0:
256,192,158168,1,0,0:0:0:0:
256,192,158251,1,2,0:0:0:0:
256,192,158335,1,2,0:0:0:0:
256,192,158501,1,0,0:0:0:0:
256,192,158585,1,0,0:0:0:0:
256,192,158668,1,2,0:0:0:0:
256,192,158835,1,0,0:0:0:0:
256,192,159085,1,0,0:0:0:0:
256,192,159168,1,2,0:0:0:0:
256,192,159335,1,2,0:0:0:0:
256,192,159501,1,0,0:0:0:0:
256,192,159668,1,2,0:0:0:0:
256,192,159751,1,0,0:0:0:0:
256,192,159799,1,0,0:0:0:0:
256,192,159847,1,2,0:0:0:0:
256,192,159895,1,2,0:0:0:0:
256,192,159943,1,0,0:0:0:0:
256,192,159990,1,2,0:0:0:0:
256,192,160038,1,2,0:0:0:0:
256,192,160086,1,0,0:0:0:0:
256,192,160134,1,0,0:0:0:0:
256,192,160182,1,2,0:0:0:0:
256,192,160835,1,0,0:0:0:0:
256,192,161501,1,6,0:0:0:0:
256,192,162043,1,0,0:0:0:0:
256,192,162501,1,2,0:0:0:0:
256,192,162585,1,2,0:0:0:0:
256,192,162668,1,0,0:0:0:0:
256,192,163668,1,0,0:0:0:0:
256,192,163835,1,2,0:0:0:0:
256,192,164001,1,0,0:0:0:0:
256,192,164501,1,2,0:0:0:0:
256,192,164668,1,0,0:0:0:0:
256,192,165001,1,0,0:0:0:0:
256,192,165168,1,2,0:0:0:0:
256,192,165335,1,0,0:0:0:0:
256,192,166668,1,0,0:0:0:0:
256,192,166835,1,2,0:0:0:0:
256,192,167001,1,0,0:0:0:0:
256,192,167168,1,0,0:0:0:0:
256,192,167224,1,2,0:0:0:0:
256,192,167279,1,2,0:0:0:0:
256,192,167335,1,2,0:0:0:0:
256,192,167946,1,0,0:0:0:0:
256,192,168001,1,2,0:0:0:0:
256,192,168981,1,0,0:0:0:0:
256,192,169189,1,0,0:0:0:0:
256,192,169397,1,2,0:0:0:0:
256,192,169856,1,0,0:0:0:0:
256,192,169918,1,2,0:0:0:0:
256,192,170668,1,0,0:0:0:0:
256,192,170835,1,2,0:0:0:0:
256,192,171001,1,2,0:0:0:0:
256,192,171168,1,0,0:0:0:0:
256,192,171335,1,2,0:0:0:0:
256,192,171501,1,2,0:0:0:0:
256,192,171668,1,0,0:0:0:0:
256,192,171835,1,0,0:0:0:0:
256,192,172001,1,2,0:0:0:0:
256,192,172168,1,2,0:0:0:0:
256,192,172390,1,0,0:0:0:0:
256,192,172613,1,0,0:0:0:0:
256,192,172835,1,2,0:0:0:0:
256,192,173057,1,0,0:0:0:0:
256,192,173279,1,2,0:0:0:0:
256,192,173501,1,0,0:0:0:0:
256,192,173724,1,0,0:0:0:0:
256,192,173946,1,2,0:0:0:0:
256,192,174020,1,0,0:0:0:0:
256,192,174094,1,2,0:0:0:0:
256,192,174168,1,0,0:0:0:0:
256,192,174242,1,2,0:0:0:0:
256,192,174316,1,0,0:0:0:0:
256,192,174390,1,2,0:0:0:0:
256,192,174464,1,0,0:0:0:0:
256,192,174538,1,2,0:0:0:0:
256,192,174613,1,0,0:0:0:0:
256,192,174724,1,2,0:0:0:0:
256,192,174835,1,0,0:0:0:0:
256,192,175057,1,0,0:0:0:0:
256,192,175279,1,0,0:0:0:0:
256,192,175501,1,2,0:0:0:0:
256,192,175668,1,2,0:0:0:0:
256,192,175876,1,2,0:0:0:0:
256,192,176043,1,0,0:0:0:0:
256,192,176168,1,0,0:0:0:0:
256,192,176390,1,0,0:0:0:0:
256,192,176613,1,2,0:0:0:0:
256,192,176835,1,2,0:0:0:0:
256,192,176890,1,2,0:0:0:0:
256,192,176946,1,2,0:0:0:0:
256,192,177057,1,2,0:0:0:0:
256,192,177279,1,0,0:0:0:0:
256,192,177501,1,0,0:0:0:0:
256,192,177724,1,0,0:0:0:0:
256,192,177946,1,2,0:0:0:0:
256,192,178168,1,2,0:0:0:0:
256,192,178390,1,2,0:0:0:0:
256,192,178613,1,0,0:0:0:0:
256,192,178835,1,0,0:0:0:0:
256,192,179057,1,2,0:0:0:0:
256,192,179224,1,2,0:0:0:0:
256,192,179390,1,0,0:0:0:0:
256,192,179501,1,0,0:0:0:0:
256,192,179724,1,0,0:0:0:0:
256,192,179835,1,2,0:0:0:0:
256,192,179917,1,2,0:0:0:0:
256,192,180168,1,0,0:0:0:0:
256,192,180390,1,0,0:0:0:0:
256,192,180613,1,2,0:0:0:0:
256,192,180835,1,0,0:0:0:0:
256,192,181057,1,0,0:0:0:0:
256,192,181279,1,2,0:0:0:0:
256,192,181501,1,2,0:0:0:0:
256,192,181960,1,2,0:0:0:0:
256,192,182015,1,2,0:0:0:0:
256,192,182071,1,2,0:0:0:0:
256,192,182126,1,0,0:0:0:0:
256,192,182182,1,0,0:0:0:0:
256,192,182237,1,0,0:0:0:0:
256,192,182293,1,2,0:0:0:0:
256,192,182348,1,2,0:0:0:0:
256,192,182404,1,2,0:0:0:0:
256,192,182452,1,0,0:0:0:0:
256,192,182500,1,0,0:0:0:0:
256,192,182548,1,0,0:0:0:0:
256,192,182596,1,0,0:0:0:0:
256,192,182643,1,0,0:0:0:0:
256,192,182691,1,0,0:0:0:0:
256,192,182739,1,2,0:0:0:0:
256,192,182787,1,2,0:0:0:0:
256,192,182835,1,0,0:0:0:0:
256,192,183168,1,0,0:0:0:0:
256,192,183335,1,2,0:0:0:0:
256,192,183418,1,2,0:0:0:0:
256,192,183501,1,2,0:0:0:0:
256,192,183585,1,0,0:0:0:0:
256,192,183668,1,0,0:0:0:0:
256,192,183835,1,0,0:0:0:0:
256,192,184001,1,2,0:0:0:0:
256,192,184168,1,2,0:0:0:0:
256,192,184251,1,2,0:0:0:0:
256,192,184335,1,0,0:0:0:0:
256,192,184501,1,2,0:0:0:0:
256,192,184585,1,0,0:0:0:0:
256,192,184668,1,0,0:0:0:0:
256,192,184751,1,2,0:0:0:0:
256,192,184918,1,2,0:0:0:0:
256,192,185001,1,0,0:0:0:0:
256,192,185085,1,2,0:0:0:0:
256,192,185168,1,2,0:0:0:0:
256,192,185251,1,0,0:0:0:0:
256,192,185335,1,2,0:0:0:0:
256,192,185418,1,2,0:0:0:0:
256,192,185501,1,0,0:0:0:0:
256,192,185668,1,0,0:0:0:0:
256,192,185751,1,0,0:0:0:0:
256,192,185835,1,2,0:0:0:0:
256,192,185918,1,0,0:0:0:0:
256,192,186001,1,2,0:0:0:0:
256,192,186085,1,2,0:0:0:0:
256,192,186251,1,2,0:0:0:0:
256,192,186335,1,2,0:0:0:0:
256,192,186418,1,2,0:0:0:0:
256,192,186501,1,0,0:0:0:0:
256,192,186668,1,2,0:0:0:0:
256,192,186835,1,0,0:0:0:0:
256,192,186918,1,0,0:0:0:0:
256,192,187001,1,0,0:0:0:0:
256,192,187085,1,2,0:0:0:0:
256,192,187168,1,2,0:0:0:0:
256,192,187251,1,2,0:0:0:0:
256,192,187335,1,0,0:0:0:0:
256,192,187418,1,2,0:0:0:0:
256,192,187585,1,0,0:0:0:0:
256,192,187668,1,2,0:0:0:0:
256,192,187751,1,2,0:0:0:0:
256,192,187835,1,0,0:0:0:0:
256,192,187918,1,0,0:0:0:0:
256,192,188001,1,2,0:0:0:0:
256,192,188085,1,0,0:0:0:0:
256,192,188168,1,2,0:0:0:0:
256,192,188335,1,2,0:0:0:0:
256,192,188501,1,0,0:0:0:0:
256,192,188668,1,0,0:0:0:0:
256,192,188751,1,2,0:0:0:0:
256,192,188918,1,2,0:0:0:0:
256,192,189001,1,0,0:0:0:0:
256,192,189168,1,0,0:0:0:0:
256,192,189335,1,2,0:0:0:0:
256,192,189501,1,2,0:0:0:0:
256,192,189585,1,2,0:0:0:0:
256,192,189668,1,0,0:0:0:0:
256,192,189751,1,0,0:0:0:0:
256,192,189835,1,0,0:0:0:0:
256,192,190001,1,2,0:0:0:0:
256,192,190085,1,2,0:0:0:0:
256,192,190168,1,2,0:0:0:0:
256,192,190251,1,0,0:0:0:0:
256,192,190335,1,0,0:0:0:0:
256,192,190501,1,0,0:0:0:0:
256,192,190585,1,0,0:0:0:0:
256,192,190668,1,2,0:0:0:0:
256,192,190751,1,2,0:0:0:0:
256,192,190918,1,2,0:0:0:0:
256,192,191001,1,0,0:0:0:0:
256,192,191043,1,0,0:0:0:0:
256,192,191085,1,0,0:0:0:0:
256,192,191168,1,2,0:0:0:0:
256,192,191335,1,0,0:0:0:0:
256,192,191376,1,0,0:0:0:0:
256,192,191418,1,2,0:0:0:0:
256,192,191501,1,0,0:0:0:0:
256,192,191585,1,2,0:0:0:0:
256,192,191668,1,0,0:0:0:0:
256,192,191710,1,2,0:0:0:0:
256,192,191751,1,2,0:0:0:0:
256,192,191835,1,0,0:0:0:0:
256,192,191918,1,0,0:0:0:0:
256,192,192001,1,0,0:0:0:0:
256,192,192043,1,0,0:0:0:0:
256,192,192085,1,2,0:0:0:0:
256,192,192168,1,0,0:0:0:0:
256,192,192335,1,2,0:0:0:0:
256,192,192376,1,2,0:0:0:0:
256,192,192418,1,0,0:0:0:0:
256,192,192501,1,2,0:0:0:0:
256,192,192585,1,2,0:0:0:0:
256,192,192668,1,2,0:0:0:0:
256,192,192751,1,2,0:0:0:0:
256,192,192835,1,0,0:0:0:0:
256,192,192918,1,0,0:0:0:0:
256,192,193001,1,0,0:0:0:0:
256,192,193085,1,2,0:0:0:0:
256,192,193168,1,2,0:0:0:0:
256,192,193251,1,0,0:0:0:0:
256,192,193335,1,0,0:0:0:0:
256,192,193418,1,2,0:0:0:0:
256,192,193501,1,2,0:0:0:0:
256,192,193668,1,2,0:0:0:0:
256,192,193835,1,2,0:0:0:0:
256,192,194001,1,0,0:0:0:0:
256,192,194085,1,0,0:0:0:0:
256,192,194168,1,0,0:0:0:0:
256,192,194335,1,2,0:0:0:0:
256,192,194501,1,0,0:0:0:0:
256,192,194835,1,2,0:0:0:0:
256,192,195085,1,2,0:0:0:0:
256,192,195335,1,0,0:0:0:0:
256,192,195668,1,2,0:0:0:0:
256,192,195835,1,0,0:0:0:0:
256,192,196001,1,0,0:0:0:0:
256,192,196168,1,2,0:0:0:0:
256,192,196418,1,2,0:0:0:0:
256,192,196585,1,0,0:0:0:0:
256,192,196668,1,0,0:0:0:0:
256,192,196835,1,0,0:0:0:0:
256,192,197001,1,2,0:0:0:0:
256,192,197168,1,2,0:0:0:0:
256,192,197251,1,2,0:0:0:0:
256,192,197335,1,0,0:0:0:0:
256,192,197501,1,2,0:0:0:0:
256,192,197751,1,2,0:0:0:0:
256,192,198001,1,0,0:0:0:0:
256,192,198168,1,2,0:0:0:0:
256,192,198335,1,2,0:0:0:0:
256,192,198501,1,2,0:0:0:0:
256,192,198668,1,0,0:0:0:0:
256,192,198751,1,0,0:0:0:0:
256,192,198835,1,0,0:0:0:0:
256,192,199001,1,2,0:0:0:0:
256,192,199168,1,0,0:0:0:0:
256,192,199501,1,2,0:0:0:0:
256,192,199751,1,2,0:0:0:0:
256,192,200001,1,0,0:0:0:0:
256,192,200085,1,0,0:0:0:0:
256,192,200168,1,0,0:0:0:0:
256,192,200335,1,2,0:0:0:0:
256,192,200501,1,4,0:0:0:0:
256,192,200668,1,6,0:0:0:0:
256,192,200835,1,0,0:0:0:0:
256,192,201001,1,6,0:0:0:0:
256,192,201168,1,4,0:0:0:0:
256,192,201335,1,2,0:0:0:0:
256,192,201501,1,4,0:0:0:0:
256,192,201668,1,6,0:0:0:0:
256,192,201835,1,0,0:0:0:0:
256,192,202001,1,6,0:0:0:0:
256,192,202168,1,4,0:0:0:0:
256,192,202335,1,2,0:0:0:0:
256,192,202501,1,4,0:0:0:0:
256,192,202668,1,6,0:0:0:0:
256,192,202835,1,0,0:0:0:0:
256,192,203001,1,6,0:0:0:0:
256,192,203168,1,4,0:0:0:0:
256,192,203335,1,2,0:0:0:0:
256,192,203501,1,4,0:0:0:0:
256,192,203668,1,6,0:0:0:0:
256,192,203835,1,0,0:0:0:0:
256,192,204001,1,6,0:0:0:0:
256,192,204168,1,4,0:0:0:0:
256,192,204335,1,0,0:0:0:0:
256,192,204501,1,4,0:0:0:0:
256,192,204668,1,6,0:0:0:0:
256,192,204835,1,4,0:0:0:0:
256,192,205001,1,6,0:0:0:0:
256,192,205168,1,4,0:0:0:0:
256,192,205335,1,6,0:0:0:0:
256,192,205501,1,4,0:0:0:0:
256,192,205668,1,6,0:0:0:0:
256,192,205835,1,4,0:0:0:0:
256,192,206001,1,6,0:0:0:0:
256,192,206168,1,4,0:0:0:0:
256,192,206335,1,6,0:0:0:0:
256,192,206501,1,4,0:0:0:0:
256,192,206668,1,6,0:0:0:0:
256,192,206835,1,4,0:0:0:0:
256,192,207001,1,6,0:0:0:0:
256,192,207168,1,4,0:0:0:0:
256,192,207335,1,6,0:0:0:0:
256,192,207501,1,4,0:0:0:0:
256,192,207668,1,6,0:0:0:0:
256,192,207835,1,4,0:0:0:0:
256,192,208001,1,6,0:0:0:0:
256,192,208168,1,4,0:0:0:0:
256,192,208335,1,6,0:0:0:0:
256,192,208501,1,0,0:0:0:0:
256,192,208585,1,0,0:0:0:0:
256,192,208668,1,0,0:0:0:0:
256,192,208751,1,2,0:0:0:0:
256,192,208835,1,0,0:0:0:0:
256,192,208918,1,2,0:0:0:0:
256,192,209001,1,0,0:0:0:0:
256,192,209085,1,2,0:0:0:0:
256,192,209168,1,0,0:0:0:0:
256,192,209251,1,2,0:0:0:0:
256,192,209335,1,2,0:0:0:0:
256,192,209418,1,0,0:0:0:0:
256,192,209501,1,0,0:0:0:0:
256,192,209585,1,2,0:0:0:0:
256,192,209668,1,2,0:0:0:0:
256,192,209751,1,0,0:0:0:0:
256,192,209835,1,0,0:0:0:0:
256,192,209918,1,2,0:0:0:0:
256,192,210001,1,0,0:0:0:0:
256,192,210085,1,2,0:0:0:0:
256,192,210168,1,2,0:0:0:0:
256,192,210251,1,0,0:0:0:0:
256,192,210335,1,0,0:0:0:0:
256,192,210418,1,2,0:0:0:0:
256,192,210501,1,2,0:0:0:0:
256,192,210585,1,0,0:0:0:0:
256,192,210668,1,0,0:0:0:0:
256,192,210751,1,2,0:0:0:0:
256,192,210835,1,0,0:0:0:0:
256,192,211335,1,0,0:0:0:0:
256,192,212001,1,0,0:0:0:0:
256,192,212668,1,2,0:0:0:0:
256,192,213501,1,2,0:0:0:0:
256,192,214001,1,0,0:0:0:0:
256,192,214668,1,0,0:0:0:0:
256,192,215335,1,2,0:0:0:0:
256,192,216168,1,0,0:0:0:0:
256,192,216668,1,2,0:0:0:0:
256,192,217335,1,0,0:0:0:0:
256,192,218001,1,2,0:0:0:0:
256,192,218668,1,2,0:0:0:0:
256,192,219335,1,0,0:0:0:0:
256,192,220001,1,2,0:0:0:0:
256,192,220335,1,0,0:0:0:0:
256,192,220418,1,2,0:0:0:0:
256,192,220501,1,2,0:0:0:0:
256,192,220585,1,0,0:0:0:0:
256,192,220668,1,0,0:0:0:0:
256,192,220751,1,2,0:0:0:0:
256,192,220835,1,2,0:0:0:0:
256,192,220918,1,0,0:0:0:0:
256,192,221001,1,0,0:0:0:0:
256,192,221085,1,0,0:0:0:0:
256,192,221168,1,2,0:0:0:0:
256,192,221251,1,2,0:0:0:0:
256,192,221335,1,2,0:0:0:0:
256,192,221418,1,0,0:0:0:0:
256,192,221501,1,4,0:0:0:0:
256,192,221668,1,0,0:0:0:0:
256,192,221710,1,2,0:0:0:0:
256,192,221751,1,2,0:0:0:0:
256,192,221835,1,2,0:0:0:0:
256,192,222001,1,0,0:0:0:0:
256,192,222085,1,0,0:0:0:0:
256,192,222168,1,2,0:0:0:0:
256,192,222335,1,0,0:0:0:0:
256,192,222418,1,0,0:0:0:0:
256,192,222501,1,0,0:0:0:0:
256,192,222585,1,2,0:0:0:0:
256,192,222668,1,2,0:0:0:0:
256,192,222751,1,0,0:0:0:0:
256,192,222835,1,2,0:0:0:0:
256,192,223001,1,0,0:0:0:0:
256,192,223168,1,2,0:0:0:0:
256,192,223335,1,2,0:0:0:0:
256,192,223376,1,2,0:0:0:0:
256,192,223418,1,2,0:0:0:0:
256,192,223501,1,2,0:0:0:0:
256,192,223585,1,0,0:0:0:0:
256,192,223668,1,0,0:0:0:0:
256,192,223751,1,2,0:0:0:0:
256,192,223835,1,0,0:0:0:0:
256,192,223918,1,0,0:0:0:0:
256,192,224001,1,2,0:0:0:0:
256,192,224085,1,2,0:0:0:0:
256,192,224168,1,0,0:0:0:0:
256,192,224335,1,2,0:0:0:0:
256,192,224501,1,0,0:0:0:0:
256,192,224668,1,0,0:0:0:0:
256,192,224710,1,0,0:0:0:0:
256,192,224751,1,2,0:0:0:0:
256,192,224835,1,2,0:0:0:0:
256,192,224918,1,0,0:0:0:0:
256,192,225001,1,0,0:0:0:0:
256,192,225085,1,2,0:0:0:0:
256,192,225168,1,0,0:0:0:0:
256,192,225251,1,0,0:0:0:0:
256,192,225335,1,2,0:0:0:0:
256,192,225418,1,2,0:0:0:0:
256,192,225585,1,0,0:0:0:0:
256,192,225668,1,2,0:0:0:0:
256,192,225751,1,2,0:0:0:0:
256,192,225835,1,0,0:0:0:0:
256,192,225918,1,0,0:0:0:0:
256,192,225960,1,0,0:0:0:0:
256,192,226001,1,2,0:0:0:0:
256,192,226085,1,2,0:0:0:0:
256,192,226251,1,2,0:0:0:0:
256,192,226335,1,0,0:0:0:0:
256,192,226418,1,0,0:0:0:0:
256,192,226501,1,2,0:0:0:0:
256,192,226585,1,2,0:0:0:0:
256,192,226668,1,2,0:0:0:0:
256,192,226751,1,2,0:0:0:0:
256,192,226835,1,0,0:0:0:0:
256,192,227001,1,0,0:0:0:0:
256,192,227043,1,0,0:0:0:0:
256,192,227085,1,2,0:0:0:0:
256,192,227168,1,2,0:0:0:0:
256,192,227251,1,0,0:0:0:0:
256,192,227335,1,2,0:0:0:0:
256,192,227418,1,2,0:0:0:0:
256,192,227501,1,2,0:0:0:0:
256,192,227585,1,0,0:0:0:0:
256,192,227668,1,0,0:0:0:0:
256,192,227751,1,2,0:0:0:0:
256,192,227835,1,2,0:0:0:0:
256,192,227918,1,2,0:0:0:0:
256,192,228001,1,0,0:0:0:0:
256,192,228085,1,2,0:0:0:0:
256,192,228168,1,2,0:0:0:0:
256,192,228335,1,0,0:0:0:0:
256,192,228501,1,2,0:0:0:0:
256,192,228668,1,2,0:0:0:0:
256,192,228710,1,2,0:0:0:0:
256,192,228751,1,2,0:0:0:0:
256,192,228835,1,0,0:0:0:0:
256,192,228918,1,2,0:0:0:0:
256,192,229001,1,0,0:0:0:0:
256,192,229085,1,0,0:0:0:0:
256,192,229168,1,2,0:0:0:0:
256,192,229251,1,0,0:0:0:0:
256,192,229335,1,2,0:0:0:0:
256,192,229418,1,2,0:0:0:0:
256,192,229585,1,0,0:0:0:0:
256,192,229668,1,2,0:0:0:0:
256,192,229751,1,2,0:0:0:0:
256,192,229835,1,0,0:0:0:0:
256,192,230001,1,2,0:0:0:0:
256,192,230168,1,0,0:0:0:0:
256,192,230335,1,0,0:0:0:0:
256,192,230418,1,2,0:0:0:0:
256,192,230501,1,0,0:0:0:0:
256,192,230585,1,0,0:0:0:0:
256,192,230668,1,2,0:0:0:0:
256,192,230751,1,2,0:0:0:0:
256,192,230835,1,0,0:0:0:0:
256,192,230918,1,0,0:0:0:0:
256,192,231001,1,2,0:0:0:0:
256,192,231043,1,2,0:0:0:0:
256,192,231085,1,0,0:0:0:0:
256,192,231168,1,0,0:0:0:0:
256,192,231210,1,0,0:0:0:0:
256,192,231251,1,2,0:0:0:0:
256,192,231335,1,0,0:0:0:0:
256,192,231418,1,0,0:0:0:0:
256,192,231501,1,2,0:0:0:0:
256,192,231557,1,2,0:0:0:0:
256,192,231613,1,2,0:0:0:0:
256,192,231668,1,0,0:0:0:0:
256,192,231724,1,0,0:0:0:0:
256,192,231779,1,0,0:0:0:0:
256,192,231835,1,2,0:0:0:0:
256,192,231890,1,0,0:0:0:0:
256,192,231946,1,0,0:0:0:0:
256,192,232001,1,2,0:0:0:0:
256,192,232057,1,2,0:0:0:0:
256,192,232113,1,0,0:0:0:0:
256,192,232168,1,0,0:0:0:0:
256,192,232335,1,0,0:0:0:0:
256,192,232376,1,0,0:0:0:0:
256,192,232418,1,2,0:0:0:0:
256,192,232501,1,0,0:0:0:0:
256,192,232668,1,0,0:0:0:0:
256,192,232751,1,0,0:0:0:0:
256,192,232835,1,2,0:0:0:0:
256,192,232918,1,2,0:0:0:0:
256,192,233001,1,0,0:0:0:0:
256,192,233085,1,2,0:0:0:0:
256,192,233168,1,0,0:0:0:0:
256,192,233251,1,0,0:0:0:0:
256,192,233335,1,0,0:0:0:0:
256,192,233418,1,2,0:0:0:0:
256,192,233501,1,2,0:0:0:0:
256,192,233668,1,0,0:0:0:0:
256,192,233835,1,2,0:0:0:0:
256,192,234001,1,0,0:0:0:0:
256,192,234043,1,2,0:0:0:0:
256,192,234085,1,2,0:0:0:0:
256,192,234168,1,2,0:0:0:0:
256,192,234251,1,0,0:0:0:0:
256,192,234335,1,2,0:0:0:0:
256,192,234418,1,2,0:0:0:0:
256,192,234501,1,0,0:0:0:0:
256,192,234585,1,2,0:0:0:0:
256,192,234668,1,2,0:0:0:0:
256,192,234751,1,2,0:0:0:0:
256,192,234835,1,0,0:0:0:0:
256,192,235001,1,2,0:0:0:0:
256,192,235168,1,0,0:0:0:0:
256,192,235335,1,0,0:0:0:0:
256,192,235376,1,0,0:0:0:0:
256,192,235418,1,2,0:0:0:0:
256,192,235501,1,2,0:0:0:0:
256,192,235585,1,2,0:0:0:0:
256,192,235668,1,0,0:0:0:0:
256,192,235751,1,2,0:0:0:0:
256,192,235835,1,2,0:0:0:0:
256,192,235918,1,2,0:0:0:0:
256,192,236001,1,0,0:0:0:0:
256,192,236085,1,0,0:0:0:0:
256,192,236251,1,2,0:0:0:0:
256,192,236335,1,0,0:0:0:0:
256,192,236418,1,2,0:0:0:0:
256,192,236501,1,0,0:0:0:0:
256,192,236585,1,0,0:0:0:0:
256,192,236668,1,2,0:0:0:0:
256,192,236751,1,2,0:0:0:0:
256,192,236918,1,2,0:0:0:0:
256,192,237001,1,0,0:0:0:0:
256,192,237085,1,2,0:0:0:0:
256,192,237168,1,2,0:0:0:0:
256,192,237251,1,0,0:0:0:0:
256,192,237335,1,2,0:0:0:0:
256,192,237418,1,0,0:0:0:0:
256,192,237501,1,2,0:0:0:0:
256,192,237557,1,2,0:0:0:0:
256,192,237613,1,2,0:0:0:0:
256,192,237668,1,0,0:0:0:0:
256,192,237710,1,0,0:0:0:0:
256,192,237751,1,2,0:0:0:0:
256,192,237835,1,0,0:0:0:0:
256,192,237890,1,0,0:0:0:0:
256,192,237946,1,0,0:0:0:0:
256,192,238001,1,2,0:0:0:0:
256,192,238085,1,2,0:0:0:0:
256,192,238168,1,0,0:0:0:0:
256,192,238251,1,0,0:0:0:0:
256,192,238335,1,0,0:0:0:0:
256,192,238418,1,2,0:0:0:0:
256,192,238585,1,2,0:0:0:0:
256,192,238668,1,0,0:0:0:0:
256,192,238751,1,0,0:0:0:0:
256,192,238835,1,2,0:0:0:0:
256,192,239001,1,0,0:0:0:0:
256,192,239168,1,2,0:0:0:0:
256,192,239335,1,0,0:0:0:0:
256,192,239376,1,2,0:0:0:0:
256,192,239418,1,2,0:0:0:0:
256,192,239501,1,2,0:0:0:0:
256,192,239585,1,0,0:0:0:0:
256,192,239668,1,0,0:0:0:0:
256,192,239751,1,0,0:0:0:0:
256,192,239835,1,2,0:0:0:0:
256,192,239918,1,0,0:0:0:0:
256,192,240001,1,2,0:0:0:0:
256,192,240085,1,2,0:0:0:0:
256,192,240168,1,0,0:0:0:0:
256,192,240335,1,2,0:0:0:0:
256,192,240501,1,0,0:0:0:0:
256,192,240668,1,2,0:0:0:0:
256,192,240835,1,0,0:0:0:0:
256,192,240918,1,0,0:0:0:0:
256,192,241001,1,0,0:0:0:0:
256,192,241085,1,2,0:0:0:0:
256,192,241168,1,0,0:0:0:0:
256,192,241251,1,0,0:0:0:0:
256,192,241335,1,2,0:0:0:0:
256,192,241418,1,0,0:0:0:0:
256,192,241501,1,2,0:0:0:0:
256,192,241585,1,2,0:0:0:0:
256,192,241668,1,0,0:0:0:0:
256,192,241751,1,2,0:0:0:0:
256,192,241835,1,0,0:0:0:0:
256,192,241918,1,0,0:0:0:0:
256,192,242001,1,2,0:0:0:0:
256,192,242085,1,2,0:0:0:0:
256,192,242168,1,0,0:0:0:0:
256,192,242224,1,2,0:0:0:0:
256,192,242279,1,2,0:0:0:0:
256,192,242335,1,2,0:0:0:0:
256,192,242390,1,0,0:0:0:0:
256,192,242446,1,0,0:0:0:0:
256,192,242501,1,0,0:0:0:0:
256,192,242557,1,0,0:0:0:0:
256,192,242613,1,2,0:0:0:0:
256,192,242668,1,2,0:0:0:0:
256,192,242724,1,0,0:0:0:0:
256,192,242779,1,0,0:0:0:0:
256,192,242835,1,8,0:0:0:0:
256,192,243168,1,8,0:0:0:0:
256,192,243335,1,0,0:0:0:0:
256,192,243501,1,8,0:0:0:0:
256,192,243668,1,0,0:0:0:0:
256,192,243835,1,8,0:0:0:0:
256,192,244001,1,0,0:0:0:0:
256,192,244168,1,8,0:0:0:0:
256,192,244335,1,0,0:0:0:0:
256,192,244501,1,8,0:0:0:0:
256,192,244668,1,0,0:0:0:0:
256,192,244835,1,8,0:0:0:0:
256,192,245001,1,0,0:0:0:0:
256,192,245168,1,8,0:0:0:0:
256,192,245251,1,0,0:0:0:0:
256,192,245501,1,8,0:0:0:0:
256,192,245668,1,0,0:0:0:0:
256,192,245835,1,8,0:0:0:0:
256,192,246001,1,0,0:0:0:0:
256,192,246168,1,8,0:0:0:0:
256,192,246335,1,0,0:0:0:0:
256,192,246501,1,8,0:0:0:0:
256,192,246668,1,0,0:0:0:0:
256,192,246835,1,8,0:0:0:0:
256,192,247001,1,0,0:0:0:0:
256,192,247168,1,8,0:0:0:0:
256,192,247335,1,0,0:0:0:0:
256,192,247501,1,8,0:0:0:0:
256,192,247668,1,0,0:0:0:0:
256,192,247835,1,8,0:0:0:0:
256,192,247918,1,0,0:0:0:0:
256,192,248168,1,8,0:0:0:0:
256,192,248459,1,0,0:0:0:0:
256,192,248501,1,8,0:0:0:0:
256,192,248668,1,0,0:0:0:0:
256,192,248835,1,8,0:0:0:0:
256,192,249001,1,0,0:0:0:0:
256,192,249168,1,8,0:0:0:0:
256,192,249335,1,0,0:0:0:0:
256,192,249501,1,8,0:0:0:0:
256,192,249668,1,0,0:0:0:0:
256,192,249835,1,8,0:0:0:0:
256,192,250001,1,0,0:0:0:0:
256,192,250168,1,8,0:0:0:0:
256,192,250335,1,0,0:0:0:0:
256,192,250501,1,8,0:0:0:0:
256,192,250585,1,0,0:0:0:0:
256,192,250835,1,8,0:0:0:0:
256,192,251168,1,8,0:0:0:0:
256,192,251335,1,0,0:0:0:0:
256,192,251501,1,8,0:0:0:0:
256,192,251668,1,0,0:0:0:0:
256,192,251835,1,8,0:0:0:0:
256,192,252001,1,0,0:0:0:0:
256,192,252168,1,8,0:0:0:0:
256,192,252501,1,8,0:0:0:0:
256,192,252668,1,0,0:0:0:0:
256,192,252835,1,2,0:0:0:0:
256,192,252890,1,2,0:0:0:0:
256,192,252946,1,2,0:0:0:0:
256,192,253001,1,0,0:0:0:0:
256,192,253057,1,0,0:0:0:0:
256,192,253113,1,0,0:0:0:0:
256,192,253168,1,0,0:0:0:0:
256,192,253224,1,0,0:0:0:0:
256,192,253279,1,0,0:0:0:0:
256,192,253335,1,0,0:0:0:0:
256,192,253390,1,0,0:0:0:0:
256,192,253446,1,0,0:0:0:0:
256,192,253501,1,2,0:0:0:0:
256,192,253751,1,2,0:0:0:0:
256,192,254001,1,0,0:0:0:0:
256,192,254335,1,0,0:0:0:0:
256,192,254668,1,0,0:0:0:0:
256,192,254835,1,2,0:0:0:0:
256,192,255085,1,2,0:0:0:0:
256,192,255335,1,0,0:0:0:0:
256,192,255668,1,0,0:0:0:0:
256,192,256001,1,0,0:0:0:0:
256,192,256168,1,2,0:0:0:0:
256,192,256418,1,2,0:0:0:0:
256,192,256668,1,0,0:0:0:0:
256,192,257001,1,0,0:0:0:0:
256,192,257335,1,0,0:0:0:0:
256,192,257501,1,0,0:0:0:0:
256,192,257751,1,0,0:0:0:0:
256,192,258001,1,2,0:0:0:0:
256,192,258335,1,2,0:0:0:0:
256,192,258668,1,2,0:0:0:0:
256,192,258835,1,0,0:0:0:0:
256,192,259085,1,0,0:0:0:0:
256,192,259335,1,2,0:0:0:0:
256,192,259668,1,2,0:0:0:0:
256,192,260001,1,2,0:0:0:0:
256,192,260168,1,0,0:0:0:0:
256,192,260418,1,0,0:0:0:0:
256,192,260668,1,2,0:0:0:0:
256,192,261001,1,2,0:0:0:0:
256,192,261335,1,2,0:0:0:0:
256,192,261501,1,0,0:0:0:0:
256,192,261751,1,0,0:0:0:0:
256,192,262001,1,2,0:0:0:0:
256,192,262335,1,2,0:0:0:0:
256,192,262668,1,2,0:0:0:0:
256,192,262835,1,0,0:0:0:0:
256,192,263085,1,0,0:0:0:0:
256,192,263335,1,2,0:0:0:0:
256,192,263668,1,2,0:0:0:0:
256,192,264001,1,2,0:0:0:0:
256,192,264168,1,4,0:0:0:0:
256,192,264418,1,4,0:0:0:0:
256,192,264668,1,6,0:0:0:0:
256,192,265001,1,6,0:0:0:0:
256,192,265335,1,6,0:0:0:0:
256,192,265501,1,4,0:0:0:0:
256,192,265751,1,4,0:0:0:0:
256,192,266001,1,6,0:0:0:0:
256,192,266335,1,6,0:0:0:0:
256,192,266668,1,6,0:0:0:0:
256,192,267001,1,6,0:0:0:0:
256,192,267335,1,6,0:0:0:0:
256,192,267668,1,6,0:0:0:0:
256,192,268001,1,6,0:0:0:0:
256,192,268335,1,6,0:0:0:0:
256,192,268668,1,6,0:0:0:0:
256,192,268918,1,0,0:0:0:0:
256,192,269001,1,0,0:0:0:0:
256,192,269085,1,2,0:0:0:0:
256,192,269168,1,2,0:0:0:0:
256,192,269251,1,0,0:0:0:0:
256,192,269335,1,2,0:0:0:0:
256,192,269418,1,2,0:0:0:0:
256,192,269501,1,2,0:0:0:0:
256,192,269715,1,2,0:0:0:0:
256,192,269929,1,2,0:0:0:0:
256,192,270143,1,0,0:0:0:0:
256,192,270358,1,0,0:0:0:0:
256,192,270572,1,2,0:0:0:0:
256,192,270786,1,0,0:0:0:0:
256,192,271376,1,2,0:0:0:0:
256,192,271536,1,2,0:0:0:0:
256,192,271697,1,0,0:0:0:0:
256,192,271858,1,2,0:0:0:0:
256,192,271992,1,2,0:0:0:0:
256,192,272179,1,0,0:0:0:0:
256,192,272429,1,0,0:0:0:0:
256,192,272742,1,2,0:0:0:0:
256,192,273143,12,2,278072,0:0:0:0:
