osu file format v14

[General]
AudioFilename: audio.mp3
AudioLeadIn: 0
PreviewTime: 6522
Countdown: 0
SampleSet: Soft
StackLeniency: 0.7
Mode: 3
LetterboxInBreaks: 0
SpecialStyle: 0
WidescreenStoryboard: 0

[Editor]
DistanceSpacing: 1.2
BeatDivisor: 4
GridSize: 4
TimelineZoom: 1.899999

[Metadata]
Title:Spider Thread Monopoly feat. Hatsune Miku
TitleUnicode:蜘蛛糸モノポリー feat. 初音ミク
Artist:sasakure.UK
ArtistUnicode:sasakure.UK
Creator:TrippinBeats
Version:Strong
Source:
Tags:vocaloid, moody, sad
BeatmapID:1261637
BeatmapSetID:596680

[Difficulty]
HPDrainRate:8
CircleSize:4
OverallDifficulty:8
ApproachRate:5
SliderMultiplier:1.4
SliderTickRate:1

[Events]
//Background and Video events
0,0,"941398-animals-blue-hair-brown-eyes-cats-hatsune-miku-long-hair-looking-back-rain-scarfs-twintails-umbrellas-vocaloid.jpg",0,0
//Break Periods
//Storyboard Layer 0 (Background)
//Storyboard Layer 1 (Fail)
//Storyboard Layer 2 (Pass)
//Storyboard Layer 3 (Foreground)
//Storyboard Sound Samples

[TimingPoints]
1722.10474890762,300,4,2,0,0,1,0
11322,-100,4,2,0,0,0,0
40122,-100,4,2,0,0,0,0
42522,-133.333333333333,4,2,0,0,0,0
42559,-80,4,2,0,0,0,0
42597,-133.333333333333,4,2,0,0,0,0
42634,-80,4,2,0,0,0,0
42672,-100,4,2,0,0,0,0
44022,-133.333333333333,4,2,0,0,0,0
44059,-80,4,2,0,0,0,0
44097,-133.333333333333,4,2,0,0,0,0
44134,-80,4,2,0,0,0,0
44172,-100,4,2,0,0,0,0
44472,-133.333333333333,4,2,0,0,0,0
44509,-80,4,2,0,0,0,0
44547,-100,4,2,0,0,0,0
44772,-133.333333333333,4,2,0,0,0,0
44809,-80,4,2,0,0,0,0
44847,-133.333333333333,4,2,0,0,0,0
44884,-80,4,2,0,0,0,0
44922,-100,4,2,0,0,0,0
46422,-133.333333333333,4,2,0,0,0,0
46459,-80,4,2,0,0,0,0
46497,-133.333333333333,4,2,0,0,0,0
46534,-80,4,2,0,0,0,0
46572,-100,4,2,0,0,0,0
47322,-133.333333333333,4,2,0,0,0,0
47359,-80,4,2,0,0,0,0
47397,-133.333333333333,4,2,0,0,0,0
47434,-80,4,2,0,0,0,0
47472,-100,4,2,0,0,0,0
47622,-133.333333333333,4,2,0,0,0,0
47659,-80,4,2,0,0,0,0
47697,-133.333333333333,4,2,0,0,0,0
47734,-80,4,2,0,0,0,0
47772,-100,4,2,0,0,0,0
48372,-133.333333333333,4,2,0,0,0,0
48409,-80,4,2,0,0,0,0
48447,-133.333333333333,4,2,0,0,0,0
48484,-80,4,2,0,0,0,0
48522,-100,4,2,0,0,0,0
48822,-133.333333333333,4,2,0,0,0,0
48859,-80,4,2,0,0,0,0
48897,-133.333333333333,4,2,0,0,0,0
48934,-80,4,2,0,0,0,0
48972,-100,4,2,0,0,0,0
68922,-100,4,2,0,0,0,0
83322,-100,4,2,0,0,0,0
102522,-100,4,2,0,0,0,0
112122,-104.166666666667,4,2,0,0,0,0
112197,-108.695652173913,4,2,0,0,0,0
112272,-111.111111111111,4,2,0,0,0,0
112347,-113.636363636364,4,2,0,0,0,0
112422,-116.279069767442,4,2,0,0,0,0
112497,-119.047619047619,4,2,0,0,0,0
112572,-120.481927710843,4,2,0,0,0,0
112647,-121.951219512195,4,2,0,0,0,0
112722,-123.456790123457,4,2,0,0,0,0
112797,-125,4,2,0,0,0,0
112872,-126.582278481013,4,2,0,0,0,0
112947,-128.205128205128,4,2,0,0,0,0
113022,-129.87012987013,4,2,0,0,0,0
113097,-131.578947368421,4,2,0,0,0,0
113172,-133.333333333333,4,2,0,0,0,0
120522,-90.9090909090909,4,2,0,0,0,0
121722,-100,4,2,0,0,0,0
131322,-97.5609756097561,4,2,0,0,0,0
140922,-97.5609756097561,4,2,0,0,0,0
150522,-95.2380952380952,4,2,0,0,0,0
160122,-92.5925925925926,4,2,0,0,0,0
169722,-100,4,2,0,0,0,0
185022,-105.263157894737,4,2,0,0,0,0
185322,-111.111111111111,4,2,0,0,0,0
185622,-117.647058823529,4,2,0,0,0,0
185922,-125,4,2,0,0,0,0
186222,-133.333333333333,4,2,0,0,0,0
190122,-80,4,2,0,0,0,0
193122,-10,4,2,0,0,0,0
193722,-10000,4,2,0,0,0,0
195822,-100,4,2,0,0,0,0
196122,-98.0392156862745,4,2,0,0,0,0
215322,-96.1538461538461,4,2,0,0,0,0
224922,-95.2380952380952,4,2,0,0,0,0
234522,-100,4,2,0,0,0,0
253722,-104.166666666667,4,2,0,0,0,0
253797,-108.695652173913,4,2,0,0,0,0
253872,-111.111111111111,4,2,0,0,0,0
253947,-113.636363636364,4,2,0,0,0,0
254022,-116.279069767442,4,2,0,0,0,0
254097,-119.047619047619,4,2,0,0,0,0
254172,-120.481927710843,4,2,0,0,0,0
254247,-121.951219512195,4,2,0,0,0,0
254322,-123.456790123457,4,2,0,0,0,0
254397,-125,4,2,0,0,0,0
254472,-126.582278481013,4,2,0,0,0,0
254547,-128.205128205128,4,2,0,0,0,0
254622,-129.87012987013,4,2,0,0,0,0
254697,-131.578947368421,4,2,0,0,0,0
254772,-133.333333333333,4,2,0,0,0,0

[HitObjects]
192,192,1722,5,0,0:0:0:0:
448,192,1722,1,0,0:0:0:0:
64,192,1872,1,0,0:0:0:0:
192,192,2022,1,0,0:0:0:0:
64,192,2172,1,0,0:0:0:0:
320,192,2322,1,0,0:0:0:0:
448,192,2472,1,0,0:0:0:0:
192,192,2622,1,0,0:0:0:0:
448,192,2772,1,0,0:0:0:0:
320,192,2922,1,0,0:0:0:0:
192,192,2922,1,0,0:0:0:0:
64,192,3072,1,0,0:0:0:0:
192,192,3222,1,0,0:0:0:0:
64,192,3372,1,0,0:0:0:0:
320,192,3522,1,0,0:0:0:0:
64,192,3672,1,0,0:0:0:0:
192,192,3822,1,0,0:0:0:0:
320,192,3972,1,0,0:0:0:0:
192,192,4122,1,0,0:0:0:0:
448,192,4122,1,0,0:0:0:0:
64,192,4272,1,0,0:0:0:0:
192,192,4422,1,0,0:0:0:0:
64,192,4572,1,0,0:0:0:0:
320,192,4722,1,0,0:0:0:0:
448,192,4872,1,0,0:0:0:0:
64,192,5022,1,0,0:0:0:0:
192,192,5172,1,0,0:0:0:0:
448,192,5322,1,0,0:0:0:0:
320,192,5322,1,0,0:0:0:0:
64,192,5472,1,0,0:0:0:0:
192,192,5622,1,0,0:0:0:0:
64,192,5772,1,0,0:0:0:0:
448,192,5922,1,0,0:0:0:0:
320,192,6072,1,0,0:0:0:0:
192,192,6222,1,0,0:0:0:0:
64,192,6372,1,0,0:0:0:0:
448,192,6522,1,0,0:0:0:0:
192,192,6522,1,0,0:0:0:0:
64,192,6672,1,0,0:0:0:0:
192,192,6822,1,0,0:0:0:0:
64,192,6972,1,0,0:0:0:0:
320,192,7122,1,0,0:0:0:0:
448,192,7272,1,0,0:0:0:0:
64,192,7422,1,0,0:0:0:0:
448,192,7572,1,0,0:0:0:0:
320,192,7722,1,0,0:0:0:0:
192,192,7722,1,0,0:0:0:0:
64,192,7872,1,0,0:0:0:0:
192,192,8022,1,0,0:0:0:0:
64,192,8172,1,0,0:0:0:0:
320,192,8322,1,0,0:0:0:0:
64,192,8472,1,0,0:0:0:0:
192,192,8622,1,0,0:0:0:0:
320,192,8772,1,0,0:0:0:0:
192,192,8922,1,0,0:0:0:0:
448,192,8922,1,0,0:0:0:0:
64,192,9072,1,0,0:0:0:0:
192,192,9222,1,0,0:0:0:0:
64,192,9372,1,0,0:0:0:0:
320,192,9522,1,0,0:0:0:0:
448,192,9672,1,0,0:0:0:0:
64,192,9822,1,0,0:0:0:0:
192,192,9972,1,0,0:0:0:0:
320,192,10122,1,0,0:0:0:0:
448,192,10122,1,0,0:0:0:0:
64,192,10272,1,0,0:0:0:0:
192,192,10422,1,0,0:0:0:0:
64,192,10572,1,0,0:0:0:0:
448,192,10722,1,0,0:0:0:0:
320,192,10872,1,0,0:0:0:0:
192,192,11022,1,0,0:0:0:0:
64,192,11172,1,0,0:0:0:0:
448,192,11322,1,0,0:0:0:0:
192,192,11322,1,0,0:0:0:0:
64,192,11472,1,0,0:0:0:0:
320,192,11622,1,0,0:0:0:0:
192,192,11622,1,0,0:0:0:0:
64,192,11772,1,0,0:0:0:0:
192,192,11922,1,0,0:0:0:0:
320,192,11922,1,0,0:0:0:0:
448,192,11922,1,0,0:0:0:0:
448,192,12072,1,0,0:0:0:0:
64,192,12222,1,0,0:0:0:0:
320,192,12222,1,0,0:0:0:0:
448,192,12372,1,0,0:0:0:0:
192,192,12522,1,0,0:0:0:0:
320,192,12522,1,0,0:0:0:0:
64,192,12672,1,0,0:0:0:0:
320,192,12672,1,0,0:0:0:0:
192,192,12822,1,0,0:0:0:0:
64,192,12972,1,0,0:0:0:0:
320,192,13122,1,0,0:0:0:0:
64,192,13272,1,0,0:0:0:0:
192,192,13422,1,0,0:0:0:0:
320,192,13572,1,0,0:0:0:0:
192,192,13722,1,0,0:0:0:0:
448,192,13722,1,0,0:0:0:0:
64,192,13872,1,0,0:0:0:0:
192,192,14022,1,0,0:0:0:0:
320,192,14022,1,0,0:0:0:0:
64,192,14172,1,0,0:0:0:0:
192,192,14322,1,0,0:0:0:0:
448,192,14322,1,0,0:0:0:0:
320,192,14322,1,0,0:0:0:0:
64,192,14472,1,0,0:0:0:0:
192,192,14622,1,0,0:0:0:0:
320,192,14622,1,0,0:0:0:0:
448,192,14772,1,0,0:0:0:0:
320,192,14922,1,0,0:0:0:0:
448,192,14922,1,0,0:0:0:0:
192,192,15072,1,0,0:0:0:0:
64,192,15072,1,0,0:0:0:0:
320,192,15222,1,0,0:0:0:0:
64,192,15372,1,0,0:0:0:0:
448,192,15522,1,0,0:0:0:0:
320,192,15672,1,0,0:0:0:0:
192,192,15822,1,0,0:0:0:0:
64,192,15972,1,0,0:0:0:0:
448,192,16122,1,0,0:0:0:0:
192,192,16122,1,0,0:0:0:0:
64,192,16272,1,0,0:0:0:0:
320,192,16422,1,0,0:0:0:0:
192,192,16422,1,0,0:0:0:0:
64,192,16572,1,0,0:0:0:0:
192,192,16722,1,0,0:0:0:0:
320,192,16722,1,0,0:0:0:0:
448,192,16722,1,0,0:0:0:0:
448,192,16872,1,0,0:0:0:0:
64,192,17022,1,0,0:0:0:0:
320,192,17022,1,0,0:0:0:0:
448,192,17172,1,0,0:0:0:0:
192,192,17322,1,0,0:0:0:0:
320,192,17322,1,0,0:0:0:0:
64,192,17472,1,0,0:0:0:0:
320,192,17472,1,0,0:0:0:0:
192,192,17622,1,0,0:0:0:0:
64,192,17772,1,0,0:0:0:0:
320,192,17922,1,0,0:0:0:0:
64,192,18072,1,0,0:0:0:0:
192,192,18222,1,0,0:0:0:0:
320,192,18372,1,0,0:0:0:0:
192,192,18522,1,0,0:0:0:0:
448,192,18522,1,0,0:0:0:0:
64,192,18672,1,0,0:0:0:0:
320,192,18822,1,0,0:0:0:0:
192,192,18822,1,0,0:0:0:0:
64,192,18972,1,0,0:0:0:0:
192,192,19122,1,0,0:0:0:0:
448,192,19122,1,0,0:0:0:0:
64,192,19272,1,0,0:0:0:0:
192,192,19422,1,0,0:0:0:0:
320,192,19422,1,0,0:0:0:0:
64,192,19572,1,0,0:0:0:0:
448,192,19722,1,0,0:0:0:0:
192,192,19722,1,0,0:0:0:0:
64,192,19872,1,0,0:0:0:0:
320,192,20022,1,0,0:0:0:0:
192,192,20022,1,0,0:0:0:0:
64,192,20172,1,0,0:0:0:0:
448,192,20322,1,0,0:0:0:0:
192,192,20322,1,0,0:0:0:0:
320,192,20322,1,0,0:0:0:0:
320,192,20472,1,0,0:0:0:0:
192,192,20622,1,0,0:0:0:0:
64,192,20772,1,0,0:0:0:0:
448,192,20922,128,0,21072:0:0:0:0:
320,192,21072,128,0,21222:0:0:0:0:
192,192,21222,128,0,21372:0:0:0:0:
448,192,21222,1,0,0:0:0:0:
64,192,21372,128,0,21522:0:0:0:0:
320,192,21372,1,0,0:0:0:0:
192,192,21522,1,0,0:0:0:0:
448,192,21522,1,0,0:0:0:0:
64,192,21822,1,0,0:0:0:0:
192,192,21822,1,0,0:0:0:0:
192,192,22272,1,0,0:0:0:0:
64,192,22422,1,0,0:0:0:0:
320,192,22572,1,0,0:0:0:0:
192,192,22572,1,0,0:0:0:0:
64,192,22722,1,0,0:0:0:0:
448,192,22722,1,0,0:0:0:0:
192,192,23322,1,0,0:0:0:0:
64,192,23472,1,0,0:0:0:0:
320,192,23622,1,0,0:0:0:0:
192,192,23622,1,0,0:0:0:0:
192,192,23772,1,0,0:0:0:0:
320,192,23772,1,0,0:0:0:0:
64,192,23922,1,0,0:0:0:0:
448,192,23922,1,0,0:0:0:0:
64,192,24222,1,0,0:0:0:0:
192,192,24222,1,0,0:0:0:0:
320,192,24372,1,0,0:0:0:0:
192,192,24522,1,0,0:0:0:0:
320,192,24672,1,0,0:0:0:0:
64,192,24822,1,0,0:0:0:0:
192,192,24822,1,0,0:0:0:0:
64,192,25122,1,0,0:0:0:0:
448,192,25122,1,0,0:0:0:0:
192,192,25722,1,0,0:0:0:0:
64,192,25872,1,0,0:0:0:0:
320,192,26022,1,0,0:0:0:0:
192,192,26022,1,0,0:0:0:0:
192,192,26172,1,0,0:0:0:0:
320,192,26172,1,0,0:0:0:0:
64,192,26322,1,0,0:0:0:0:
448,192,26322,1,0,0:0:0:0:
64,192,26622,1,0,0:0:0:0:
192,192,26622,1,0,0:0:0:0:
192,192,27072,1,0,0:0:0:0:
64,192,27222,1,0,0:0:0:0:
320,192,27372,1,0,0:0:0:0:
192,192,27372,1,0,0:0:0:0:
64,192,27522,1,0,0:0:0:0:
448,192,27522,1,0,0:0:0:0:
192,192,28122,1,0,0:0:0:0:
64,192,28272,1,0,0:0:0:0:
192,192,28422,1,0,0:0:0:0:
320,192,28422,1,0,0:0:0:0:
192,192,28572,1,0,0:0:0:0:
320,192,28572,1,0,0:0:0:0:
64,192,28722,1,0,0:0:0:0:
448,192,28722,1,0,0:0:0:0:
64,192,29022,1,0,0:0:0:0:
192,192,29022,1,0,0:0:0:0:
320,192,29172,1,0,0:0:0:0:
192,192,29322,1,0,0:0:0:0:
320,192,29472,1,0,0:0:0:0:
64,192,29622,1,0,0:0:0:0:
192,192,29622,1,0,0:0:0:0:
64,192,29922,1,0,0:0:0:0:
448,192,29922,1,0,0:0:0:0:
192,192,30522,1,0,0:0:0:0:
64,192,30672,1,0,0:0:0:0:
320,192,30822,1,0,0:0:0:0:
192,192,30822,1,0,0:0:0:0:
192,192,30972,1,0,0:0:0:0:
320,192,30972,1,0,0:0:0:0:
64,192,31122,1,0,0:0:0:0:
448,192,31122,1,0,0:0:0:0:
64,192,31422,1,0,0:0:0:0:
192,192,31422,1,0,0:0:0:0:
192,192,31872,1,0,0:0:0:0:
64,192,32022,1,0,0:0:0:0:
320,192,32172,1,0,0:0:0:0:
192,192,32172,1,0,0:0:0:0:
64,192,32322,1,0,0:0:0:0:
448,192,32322,1,0,0:0:0:0:
192,192,32922,1,0,0:0:0:0:
64,192,33072,1,0,0:0:0:0:
192,192,33222,1,0,0:0:0:0:
320,192,33222,1,0,0:0:0:0:
192,192,33372,1,0,0:0:0:0:
320,192,33372,1,0,0:0:0:0:
64,192,33522,1,0,0:0:0:0:
448,192,33522,1,0,0:0:0:0:
64,192,33822,1,0,0:0:0:0:
192,192,33822,1,0,0:0:0:0:
320,192,33972,1,0,0:0:0:0:
192,192,34122,1,0,0:0:0:0:
320,192,34272,1,0,0:0:0:0:
64,192,34422,1,0,0:0:0:0:
192,192,34422,1,0,0:0:0:0:
64,192,34722,1,0,0:0:0:0:
448,192,34722,1,0,0:0:0:0:
192,192,35322,1,0,0:0:0:0:
64,192,35472,1,0,0:0:0:0:
192,192,35622,1,0,0:0:0:0:
320,192,35622,1,0,0:0:0:0:
320,192,35772,1,0,0:0:0:0:
192,192,35772,1,0,0:0:0:0:
448,192,35922,1,0,0:0:0:0:
64,192,35922,1,0,0:0:0:0:
64,192,36222,1,0,0:0:0:0:
192,192,36222,1,0,0:0:0:0:
192,192,36672,1,0,0:0:0:0:
64,192,36822,1,0,0:0:0:0:
192,192,36972,1,0,0:0:0:0:
320,192,36972,1,0,0:0:0:0:
448,192,37122,1,0,0:0:0:0:
64,192,37122,1,0,0:0:0:0:
192,192,37722,1,0,0:0:0:0:
64,192,37872,1,0,0:0:0:0:
320,192,38022,1,0,0:0:0:0:
192,192,38022,1,0,0:0:0:0:
320,192,38172,1,0,0:0:0:0:
192,192,38172,1,0,0:0:0:0:
448,192,38322,1,0,0:0:0:0:
64,192,38322,1,0,0:0:0:0:
64,192,38622,1,0,0:0:0:0:
192,192,38622,1,0,0:0:0:0:
320,192,38772,1,0,0:0:0:0:
192,192,38922,1,0,0:0:0:0:
320,192,39072,1,0,0:0:0:0:
64,192,39222,1,0,0:0:0:0:
192,192,39222,1,0,0:0:0:0:
448,192,39522,1,0,0:0:0:0:
64,192,39522,1,0,0:0:0:0:
448,192,40122,1,0,0:0:0:0:
320,192,40122,128,0,40272:0:0:0:0:
192,192,40122,1,0,0:0:0:0:
64,192,40272,128,0,40422:0:0:0:0:
192,192,40422,128,0,40572:0:0:0:0:
64,192,40572,128,0,40722:0:0:0:0:
320,192,40722,128,0,40872:0:0:0:0:
448,192,40872,128,0,41022:0:0:0:0:
192,192,41022,128,0,41172:0:0:0:0:
448,192,41172,128,0,41472:0:0:0:0:
64,192,41472,128,0,41622:0:0:0:0:
192,192,41622,128,0,41772:0:0:0:0:
64,192,41772,128,0,41922:0:0:0:0:
320,192,41922,128,0,42072:0:0:0:0:
64,192,42072,128,0,42222:0:0:0:0:
192,192,42222,128,0,42372:0:0:0:0:
320,192,42372,128,0,42522:0:0:0:0:
448,192,42559,1,0,0:0:0:0:
320,192,42597,1,0,0:0:0:0:
192,192,42634,1,0,0:0:0:0:
64,192,42672,128,0,42822:0:0:0:0:
192,192,42822,128,0,42972:0:0:0:0:
64,192,42972,128,0,43122:0:0:0:0:
192,192,43122,128,0,43272:0:0:0:0:
320,192,43272,128,0,43422:0:0:0:0:
64,192,43422,128,0,43572:0:0:0:0:
448,192,43572,128,0,43872:0:0:0:0:
64,192,43872,1,0,0:0:0:0:
192,192,44022,1,0,0:0:0:0:
320,192,44097,1,0,0:0:0:0:
64,192,44172,128,0,44322:0:0:0:0:
320,192,44322,1,0,0:0:0:0:
448,192,44359,128,0,44434:0:0:0:0:
320,192,44472,1,0,0:0:0:0:
192,192,44622,1,0,0:0:0:0:
64,192,44659,128,0,44734:0:0:0:0:
192,192,44772,1,0,0:0:0:0:
448,192,44847,1,0,0:0:0:0:
320,192,44922,128,0,45072:0:0:0:0:
64,192,45072,128,0,45222:0:0:0:0:
192,192,45222,128,0,45372:0:0:0:0:
64,192,45372,128,0,45522:0:0:0:0:
320,192,45522,128,0,45672:0:0:0:0:
448,192,45672,128,0,45822:0:0:0:0:
192,192,45822,128,0,45972:0:0:0:0:
448,192,45972,128,0,46272:0:0:0:0:
64,192,46272,128,0,46422:0:0:0:0:
448,192,46459,1,0,0:0:0:0:
320,192,46497,1,0,0:0:0:0:
192,192,46534,1,0,0:0:0:0:
64,192,46572,128,0,46722:0:0:0:0:
320,192,46722,128,0,46872:0:0:0:0:
64,192,46872,128,0,47022:0:0:0:0:
192,192,47022,128,0,47172:0:0:0:0:
320,192,47172,128,0,47322:0:0:0:0:
192,192,47322,128,0,47397:0:0:0:0:
448,192,47397,1,0,0:0:0:0:
320,192,47434,1,0,0:0:0:0:
192,192,47472,1,0,0:0:0:0:
64,192,47509,1,0,0:0:0:0:
320,192,47622,128,0,47772:0:0:0:0:
448,192,47772,128,0,47922:0:0:0:0:
192,192,47922,128,0,48072:0:0:0:0:
320,192,48072,128,0,48222:0:0:0:0:
64,192,48222,128,0,48372:0:0:0:0:
448,192,48372,128,0,48672:0:0:0:0:
64,192,48672,128,0,48822:0:0:0:0:
320,192,48822,128,0,48972:0:0:0:0:
192,192,48972,128,0,49122:0:0:0:0:
320,192,49122,1,0,0:0:0:0:
448,192,49197,1,0,0:0:0:0:
320,192,49272,1,0,0:0:0:0:
192,192,49347,1,0,0:0:0:0:
64,192,49422,1,0,0:0:0:0:
192,192,49497,1,0,0:0:0:0:
64,192,49572,1,0,0:0:0:0:
192,192,49647,1,0,0:0:0:0:
448,192,49722,128,0,49872:0:0:0:0:
320,192,49872,128,0,50022:0:0:0:0:
192,192,50022,128,0,50172:0:0:0:0:
448,192,50022,1,0,0:0:0:0:
64,192,50172,128,0,50322:0:0:0:0:
320,192,50172,1,0,0:0:0:0:
448,192,50322,1,0,0:0:0:0:
192,192,50322,1,0,0:0:0:0:
64,192,50622,1,0,0:0:0:0:
192,192,50622,1,0,0:0:0:0:
64,192,50922,128,0,51522:0:0:0:0:
192,192,51072,1,0,0:0:0:0:
448,192,51222,1,0,0:0:0:0:
192,192,51372,1,0,0:0:0:0:
320,192,51372,1,0,0:0:0:0:
192,192,51522,1,0,0:0:0:0:
448,192,51522,1,0,0:0:0:0:
192,192,52122,1,0,0:0:0:0:
320,192,52122,128,0,52722:0:0:0:0:
64,192,52272,1,0,0:0:0:0:
448,192,52422,1,0,0:0:0:0:
192,192,52422,1,0,0:0:0:0:
192,192,52572,1,0,0:0:0:0:
64,192,52572,1,0,0:0:0:0:
64,192,52722,1,0,0:0:0:0:
448,192,52722,1,0,0:0:0:0:
192,192,53022,1,0,0:0:0:0:
64,192,53022,1,0,0:0:0:0:
320,192,53172,1,0,0:0:0:0:
192,192,53322,1,0,0:0:0:0:
64,192,53322,128,0,53922:0:0:0:0:
320,192,53472,1,0,0:0:0:0:
448,192,53622,1,0,0:0:0:0:
192,192,53622,1,0,0:0:0:0:
448,192,53922,1,0,0:0:0:0:
320,192,53922,1,0,0:0:0:0:
320,192,54522,1,0,0:0:0:0:
192,192,54522,128,0,55122:0:0:0:0:
64,192,54672,1,0,0:0:0:0:
320,192,54822,1,0,0:0:0:0:
448,192,54822,1,0,0:0:0:0:
64,192,54972,1,0,0:0:0:0:
320,192,54972,1,0,0:0:0:0:
64,192,55122,1,0,0:0:0:0:
448,192,55122,1,0,0:0:0:0:
64,192,55422,1,0,0:0:0:0:
192,192,55422,1,0,0:0:0:0:
64,192,55722,128,0,56322:0:0:0:0:
192,192,55872,1,0,0:0:0:0:
320,192,56022,1,0,0:0:0:0:
320,192,56172,1,0,0:0:0:0:
192,192,56172,1,0,0:0:0:0:
192,192,56322,1,0,0:0:0:0:
448,192,56322,1,0,0:0:0:0:
192,192,56922,1,0,0:0:0:0:
320,192,56922,128,0,57522:0:0:0:0:
448,192,57072,1,0,0:0:0:0:
64,192,57222,1,0,0:0:0:0:
192,192,57222,1,0,0:0:0:0:
448,192,57372,1,0,0:0:0:0:
192,192,57372,1,0,0:0:0:0:
64,192,57522,1,0,0:0:0:0:
448,192,57522,1,0,0:0:0:0:
192,192,57822,1,0,0:0:0:0:
64,192,57822,1,0,0:0:0:0:
320,192,57972,1,0,0:0:0:0:
192,192,58122,1,0,0:0:0:0:
64,192,58122,128,0,58722:0:0:0:0:
320,192,58272,1,0,0:0:0:0:
448,192,58422,1,0,0:0:0:0:
192,192,58422,1,0,0:0:0:0:
448,192,58722,1,0,0:0:0:0:
320,192,58722,1,0,0:0:0:0:
320,192,59322,1,0,0:0:0:0:
192,192,59322,128,0,59922:0:0:0:0:
448,192,59472,1,0,0:0:0:0:
64,192,59622,1,0,0:0:0:0:
320,192,59622,1,0,0:0:0:0:
320,192,59772,1,0,0:0:0:0:
448,192,59772,1,0,0:0:0:0:
64,192,59922,1,0,0:0:0:0:
448,192,59922,1,0,0:0:0:0:
64,192,60222,1,0,0:0:0:0:
192,192,60222,1,0,0:0:0:0:
64,192,60522,128,0,61122:0:0:0:0:
192,192,60672,1,0,0:0:0:0:
320,192,60822,1,0,0:0:0:0:
320,192,60972,1,0,0:0:0:0:
192,192,60972,1,0,0:0:0:0:
192,192,61122,1,0,0:0:0:0:
448,192,61122,1,0,0:0:0:0:
192,192,61722,1,0,0:0:0:0:
320,192,61722,128,0,62322:0:0:0:0:
448,192,61872,1,0,0:0:0:0:
192,192,62022,1,0,0:0:0:0:
64,192,62022,1,0,0:0:0:0:
192,192,62172,1,0,0:0:0:0:
448,192,62172,1,0,0:0:0:0:
64,192,62322,1,0,0:0:0:0:
448,192,62322,1,0,0:0:0:0:
192,192,62622,1,0,0:0:0:0:
64,192,62622,1,0,0:0:0:0:
448,192,62772,1,0,0:0:0:0:
192,192,62922,1,0,0:0:0:0:
320,192,62922,128,0,63522:0:0:0:0:
64,192,63072,1,0,0:0:0:0:
448,192,63222,1,0,0:0:0:0:
192,192,63222,1,0,0:0:0:0:
448,192,63522,1,0,0:0:0:0:
64,192,63522,1,0,0:0:0:0:
192,192,63522,128,0,64122:0:0:0:0:
64,192,64122,128,0,64722:0:0:0:0:
320,192,64122,1,0,0:0:0:0:
192,192,64272,1,0,0:0:0:0:
448,192,64422,1,0,0:0:0:0:
320,192,64422,1,0,0:0:0:0:
320,192,64572,1,0,0:0:0:0:
192,192,64572,1,0,0:0:0:0:
448,192,64722,1,0,0:0:0:0:
192,192,64722,1,0,0:0:0:0:
192,192,65022,1,0,0:0:0:0:
64,192,65022,1,0,0:0:0:0:
192,192,65322,128,0,65922:0:0:0:0:
64,192,65472,1,0,0:0:0:0:
448,192,65622,1,0,0:0:0:0:
64,192,65772,1,0,0:0:0:0:
320,192,65772,1,0,0:0:0:0:
448,192,65922,1,0,0:0:0:0:
64,192,65922,1,0,0:0:0:0:
320,192,66522,128,0,66972:0:0:0:0:
192,192,66522,1,0,0:0:0:0:
64,192,66672,1,0,0:0:0:0:
448,192,66822,1,0,0:0:0:0:
192,192,66822,1,0,0:0:0:0:
64,192,66972,1,0,0:0:0:0:
192,192,66972,1,0,0:0:0:0:
448,192,67122,1,0,0:0:0:0:
64,192,67122,1,0,0:0:0:0:
320,192,67122,128,0,67572:0:0:0:0:
64,192,67422,1,0,0:0:0:0:
192,192,67422,1,0,0:0:0:0:
192,192,67572,1,0,0:0:0:0:
448,192,67722,1,0,0:0:0:0:
320,192,67722,128,0,68172:0:0:0:0:
192,192,67872,1,0,0:0:0:0:
64,192,68022,1,0,0:0:0:0:
448,192,68022,1,0,0:0:0:0:
64,192,68322,1,0,0:0:0:0:
448,192,68322,1,0,0:0:0:0:
320,192,68322,128,0,68772:0:0:0:0:
192,192,68322,1,0,0:0:0:0:
320,192,68922,1,0,0:0:0:0:
192,192,69072,1,0,0:0:0:0:
192,192,69222,1,0,0:0:0:0:
320,192,69422,1,0,0:0:0:0:
448,192,69472,1,0,0:0:0:0:
64,192,69522,1,0,0:0:0:0:
192,192,69572,1,0,0:0:0:0:
320,192,69622,1,0,0:0:0:0:
448,192,69672,1,0,0:0:0:0:
192,192,69822,1,0,0:0:0:0:
192,192,69972,1,0,0:0:0:0:
64,192,70122,1,0,0:0:0:0:
320,192,70272,1,0,0:0:0:0:
192,192,70422,1,0,0:0:0:0:
192,192,70572,1,0,0:0:0:0:
64,192,70722,1,0,0:0:0:0:
320,192,70872,1,0,0:0:0:0:
192,192,71022,1,0,0:0:0:0:
192,192,71172,1,0,0:0:0:0:
64,192,71322,1,0,0:0:0:0:
448,192,71322,1,0,0:0:0:0:
320,192,71472,1,0,0:0:0:0:
192,192,71622,1,0,0:0:0:0:
192,192,71772,1,0,0:0:0:0:
64,192,71922,1,0,0:0:0:0:
320,192,72072,1,0,0:0:0:0:
192,192,72222,1,0,0:0:0:0:
192,192,72372,1,0,0:0:0:0:
64,192,72522,1,0,0:0:0:0:
320,192,72672,1,0,0:0:0:0:
192,192,72822,1,0,0:0:0:0:
192,192,72972,1,0,0:0:0:0:
64,192,73122,1,0,0:0:0:0:
320,192,73272,1,0,0:0:0:0:
192,192,73422,1,0,0:0:0:0:
192,192,73572,1,0,0:0:0:0:
64,192,73722,1,0,0:0:0:0:
448,192,73722,1,0,0:0:0:0:
320,192,73872,1,0,0:0:0:0:
192,192,74022,1,0,0:0:0:0:
192,192,74172,1,0,0:0:0:0:
64,192,74322,1,0,0:0:0:0:
320,192,74472,1,0,0:0:0:0:
192,192,74622,1,0,0:0:0:0:
192,192,74772,1,0,0:0:0:0:
64,192,74922,1,0,0:0:0:0:
320,192,75072,1,0,0:0:0:0:
192,192,75222,1,0,0:0:0:0:
192,192,75372,1,0,0:0:0:0:
64,192,75522,1,0,0:0:0:0:
320,192,75672,1,0,0:0:0:0:
192,192,75822,1,0,0:0:0:0:
192,192,75972,1,0,0:0:0:0:
64,192,76122,1,0,0:0:0:0:
448,192,76122,1,0,0:0:0:0:
320,192,76272,1,0,0:0:0:0:
192,192,76422,1,0,0:0:0:0:
320,192,76622,1,0,0:0:0:0:
448,192,76672,1,0,0:0:0:0:
64,192,76722,1,0,0:0:0:0:
192,192,76772,1,0,0:0:0:0:
320,192,76822,1,0,0:0:0:0:
448,192,76872,1,0,0:0:0:0:
192,192,77022,1,0,0:0:0:0:
192,192,77172,1,0,0:0:0:0:
64,192,77322,1,0,0:0:0:0:
320,192,77472,1,0,0:0:0:0:
192,192,77622,1,0,0:0:0:0:
192,192,77772,1,0,0:0:0:0:
64,192,77922,1,0,0:0:0:0:
320,192,78072,1,0,0:0:0:0:
192,192,78222,1,0,0:0:0:0:
192,192,78372,1,0,0:0:0:0:
64,192,78522,1,0,0:0:0:0:
448,192,78522,1,0,0:0:0:0:
320,192,78672,1,0,0:0:0:0:
192,192,78822,1,0,0:0:0:0:
192,192,78972,1,0,0:0:0:0:
64,192,79122,1,0,0:0:0:0:
320,192,79272,1,0,0:0:0:0:
192,192,79422,1,0,0:0:0:0:
192,192,79572,1,0,0:0:0:0:
64,192,79722,1,0,0:0:0:0:
320,192,79872,1,0,0:0:0:0:
192,192,80022,1,0,0:0:0:0:
192,192,80172,1,0,0:0:0:0:
64,192,80322,1,0,0:0:0:0:
320,192,80472,1,0,0:0:0:0:
192,192,80622,1,0,0:0:0:0:
192,192,80772,1,0,0:0:0:0:
448,192,80922,1,0,0:0:0:0:
64,192,80922,1,0,0:0:0:0:
320,192,81072,1,0,0:0:0:0:
64,192,83322,128,0,85722:0:0:0:0:
448,192,83322,1,0,0:0:0:0:
192,192,83472,1,0,0:0:0:0:
320,192,83622,1,0,0:0:0:0:
192,192,83772,1,0,0:0:0:0:
320,192,83922,1,0,0:0:0:0:
448,192,84072,1,0,0:0:0:0:
192,192,84222,1,0,0:0:0:0:
448,192,84372,1,0,0:0:0:0:
192,192,84522,1,0,0:0:0:0:
320,192,84672,1,0,0:0:0:0:
448,192,84822,1,0,0:0:0:0:
320,192,84972,1,0,0:0:0:0:
448,192,85122,1,0,0:0:0:0:
320,192,85272,1,0,0:0:0:0:
192,192,85422,1,0,0:0:0:0:
320,192,85572,1,0,0:0:0:0:
192,192,85722,128,0,88122:0:0:0:0:
448,192,85722,1,0,0:0:0:0:
64,192,85872,1,0,0:0:0:0:
320,192,86022,1,0,0:0:0:0:
64,192,86172,1,0,0:0:0:0:
320,192,86322,1,0,0:0:0:0:
448,192,86472,1,0,0:0:0:0:
64,192,86622,1,0,0:0:0:0:
448,192,86772,1,0,0:0:0:0:
64,192,86922,1,0,0:0:0:0:
320,192,87072,1,0,0:0:0:0:
448,192,87222,1,0,0:0:0:0:
320,192,87372,1,0,0:0:0:0:
448,192,87522,1,0,0:0:0:0:
320,192,87672,1,0,0:0:0:0:
64,192,87822,1,0,0:0:0:0:
320,192,87972,1,0,0:0:0:0:
320,192,88122,128,0,92922:0:0:0:0:
448,192,88122,1,0,0:0:0:0:
64,192,88272,1,0,0:0:0:0:
192,192,88422,1,0,0:0:0:0:
64,192,88572,1,0,0:0:0:0:
192,192,88722,1,0,0:0:0:0:
448,192,88872,1,0,0:0:0:0:
64,192,89022,1,0,0:0:0:0:
448,192,89172,1,0,0:0:0:0:
64,192,89322,1,0,0:0:0:0:
192,192,89472,1,0,0:0:0:0:
448,192,89622,1,0,0:0:0:0:
64,192,89772,1,0,0:0:0:0:
448,192,89922,1,0,0:0:0:0:
192,192,90072,1,0,0:0:0:0:
64,192,90222,1,0,0:0:0:0:
192,192,90372,1,0,0:0:0:0:
448,192,90522,1,0,0:0:0:0:
64,192,90672,1,0,0:0:0:0:
192,192,90822,1,0,0:0:0:0:
64,192,90972,1,0,0:0:0:0:
192,192,91122,1,0,0:0:0:0:
448,192,91272,1,0,0:0:0:0:
64,192,91422,1,0,0:0:0:0:
448,192,91572,1,0,0:0:0:0:
64,192,91722,1,0,0:0:0:0:
192,192,91872,1,0,0:0:0:0:
448,192,92022,1,0,0:0:0:0:
64,192,92172,1,0,0:0:0:0:
192,192,92322,1,0,0:0:0:0:
64,192,92472,1,0,0:0:0:0:
448,192,92622,1,0,0:0:0:0:
192,192,92772,1,0,0:0:0:0:
64,192,92922,128,0,95322:0:0:0:0:
448,192,92922,1,0,0:0:0:0:
192,192,92922,1,0,0:0:0:0:
448,192,93072,1,0,0:0:0:0:
320,192,93222,1,0,0:0:0:0:
448,192,93222,1,0,0:0:0:0:
320,192,93372,1,0,0:0:0:0:
192,192,93522,1,0,0:0:0:0:
320,192,93672,1,0,0:0:0:0:
448,192,93672,1,0,0:0:0:0:
192,192,93822,1,0,0:0:0:0:
192,192,93972,1,0,0:0:0:0:
320,192,94122,1,0,0:0:0:0:
448,192,94272,1,0,0:0:0:0:
192,192,94272,1,0,0:0:0:0:
320,192,94422,1,0,0:0:0:0:
448,192,94422,1,0,0:0:0:0:
320,192,94572,1,0,0:0:0:0:
192,192,94722,1,0,0:0:0:0:
192,192,94872,1,0,0:0:0:0:
320,192,95022,1,0,0:0:0:0:
448,192,95022,1,0,0:0:0:0:
192,192,95172,1,0,0:0:0:0:
320,192,95247,1,0,0:0:0:0:
448,192,95247,1,0,0:0:0:0:
192,192,95322,128,0,97722:0:0:0:0:
448,192,95472,1,0,0:0:0:0:
320,192,95622,1,0,0:0:0:0:
448,192,95622,1,0,0:0:0:0:
320,192,95772,1,0,0:0:0:0:
64,192,95922,1,0,0:0:0:0:
320,192,96072,1,0,0:0:0:0:
448,192,96072,1,0,0:0:0:0:
448,192,96222,1,0,0:0:0:0:
64,192,96372,1,0,0:0:0:0:
448,192,96522,1,0,0:0:0:0:
64,192,96672,1,0,0:0:0:0:
320,192,96822,1,0,0:0:0:0:
448,192,96822,1,0,0:0:0:0:
448,192,96972,1,0,0:0:0:0:
320,192,97122,1,0,0:0:0:0:
64,192,97272,1,0,0:0:0:0:
320,192,97422,1,0,0:0:0:0:
448,192,97422,1,0,0:0:0:0:
320,192,97572,1,0,0:0:0:0:
448,192,97572,1,0,0:0:0:0:
64,192,97722,1,0,0:0:0:0:
320,192,97722,128,0,102522:0:0:0:0:
448,192,97872,1,0,0:0:0:0:
192,192,98022,1,0,0:0:0:0:
448,192,98022,1,0,0:0:0:0:
64,192,98172,1,0,0:0:0:0:
64,192,98322,1,0,0:0:0:0:
192,192,98472,1,0,0:0:0:0:
448,192,98472,1,0,0:0:0:0:
192,192,98622,1,0,0:0:0:0:
64,192,98772,1,0,0:0:0:0:
448,192,98922,1,0,0:0:0:0:
64,192,99072,1,0,0:0:0:0:
192,192,99222,1,0,0:0:0:0:
448,192,99222,1,0,0:0:0:0:
64,192,99372,1,0,0:0:0:0:
64,192,99522,1,0,0:0:0:0:
192,192,99672,1,0,0:0:0:0:
192,192,99822,1,0,0:0:0:0:
448,192,99822,1,0,0:0:0:0:
448,192,99972,1,0,0:0:0:0:
64,192,100122,1,0,0:0:0:0:
448,192,100272,1,0,0:0:0:0:
192,192,100422,1,0,0:0:0:0:
64,192,100422,1,0,0:0:0:0:
64,192,100572,1,0,0:0:0:0:
448,192,100722,1,0,0:0:0:0:
192,192,100872,1,0,0:0:0:0:
448,192,100872,1,0,0:0:0:0:
192,192,101022,1,0,0:0:0:0:
64,192,101022,1,0,0:0:0:0:
64,192,101172,1,0,0:0:0:0:
448,192,101322,1,0,0:0:0:0:
192,192,101472,1,0,0:0:0:0:
192,192,101622,1,0,0:0:0:0:
448,192,101622,1,0,0:0:0:0:
64,192,101772,1,0,0:0:0:0:
64,192,101922,1,0,0:0:0:0:
448,192,102522,1,0,0:0:0:0:
192,192,102522,1,0,0:0:0:0:
192,192,102822,1,0,0:0:0:0:
320,192,102822,1,0,0:0:0:0:
64,192,103122,1,0,0:0:0:0:
448,192,103272,1,0,0:0:0:0:
192,192,103272,1,0,0:0:0:0:
64,192,103572,1,0,0:0:0:0:
448,192,103722,1,0,0:0:0:0:
64,192,103872,1,0,0:0:0:0:
192,192,104022,1,0,0:0:0:0:
320,192,104022,1,0,0:0:0:0:
64,192,104172,1,0,0:0:0:0:
64,192,104322,1,0,0:0:0:0:
64,192,104472,1,0,0:0:0:0:
320,192,104622,1,0,0:0:0:0:
192,192,104622,1,0,0:0:0:0:
448,192,104772,1,0,0:0:0:0:
64,192,104772,1,0,0:0:0:0:
320,192,104847,1,0,0:0:0:0:
192,192,104922,1,0,0:0:0:0:
64,192,104922,1,0,0:0:0:0:
448,192,104922,1,0,0:0:0:0:
192,192,105222,1,0,0:0:0:0:
320,192,105222,1,0,0:0:0:0:
64,192,105372,1,0,0:0:0:0:
192,192,105522,1,0,0:0:0:0:
448,192,105522,1,0,0:0:0:0:
64,192,105522,1,0,0:0:0:0:
320,192,105672,1,0,0:0:0:0:
192,192,105672,1,0,0:0:0:0:
64,192,105972,1,0,0:0:0:0:
448,192,106122,1,0,0:0:0:0:
64,192,106272,1,0,0:0:0:0:
192,192,106422,1,0,0:0:0:0:
320,192,106422,1,0,0:0:0:0:
64,192,106572,1,0,0:0:0:0:
64,192,106722,1,0,0:0:0:0:
64,192,106872,1,0,0:0:0:0:
192,192,107022,1,0,0:0:0:0:
320,192,107022,1,0,0:0:0:0:
192,192,107172,1,0,0:0:0:0:
320,192,107172,1,0,0:0:0:0:
448,192,107322,1,0,0:0:0:0:
64,192,107322,1,0,0:0:0:0:
320,192,107322,1,0,0:0:0:0:
320,192,107622,1,0,0:0:0:0:
192,192,107622,1,0,0:0:0:0:
64,192,107772,1,0,0:0:0:0:
64,192,107922,1,0,0:0:0:0:
448,192,107922,1,0,0:0:0:0:
192,192,107922,1,0,0:0:0:0:
192,192,108072,1,0,0:0:0:0:
320,192,108072,1,0,0:0:0:0:
64,192,108372,1,0,0:0:0:0:
320,192,108522,1,0,0:0:0:0:
448,192,108522,1,0,0:0:0:0:
64,192,108672,1,0,0:0:0:0:
192,192,108822,1,0,0:0:0:0:
320,192,108822,1,0,0:0:0:0:
64,192,108972,1,0,0:0:0:0:
64,192,109122,1,0,0:0:0:0:
64,192,109272,1,0,0:0:0:0:
320,192,109422,1,0,0:0:0:0:
192,192,109422,1,0,0:0:0:0:
64,192,109572,1,0,0:0:0:0:
64,192,109722,1,0,0:0:0:0:
448,192,109722,1,0,0:0:0:0:
448,192,110022,1,0,0:0:0:0:
320,192,110022,1,0,0:0:0:0:
448,192,110172,1,0,0:0:0:0:
192,192,110172,1,0,0:0:0:0:
64,192,110322,1,0,0:0:0:0:
320,192,110322,1,0,0:0:0:0:
448,192,110622,1,0,0:0:0:0:
320,192,110622,1,0,0:0:0:0:
192,192,110772,1,0,0:0:0:0:
448,192,110772,1,0,0:0:0:0:
64,192,110922,1,0,0:0:0:0:
320,192,110922,1,0,0:0:0:0:
448,192,111222,1,0,0:0:0:0:
320,192,111222,1,0,0:0:0:0:
448,192,111372,1,0,0:0:0:0:
192,192,111372,1,0,0:0:0:0:
192,192,111522,1,0,0:0:0:0:
64,192,111522,1,0,0:0:0:0:
320,192,111522,1,0,0:0:0:0:
448,192,111522,1,0,0:0:0:0:
320,192,111672,1,0,0:0:0:0:
192,192,111822,1,0,0:0:0:0:
64,192,111972,1,0,0:0:0:0:
192,192,112122,5,0,0:0:0:0:
448,192,112122,1,0,0:0:0:0:
64,192,112272,1,0,0:0:0:0:
192,192,112422,1,0,0:0:0:0:
64,192,112572,1,0,0:0:0:0:
320,192,112722,1,0,0:0:0:0:
448,192,112872,1,0,0:0:0:0:
192,192,113022,1,0,0:0:0:0:
448,192,113172,1,0,0:0:0:0:
320,192,113322,1,0,0:0:0:0:
192,192,113322,1,0,0:0:0:0:
64,192,113472,1,0,0:0:0:0:
192,192,113622,1,0,0:0:0:0:
64,192,113772,1,0,0:0:0:0:
320,192,113922,1,0,0:0:0:0:
64,192,114072,1,0,0:0:0:0:
192,192,114222,1,0,0:0:0:0:
320,192,114372,1,0,0:0:0:0:
192,192,114522,1,0,0:0:0:0:
448,192,114522,1,0,0:0:0:0:
64,192,114672,1,0,0:0:0:0:
192,192,114822,1,0,0:0:0:0:
64,192,114972,1,0,0:0:0:0:
320,192,115122,1,0,0:0:0:0:
448,192,115272,1,0,0:0:0:0:
64,192,115422,1,0,0:0:0:0:
192,192,115572,1,0,0:0:0:0:
448,192,115722,1,0,0:0:0:0:
320,192,115722,1,0,0:0:0:0:
64,192,115872,1,0,0:0:0:0:
192,192,116022,1,0,0:0:0:0:
64,192,116172,1,0,0:0:0:0:
448,192,116322,1,0,0:0:0:0:
320,192,116472,1,0,0:0:0:0:
192,192,116622,1,0,0:0:0:0:
64,192,116772,1,0,0:0:0:0:
192,192,116922,5,0,0:0:0:0:
448,192,116922,1,0,0:0:0:0:
64,192,117072,1,0,0:0:0:0:
192,192,117222,1,0,0:0:0:0:
64,192,117372,1,0,0:0:0:0:
320,192,117522,1,0,0:0:0:0:
448,192,117672,1,0,0:0:0:0:
192,192,117822,1,0,0:0:0:0:
448,192,117972,1,0,0:0:0:0:
320,192,118122,1,0,0:0:0:0:
192,192,118122,1,0,0:0:0:0:
64,192,118272,1,0,0:0:0:0:
192,192,118422,1,0,0:0:0:0:
64,192,118572,1,0,0:0:0:0:
320,192,118722,1,0,0:0:0:0:
64,192,118872,1,0,0:0:0:0:
192,192,119022,1,0,0:0:0:0:
320,192,119172,1,0,0:0:0:0:
192,192,119322,1,0,0:0:0:0:
448,192,119322,1,0,0:0:0:0:
64,192,119472,1,0,0:0:0:0:
192,192,119622,1,0,0:0:0:0:
64,192,119772,1,0,0:0:0:0:
320,192,119922,1,0,0:0:0:0:
448,192,120072,1,0,0:0:0:0:
64,192,120222,1,0,0:0:0:0:
448,192,120372,1,0,0:0:0:0:
192,192,120522,128,0,120747:0:0:0:0:
320,192,120522,128,0,120747:0:0:0:0:
448,192,120822,1,0,0:0:0:0:
64,192,120897,1,0,0:0:0:0:
448,192,120972,1,0,0:0:0:0:
64,192,121047,1,0,0:0:0:0:
448,192,121122,1,0,0:0:0:0:
64,192,121197,1,0,0:0:0:0:
448,192,121272,1,0,0:0:0:0:
64,192,121347,1,0,0:0:0:0:
448,192,121422,1,0,0:0:0:0:
64,192,121497,1,0,0:0:0:0:
448,192,121572,1,0,0:0:0:0:
64,192,121647,1,0,0:0:0:0:
448,192,121722,128,0,121872:0:0:0:0:
320,192,121872,128,0,122022:0:0:0:0:
192,192,122022,128,0,122172:0:0:0:0:
448,192,122022,1,0,0:0:0:0:
64,192,122172,128,0,122322:0:0:0:0:
320,192,122172,1,0,0:0:0:0:
192,192,122322,1,0,0:0:0:0:
448,192,122322,1,0,0:0:0:0:
320,192,122472,1,0,0:0:0:0:
64,192,122622,1,0,0:0:0:0:
192,192,122622,1,0,0:0:0:0:
320,192,122772,1,0,0:0:0:0:
192,192,123072,1,0,0:0:0:0:
64,192,123222,1,0,0:0:0:0:
320,192,123222,1,0,0:0:0:0:
320,192,123372,1,0,0:0:0:0:
192,192,123372,1,0,0:0:0:0:
64,192,123522,1,0,0:0:0:0:
448,192,123522,1,0,0:0:0:0:
320,192,123822,1,0,0:0:0:0:
448,192,124122,1,0,0:0:0:0:
320,192,124272,1,0,0:0:0:0:
192,192,124422,1,0,0:0:0:0:
448,192,124422,1,0,0:0:0:0:
320,192,124572,1,0,0:0:0:0:
192,192,124647,1,0,0:0:0:0:
448,192,124722,128,0,124872:0:0:0:0:
64,192,124722,1,0,0:0:0:0:
192,192,124872,1,0,0:0:0:0:
320,192,125022,1,0,0:0:0:0:
448,192,125172,128,0,125397:0:0:0:0:
320,192,125472,1,0,0:0:0:0:
64,192,125622,1,0,0:0:0:0:
448,192,125772,128,0,125922:0:0:0:0:
320,192,125922,1,0,0:0:0:0:
192,192,126072,1,0,0:0:0:0:
64,192,126222,1,0,0:0:0:0:
192,192,126372,1,0,0:0:0:0:
320,192,126522,1,0,0:0:0:0:
448,192,126522,128,0,127197:0:0:0:0:
64,192,126672,1,0,0:0:0:0:
320,192,126822,1,0,0:0:0:0:
192,192,126972,1,0,0:0:0:0:
64,192,127122,1,0,0:0:0:0:
320,192,127122,1,0,0:0:0:0:
192,192,127272,1,0,0:0:0:0:
320,192,127422,1,0,0:0:0:0:
448,192,127572,128,0,127872:0:0:0:0:
192,192,127872,128,0,128022:0:0:0:0:
320,192,128022,128,0,128172:0:0:0:0:
448,192,128172,128,0,128322:0:0:0:0:
192,192,128322,128,0,128472:0:0:0:0:
320,192,128472,1,0,0:0:0:0:
64,192,128622,1,0,0:0:0:0:
320,192,128772,128,0,128922:0:0:0:0:
192,192,128922,128,0,129372:0:0:0:0:
448,192,128922,1,0,0:0:0:0:
64,192,129072,1,0,0:0:0:0:
320,192,129222,1,0,0:0:0:0:
448,192,129222,1,0,0:0:0:0:
64,192,129372,1,0,0:0:0:0:
320,192,129372,1,0,0:0:0:0:
192,192,129522,1,0,0:0:0:0:
448,192,129522,128,0,129822:0:0:0:0:
64,192,129822,1,0,0:0:0:0:
320,192,129822,128,0,129972:0:0:0:0:
64,192,129972,128,0,130272:0:0:0:0:
192,192,129972,1,0,0:0:0:0:
448,192,130122,1,0,0:0:0:0:
320,192,130122,1,0,0:0:0:0:
192,192,130272,128,0,130422:0:0:0:0:
64,192,130422,128,0,130572:0:0:0:0:
448,192,130572,128,0,131322:0:0:0:0:
320,192,130722,1,0,0:0:0:0:
192,192,130722,1,0,0:0:0:0:
320,192,130947,1,0,0:0:0:0:
192,192,131022,1,0,0:0:0:0:
320,192,131097,1,0,0:0:0:0:
192,192,131172,1,0,0:0:0:0:
320,192,131247,1,0,0:0:0:0:
64,192,131322,128,0,131622:0:0:0:0:
192,192,131322,128,0,131622:0:0:0:0:
320,192,131472,1,0,0:0:0:0:
448,192,131622,1,0,0:0:0:0:
192,192,131772,128,0,131847:0:0:0:0:
64,192,131772,128,0,131847:0:0:0:0:
448,192,131772,1,0,0:0:0:0:
320,192,131922,1,0,0:0:0:0:
192,192,132072,1,0,0:0:0:0:
320,192,132222,1,0,0:0:0:0:
448,192,132222,1,0,0:0:0:0:
64,192,132372,1,0,0:0:0:0:
192,192,132447,1,0,0:0:0:0:
320,192,132522,1,0,0:0:0:0:
448,192,132597,128,0,132822:0:0:0:0:
192,192,132634,128,0,132822:0:0:0:0:
64,192,132672,128,0,132822:0:0:0:0:
320,192,132972,1,0,0:0:0:0:
320,192,133122,1,0,0:0:0:0:
448,192,133197,1,0,0:0:0:0:
320,192,133272,1,0,0:0:0:0:
192,192,133347,1,0,0:0:0:0:
64,192,133422,1,0,0:0:0:0:
192,192,133497,1,0,0:0:0:0:
320,192,133572,1,0,0:0:0:0:
448,192,133647,1,0,0:0:0:0:
192,192,133722,128,0,133797:0:0:0:0:
448,192,133797,128,0,133872:0:0:0:0:
320,192,133797,128,0,133872:0:0:0:0:
64,192,133872,128,0,134172:0:0:0:0:
320,192,134022,1,0,0:0:0:0:
448,192,134097,1,0,0:0:0:0:
320,192,134172,1,0,0:0:0:0:
192,192,134247,1,0,0:0:0:0:
320,192,134322,1,0,0:0:0:0:
320,192,134472,1,0,0:0:0:0:
64,192,134622,1,0,0:0:0:0:
448,192,134772,1,0,0:0:0:0:
64,192,135072,128,0,136122:0:0:0:0:
320,192,135222,1,0,0:0:0:0:
192,192,135297,1,0,0:0:0:0:
320,192,135372,1,0,0:0:0:0:
448,192,135447,1,0,0:0:0:0:
320,192,135522,128,0,135672:0:0:0:0:
192,192,135672,128,0,135822:0:0:0:0:
448,192,135822,128,0,135972:0:0:0:0:
320,192,135972,128,0,136122:0:0:0:0:
192,192,136122,1,0,0:0:0:0:
448,192,136122,1,0,0:0:0:0:
192,192,136272,128,0,136422:0:0:0:0:
448,192,136272,128,0,136422:0:0:0:0:
320,192,136422,1,0,0:0:0:0:
64,192,136572,1,0,0:0:0:0:
448,192,136722,128,0,137022:0:0:0:0:
320,192,136872,128,0,137022:0:0:0:0:
64,192,137022,128,0,137172:0:0:0:0:
192,192,137172,1,0,0:0:0:0:
448,192,137322,1,0,0:0:0:0:
320,192,137472,1,0,0:0:0:0:
64,192,137622,1,0,0:0:0:0:
320,192,137772,128,0,137922:0:0:0:0:
448,192,137772,128,0,137922:0:0:0:0:
192,192,137772,128,0,137922:0:0:0:0:
64,192,138072,128,0,138522:0:0:0:0:
192,192,138072,128,0,138522:0:0:0:0:
320,192,138522,1,0,0:0:0:0:
448,192,138597,1,0,0:0:0:0:
320,192,138672,1,0,0:0:0:0:
64,192,138747,1,0,0:0:0:0:
192,192,138822,1,0,0:0:0:0:
448,192,138897,1,0,0:0:0:0:
320,192,138972,1,0,0:0:0:0:
64,192,139047,1,0,0:0:0:0:
192,192,139122,128,0,139272:0:0:0:0:
320,192,139272,128,0,139572:0:0:0:0:
64,192,139422,128,0,140022:0:0:0:0:
448,192,139572,128,0,139872:0:0:0:0:
320,192,139872,128,0,140172:0:0:0:0:
192,192,140022,1,0,0:0:0:0:
448,192,140172,128,0,140472:0:0:0:0:
64,192,140172,1,0,0:0:0:0:
64,192,140472,128,0,140772:0:0:0:0:
192,192,140472,1,0,0:0:0:0:
320,192,140622,1,0,0:0:0:0:
192,192,140772,128,0,140922:0:0:0:0:
320,192,140922,128,0,141222:0:0:0:0:
448,192,140922,128,0,141222:0:0:0:0:
64,192,141072,1,0,0:0:0:0:
192,192,141222,1,0,0:0:0:0:
192,192,141372,128,0,141447:0:0:0:0:
64,192,141372,128,0,141447:0:0:0:0:
448,192,141372,1,0,0:0:0:0:
320,192,141522,1,0,0:0:0:0:
64,192,141672,1,0,0:0:0:0:
320,192,141822,128,0,141897:0:0:0:0:
448,192,141822,128,0,141897:0:0:0:0:
192,192,141822,1,0,0:0:0:0:
448,192,142197,128,0,142422:0:0:0:0:
320,192,142234,128,0,142422:0:0:0:0:
192,192,142272,128,0,142422:0:0:0:0:
64,192,142422,1,0,0:0:0:0:
320,192,142572,1,0,0:0:0:0:
192,192,142722,1,0,0:0:0:0:
320,192,142797,1,0,0:0:0:0:
192,192,142872,1,0,0:0:0:0:
64,192,142947,1,0,0:0:0:0:
448,192,143022,1,0,0:0:0:0:
320,192,143097,1,0,0:0:0:0:
192,192,143172,1,0,0:0:0:0:
64,192,143247,1,0,0:0:0:0:
192,192,143322,1,0,0:0:0:0:
320,192,143397,128,0,143472:0:0:0:0:
448,192,143397,128,0,143472:0:0:0:0:
64,192,143472,128,0,143772:0:0:0:0:
320,192,143622,1,0,0:0:0:0:
448,192,143697,1,0,0:0:0:0:
320,192,143772,1,0,0:0:0:0:
192,192,143847,1,0,0:0:0:0:
320,192,143922,1,0,0:0:0:0:
320,192,144072,128,0,144222:0:0:0:0:
64,192,144222,1,0,0:0:0:0:
448,192,144222,1,0,0:0:0:0:
448,192,144372,1,0,0:0:0:0:
192,192,144522,1,0,0:0:0:0:
64,192,144672,128,0,145722:0:0:0:0:
448,192,144822,1,0,0:0:0:0:
320,192,144897,1,0,0:0:0:0:
192,192,144972,1,0,0:0:0:0:
320,192,145047,1,0,0:0:0:0:
448,192,145122,128,0,145272:0:0:0:0:
320,192,145272,128,0,145422:0:0:0:0:
192,192,145422,128,0,145572:0:0:0:0:
320,192,145572,128,0,145722:0:0:0:0:
448,192,145722,128,0,145797:0:0:0:0:
192,192,145722,128,0,145797:0:0:0:0:
192,192,145872,128,0,146022:0:0:0:0:
448,192,145872,128,0,146022:0:0:0:0:
320,192,146022,128,0,146097:0:0:0:0:
64,192,146172,128,0,146697:0:0:0:0:
192,192,146322,128,0,146697:0:0:0:0:
320,192,146472,128,0,146697:0:0:0:0:
448,192,146622,128,0,146697:0:0:0:0:
64,192,146772,1,0,0:0:0:0:
192,192,146847,1,0,0:0:0:0:
448,192,146922,1,0,0:0:0:0:
320,192,147072,1,0,0:0:0:0:
448,192,147222,1,0,0:0:0:0:
320,192,147372,128,0,147447:0:0:0:0:
448,192,147372,128,0,147447:0:0:0:0:
192,192,147372,128,0,147447:0:0:0:0:
64,192,147522,1,0,0:0:0:0:
64,192,147672,128,0,147972:0:0:0:0:
192,192,147672,128,0,147972:0:0:0:0:
320,192,147672,1,0,0:0:0:0:
448,192,147822,1,0,0:0:0:0:
320,192,147972,1,0,0:0:0:0:
192,192,148122,1,0,0:0:0:0:
64,192,148197,1,0,0:0:0:0:
192,192,148272,1,0,0:0:0:0:
320,192,148347,1,0,0:0:0:0:
448,192,148422,1,0,0:0:0:0:
320,192,148497,1,0,0:0:0:0:
448,192,148572,1,0,0:0:0:0:
192,192,148647,1,0,0:0:0:0:
320,192,148722,128,0,148872:0:0:0:0:
448,192,148872,128,0,149172:0:0:0:0:
64,192,149022,1,0,0:0:0:0:
192,192,149172,128,0,149472:0:0:0:0:
64,192,149322,1,0,0:0:0:0:
320,192,149472,128,0,149622:0:0:0:0:
448,192,149622,1,0,0:0:0:0:
64,192,149697,1,0,0:0:0:0:
448,192,149772,1,0,0:0:0:0:
64,192,149847,1,0,0:0:0:0:
448,192,149922,1,0,0:0:0:0:
64,192,149997,1,0,0:0:0:0:
448,192,150072,1,0,0:0:0:0:
64,192,150147,1,0,0:0:0:0:
448,192,150222,1,0,0:0:0:0:
64,192,150297,1,0,0:0:0:0:
448,192,150372,1,0,0:0:0:0:
64,192,150447,1,0,0:0:0:0:
320,192,150522,128,0,150822:0:0:0:0:
448,192,150522,128,0,150822:0:0:0:0:
64,192,150672,1,0,0:0:0:0:
192,192,150822,1,0,0:0:0:0:
192,192,150972,128,0,151047:0:0:0:0:
64,192,150972,128,0,151047:0:0:0:0:
448,192,150972,1,0,0:0:0:0:
320,192,151122,1,0,0:0:0:0:
64,192,151272,1,0,0:0:0:0:
320,192,151422,128,0,151497:0:0:0:0:
448,192,151422,128,0,151497:0:0:0:0:
192,192,151422,1,0,0:0:0:0:
64,192,151572,1,0,0:0:0:0:
192,192,151647,1,0,0:0:0:0:
320,192,151722,1,0,0:0:0:0:
448,192,151797,128,0,152022:0:0:0:0:
320,192,151834,128,0,152022:0:0:0:0:
192,192,151872,128,0,152022:0:0:0:0:
64,192,152022,1,0,0:0:0:0:
320,192,152172,1,0,0:0:0:0:
192,192,152322,1,0,0:0:0:0:
320,192,152397,1,0,0:0:0:0:
192,192,152472,1,0,0:0:0:0:
64,192,152547,1,0,0:0:0:0:
448,192,152622,1,0,0:0:0:0:
320,192,152697,1,0,0:0:0:0:
192,192,152772,1,0,0:0:0:0:
64,192,152847,1,0,0:0:0:0:
192,192,152922,1,0,0:0:0:0:
320,192,152997,128,0,153072:0:0:0:0:
448,192,152997,128,0,153072:0:0:0:0:
64,192,153072,128,0,153372:0:0:0:0:
320,192,153222,1,0,0:0:0:0:
448,192,153297,1,0,0:0:0:0:
320,192,153372,1,0,0:0:0:0:
192,192,153447,1,0,0:0:0:0:
320,192,153522,1,0,0:0:0:0:
320,192,153672,128,0,153822:0:0:0:0:
64,192,153822,1,0,0:0:0:0:
448,192,153822,1,0,0:0:0:0:
320,192,153972,1,0,0:0:0:0:
448,192,153990,1,0,0:0:0:0:
192,192,154122,1,0,0:0:0:0:
64,192,154272,128,0,155322:0:0:0:0:
448,192,154422,1,0,0:0:0:0:
320,192,154497,1,0,0:0:0:0:
192,192,154572,1,0,0:0:0:0:
320,192,154647,1,0,0:0:0:0:
448,192,154722,128,0,154872:0:0:0:0:
320,192,154872,128,0,155022:0:0:0:0:
192,192,155022,128,0,155172:0:0:0:0:
320,192,155172,128,0,155322:0:0:0:0:
448,192,155322,128,0,155397:0:0:0:0:
192,192,155322,128,0,155397:0:0:0:0:
192,192,155472,128,0,155622:0:0:0:0:
448,192,155472,128,0,155622:0:0:0:0:
320,192,155622,128,0,155697:0:0:0:0:
64,192,155772,128,0,156297:0:0:0:0:
192,192,155922,128,0,156297:0:0:0:0:
320,192,156072,128,0,156297:0:0:0:0:
448,192,156222,128,0,156297:0:0:0:0:
64,192,156372,1,0,0:0:0:0:
192,192,156447,1,0,0:0:0:0:
320,192,156522,1,0,0:0:0:0:
448,192,156672,1,0,0:0:0:0:
320,192,156822,1,0,0:0:0:0:
320,192,156972,128,0,157047:0:0:0:0:
448,192,156972,128,0,157047:0:0:0:0:
192,192,156972,128,0,157047:0:0:0:0:
64,192,157122,1,0,0:0:0:0:
64,192,157272,128,0,157572:0:0:0:0:
192,192,157272,128,0,157572:0:0:0:0:
320,192,157272,1,0,0:0:0:0:
448,192,157422,1,0,0:0:0:0:
320,192,157572,1,0,0:0:0:0:
192,192,157722,1,0,0:0:0:0:
64,192,157797,1,0,0:0:0:0:
192,192,157872,1,0,0:0:0:0:
320,192,157947,1,0,0:0:0:0:
448,192,158022,1,0,0:0:0:0:
320,192,158097,1,0,0:0:0:0:
448,192,158172,1,0,0:0:0:0:
192,192,158247,1,0,0:0:0:0:
320,192,158322,128,0,158472:0:0:0:0:
448,192,158472,128,0,158772:0:0:0:0:
64,192,158622,1,0,0:0:0:0:
192,192,158772,128,0,159072:0:0:0:0:
64,192,158922,1,0,0:0:0:0:
320,192,159072,128,0,159222:0:0:0:0:
448,192,159222,1,0,0:0:0:0:
64,192,159297,1,0,0:0:0:0:
448,192,159372,1,0,0:0:0:0:
64,192,159447,1,0,0:0:0:0:
448,192,159522,1,0,0:0:0:0:
64,192,159597,1,0,0:0:0:0:
448,192,159672,1,0,0:0:0:0:
64,192,159747,1,0,0:0:0:0:
448,192,159822,1,0,0:0:0:0:
64,192,159897,1,0,0:0:0:0:
448,192,159972,1,0,0:0:0:0:
64,192,160047,1,0,0:0:0:0:
448,192,160122,128,0,160422:0:0:0:0:
320,192,160122,128,0,160422:0:0:0:0:
64,192,160272,1,0,0:0:0:0:
192,192,160422,1,0,0:0:0:0:
448,192,160572,1,0,0:0:0:0:
64,192,160572,128,0,160647:0:0:0:0:
192,192,160572,128,0,160647:0:0:0:0:
320,192,160722,1,0,0:0:0:0:
448,192,160722,1,0,0:0:0:0:
64,192,160872,1,0,0:0:0:0:
192,192,161022,1,0,0:0:0:0:
448,192,161022,128,0,161097:0:0:0:0:
320,192,161022,128,0,161097:0:0:0:0:
448,192,161397,128,0,161622:0:0:0:0:
320,192,161434,128,0,161622:0:0:0:0:
192,192,161472,128,0,161622:0:0:0:0:
64,192,161622,1,0,0:0:0:0:
320,192,161772,1,0,0:0:0:0:
448,192,161922,1,0,0:0:0:0:
320,192,161997,1,0,0:0:0:0:
192,192,162072,1,0,0:0:0:0:
64,192,162147,1,0,0:0:0:0:
448,192,162222,1,0,0:0:0:0:
320,192,162297,1,0,0:0:0:0:
192,192,162372,1,0,0:0:0:0:
64,192,162447,1,0,0:0:0:0:
192,192,162522,1,0,0:0:0:0:
448,192,162597,128,0,162672:0:0:0:0:
320,192,162597,128,0,162672:0:0:0:0:
64,192,162672,128,0,162972:0:0:0:0:
320,192,162822,1,0,0:0:0:0:
448,192,162897,1,0,0:0:0:0:
320,192,162972,1,0,0:0:0:0:
192,192,163047,1,0,0:0:0:0:
320,192,163122,1,0,0:0:0:0:
448,192,163122,1,0,0:0:0:0:
320,192,163272,128,0,163422:0:0:0:0:
448,192,163422,1,0,0:0:0:0:
64,192,163422,1,0,0:0:0:0:
320,192,163572,1,0,0:0:0:0:
448,192,163590,1,0,0:0:0:0:
192,192,163722,1,0,0:0:0:0:
64,192,163872,128,0,164772:0:0:0:0:
448,192,164022,128,0,164097:0:0:0:0:
320,192,164097,128,0,164172:0:0:0:0:
192,192,164172,128,0,164247:0:0:0:0:
320,192,164247,128,0,164322:0:0:0:0:
448,192,164322,128,0,164472:0:0:0:0:
320,192,164472,128,0,164622:0:0:0:0:
192,192,164622,128,0,164772:0:0:0:0:
320,192,164772,128,0,164922:0:0:0:0:
64,192,164922,128,0,164997:0:0:0:0:
448,192,164922,128,0,164997:0:0:0:0:
448,192,165072,128,0,165222:0:0:0:0:
64,192,165072,128,0,165222:0:0:0:0:
192,192,165222,128,0,165297:0:0:0:0:
64,192,165372,1,0,0:0:0:0:
192,192,165522,128,0,165897:0:0:0:0:
64,192,165522,1,0,0:0:0:0:
320,192,165672,128,0,165897:0:0:0:0:
448,192,165822,128,0,165897:0:0:0:0:
64,192,165972,1,0,0:0:0:0:
192,192,166047,1,0,0:0:0:0:
448,192,166122,1,0,0:0:0:0:
320,192,166122,1,0,0:0:0:0:
192,192,166272,1,0,0:0:0:0:
448,192,166422,1,0,0:0:0:0:
192,192,166572,128,0,166647:0:0:0:0:
448,192,166572,128,0,166647:0:0:0:0:
320,192,166572,128,0,166647:0:0:0:0:
320,192,166872,1,0,0:0:0:0:
192,192,166872,128,0,167172:0:0:0:0:
64,192,166872,128,0,167172:0:0:0:0:
448,192,167022,1,0,0:0:0:0:
320,192,167172,1,0,0:0:0:0:
192,192,167322,1,0,0:0:0:0:
448,192,167322,1,0,0:0:0:0:
64,192,167397,1,0,0:0:0:0:
192,192,167472,1,0,0:0:0:0:
320,192,167547,1,0,0:0:0:0:
448,192,167622,1,0,0:0:0:0:
320,192,167697,1,0,0:0:0:0:
448,192,167772,1,0,0:0:0:0:
192,192,167847,1,0,0:0:0:0:
320,192,167922,128,0,168072:0:0:0:0:
64,192,167922,1,0,0:0:0:0:
448,192,168072,128,0,168372:0:0:0:0:
64,192,168222,1,0,0:0:0:0:
192,192,168372,128,0,168672:0:0:0:0:
64,192,168522,1,0,0:0:0:0:
448,192,168522,1,0,0:0:0:0:
320,192,168672,128,0,168822:0:0:0:0:
448,192,168822,1,0,0:0:0:0:
320,192,168897,1,0,0:0:0:0:
64,192,168972,1,0,0:0:0:0:
192,192,169047,1,0,0:0:0:0:
448,192,169122,1,0,0:0:0:0:
320,192,169197,1,0,0:0:0:0:
64,192,169272,1,0,0:0:0:0:
192,192,169347,1,0,0:0:0:0:
448,192,169422,1,0,0:0:0:0:
320,192,169497,1,0,0:0:0:0:
64,192,169572,1,0,0:0:0:0:
192,192,169647,1,0,0:0:0:0:
64,192,169722,128,0,170772:0:0:0:0:
448,192,169722,128,0,170172:0:0:0:0:
320,192,169722,128,0,170172:0:0:0:0:
192,192,169872,1,0,0:0:0:0:
448,192,170922,128,0,171972:0:0:0:0:
192,192,170922,128,0,171372:0:0:0:0:
64,192,170922,128,0,171372:0:0:0:0:
192,192,172122,128,0,173172:0:0:0:0:
320,192,172122,128,0,172572:0:0:0:0:
448,192,172122,128,0,172572:0:0:0:0:
64,192,172272,1,0,0:0:0:0:
320,192,173322,128,0,174372:0:0:0:0:
192,192,173322,128,0,173772:0:0:0:0:
64,192,173322,128,0,173772:0:0:0:0:
64,192,174522,128,0,175572:0:0:0:0:
448,192,174522,128,0,174972:0:0:0:0:
320,192,174522,128,0,174972:0:0:0:0:
192,192,174672,1,0,0:0:0:0:
448,192,175722,128,0,176772:0:0:0:0:
192,192,175722,128,0,176172:0:0:0:0:
64,192,175722,128,0,176172:0:0:0:0:
192,192,176922,128,0,177972:0:0:0:0:
320,192,176922,128,0,177372:0:0:0:0:
448,192,176922,128,0,177372:0:0:0:0:
64,192,177072,1,0,0:0:0:0:
320,192,178122,128,0,179172:0:0:0:0:
192,192,178122,128,0,178572:0:0:0:0:
64,192,178122,128,0,178572:0:0:0:0:
320,192,179322,128,0,179772:0:0:0:0:
448,192,179322,128,0,179772:0:0:0:0:
64,192,179322,128,0,180372:0:0:0:0:
192,192,179472,1,0,0:0:0:0:
64,192,180522,128,0,180972:0:0:0:0:
192,192,180522,128,0,180972:0:0:0:0:
448,192,180522,128,0,181572:0:0:0:0:
448,192,181722,128,0,182172:0:0:0:0:
320,192,181722,128,0,182172:0:0:0:0:
192,192,181722,128,0,184122:0:0:0:0:
64,192,181872,1,0,0:0:0:0:
64,192,182922,128,0,184272:0:0:0:0:
320,192,182922,128,0,184272:0:0:0:0:
320,192,184722,1,0,0:0:0:0:
192,192,185022,1,0,0:0:0:0:
448,192,185322,1,0,0:0:0:0:
64,192,185622,1,0,0:0:0:0:
192,192,185922,1,0,0:0:0:0:
64,192,186222,1,0,0:0:0:0:
320,192,186597,1,0,0:0:0:0:
64,192,186972,1,0,0:0:0:0:
448,192,187272,1,0,0:0:0:0:
192,192,187647,1,0,0:0:0:0:
320,192,188134,1,0,0:0:0:0:
448,192,188547,1,0,0:0:0:0:
64,192,189372,128,0,193122:0:0:0:0:
192,192,189409,128,0,193122:0:0:0:0:
448,192,189484,128,0,193122:0:0:0:0:
64,192,196122,128,0,198522:0:0:0:0:
448,192,196122,1,0,0:0:0:0:
192,192,196272,1,0,0:0:0:0:
320,192,196422,1,0,0:0:0:0:
192,192,196572,1,0,0:0:0:0:
320,192,196722,1,0,0:0:0:0:
448,192,196872,1,0,0:0:0:0:
192,192,197022,1,0,0:0:0:0:
448,192,197172,1,0,0:0:0:0:
192,192,197322,1,0,0:0:0:0:
320,192,197472,1,0,0:0:0:0:
448,192,197622,1,0,0:0:0:0:
320,192,197772,1,0,0:0:0:0:
448,192,197922,1,0,0:0:0:0:
320,192,198072,1,0,0:0:0:0:
192,192,198222,1,0,0:0:0:0:
320,192,198372,1,0,0:0:0:0:
192,192,198522,128,0,200922:0:0:0:0:
448,192,198522,1,0,0:0:0:0:
64,192,198672,1,0,0:0:0:0:
320,192,198822,1,0,0:0:0:0:
64,192,198972,1,0,0:0:0:0:
320,192,199122,1,0,0:0:0:0:
448,192,199272,1,0,0:0:0:0:
64,192,199422,1,0,0:0:0:0:
448,192,199572,1,0,0:0:0:0:
64,192,199722,1,0,0:0:0:0:
320,192,199872,1,0,0:0:0:0:
448,192,200022,1,0,0:0:0:0:
320,192,200172,1,0,0:0:0:0:
448,192,200322,1,0,0:0:0:0:
320,192,200472,1,0,0:0:0:0:
448,192,200622,1,0,0:0:0:0:
64,192,200772,1,0,0:0:0:0:
320,192,200922,128,0,205722:0:0:0:0:
448,192,200922,1,0,0:0:0:0:
64,192,201072,1,0,0:0:0:0:
192,192,201222,1,0,0:0:0:0:
64,192,201372,1,0,0:0:0:0:
192,192,201522,1,0,0:0:0:0:
448,192,201672,1,0,0:0:0:0:
64,192,201822,1,0,0:0:0:0:
448,192,201972,1,0,0:0:0:0:
64,192,202122,1,0,0:0:0:0:
192,192,202272,1,0,0:0:0:0:
448,192,202422,1,0,0:0:0:0:
64,192,202572,1,0,0:0:0:0:
448,192,202722,1,0,0:0:0:0:
192,192,202872,1,0,0:0:0:0:
64,192,203022,1,0,0:0:0:0:
192,192,203172,1,0,0:0:0:0:
448,192,203322,1,0,0:0:0:0:
64,192,203472,1,0,0:0:0:0:
192,192,203622,1,0,0:0:0:0:
64,192,203772,1,0,0:0:0:0:
192,192,203922,1,0,0:0:0:0:
448,192,204072,1,0,0:0:0:0:
64,192,204222,1,0,0:0:0:0:
448,192,204372,1,0,0:0:0:0:
64,192,204522,1,0,0:0:0:0:
448,192,204672,1,0,0:0:0:0:
64,192,204822,1,0,0:0:0:0:
192,192,204972,1,0,0:0:0:0:
448,192,205122,1,0,0:0:0:0:
64,192,205272,1,0,0:0:0:0:
192,192,205422,1,0,0:0:0:0:
64,192,205572,1,0,0:0:0:0:
64,192,205722,128,0,208122:0:0:0:0:
448,192,205722,128,0,205872:0:0:0:0:
192,192,205872,128,0,206022:0:0:0:0:
320,192,206022,128,0,206172:0:0:0:0:
192,192,206172,128,0,206322:0:0:0:0:
320,192,206322,128,0,206472:0:0:0:0:
448,192,206472,128,0,206622:0:0:0:0:
192,192,206622,128,0,206772:0:0:0:0:
448,192,206772,128,0,206922:0:0:0:0:
192,192,206922,128,0,207072:0:0:0:0:
320,192,207072,128,0,207222:0:0:0:0:
448,192,207222,128,0,207372:0:0:0:0:
320,192,207372,128,0,207522:0:0:0:0:
448,192,207522,128,0,207672:0:0:0:0:
320,192,207672,128,0,207822:0:0:0:0:
192,192,207822,128,0,207972:0:0:0:0:
320,192,207972,128,0,208122:0:0:0:0:
192,192,208122,128,0,210522:0:0:0:0:
448,192,208122,128,0,208272:0:0:0:0:
64,192,208272,128,0,208422:0:0:0:0:
320,192,208422,128,0,208572:0:0:0:0:
64,192,208572,128,0,208722:0:0:0:0:
320,192,208722,128,0,208872:0:0:0:0:
448,192,208872,128,0,209022:0:0:0:0:
64,192,209022,128,0,209172:0:0:0:0:
448,192,209172,128,0,209322:0:0:0:0:
64,192,209322,128,0,209472:0:0:0:0:
320,192,209472,128,0,209622:0:0:0:0:
448,192,209622,128,0,209772:0:0:0:0:
320,192,209772,128,0,209922:0:0:0:0:
448,192,209922,128,0,210072:0:0:0:0:
320,192,210072,128,0,210222:0:0:0:0:
448,192,210222,128,0,210372:0:0:0:0:
64,192,210372,128,0,210522:0:0:0:0:
320,192,210522,128,0,215322:0:0:0:0:
448,192,210522,128,0,210672:0:0:0:0:
64,192,210672,128,0,210822:0:0:0:0:
192,192,210822,128,0,210972:0:0:0:0:
64,192,210972,128,0,211122:0:0:0:0:
192,192,211122,128,0,211272:0:0:0:0:
448,192,211272,128,0,211422:0:0:0:0:
64,192,211422,128,0,211572:0:0:0:0:
448,192,211572,128,0,211722:0:0:0:0:
64,192,211722,128,0,211872:0:0:0:0:
192,192,211872,128,0,212022:0:0:0:0:
448,192,212022,128,0,212172:0:0:0:0:
64,192,212172,128,0,212322:0:0:0:0:
448,192,212322,128,0,212472:0:0:0:0:
192,192,212472,128,0,212622:0:0:0:0:
64,192,212622,128,0,212772:0:0:0:0:
192,192,212772,128,0,212922:0:0:0:0:
448,192,212922,128,0,213072:0:0:0:0:
64,192,213072,128,0,213222:0:0:0:0:
192,192,213222,128,0,213372:0:0:0:0:
64,192,213372,128,0,213522:0:0:0:0:
192,192,213522,128,0,213672:0:0:0:0:
448,192,213672,128,0,213822:0:0:0:0:
64,192,213822,128,0,213972:0:0:0:0:
448,192,213972,128,0,214122:0:0:0:0:
64,192,214122,128,0,214272:0:0:0:0:
192,192,214272,128,0,214422:0:0:0:0:
448,192,214422,128,0,214572:0:0:0:0:
64,192,214572,128,0,214722:0:0:0:0:
448,192,214722,128,0,214872:0:0:0:0:
192,192,214872,128,0,215022:0:0:0:0:
64,192,215022,128,0,215172:0:0:0:0:
192,192,215172,128,0,215322:0:0:0:0:
64,192,215322,128,0,217722:0:0:0:0:
448,192,215322,128,0,215472:0:0:0:0:
192,192,215472,128,0,215622:0:0:0:0:
320,192,215622,128,0,215772:0:0:0:0:
448,192,215622,1,0,0:0:0:0:
192,192,215772,128,0,215922:0:0:0:0:
320,192,215922,128,0,216072:0:0:0:0:
448,192,216072,128,0,216222:0:0:0:0:
192,192,216222,128,0,216372:0:0:0:0:
320,192,216222,1,0,0:0:0:0:
448,192,216372,128,0,216522:0:0:0:0:
192,192,216522,128,0,216672:0:0:0:0:
320,192,216672,128,0,216822:0:0:0:0:
448,192,216822,128,0,216972:0:0:0:0:
192,192,216822,1,0,0:0:0:0:
320,192,216972,128,0,217122:0:0:0:0:
448,192,217122,128,0,217272:0:0:0:0:
320,192,217272,128,0,217422:0:0:0:0:
192,192,217422,128,0,217572:0:0:0:0:
448,192,217422,1,0,0:0:0:0:
320,192,217572,128,0,217722:0:0:0:0:
192,192,217722,128,0,220122:0:0:0:0:
448,192,217722,128,0,217872:0:0:0:0:
64,192,217872,128,0,218022:0:0:0:0:
320,192,218022,128,0,218172:0:0:0:0:
448,192,218022,1,0,0:0:0:0:
64,192,218172,128,0,218322:0:0:0:0:
320,192,218322,128,0,218472:0:0:0:0:
448,192,218472,128,0,218622:0:0:0:0:
64,192,218622,128,0,218772:0:0:0:0:
320,192,218622,1,0,0:0:0:0:
448,192,218772,128,0,218922:0:0:0:0:
64,192,218922,128,0,219072:0:0:0:0:
320,192,219072,128,0,219222:0:0:0:0:
448,192,219222,128,0,219372:0:0:0:0:
64,192,219222,1,0,0:0:0:0:
320,192,219372,128,0,219522:0:0:0:0:
448,192,219522,128,0,219672:0:0:0:0:
320,192,219672,128,0,219822:0:0:0:0:
448,192,219822,128,0,219972:0:0:0:0:
64,192,219822,1,0,0:0:0:0:
64,192,219972,128,0,220122:0:0:0:0:
320,192,220122,128,0,224922:0:0:0:0:
448,192,220122,128,0,220272:0:0:0:0:
64,192,220272,128,0,220422:0:0:0:0:
192,192,220422,128,0,220572:0:0:0:0:
448,192,220422,1,0,0:0:0:0:
64,192,220572,128,0,220722:0:0:0:0:
192,192,220722,128,0,220872:0:0:0:0:
448,192,220872,128,0,221022:0:0:0:0:
64,192,221022,128,0,221172:0:0:0:0:
192,192,221022,1,0,0:0:0:0:
448,192,221172,128,0,221322:0:0:0:0:
64,192,221322,128,0,221472:0:0:0:0:
192,192,221472,128,0,221622:0:0:0:0:
448,192,221622,128,0,221772:0:0:0:0:
64,192,221622,1,0,0:0:0:0:
64,192,221772,128,0,221922:0:0:0:0:
448,192,221922,128,0,222072:0:0:0:0:
192,192,222072,128,0,222222:0:0:0:0:
64,192,222222,128,0,222372:0:0:0:0:
448,192,222222,1,0,0:0:0:0:
192,192,222372,128,0,222522:0:0:0:0:
448,192,222522,128,0,222672:0:0:0:0:
64,192,222672,128,0,222822:0:0:0:0:
192,192,222822,128,0,222972:0:0:0:0:
448,192,222822,1,0,0:0:0:0:
64,192,222972,128,0,223122:0:0:0:0:
192,192,223122,128,0,223272:0:0:0:0:
448,192,223272,128,0,223422:0:0:0:0:
64,192,223422,128,0,223572:0:0:0:0:
192,192,223422,1,0,0:0:0:0:
448,192,223572,128,0,223722:0:0:0:0:
64,192,223722,128,0,223872:0:0:0:0:
448,192,223872,128,0,224022:0:0:0:0:
64,192,224022,128,0,224172:0:0:0:0:
192,192,224022,1,0,0:0:0:0:
192,192,224172,128,0,224322:0:0:0:0:
448,192,224322,128,0,224472:0:0:0:0:
64,192,224472,128,0,224622:0:0:0:0:
448,192,224622,128,0,224772:0:0:0:0:
192,192,224622,1,0,0:0:0:0:
192,192,224772,128,0,224922:0:0:0:0:
64,192,224922,128,0,227322:0:0:0:0:
448,192,224922,128,0,225072:0:0:0:0:
192,192,225072,128,0,225222:0:0:0:0:
320,192,225222,128,0,225372:0:0:0:0:
448,192,225222,1,0,0:0:0:0:
192,192,225372,128,0,225522:0:0:0:0:
320,192,225522,128,0,225672:0:0:0:0:
448,192,225672,128,0,225822:0:0:0:0:
192,192,225822,128,0,225972:0:0:0:0:
320,192,225822,1,0,0:0:0:0:
448,192,225972,128,0,226122:0:0:0:0:
192,192,226122,128,0,226272:0:0:0:0:
320,192,226272,128,0,226422:0:0:0:0:
448,192,226422,128,0,226572:0:0:0:0:
192,192,226422,1,0,0:0:0:0:
320,192,226572,128,0,226722:0:0:0:0:
448,192,226722,128,0,226872:0:0:0:0:
320,192,226872,128,0,227022:0:0:0:0:
192,192,227022,128,0,227172:0:0:0:0:
448,192,227022,1,0,0:0:0:0:
320,192,227172,128,0,227322:0:0:0:0:
192,192,227322,128,0,229722:0:0:0:0:
448,192,227322,128,0,227472:0:0:0:0:
64,192,227472,128,0,227622:0:0:0:0:
320,192,227622,128,0,227772:0:0:0:0:
448,192,227622,1,0,0:0:0:0:
64,192,227772,128,0,227922:0:0:0:0:
320,192,227922,128,0,228072:0:0:0:0:
448,192,228072,128,0,228222:0:0:0:0:
64,192,228072,1,0,0:0:0:0:
64,192,228222,128,0,228372:0:0:0:0:
320,192,228222,1,0,0:0:0:0:
448,192,228372,128,0,228522:0:0:0:0:
64,192,228522,128,0,228672:0:0:0:0:
320,192,228672,128,0,228822:0:0:0:0:
448,192,228822,128,0,228972:0:0:0:0:
64,192,228822,1,0,0:0:0:0:
320,192,228972,128,0,229122:0:0:0:0:
448,192,229122,128,0,229272:0:0:0:0:
320,192,229272,128,0,229422:0:0:0:0:
448,192,229422,128,0,229572:0:0:0:0:
64,192,229422,1,0,0:0:0:0:
64,192,229572,128,0,229722:0:0:0:0:
320,192,229572,1,0,0:0:0:0:
320,192,229722,128,0,234372:0:0:0:0:
448,192,229722,128,0,229872:0:0:0:0:
64,192,229872,128,0,230022:0:0:0:0:
192,192,230022,128,0,230172:0:0:0:0:
448,192,230022,1,0,0:0:0:0:
64,192,230172,128,0,230322:0:0:0:0:
192,192,230322,128,0,230472:0:0:0:0:
448,192,230472,128,0,230622:0:0:0:0:
64,192,230472,1,0,0:0:0:0:
64,192,230622,128,0,230772:0:0:0:0:
192,192,230622,1,0,0:0:0:0:
448,192,230772,128,0,230922:0:0:0:0:
64,192,230922,128,0,231072:0:0:0:0:
192,192,231072,128,0,231222:0:0:0:0:
448,192,231222,128,0,231372:0:0:0:0:
64,192,231222,1,0,0:0:0:0:
64,192,231372,128,0,231522:0:0:0:0:
448,192,231522,128,0,231672:0:0:0:0:
192,192,231672,128,0,231822:0:0:0:0:
64,192,231822,128,0,231972:0:0:0:0:
448,192,231822,1,0,0:0:0:0:
192,192,231972,128,0,232122:0:0:0:0:
448,192,232122,128,0,232272:0:0:0:0:
64,192,232272,128,0,232422:0:0:0:0:
192,192,232422,128,0,232572:0:0:0:0:
448,192,232422,1,0,0:0:0:0:
64,192,232572,128,0,232722:0:0:0:0:
192,192,232722,128,0,232872:0:0:0:0:
448,192,232872,128,0,233022:0:0:0:0:
64,192,233022,128,0,233172:0:0:0:0:
192,192,233022,1,0,0:0:0:0:
448,192,233172,128,0,233322:0:0:0:0:
64,192,233322,128,0,233472:0:0:0:0:
448,192,233472,128,0,233622:0:0:0:0:
64,192,233622,128,0,233772:0:0:0:0:
192,192,233622,1,0,0:0:0:0:
192,192,233772,128,0,233922:0:0:0:0:
448,192,233922,128,0,234072:0:0:0:0:
64,192,233922,1,0,0:0:0:0:
64,192,234072,128,0,234222:0:0:0:0:
448,192,234222,128,0,234372:0:0:0:0:
192,192,234222,1,0,0:0:0:0:
64,192,234372,128,0,234522:0:0:0:0:
192,192,234372,1,0,0:0:0:0:
448,192,234522,128,0,235572:0:0:0:0:
320,192,234522,1,0,0:0:0:0:
64,192,234672,1,0,0:0:0:0:
192,192,234822,1,0,0:0:0:0:
64,192,234972,1,0,0:0:0:0:
192,192,235122,1,0,0:0:0:0:
320,192,235272,1,0,0:0:0:0:
192,192,235422,1,0,0:0:0:0:
320,192,235572,1,0,0:0:0:0:
320,192,235722,128,0,236922:0:0:0:0:
64,192,235872,1,0,0:0:0:0:
192,192,236022,1,0,0:0:0:0:
64,192,236172,1,0,0:0:0:0:
448,192,236322,1,0,0:0:0:0:
64,192,236472,1,0,0:0:0:0:
192,192,236622,1,0,0:0:0:0:
448,192,236772,1,0,0:0:0:0:
192,192,236922,1,0,0:0:0:0:
448,192,236922,128,0,236997:0:0:0:0:
64,192,237072,128,0,237147:0:0:0:0:
192,192,237222,128,0,237297:0:0:0:0:
64,192,237372,128,0,237447:0:0:0:0:
320,192,237522,128,0,237597:0:0:0:0:
192,192,237522,1,0,0:0:0:0:
448,192,237672,128,0,237747:0:0:0:0:
64,192,237822,128,0,237897:0:0:0:0:
192,192,237972,128,0,238047:0:0:0:0:
448,192,238122,1,0,0:0:0:0:
320,192,238122,128,0,238197:0:0:0:0:
64,192,238272,128,0,238347:0:0:0:0:
192,192,238422,128,0,238497:0:0:0:0:
64,192,238572,128,0,238647:0:0:0:0:
448,192,238722,128,0,238797:0:0:0:0:
192,192,238722,1,0,0:0:0:0:
320,192,238872,128,0,238947:0:0:0:0:
192,192,239022,128,0,239097:0:0:0:0:
64,192,239172,128,0,239247:0:0:0:0:
192,192,239322,1,0,0:0:0:0:
448,192,239322,128,0,239397:0:0:0:0:
64,192,239472,128,0,239547:0:0:0:0:
192,192,239622,128,0,239697:0:0:0:0:
64,192,239772,128,0,239847:0:0:0:0:
320,192,239922,128,0,239997:0:0:0:0:
448,192,240072,128,0,240147:0:0:0:0:
64,192,240222,128,0,240297:0:0:0:0:
448,192,240372,128,0,240447:0:0:0:0:
192,192,240522,1,0,0:0:0:0:
320,192,240522,128,0,240597:0:0:0:0:
64,192,240672,128,0,240747:0:0:0:0:
192,192,240822,128,0,240897:0:0:0:0:
64,192,240972,128,0,241047:0:0:0:0:
320,192,241122,128,0,241197:0:0:0:0:
64,192,241272,128,0,241347:0:0:0:0:
192,192,241422,128,0,241497:0:0:0:0:
320,192,241572,128,0,241647:0:0:0:0:
448,192,241722,1,0,0:0:0:0:
192,192,241722,128,0,241797:0:0:0:0:
64,192,241872,128,0,241947:0:0:0:0:
192,192,242022,128,0,242097:0:0:0:0:
64,192,242172,128,0,242247:0:0:0:0:
320,192,242322,128,0,242397:0:0:0:0:
448,192,242472,128,0,242547:0:0:0:0:
64,192,242622,128,0,242697:0:0:0:0:
192,192,242772,128,0,242847:0:0:0:0:
320,192,242922,1,0,0:0:0:0:
448,192,242922,128,0,242997:0:0:0:0:
64,192,243072,128,0,243147:0:0:0:0:
192,192,243222,128,0,243297:0:0:0:0:
64,192,243372,128,0,243447:0:0:0:0:
448,192,243522,128,0,243597:0:0:0:0:
320,192,243672,128,0,243747:0:0:0:0:
192,192,243822,128,0,243897:0:0:0:0:
64,192,243972,128,0,244047:0:0:0:0:
448,192,244122,1,0,0:0:0:0:
192,192,244122,1,0,0:0:0:0:
64,192,244272,1,0,0:0:0:0:
320,192,244422,1,0,0:0:0:0:
192,192,244422,1,0,0:0:0:0:
64,192,244572,1,0,0:0:0:0:
192,192,244722,1,0,0:0:0:0:
320,192,244722,1,0,0:0:0:0:
448,192,244722,1,0,0:0:0:0:
448,192,244872,1,0,0:0:0:0:
64,192,245022,1,0,0:0:0:0:
320,192,245022,1,0,0:0:0:0:
448,192,245172,1,0,0:0:0:0:
192,192,245322,1,0,0:0:0:0:
320,192,245322,1,0,0:0:0:0:
64,192,245472,1,0,0:0:0:0:
320,192,245472,1,0,0:0:0:0:
192,192,245622,1,0,0:0:0:0:
64,192,245772,1,0,0:0:0:0:
320,192,245922,1,0,0:0:0:0:
64,192,246072,1,0,0:0:0:0:
192,192,246222,1,0,0:0:0:0:
320,192,246372,1,0,0:0:0:0:
192,192,246522,1,0,0:0:0:0:
448,192,246522,1,0,0:0:0:0:
64,192,246672,1,0,0:0:0:0:
192,192,246822,1,0,0:0:0:0:
320,192,246822,1,0,0:0:0:0:
64,192,246972,1,0,0:0:0:0:
192,192,247122,1,0,0:0:0:0:
448,192,247122,1,0,0:0:0:0:
320,192,247122,1,0,0:0:0:0:
64,192,247272,1,0,0:0:0:0:
192,192,247422,1,0,0:0:0:0:
320,192,247422,1,0,0:0:0:0:
448,192,247572,1,0,0:0:0:0:
192,192,247722,1,0,0:0:0:0:
320,192,247872,1,0,0:0:0:0:
448,192,247872,1,0,0:0:0:0:
64,192,248022,1,0,0:0:0:0:
192,192,248022,1,0,0:0:0:0:
64,192,248172,1,0,0:0:0:0:
448,192,248322,1,0,0:0:0:0:
320,192,248472,1,0,0:0:0:0:
192,192,248622,1,0,0:0:0:0:
64,192,248772,1,0,0:0:0:0:
448,192,248922,1,0,0:0:0:0:
192,192,248922,1,0,0:0:0:0:
64,192,249072,1,0,0:0:0:0:
320,192,249222,1,0,0:0:0:0:
192,192,249222,1,0,0:0:0:0:
64,192,249372,1,0,0:0:0:0:
192,192,249522,1,0,0:0:0:0:
320,192,249522,1,0,0:0:0:0:
448,192,249522,1,0,0:0:0:0:
448,192,249672,1,0,0:0:0:0:
64,192,249822,1,0,0:0:0:0:
320,192,249822,1,0,0:0:0:0:
448,192,249972,1,0,0:0:0:0:
192,192,250122,1,0,0:0:0:0:
320,192,250122,1,0,0:0:0:0:
64,192,250272,1,0,0:0:0:0:
320,192,250272,1,0,0:0:0:0:
192,192,250422,1,0,0:0:0:0:
448,192,250422,1,0,0:0:0:0:
64,192,250572,1,0,0:0:0:0:
320,192,250722,1,0,0:0:0:0:
64,192,250872,1,0,0:0:0:0:
192,192,251022,1,0,0:0:0:0:
320,192,251172,1,0,0:0:0:0:
192,192,251322,1,0,0:0:0:0:
448,192,251322,1,0,0:0:0:0:
64,192,251472,1,0,0:0:0:0:
192,192,251622,1,0,0:0:0:0:
320,192,251622,1,0,0:0:0:0:
64,192,251772,1,0,0:0:0:0:
192,192,251922,1,0,0:0:0:0:
448,192,251922,1,0,0:0:0:0:
320,192,251922,1,0,0:0:0:0:
64,192,252072,1,0,0:0:0:0:
192,192,252222,1,0,0:0:0:0:
320,192,252222,1,0,0:0:0:0:
448,192,252372,1,0,0:0:0:0:
192,192,252522,1,0,0:0:0:0:
320,192,252672,1,0,0:0:0:0:
448,192,252672,1,0,0:0:0:0:
64,192,252822,1,0,0:0:0:0:
192,192,252822,1,0,0:0:0:0:
64,192,252972,1,0,0:0:0:0:
448,192,253122,1,0,0:0:0:0:
320,192,253272,1,0,0:0:0:0:
192,192,253422,1,0,0:0:0:0:
64,192,253572,1,0,0:0:0:0:
192,192,253722,5,0,0:0:0:0:
448,192,253722,1,0,0:0:0:0:
64,192,253872,1,0,0:0:0:0:
192,192,254022,1,0,0:0:0:0:
64,192,254172,1,0,0:0:0:0:
320,192,254322,1,0,0:0:0:0:
448,192,254472,1,0,0:0:0:0:
192,192,254622,1,0,0:0:0:0:
448,192,254772,1,0,0:0:0:0:
320,192,254922,1,0,0:0:0:0:
192,192,254922,1,0,0:0:0:0:
64,192,255072,1,0,0:0:0:0:
192,192,255222,1,0,0:0:0:0:
64,192,255372,1,0,0:0:0:0:
320,192,255522,1,0,0:0:0:0:
64,192,255672,1,0,0:0:0:0:
192,192,255822,1,0,0:0:0:0:
320,192,255972,1,0,0:0:0:0:
192,192,256122,1,0,0:0:0:0:
448,192,256122,1,0,0:0:0:0:
64,192,256272,1,0,0:0:0:0:
192,192,256422,1,0,0:0:0:0:
64,192,256572,1,0,0:0:0:0:
320,192,256722,1,0,0:0:0:0:
448,192,256872,1,0,0:0:0:0:
64,192,257022,1,0,0:0:0:0:
192,192,257172,1,0,0:0:0:0:
448,192,257322,1,0,0:0:0:0:
320,192,257322,1,0,0:0:0:0:
64,192,257472,1,0,0:0:0:0:
192,192,257622,1,0,0:0:0:0:
64,192,257772,1,0,0:0:0:0:
448,192,257922,1,0,0:0:0:0:
320,192,258072,1,0,0:0:0:0:
192,192,258222,1,0,0:0:0:0:
64,192,258372,1,0,0:0:0:0:
192,192,258522,5,0,0:0:0:0:
448,192,258522,1,0,0:0:0:0:
64,192,258672,1,0,0:0:0:0:
192,192,258822,1,0,0:0:0:0:
64,192,258972,1,0,0:0:0:0:
320,192,259122,1,0,0:0:0:0:
448,192,259272,1,0,0:0:0:0:
192,192,259422,1,0,0:0:0:0:
448,192,259572,1,0,0:0:0:0:
192,192,259722,1,0,0:0:0:0:
320,192,259722,1,0,0:0:0:0:
64,192,259872,1,0,0:0:0:0:
192,192,260022,1,0,0:0:0:0:
64,192,260172,1,0,0:0:0:0:
320,192,260322,1,0,0:0:0:0:
64,192,260472,1,0,0:0:0:0:
192,192,260622,1,0,0:0:0:0:
320,192,260772,1,0,0:0:0:0:
448,192,260922,1,0,0:0:0:0:
192,192,260922,1,0,0:0:0:0:
64,192,261072,1,0,0:0:0:0:
192,192,261222,1,0,0:0:0:0:
64,192,261372,1,0,0:0:0:0:
320,192,261522,1,0,0:0:0:0:
448,192,261672,1,0,0:0:0:0:
64,192,261822,1,0,0:0:0:0:
192,192,261972,1,0,0:0:0:0:
320,192,262122,1,0,0:0:0:0:
448,192,262122,1,0,0:0:0:0:
64,192,262272,1,0,0:0:0:0:
192,192,262422,1,0,0:0:0:0:
64,192,262572,1,0,0:0:0:0:
448,192,262722,1,0,0:0:0:0:
320,192,262872,1,0,0:0:0:0:
192,192,263022,1,0,0:0:0:0:
64,192,263172,1,0,0:0:0:0:
192,192,263322,5,0,0:0:0:0:
448,192,263322,1,0,0:0:0:0:
64,192,263472,1,0,0:0:0:0:
192,192,263622,1,0,0:0:0:0:
64,192,263772,1,0,0:0:0:0:
320,192,263922,1,0,0:0:0:0:
448,192,264072,1,0,0:0:0:0:
192,192,264222,1,0,0:0:0:0:
448,192,264372,1,0,0:0:0:0:
320,192,264522,1,0,0:0:0:0:
192,192,264522,1,0,0:0:0:0:
64,192,264672,1,0,0:0:0:0:
192,192,264822,1,0,0:0:0:0:
64,192,264972,1,0,0:0:0:0:
320,192,265122,1,0,0:0:0:0:
64,192,265272,1,0,0:0:0:0:
192,192,265422,1,0,0:0:0:0:
320,192,265572,1,0,0:0:0:0:
192,192,265722,1,0,0:0:0:0:
448,192,265722,1,0,0:0:0:0:
64,192,265872,1,0,0:0:0:0:
192,192,266022,1,0,0:0:0:0:
64,192,266172,1,0,0:0:0:0:
320,192,266322,1,0,0:0:0:0:
448,192,266472,1,0,0:0:0:0:
64,192,266622,1,0,0:0:0:0:
192,192,266772,1,0,0:0:0:0:
448,192,266922,1,0,0:0:0:0:
320,192,266922,1,0,0:0:0:0:
64,192,267072,1,0,0:0:0:0:
192,192,267222,1,0,0:0:0:0:
64,192,267372,1,0,0:0:0:0:
448,192,267522,1,0,0:0:0:0:
320,192,267672,1,0,0:0:0:0:
192,192,267822,1,0,0:0:0:0:
64,192,267972,1,0,0:0:0:0:
192,192,268122,5,0,0:0:0:0:
448,192,268122,1,0,0:0:0:0:
64,192,268272,1,0,0:0:0:0:
192,192,268422,1,0,0:0:0:0:
64,192,268572,1,0,0:0:0:0:
320,192,268722,1,0,0:0:0:0:
448,192,268872,1,0,0:0:0:0:
192,192,269022,1,0,0:0:0:0:
448,192,269172,1,0,0:0:0:0:
192,192,269322,1,0,0:0:0:0:
320,192,269322,1,0,0:0:0:0:
64,192,269472,1,0,0:0:0:0:
192,192,269622,1,0,0:0:0:0:
64,192,269772,1,0,0:0:0:0:
320,192,269922,1,0,0:0:0:0:
64,192,270072,1,0,0:0:0:0:
192,192,270222,1,0,0:0:0:0:
320,192,270372,1,0,0:0:0:0:
448,192,270522,1,0,0:0:0:0:
192,192,270522,1,0,0:0:0:0:
64,192,270672,1,0,0:0:0:0:
192,192,270822,1,0,0:0:0:0:
64,192,270972,1,0,0:0:0:0:
320,192,271122,1,0,0:0:0:0:
448,192,271272,1,0,0:0:0:0:
64,192,271422,1,0,0:0:0:0:
192,192,271572,1,0,0:0:0:0:
320,192,271722,1,0,0:0:0:0:
448,192,271722,1,0,0:0:0:0:
64,192,271872,1,0,0:0:0:0:
192,192,272022,1,0,0:0:0:0:
64,192,272172,1,0,0:0:0:0:
320,192,272322,1,0,0:0:0:0:
192,192,272472,1,0,0:0:0:0:
320,192,272622,1,0,0:0:0:0:
448,192,272772,1,0,0:0:0:0:
