osu file format v14

[General]
AudioFilename: audio.mp3
AudioLeadIn: 0
PreviewTime: 196084
Countdown: 0
SampleSet: Soft
StackLeniency: 0.7
Mode: 3
LetterboxInBreaks: 0
SpecialStyle: 0
WidescreenStoryboard: 1

[Editor]
DistanceSpacing: 1.2
BeatDivisor: 8
GridSize: 4
TimelineZoom: 3.599998

[Metadata]
Title:Spider Thread Monopoly feat. Hatsune Miku
TitleUnicode:蜘蛛糸モノポリー feat. 初音ミク
Artist:sasakure.UK
ArtistUnicode:sasakure.UK
Creator:TrippinBeats
Version:Indestructible
Source:
Tags:
BeatmapID:1270061
BeatmapSetID:596680

[Difficulty]
HPDrainRate:8
CircleSize:4
OverallDifficulty:8
ApproachRate:5
SliderMultiplier:1.4
SliderTickRate:1

[Events]
//Background and Video events
0,0,"941398-animals-blue-hair-brown-eyes-cats-hatsune-miku-long-hair-looking-back-rain-scarfs-twintails-umbrellas-vocaloid.jpg",0,0
//Break Periods
//Storyboard Layer 0 (Background)
//Storyboard Layer 1 (Fail)
//Storyboard Layer 2 (Pass)
//Storyboard Layer 3 (Foreground)
//Storyboard Sound Samples

[TimingPoints]
1722.10474890762,300,4,2,0,0,1,0
11322,-100,4,2,0,0,0,0
20922,-100,4,2,0,0,0,0
30522,-100,4,2,0,0,0,0
40122,-100,4,2,0,0,0,0
68922,-100,4,2,0,0,0,0
83322,-100,4,2,0,0,0,0
102522,-100,4,2,0,0,0,0
112122,-104.166666666667,4,2,0,0,0,0
112197,-108.695652173913,4,2,0,0,0,0
112272,-111.111111111111,4,2,0,0,0,0
112347,-113.636363636364,4,2,0,0,0,0
112422,-116.279069767442,4,2,0,0,0,0
112497,-119.047619047619,4,2,0,0,0,0
112572,-120.481927710843,4,2,0,0,0,0
112647,-121.951219512195,4,2,0,0,0,0
112722,-123.456790123457,4,2,0,0,0,0
112797,-125,4,2,0,0,0,0
112872,-126.582278481013,4,2,0,0,0,0
112947,-128.205128205128,4,2,0,0,0,0
113022,-129.87012987013,4,2,0,0,0,0
113097,-131.578947368421,4,2,0,0,0,0
113172,-133.333333333333,4,2,0,0,0,0
120522,-90.9090909090909,4,2,0,0,0,0
121722,-100,4,2,0,0,0,0
131322,-100,4,2,0,0,0,0
140922,-100,4,2,0,0,0,0
150522,-100,4,2,0,0,0,0
160122,-100,4,2,0,0,0,0
169722,-100,4,2,0,0,0,0
185022,-105.263157894737,4,2,0,0,0,0
185322,-111.111111111111,4,2,0,0,0,0
185622,-117.647058823529,4,2,0,0,0,0
185922,-125,4,2,0,0,0,0
186222,-133.333333333333,4,2,0,0,0,0
186597,-142.857142857143,4,2,0,0,0,0
186972,-153.846153846154,4,2,0,0,0,0
187272,-166.666666666667,4,2,0,0,0,0
187647,-181.818181818182,4,2,0,0,0,0
188134,-200,4,2,0,0,0,0
188547,-222.222222222222,4,2,0,0,0,0
190122,-80,4,2,0,0,0,0
193122,-10,4,2,0,0,0,0
193722,-10000,4,2,0,0,0,0
195822,-100,4,2,0,0,0,0
196122,-98.0392156862745,4,2,0,0,0,0
215322,-96.1538461538461,4,2,0,0,0,0
224922,-95.2380952380952,4,2,0,0,0,0
234522,-100,4,2,0,0,0,0
253722,-104.166666666667,4,2,0,0,0,0
253797,-108.695652173913,4,2,0,0,0,0
253872,-111.111111111111,4,2,0,0,0,0
253947,-113.636363636364,4,2,0,0,0,0
254022,-116.279069767442,4,2,0,0,0,0
254097,-119.047619047619,4,2,0,0,0,0
254172,-120.481927710843,4,2,0,0,0,0
254247,-121.951219512195,4,2,0,0,0,0
254322,-123.456790123457,4,2,0,0,0,0
254397,-125,4,2,0,0,0,0
254472,-126.582278481013,4,2,0,0,0,0
254547,-128.205128205128,4,2,0,0,0,0
254622,-129.87012987013,4,2,0,0,0,0
254697,-131.578947368421,4,2,0,0,0,0
254772,-133.333333333333,4,2,0,0,0,0

[HitObjects]
64,192,1722,5,0,0:0:0:0:
448,192,1722,1,0,0:0:0:0:
320,192,1722,1,0,0:0:0:0:
64,192,1872,1,0,0:0:0:0:
192,192,2022,1,0,0:0:0:0:
64,192,2172,1,0,0:0:0:0:
320,192,2322,1,0,0:0:0:0:
448,192,2472,1,0,0:0:0:0:
192,192,2622,1,0,0:0:0:0:
448,192,2772,1,0,0:0:0:0:
320,192,2922,1,0,0:0:0:0:
192,192,2922,1,0,0:0:0:0:
64,192,2922,1,0,0:0:0:0:
64,192,3072,1,0,0:0:0:0:
192,192,3222,1,0,0:0:0:0:
64,192,3372,1,0,0:0:0:0:
320,192,3522,1,0,0:0:0:0:
64,192,3672,1,0,0:0:0:0:
192,192,3822,1,0,0:0:0:0:
320,192,3972,1,0,0:0:0:0:
192,192,4122,1,0,0:0:0:0:
448,192,4122,1,0,0:0:0:0:
64,192,4122,1,0,0:0:0:0:
64,192,4272,1,0,0:0:0:0:
192,192,4422,1,0,0:0:0:0:
64,192,4572,1,0,0:0:0:0:
320,192,4722,1,0,0:0:0:0:
448,192,4872,1,0,0:0:0:0:
64,192,5022,1,0,0:0:0:0:
192,192,5172,1,0,0:0:0:0:
448,192,5322,1,0,0:0:0:0:
320,192,5322,1,0,0:0:0:0:
64,192,5322,1,0,0:0:0:0:
64,192,5472,1,0,0:0:0:0:
192,192,5622,1,0,0:0:0:0:
64,192,5772,1,0,0:0:0:0:
448,192,5922,1,0,0:0:0:0:
320,192,6072,1,0,0:0:0:0:
192,192,6222,1,0,0:0:0:0:
64,192,6372,1,0,0:0:0:0:
64,192,6522,1,0,0:0:0:0:
192,192,6522,1,0,0:0:0:0:
448,192,6522,1,0,0:0:0:0:
64,192,6672,1,0,0:0:0:0:
192,192,6822,1,0,0:0:0:0:
64,192,6972,1,0,0:0:0:0:
320,192,7122,1,0,0:0:0:0:
448,192,7272,1,0,0:0:0:0:
64,192,7422,1,0,0:0:0:0:
448,192,7572,1,0,0:0:0:0:
320,192,7722,1,0,0:0:0:0:
192,192,7722,1,0,0:0:0:0:
64,192,7722,1,0,0:0:0:0:
64,192,7872,1,0,0:0:0:0:
192,192,8022,1,0,0:0:0:0:
64,192,8172,1,0,0:0:0:0:
320,192,8322,1,0,0:0:0:0:
64,192,8472,1,0,0:0:0:0:
192,192,8622,1,0,0:0:0:0:
320,192,8772,1,0,0:0:0:0:
192,192,8922,1,0,0:0:0:0:
448,192,8922,1,0,0:0:0:0:
64,192,8922,1,0,0:0:0:0:
64,192,9072,1,0,0:0:0:0:
192,192,9222,1,0,0:0:0:0:
64,192,9372,1,0,0:0:0:0:
320,192,9522,1,0,0:0:0:0:
448,192,9672,1,0,0:0:0:0:
64,192,9822,1,0,0:0:0:0:
192,192,9972,1,0,0:0:0:0:
320,192,10122,1,0,0:0:0:0:
448,192,10122,1,0,0:0:0:0:
64,192,10122,1,0,0:0:0:0:
64,192,10272,1,0,0:0:0:0:
192,192,10422,1,0,0:0:0:0:
64,192,10572,1,0,0:0:0:0:
448,192,10722,1,0,0:0:0:0:
320,192,10872,1,0,0:0:0:0:
192,192,11022,1,0,0:0:0:0:
64,192,11172,1,0,0:0:0:0:
448,192,11322,1,0,0:0:0:0:
320,192,11322,1,0,0:0:0:0:
64,192,11472,1,0,0:0:0:0:
192,192,11472,1,0,0:0:0:0:
448,192,11622,1,0,0:0:0:0:
192,192,11622,1,0,0:0:0:0:
320,192,11622,1,0,0:0:0:0:
64,192,11772,1,0,0:0:0:0:
320,192,11772,1,0,0:0:0:0:
192,192,11772,1,0,0:0:0:0:
192,192,11922,1,0,0:0:0:0:
320,192,11922,1,0,0:0:0:0:
448,192,11922,1,0,0:0:0:0:
64,192,11922,1,0,0:0:0:0:
448,192,12072,1,0,0:0:0:0:
64,192,12222,1,0,0:0:0:0:
320,192,12222,1,0,0:0:0:0:
448,192,12372,1,0,0:0:0:0:
192,192,12522,1,0,0:0:0:0:
64,192,12522,1,0,0:0:0:0:
320,192,12522,1,0,0:0:0:0:
448,192,12672,1,0,0:0:0:0:
64,192,12672,1,0,0:0:0:0:
192,192,12822,1,0,0:0:0:0:
320,192,12822,1,0,0:0:0:0:
64,192,12972,1,0,0:0:0:0:
320,192,13122,1,0,0:0:0:0:
64,192,13272,1,0,0:0:0:0:
192,192,13422,1,0,0:0:0:0:
320,192,13572,1,0,0:0:0:0:
192,192,13722,1,0,0:0:0:0:
64,192,13722,1,0,0:0:0:0:
448,192,13722,1,0,0:0:0:0:
192,192,13872,1,0,0:0:0:0:
320,192,13872,1,0,0:0:0:0:
64,192,14022,1,0,0:0:0:0:
320,192,14022,1,0,0:0:0:0:
448,192,14022,1,0,0:0:0:0:
320,192,14172,1,0,0:0:0:0:
192,192,14172,1,0,0:0:0:0:
192,192,14322,1,0,0:0:0:0:
448,192,14322,1,0,0:0:0:0:
320,192,14322,1,0,0:0:0:0:
64,192,14322,1,0,0:0:0:0:
192,192,14472,1,0,0:0:0:0:
320,192,14622,1,0,0:0:0:0:
448,192,14622,1,0,0:0:0:0:
192,192,14772,1,0,0:0:0:0:
320,192,14772,1,0,0:0:0:0:
64,192,14922,1,0,0:0:0:0:
192,192,14922,1,0,0:0:0:0:
448,192,14922,1,0,0:0:0:0:
320,192,15072,1,0,0:0:0:0:
448,192,15072,1,0,0:0:0:0:
192,192,15222,1,0,0:0:0:0:
64,192,15222,1,0,0:0:0:0:
64,192,15372,1,0,0:0:0:0:
448,192,15522,1,0,0:0:0:0:
320,192,15672,1,0,0:0:0:0:
192,192,15822,1,0,0:0:0:0:
64,192,15972,1,0,0:0:0:0:
448,192,16122,1,0,0:0:0:0:
64,192,16122,1,0,0:0:0:0:
320,192,16122,1,0,0:0:0:0:
64,192,16272,1,0,0:0:0:0:
192,192,16272,1,0,0:0:0:0:
448,192,16422,1,0,0:0:0:0:
320,192,16422,1,0,0:0:0:0:
192,192,16422,1,0,0:0:0:0:
192,192,16572,1,0,0:0:0:0:
64,192,16572,1,0,0:0:0:0:
192,192,16722,1,0,0:0:0:0:
320,192,16722,1,0,0:0:0:0:
448,192,16722,1,0,0:0:0:0:
64,192,16722,1,0,0:0:0:0:
448,192,16872,1,0,0:0:0:0:
64,192,17022,1,0,0:0:0:0:
320,192,17022,1,0,0:0:0:0:
448,192,17172,1,0,0:0:0:0:
192,192,17172,1,0,0:0:0:0:
192,192,17322,1,0,0:0:0:0:
320,192,17322,1,0,0:0:0:0:
64,192,17322,1,0,0:0:0:0:
320,192,17472,1,0,0:0:0:0:
448,192,17472,1,0,0:0:0:0:
192,192,17622,1,0,0:0:0:0:
64,192,17622,1,0,0:0:0:0:
64,192,17772,1,0,0:0:0:0:
320,192,17922,1,0,0:0:0:0:
64,192,18072,1,0,0:0:0:0:
192,192,18222,1,0,0:0:0:0:
320,192,18372,1,0,0:0:0:0:
64,192,18522,1,0,0:0:0:0:
448,192,18522,1,0,0:0:0:0:
192,192,18522,1,0,0:0:0:0:
192,192,18672,1,0,0:0:0:0:
64,192,18672,1,0,0:0:0:0:
320,192,18822,1,0,0:0:0:0:
448,192,18822,1,0,0:0:0:0:
192,192,18972,1,0,0:0:0:0:
64,192,18972,1,0,0:0:0:0:
448,192,19122,1,0,0:0:0:0:
64,192,19122,1,0,0:0:0:0:
320,192,19122,1,0,0:0:0:0:
320,192,19272,1,0,0:0:0:0:
448,192,19272,1,0,0:0:0:0:
192,192,19422,1,0,0:0:0:0:
64,192,19422,1,0,0:0:0:0:
320,192,19572,1,0,0:0:0:0:
448,192,19572,1,0,0:0:0:0:
448,192,19722,1,0,0:0:0:0:
64,192,19722,1,0,0:0:0:0:
192,192,19722,1,0,0:0:0:0:
192,192,19872,1,0,0:0:0:0:
64,192,19872,1,0,0:0:0:0:
320,192,20022,1,0,0:0:0:0:
192,192,20022,1,0,0:0:0:0:
320,192,20172,1,0,0:0:0:0:
448,192,20172,1,0,0:0:0:0:
448,192,20322,1,0,0:0:0:0:
192,192,20322,1,0,0:0:0:0:
320,192,20322,1,0,0:0:0:0:
64,192,20322,128,0,20622:0:0:0:0:
448,192,20472,1,0,0:0:0:0:
320,192,20622,128,0,20922:0:0:0:0:
192,192,20772,1,0,0:0:0:0:
64,192,20922,1,0,0:0:0:0:
448,192,20922,128,0,21372:0:0:0:0:
320,192,21072,1,0,0:0:0:0:
192,192,21222,1,0,0:0:0:0:
64,192,21222,1,0,0:0:0:0:
192,192,21372,1,0,0:0:0:0:
320,192,21372,1,0,0:0:0:0:
64,192,21522,1,0,0:0:0:0:
192,192,21522,1,0,0:0:0:0:
448,192,21522,1,0,0:0:0:0:
320,192,21522,128,0,21972:0:0:0:0:
192,192,21822,1,0,0:0:0:0:
64,192,21822,1,0,0:0:0:0:
320,192,22122,1,0,0:0:0:0:
448,192,22122,1,0,0:0:0:0:
64,192,22122,128,0,22572:0:0:0:0:
192,192,22422,1,0,0:0:0:0:
320,192,22572,1,0,0:0:0:0:
192,192,22572,1,0,0:0:0:0:
448,192,22722,1,0,0:0:0:0:
320,192,22722,1,0,0:0:0:0:
64,192,22722,1,0,0:0:0:0:
192,192,22722,128,0,23172:0:0:0:0:
320,192,23322,1,0,0:0:0:0:
448,192,23322,1,0,0:0:0:0:
64,192,23472,1,0,0:0:0:0:
192,192,23472,1,0,0:0:0:0:
320,192,23622,1,0,0:0:0:0:
192,192,23622,1,0,0:0:0:0:
448,192,23622,1,0,0:0:0:0:
192,192,23772,1,0,0:0:0:0:
320,192,23772,1,0,0:0:0:0:
64,192,23772,1,0,0:0:0:0:
64,192,23922,1,0,0:0:0:0:
320,192,23922,1,0,0:0:0:0:
192,192,23922,1,0,0:0:0:0:
448,192,23922,128,0,24222:0:0:0:0:
64,192,24222,1,0,0:0:0:0:
192,192,24222,1,0,0:0:0:0:
320,192,24372,1,0,0:0:0:0:
448,192,24372,1,0,0:0:0:0:
64,192,24522,1,0,0:0:0:0:
320,192,24522,128,0,24972:0:0:0:0:
192,192,24672,1,0,0:0:0:0:
448,192,24672,1,0,0:0:0:0:
64,192,24822,1,0,0:0:0:0:
192,192,24822,1,0,0:0:0:0:
448,192,25122,1,0,0:0:0:0:
192,192,25122,1,0,0:0:0:0:
320,192,25122,1,0,0:0:0:0:
64,192,25122,128,0,25422:0:0:0:0:
192,192,25422,128,0,25647:0:0:0:0:
64,192,25722,1,0,0:0:0:0:
192,192,25722,1,0,0:0:0:0:
448,192,25722,128,0,26172:0:0:0:0:
64,192,25872,1,0,0:0:0:0:
192,192,25872,1,0,0:0:0:0:
320,192,26022,1,0,0:0:0:0:
192,192,26022,1,0,0:0:0:0:
64,192,26022,1,0,0:0:0:0:
192,192,26172,1,0,0:0:0:0:
320,192,26172,1,0,0:0:0:0:
64,192,26172,1,0,0:0:0:0:
64,192,26322,1,0,0:0:0:0:
448,192,26322,1,0,0:0:0:0:
192,192,26322,1,0,0:0:0:0:
320,192,26322,128,0,26772:0:0:0:0:
64,192,26472,1,0,0:0:0:0:
192,192,26622,1,0,0:0:0:0:
448,192,26622,1,0,0:0:0:0:
64,192,26772,1,0,0:0:0:0:
192,192,26922,1,0,0:0:0:0:
320,192,26922,1,0,0:0:0:0:
64,192,26922,128,0,27372:0:0:0:0:
448,192,27072,1,0,0:0:0:0:
448,192,27222,1,0,0:0:0:0:
320,192,27222,1,0,0:0:0:0:
448,192,27372,1,0,0:0:0:0:
192,192,27372,1,0,0:0:0:0:
320,192,27372,1,0,0:0:0:0:
448,192,27522,1,0,0:0:0:0:
320,192,27522,1,0,0:0:0:0:
64,192,27522,1,0,0:0:0:0:
192,192,27522,128,0,27972:0:0:0:0:
64,192,28122,1,0,0:0:0:0:
192,192,28122,1,0,0:0:0:0:
448,192,28122,128,0,28572:0:0:0:0:
320,192,28272,1,0,0:0:0:0:
192,192,28272,1,0,0:0:0:0:
192,192,28422,1,0,0:0:0:0:
64,192,28422,1,0,0:0:0:0:
192,192,28572,1,0,0:0:0:0:
320,192,28572,1,0,0:0:0:0:
448,192,28722,1,0,0:0:0:0:
320,192,28722,1,0,0:0:0:0:
64,192,28722,128,0,29097:0:0:0:0:
320,192,29022,1,0,0:0:0:0:
448,192,29022,1,0,0:0:0:0:
64,192,29172,1,0,0:0:0:0:
192,192,29172,1,0,0:0:0:0:
448,192,29322,1,0,0:0:0:0:
320,192,29322,1,0,0:0:0:0:
192,192,29322,128,0,29772:0:0:0:0:
64,192,29472,1,0,0:0:0:0:
320,192,29472,1,0,0:0:0:0:
448,192,29622,1,0,0:0:0:0:
64,192,29622,1,0,0:0:0:0:
448,192,29922,1,0,0:0:0:0:
192,192,29922,1,0,0:0:0:0:
320,192,29922,1,0,0:0:0:0:
64,192,29922,128,0,30222:0:0:0:0:
192,192,30222,128,0,30522:0:0:0:0:
320,192,30522,1,0,0:0:0:0:
64,192,30522,1,0,0:0:0:0:
448,192,30522,128,0,30972:0:0:0:0:
320,192,30672,1,0,0:0:0:0:
192,192,30822,1,0,0:0:0:0:
320,192,30822,1,0,0:0:0:0:
192,192,30972,1,0,0:0:0:0:
320,192,30972,1,0,0:0:0:0:
448,192,31122,1,0,0:0:0:0:
64,192,31122,1,0,0:0:0:0:
192,192,31122,1,0,0:0:0:0:
320,192,31122,128,0,31572:0:0:0:0:
192,192,31422,1,0,0:0:0:0:
64,192,31422,1,0,0:0:0:0:
448,192,31572,1,0,0:0:0:0:
320,192,31722,1,0,0:0:0:0:
192,192,31722,1,0,0:0:0:0:
448,192,31722,1,0,0:0:0:0:
64,192,31872,1,0,0:0:0:0:
64,192,32022,1,0,0:0:0:0:
192,192,32022,1,0,0:0:0:0:
320,192,32172,1,0,0:0:0:0:
192,192,32172,1,0,0:0:0:0:
64,192,32172,1,0,0:0:0:0:
448,192,32322,1,0,0:0:0:0:
64,192,32322,1,0,0:0:0:0:
320,192,32322,1,0,0:0:0:0:
192,192,32322,128,0,32922:0:0:0:0:
320,192,32922,1,0,0:0:0:0:
448,192,32922,1,0,0:0:0:0:
64,192,33072,1,0,0:0:0:0:
192,192,33072,1,0,0:0:0:0:
320,192,33222,1,0,0:0:0:0:
192,192,33222,1,0,0:0:0:0:
448,192,33222,1,0,0:0:0:0:
192,192,33372,1,0,0:0:0:0:
320,192,33372,1,0,0:0:0:0:
64,192,33372,1,0,0:0:0:0:
64,192,33522,1,0,0:0:0:0:
320,192,33522,1,0,0:0:0:0:
192,192,33522,1,0,0:0:0:0:
448,192,33522,128,0,33822:0:0:0:0:
64,192,33822,1,0,0:0:0:0:
192,192,33822,1,0,0:0:0:0:
320,192,33972,1,0,0:0:0:0:
448,192,33972,1,0,0:0:0:0:
192,192,34122,1,0,0:0:0:0:
320,192,34122,1,0,0:0:0:0:
64,192,34122,1,0,0:0:0:0:
320,192,34272,1,0,0:0:0:0:
448,192,34272,1,0,0:0:0:0:
64,192,34422,1,0,0:0:0:0:
192,192,34422,1,0,0:0:0:0:
64,192,34722,1,0,0:0:0:0:
192,192,34722,1,0,0:0:0:0:
320,192,34722,1,0,0:0:0:0:
448,192,34722,128,0,35022:0:0:0:0:
320,192,35022,128,0,35322:0:0:0:0:
64,192,35322,1,0,0:0:0:0:
192,192,35322,1,0,0:0:0:0:
64,192,35472,1,0,0:0:0:0:
192,192,35472,1,0,0:0:0:0:
320,192,35622,1,0,0:0:0:0:
192,192,35622,1,0,0:0:0:0:
64,192,35622,1,0,0:0:0:0:
192,192,35772,1,0,0:0:0:0:
320,192,35772,1,0,0:0:0:0:
64,192,35772,1,0,0:0:0:0:
64,192,35922,1,0,0:0:0:0:
448,192,35922,1,0,0:0:0:0:
320,192,35922,1,0,0:0:0:0:
192,192,35922,1,0,0:0:0:0:
192,192,36222,1,0,0:0:0:0:
320,192,36222,1,0,0:0:0:0:
448,192,36222,1,0,0:0:0:0:
192,192,36522,1,0,0:0:0:0:
320,192,36522,1,0,0:0:0:0:
64,192,36522,1,0,0:0:0:0:
448,192,36672,1,0,0:0:0:0:
448,192,36822,1,0,0:0:0:0:
320,192,36822,1,0,0:0:0:0:
448,192,36972,1,0,0:0:0:0:
192,192,36972,1,0,0:0:0:0:
320,192,36972,1,0,0:0:0:0:
448,192,37122,1,0,0:0:0:0:
320,192,37122,1,0,0:0:0:0:
64,192,37122,128,0,37422:0:0:0:0:
192,192,37122,128,0,37422:0:0:0:0:
64,192,37722,1,0,0:0:0:0:
320,192,37722,1,0,0:0:0:0:
192,192,37722,1,0,0:0:0:0:
448,192,37872,1,0,0:0:0:0:
320,192,37872,1,0,0:0:0:0:
192,192,38022,1,0,0:0:0:0:
320,192,38022,1,0,0:0:0:0:
64,192,38022,1,0,0:0:0:0:
192,192,38172,1,0,0:0:0:0:
320,192,38172,1,0,0:0:0:0:
448,192,38172,1,0,0:0:0:0:
448,192,38322,1,0,0:0:0:0:
192,192,38322,1,0,0:0:0:0:
320,192,38322,1,0,0:0:0:0:
64,192,38322,128,0,38622:0:0:0:0:
320,192,38622,1,0,0:0:0:0:
448,192,38622,1,0,0:0:0:0:
64,192,38772,1,0,0:0:0:0:
192,192,38772,1,0,0:0:0:0:
192,192,38922,1,0,0:0:0:0:
448,192,38922,1,0,0:0:0:0:
320,192,38922,1,0,0:0:0:0:
192,192,39072,1,0,0:0:0:0:
64,192,39072,1,0,0:0:0:0:
448,192,39222,1,0,0:0:0:0:
320,192,39222,1,0,0:0:0:0:
448,192,39522,1,0,0:0:0:0:
192,192,39522,1,0,0:0:0:0:
64,192,39522,128,0,40122:0:0:0:0:
448,192,40122,1,0,0:0:0:0:
320,192,40122,128,0,40272:0:0:0:0:
64,192,40272,128,0,40422:0:0:0:0:
192,192,40272,1,0,0:0:0:0:
192,192,40422,128,0,40572:0:0:0:0:
320,192,40422,1,0,0:0:0:0:
64,192,40572,128,0,40722:0:0:0:0:
448,192,40572,1,0,0:0:0:0:
320,192,40722,128,0,40872:0:0:0:0:
192,192,40722,1,0,0:0:0:0:
448,192,40872,128,0,41022:0:0:0:0:
192,192,41022,128,0,41172:0:0:0:0:
64,192,41022,1,0,0:0:0:0:
448,192,41172,128,0,41472:0:0:0:0:
320,192,41172,1,0,0:0:0:0:
192,192,41322,1,0,0:0:0:0:
64,192,41322,1,0,0:0:0:0:
64,192,41472,128,0,41622:0:0:0:0:
320,192,41472,1,0,0:0:0:0:
192,192,41622,128,0,41772:0:0:0:0:
448,192,41622,1,0,0:0:0:0:
64,192,41772,128,0,41922:0:0:0:0:
320,192,41922,128,0,42072:0:0:0:0:
64,192,42072,128,0,42222:0:0:0:0:
192,192,42222,128,0,42372:0:0:0:0:
320,192,42372,128,0,42522:0:0:0:0:
448,192,42522,1,0,0:0:0:0:
320,192,42559,1,0,0:0:0:0:
64,192,42597,1,0,0:0:0:0:
192,192,42634,1,0,0:0:0:0:
320,192,42672,128,0,42822:0:0:0:0:
192,192,42822,128,0,42972:0:0:0:0:
448,192,42822,1,0,0:0:0:0:
64,192,42972,128,0,43122:0:0:0:0:
320,192,42972,1,0,0:0:0:0:
320,192,43122,128,0,43272:0:0:0:0:
448,192,43122,1,0,0:0:0:0:
448,192,43272,128,0,43422:0:0:0:0:
64,192,43422,128,0,43572:0:0:0:0:
192,192,43422,1,0,0:0:0:0:
448,192,43572,128,0,43872:0:0:0:0:
320,192,43572,1,0,0:0:0:0:
192,192,43722,1,0,0:0:0:0:
64,192,43722,1,0,0:0:0:0:
320,192,43872,1,0,0:0:0:0:
192,192,44022,1,0,0:0:0:0:
320,192,44097,1,0,0:0:0:0:
64,192,44172,128,0,44247:0:0:0:0:
64,192,44322,1,0,0:0:0:0:
192,192,44340,1,0,0:0:0:0:
320,192,44359,1,0,0:0:0:0:
448,192,44472,1,0,0:0:0:0:
320,192,44622,1,0,0:0:0:0:
192,192,44659,1,0,0:0:0:0:
64,192,44697,1,0,0:0:0:0:
192,192,44772,1,0,0:0:0:0:
320,192,44847,1,0,0:0:0:0:
448,192,44922,128,0,45072:0:0:0:0:
192,192,44922,1,0,0:0:0:0:
64,192,45072,128,0,45222:0:0:0:0:
320,192,45072,1,0,0:0:0:0:
192,192,45222,128,0,45372:0:0:0:0:
320,192,45222,1,0,0:0:0:0:
64,192,45372,128,0,45522:0:0:0:0:
448,192,45372,1,0,0:0:0:0:
320,192,45522,128,0,45672:0:0:0:0:
192,192,45522,1,0,0:0:0:0:
448,192,45672,128,0,45822:0:0:0:0:
192,192,45822,128,0,45972:0:0:0:0:
320,192,45822,1,0,0:0:0:0:
448,192,45972,128,0,46272:0:0:0:0:
64,192,45972,1,0,0:0:0:0:
192,192,46122,1,0,0:0:0:0:
320,192,46122,1,0,0:0:0:0:
64,192,46272,128,0,46422:0:0:0:0:
192,192,46272,1,0,0:0:0:0:
192,192,46422,1,0,0:0:0:0:
320,192,46459,1,0,0:0:0:0:
448,192,46497,1,0,0:0:0:0:
192,192,46534,1,0,0:0:0:0:
64,192,46572,128,0,46722:0:0:0:0:
320,192,46722,128,0,46872:0:0:0:0:
64,192,46872,128,0,47022:0:0:0:0:
192,192,47022,128,0,47172:0:0:0:0:
320,192,47172,128,0,47322:0:0:0:0:
192,192,47322,1,0,0:0:0:0:
64,192,47397,1,0,0:0:0:0:
320,192,47472,1,0,0:0:0:0:
448,192,47509,1,0,0:0:0:0:
192,192,47547,1,0,0:0:0:0:
64,192,47584,1,0,0:0:0:0:
320,192,47622,1,0,0:0:0:0:
448,192,47697,1,0,0:0:0:0:
320,192,47772,128,0,47922:0:0:0:0:
192,192,47922,128,0,48072:0:0:0:0:
64,192,47922,1,0,0:0:0:0:
448,192,47922,1,0,0:0:0:0:
320,192,48072,128,0,48222:0:0:0:0:
64,192,48222,128,0,48372:0:0:0:0:
448,192,48372,1,0,0:0:0:0:
320,192,48409,1,0,0:0:0:0:
64,192,48447,1,0,0:0:0:0:
192,192,48484,1,0,0:0:0:0:
448,192,48522,1,0,0:0:0:0:
320,192,48559,1,0,0:0:0:0:
64,192,48597,1,0,0:0:0:0:
192,192,48634,1,0,0:0:0:0:
448,192,48672,128,0,48822:0:0:0:0:
192,192,48822,1,0,0:0:0:0:
64,192,48897,1,0,0:0:0:0:
192,192,48972,1,0,0:0:0:0:
448,192,49122,128,0,49272:0:0:0:0:
64,192,49122,1,0,0:0:0:0:
320,192,49197,1,0,0:0:0:0:
192,192,49272,1,0,0:0:0:0:
64,192,49347,1,0,0:0:0:0:
448,192,49422,1,0,0:0:0:0:
320,192,49497,1,0,0:0:0:0:
192,192,49572,1,0,0:0:0:0:
64,192,49647,1,0,0:0:0:0:
320,192,49722,1,0,0:0:0:0:
448,192,49722,1,0,0:0:0:0:
192,192,49872,1,0,0:0:0:0:
320,192,49872,1,0,0:0:0:0:
448,192,50022,1,0,0:0:0:0:
64,192,50022,1,0,0:0:0:0:
320,192,50022,1,0,0:0:0:0:
192,192,50172,1,0,0:0:0:0:
64,192,50172,1,0,0:0:0:0:
448,192,50172,1,0,0:0:0:0:
448,192,50322,1,0,0:0:0:0:
192,192,50322,1,0,0:0:0:0:
64,192,50322,1,0,0:0:0:0:
320,192,50322,1,0,0:0:0:0:
64,192,50622,1,0,0:0:0:0:
192,192,50622,1,0,0:0:0:0:
320,192,50622,1,0,0:0:0:0:
64,192,50922,128,0,51522:0:0:0:0:
192,192,50922,1,0,0:0:0:0:
320,192,50922,1,0,0:0:0:0:
448,192,51072,1,0,0:0:0:0:
192,192,51222,1,0,0:0:0:0:
448,192,51372,1,0,0:0:0:0:
448,192,51522,1,0,0:0:0:0:
320,192,51522,1,0,0:0:0:0:
192,192,51522,128,0,52122:0:0:0:0:
64,192,52122,1,0,0:0:0:0:
320,192,52122,128,0,52722:0:0:0:0:
448,192,52122,1,0,0:0:0:0:
64,192,52272,1,0,0:0:0:0:
192,192,52272,1,0,0:0:0:0:
448,192,52422,1,0,0:0:0:0:
192,192,52422,1,0,0:0:0:0:
192,192,52572,1,0,0:0:0:0:
64,192,52572,1,0,0:0:0:0:
64,192,52722,1,0,0:0:0:0:
448,192,52722,1,0,0:0:0:0:
192,192,52722,1,0,0:0:0:0:
64,192,53022,1,0,0:0:0:0:
192,192,53172,1,0,0:0:0:0:
320,192,53172,1,0,0:0:0:0:
448,192,53172,1,0,0:0:0:0:
64,192,53322,128,0,53922:0:0:0:0:
320,192,53472,1,0,0:0:0:0:
448,192,53472,1,0,0:0:0:0:
192,192,53472,1,0,0:0:0:0:
192,192,53622,1,0,0:0:0:0:
320,192,53622,1,0,0:0:0:0:
320,192,53922,1,0,0:0:0:0:
192,192,53922,1,0,0:0:0:0:
448,192,53922,128,0,54222:0:0:0:0:
64,192,54222,128,0,54522:0:0:0:0:
320,192,54522,1,0,0:0:0:0:
192,192,54522,128,0,54972:0:0:0:0:
448,192,54522,1,0,0:0:0:0:
64,192,54672,1,0,0:0:0:0:
320,192,54672,1,0,0:0:0:0:
320,192,54822,1,0,0:0:0:0:
448,192,54822,1,0,0:0:0:0:
64,192,54972,1,0,0:0:0:0:
320,192,54972,1,0,0:0:0:0:
64,192,55122,1,0,0:0:0:0:
448,192,55122,1,0,0:0:0:0:
320,192,55122,128,0,55722:0:0:0:0:
192,192,55122,1,0,0:0:0:0:
64,192,55422,1,0,0:0:0:0:
192,192,55422,1,0,0:0:0:0:
64,192,55722,128,0,56172:0:0:0:0:
320,192,55872,1,0,0:0:0:0:
448,192,55872,1,0,0:0:0:0:
320,192,56022,1,0,0:0:0:0:
192,192,56022,1,0,0:0:0:0:
320,192,56172,1,0,0:0:0:0:
448,192,56172,1,0,0:0:0:0:
448,192,56322,1,0,0:0:0:0:
320,192,56322,1,0,0:0:0:0:
192,192,56322,128,0,56922:0:0:0:0:
64,192,56322,1,0,0:0:0:0:
320,192,56922,128,0,57372:0:0:0:0:
448,192,56922,1,0,0:0:0:0:
64,192,56922,1,0,0:0:0:0:
64,192,57072,1,0,0:0:0:0:
192,192,57072,1,0,0:0:0:0:
448,192,57222,1,0,0:0:0:0:
192,192,57222,1,0,0:0:0:0:
192,192,57372,1,0,0:0:0:0:
64,192,57372,1,0,0:0:0:0:
64,192,57522,1,0,0:0:0:0:
448,192,57522,1,0,0:0:0:0:
320,192,57522,1,0,0:0:0:0:
192,192,57522,1,0,0:0:0:0:
192,192,57822,1,0,0:0:0:0:
64,192,57822,1,0,0:0:0:0:
320,192,57972,1,0,0:0:0:0:
448,192,57972,1,0,0:0:0:0:
64,192,58122,128,0,58572:0:0:0:0:
320,192,58272,1,0,0:0:0:0:
448,192,58272,1,0,0:0:0:0:
192,192,58422,1,0,0:0:0:0:
320,192,58422,1,0,0:0:0:0:
320,192,58722,1,0,0:0:0:0:
448,192,58722,128,0,59022:0:0:0:0:
192,192,58722,1,0,0:0:0:0:
64,192,58722,1,0,0:0:0:0:
320,192,59022,128,0,59322:0:0:0:0:
192,192,59322,128,0,59772:0:0:0:0:
64,192,59322,1,0,0:0:0:0:
448,192,59322,1,0,0:0:0:0:
320,192,59472,1,0,0:0:0:0:
448,192,59472,1,0,0:0:0:0:
64,192,59622,1,0,0:0:0:0:
320,192,59622,1,0,0:0:0:0:
448,192,59772,1,0,0:0:0:0:
320,192,59772,1,0,0:0:0:0:
64,192,59922,1,0,0:0:0:0:
448,192,59922,1,0,0:0:0:0:
320,192,59922,128,0,60522:0:0:0:0:
192,192,59922,1,0,0:0:0:0:
64,192,60222,1,0,0:0:0:0:
192,192,60222,1,0,0:0:0:0:
64,192,60522,128,0,60972:0:0:0:0:
192,192,60522,1,0,0:0:0:0:
448,192,60522,1,0,0:0:0:0:
448,192,60672,1,0,0:0:0:0:
320,192,60672,1,0,0:0:0:0:
320,192,60822,1,0,0:0:0:0:
192,192,60822,1,0,0:0:0:0:
320,192,60972,1,0,0:0:0:0:
448,192,60972,1,0,0:0:0:0:
192,192,61122,1,0,0:0:0:0:
320,192,61122,1,0,0:0:0:0:
448,192,61122,128,0,61722:0:0:0:0:
64,192,61122,1,0,0:0:0:0:
320,192,61722,128,0,62172:0:0:0:0:
64,192,61722,1,0,0:0:0:0:
192,192,61722,1,0,0:0:0:0:
64,192,61872,1,0,0:0:0:0:
192,192,61872,1,0,0:0:0:0:
448,192,62022,1,0,0:0:0:0:
192,192,62022,1,0,0:0:0:0:
192,192,62172,1,0,0:0:0:0:
64,192,62172,1,0,0:0:0:0:
64,192,62322,1,0,0:0:0:0:
192,192,62322,1,0,0:0:0:0:
320,192,62322,1,0,0:0:0:0:
448,192,62322,128,0,62622:0:0:0:0:
64,192,62622,1,0,0:0:0:0:
320,192,62622,1,0,0:0:0:0:
448,192,62772,1,0,0:0:0:0:
192,192,62772,1,0,0:0:0:0:
320,192,62922,128,0,63372:0:0:0:0:
192,192,62922,1,0,0:0:0:0:
64,192,62922,1,0,0:0:0:0:
192,192,63072,1,0,0:0:0:0:
64,192,63072,1,0,0:0:0:0:
192,192,63222,1,0,0:0:0:0:
448,192,63222,1,0,0:0:0:0:
64,192,63522,1,0,0:0:0:0:
192,192,63522,128,0,64122:0:0:0:0:
320,192,63522,1,0,0:0:0:0:
448,192,63522,128,0,63822:0:0:0:0:
320,192,63822,128,0,64122:0:0:0:0:
64,192,64122,128,0,64422:0:0:0:0:
448,192,64122,1,0,0:0:0:0:
320,192,64272,1,0,0:0:0:0:
448,192,64272,1,0,0:0:0:0:
448,192,64422,1,0,0:0:0:0:
192,192,64422,128,0,64722:0:0:0:0:
320,192,64572,1,0,0:0:0:0:
64,192,64572,1,0,0:0:0:0:
448,192,64722,1,0,0:0:0:0:
64,192,64722,1,0,0:0:0:0:
320,192,64722,128,0,65022:0:0:0:0:
192,192,65022,1,0,0:0:0:0:
64,192,65022,1,0,0:0:0:0:
448,192,65022,128,0,65322:0:0:0:0:
192,192,65322,128,0,65772:0:0:0:0:
320,192,65472,1,0,0:0:0:0:
64,192,65472,1,0,0:0:0:0:
448,192,65622,1,0,0:0:0:0:
64,192,65622,1,0,0:0:0:0:
320,192,65772,1,0,0:0:0:0:
448,192,65772,1,0,0:0:0:0:
448,192,65922,1,0,0:0:0:0:
320,192,65922,1,0,0:0:0:0:
64,192,65922,128,0,66072:0:0:0:0:
192,192,65922,128,0,66072:0:0:0:0:
64,192,66222,128,0,66372:0:0:0:0:
192,192,66222,128,0,66372:0:0:0:0:
320,192,66522,128,0,66972:0:0:0:0:
448,192,66522,128,0,66597:0:0:0:0:
64,192,66522,128,0,66597:0:0:0:0:
64,192,66672,1,0,0:0:0:0:
192,192,66672,1,0,0:0:0:0:
448,192,66822,1,0,0:0:0:0:
192,192,66822,1,0,0:0:0:0:
64,192,66972,1,0,0:0:0:0:
192,192,66972,1,0,0:0:0:0:
320,192,67122,128,0,67572:0:0:0:0:
192,192,67122,1,0,0:0:0:0:
64,192,67122,128,0,67197:0:0:0:0:
448,192,67122,128,0,67197:0:0:0:0:
64,192,67422,1,0,0:0:0:0:
192,192,67422,1,0,0:0:0:0:
192,192,67572,1,0,0:0:0:0:
320,192,67722,128,0,68172:0:0:0:0:
64,192,67722,128,0,67797:0:0:0:0:
448,192,67722,128,0,67797:0:0:0:0:
192,192,67872,1,0,0:0:0:0:
64,192,68022,1,0,0:0:0:0:
448,192,68022,1,0,0:0:0:0:
64,192,68322,128,0,68622:0:0:0:0:
192,192,68322,128,0,68622:0:0:0:0:
320,192,68322,128,0,68922:0:0:0:0:
448,192,68322,128,0,68622:0:0:0:0:
64,192,68922,128,0,74322:0:0:0:0:
192,192,68922,128,0,71322:0:0:0:0:
448,192,68922,128,0,71022:0:0:0:0:
320,192,69222,1,0,0:0:0:0:
320,192,69372,1,0,0:0:0:0:
320,192,69522,1,0,0:0:0:0:
320,192,69822,1,0,0:0:0:0:
320,192,69972,1,0,0:0:0:0:
320,192,70122,1,0,0:0:0:0:
320,192,70422,1,0,0:0:0:0:
320,192,70572,1,0,0:0:0:0:
320,192,70722,1,0,0:0:0:0:
320,192,71022,128,0,71922:0:0:0:0:
448,192,71172,1,0,0:0:0:0:
448,192,71322,128,0,72522:0:0:0:0:
192,192,71472,1,0,0:0:0:0:
192,192,71622,1,0,0:0:0:0:
192,192,71772,1,0,0:0:0:0:
192,192,71922,128,0,73722:0:0:0:0:
320,192,72222,1,0,0:0:0:0:
320,192,72372,1,0,0:0:0:0:
320,192,72522,128,0,73122:0:0:0:0:
448,192,72822,1,0,0:0:0:0:
448,192,72972,1,0,0:0:0:0:
448,192,73122,128,0,74922:0:0:0:0:
320,192,73422,1,0,0:0:0:0:
320,192,73572,1,0,0:0:0:0:
320,192,73722,128,0,76684:0:0:0:0:
192,192,73872,1,0,0:0:0:0:
192,192,74022,1,0,0:0:0:0:
192,192,74172,1,0,0:0:0:0:
192,192,74322,128,0,75522:0:0:0:0:
64,192,74622,1,0,0:0:0:0:
64,192,74772,1,0,0:0:0:0:
64,192,74922,128,0,76609:0:0:0:0:
448,192,75222,1,0,0:0:0:0:
448,192,75372,1,0,0:0:0:0:
448,192,75522,128,0,76722:0:0:0:0:
192,192,75822,1,0,0:0:0:0:
192,192,75972,1,0,0:0:0:0:
192,192,76122,1,0,0:0:0:0:
192,192,76272,128,0,76647:0:0:0:0:
64,192,76722,128,0,80322:0:0:0:0:
192,192,76759,128,0,76872:0:0:0:0:
320,192,76797,128,0,77322:0:0:0:0:
448,192,76834,128,0,78222:0:0:0:0:
192,192,77022,1,0,0:0:0:0:
192,192,77172,1,0,0:0:0:0:
192,192,77322,128,0,77622:0:0:0:0:
320,192,77622,128,0,77922:0:0:0:0:
192,192,77772,1,0,0:0:0:0:
192,192,77922,128,0,78822:0:0:0:0:
320,192,78222,128,0,78522:0:0:0:0:
448,192,78372,1,0,0:0:0:0:
448,192,78522,128,0,80622:0:0:0:0:
320,192,78822,128,0,79122:0:0:0:0:
192,192,78972,1,0,0:0:0:0:
192,192,79122,128,0,79722:0:0:0:0:
320,192,79422,1,0,0:0:0:0:
320,192,79572,1,0,0:0:0:0:
320,192,79722,128,0,80922:0:0:0:0:
192,192,80022,1,0,0:0:0:0:
192,192,80172,1,0,0:0:0:0:
192,192,80322,128,0,80622:0:0:0:0:
64,192,80622,128,0,81372:0:0:0:0:
192,192,80772,1,0,0:0:0:0:
448,192,80922,128,0,83172:0:0:0:0:
192,192,80922,128,0,83022:0:0:0:0:
320,192,81072,1,0,0:0:0:0:
64,192,81522,128,0,83172:0:0:0:0:
320,192,82122,128,0,83172:0:0:0:0:
192,192,83172,128,0,83322:0:0:0:0:
64,192,83322,128,0,85722:0:0:0:0:
448,192,83322,1,0,0:0:0:0:
192,192,83472,1,0,0:0:0:0:
320,192,83622,1,0,0:0:0:0:
192,192,83772,1,0,0:0:0:0:
448,192,83847,1,0,0:0:0:0:
192,192,83922,1,0,0:0:0:0:
448,192,83997,1,0,0:0:0:0:
192,192,84072,1,0,0:0:0:0:
448,192,84222,1,0,0:0:0:0:
320,192,84297,1,0,0:0:0:0:
192,192,84372,1,0,0:0:0:0:
320,192,84447,1,0,0:0:0:0:
448,192,84522,1,0,0:0:0:0:
320,192,84672,1,0,0:0:0:0:
448,192,84822,1,0,0:0:0:0:
192,192,84972,1,0,0:0:0:0:
320,192,85047,1,0,0:0:0:0:
192,192,85122,1,0,0:0:0:0:
320,192,85197,1,0,0:0:0:0:
192,192,85272,1,0,0:0:0:0:
320,192,85422,1,0,0:0:0:0:
192,192,85497,1,0,0:0:0:0:
320,192,85572,1,0,0:0:0:0:
448,192,85647,1,0,0:0:0:0:
192,192,85722,128,0,88122:0:0:0:0:
320,192,85722,1,0,0:0:0:0:
64,192,85872,1,0,0:0:0:0:
448,192,86022,1,0,0:0:0:0:
320,192,86172,1,0,0:0:0:0:
64,192,86247,1,0,0:0:0:0:
320,192,86322,1,0,0:0:0:0:
64,192,86397,1,0,0:0:0:0:
320,192,86472,1,0,0:0:0:0:
64,192,86622,1,0,0:0:0:0:
320,192,86697,1,0,0:0:0:0:
448,192,86772,1,0,0:0:0:0:
320,192,86847,1,0,0:0:0:0:
64,192,86922,1,0,0:0:0:0:
448,192,87072,1,0,0:0:0:0:
320,192,87222,1,0,0:0:0:0:
64,192,87372,1,0,0:0:0:0:
448,192,87447,1,0,0:0:0:0:
64,192,87522,1,0,0:0:0:0:
448,192,87597,1,0,0:0:0:0:
64,192,87672,1,0,0:0:0:0:
320,192,87822,1,0,0:0:0:0:
64,192,87972,1,0,0:0:0:0:
320,192,88122,128,0,92772:0:0:0:0:
448,192,88122,1,0,0:0:0:0:
192,192,88272,1,0,0:0:0:0:
64,192,88422,1,0,0:0:0:0:
192,192,88572,1,0,0:0:0:0:
448,192,88647,1,0,0:0:0:0:
192,192,88722,1,0,0:0:0:0:
448,192,88797,1,0,0:0:0:0:
192,192,88872,1,0,0:0:0:0:
448,192,89022,1,0,0:0:0:0:
192,192,89097,1,0,0:0:0:0:
64,192,89172,1,0,0:0:0:0:
192,192,89247,1,0,0:0:0:0:
448,192,89322,1,0,0:0:0:0:
64,192,89472,1,0,0:0:0:0:
448,192,89622,1,0,0:0:0:0:
64,192,89772,1,0,0:0:0:0:
192,192,89847,1,0,0:0:0:0:
64,192,89922,1,0,0:0:0:0:
192,192,89997,1,0,0:0:0:0:
64,192,90072,1,0,0:0:0:0:
192,192,90222,1,0,0:0:0:0:
64,192,90372,1,0,0:0:0:0:
448,192,90522,1,0,0:0:0:0:
64,192,90672,1,0,0:0:0:0:
192,192,90822,1,0,0:0:0:0:
448,192,90972,1,0,0:0:0:0:
192,192,91047,1,0,0:0:0:0:
64,192,91122,1,0,0:0:0:0:
192,192,91197,1,0,0:0:0:0:
448,192,91272,1,0,0:0:0:0:
192,192,91422,1,0,0:0:0:0:
64,192,91497,1,0,0:0:0:0:
192,192,91572,1,0,0:0:0:0:
448,192,91647,1,0,0:0:0:0:
64,192,91722,1,0,0:0:0:0:
448,192,91872,1,0,0:0:0:0:
192,192,92022,1,0,0:0:0:0:
64,192,92022,1,0,0:0:0:0:
448,192,92172,1,0,0:0:0:0:
192,192,92247,1,0,0:0:0:0:
448,192,92322,1,0,0:0:0:0:
192,192,92397,1,0,0:0:0:0:
448,192,92472,1,0,0:0:0:0:
192,192,92547,1,0,0:0:0:0:
448,192,92622,1,0,0:0:0:0:
64,192,92622,1,0,0:0:0:0:
192,192,92697,1,0,0:0:0:0:
448,192,92772,1,0,0:0:0:0:
64,192,92772,1,0,0:0:0:0:
320,192,92847,1,0,0:0:0:0:
448,192,92922,1,0,0:0:0:0:
192,192,92922,1,0,0:0:0:0:
64,192,92922,128,0,96522:0:0:0:0:
320,192,93072,1,0,0:0:0:0:
192,192,93072,1,0,0:0:0:0:
320,192,93222,1,0,0:0:0:0:
448,192,93222,1,0,0:0:0:0:
192,192,93222,1,0,0:0:0:0:
448,192,93372,1,0,0:0:0:0:
192,192,93522,1,0,0:0:0:0:
320,192,93522,1,0,0:0:0:0:
448,192,93672,1,0,0:0:0:0:
192,192,93672,1,0,0:0:0:0:
320,192,93672,1,0,0:0:0:0:
448,192,93822,1,0,0:0:0:0:
192,192,93972,1,0,0:0:0:0:
192,192,94272,1,0,0:0:0:0:
320,192,94272,1,0,0:0:0:0:
448,192,94422,1,0,0:0:0:0:
192,192,94422,1,0,0:0:0:0:
320,192,94422,1,0,0:0:0:0:
448,192,94572,1,0,0:0:0:0:
320,192,94722,1,0,0:0:0:0:
192,192,94872,1,0,0:0:0:0:
448,192,94872,1,0,0:0:0:0:
320,192,95022,1,0,0:0:0:0:
448,192,95022,1,0,0:0:0:0:
192,192,95022,1,0,0:0:0:0:
192,192,95172,1,0,0:0:0:0:
320,192,95172,1,0,0:0:0:0:
448,192,95247,1,0,0:0:0:0:
320,192,95322,1,0,0:0:0:0:
192,192,95322,1,0,0:0:0:0:
448,192,95472,1,0,0:0:0:0:
320,192,95622,1,0,0:0:0:0:
448,192,95622,1,0,0:0:0:0:
192,192,95622,1,0,0:0:0:0:
192,192,95772,1,0,0:0:0:0:
448,192,95922,1,0,0:0:0:0:
320,192,95922,1,0,0:0:0:0:
320,192,96072,1,0,0:0:0:0:
192,192,96072,1,0,0:0:0:0:
448,192,96072,1,0,0:0:0:0:
192,192,96222,1,0,0:0:0:0:
320,192,96372,1,0,0:0:0:0:
448,192,96372,1,0,0:0:0:0:
192,192,96522,128,0,97722:0:0:0:0:
448,192,96522,1,0,0:0:0:0:
64,192,96672,1,0,0:0:0:0:
320,192,96672,1,0,0:0:0:0:
320,192,96822,1,0,0:0:0:0:
448,192,96822,1,0,0:0:0:0:
64,192,96822,1,0,0:0:0:0:
448,192,96972,1,0,0:0:0:0:
320,192,97122,1,0,0:0:0:0:
64,192,97272,1,0,0:0:0:0:
448,192,97272,1,0,0:0:0:0:
64,192,97422,1,0,0:0:0:0:
448,192,97422,1,0,0:0:0:0:
320,192,97422,1,0,0:0:0:0:
320,192,97572,1,0,0:0:0:0:
448,192,97572,1,0,0:0:0:0:
64,192,97572,1,0,0:0:0:0:
64,192,97722,1,0,0:0:0:0:
320,192,97722,128,0,102522:0:0:0:0:
448,192,97722,1,0,0:0:0:0:
192,192,97872,1,0,0:0:0:0:
192,192,98022,1,0,0:0:0:0:
448,192,98022,1,0,0:0:0:0:
64,192,98022,1,0,0:0:0:0:
192,192,98172,1,0,0:0:0:0:
448,192,98172,1,0,0:0:0:0:
64,192,98322,1,0,0:0:0:0:
192,192,98472,1,0,0:0:0:0:
64,192,98472,1,0,0:0:0:0:
448,192,98472,1,0,0:0:0:0:
192,192,98622,1,0,0:0:0:0:
448,192,98622,1,0,0:0:0:0:
64,192,98772,1,0,0:0:0:0:
448,192,98922,1,0,0:0:0:0:
192,192,99072,1,0,0:0:0:0:
64,192,99072,1,0,0:0:0:0:
192,192,99222,1,0,0:0:0:0:
448,192,99222,1,0,0:0:0:0:
64,192,99222,1,0,0:0:0:0:
448,192,99372,1,0,0:0:0:0:
64,192,99522,1,0,0:0:0:0:
192,192,99672,1,0,0:0:0:0:
448,192,99672,1,0,0:0:0:0:
448,192,99822,1,0,0:0:0:0:
192,192,99822,1,0,0:0:0:0:
64,192,99822,1,0,0:0:0:0:
192,192,99972,1,0,0:0:0:0:
64,192,100122,1,0,0:0:0:0:
448,192,100272,1,0,0:0:0:0:
192,192,100272,1,0,0:0:0:0:
192,192,100422,1,0,0:0:0:0:
64,192,100422,1,0,0:0:0:0:
448,192,100422,1,0,0:0:0:0:
64,192,100572,1,0,0:0:0:0:
192,192,100647,1,0,0:0:0:0:
448,192,100722,1,0,0:0:0:0:
192,192,100872,1,0,0:0:0:0:
448,192,100872,1,0,0:0:0:0:
64,192,100872,1,0,0:0:0:0:
192,192,101022,1,0,0:0:0:0:
64,192,101022,1,0,0:0:0:0:
448,192,101022,1,0,0:0:0:0:
64,192,101172,1,0,0:0:0:0:
192,192,101172,1,0,0:0:0:0:
448,192,101322,1,0,0:0:0:0:
192,192,101472,1,0,0:0:0:0:
64,192,101472,1,0,0:0:0:0:
192,192,101622,1,0,0:0:0:0:
448,192,101622,1,0,0:0:0:0:
64,192,101622,1,0,0:0:0:0:
64,192,101772,1,0,0:0:0:0:
192,192,101847,1,0,0:0:0:0:
64,192,101922,1,0,0:0:0:0:
192,192,101997,1,0,0:0:0:0:
448,192,102072,1,0,0:0:0:0:
192,192,102147,1,0,0:0:0:0:
64,192,102222,1,0,0:0:0:0:
192,192,102297,1,0,0:0:0:0:
448,192,102372,1,0,0:0:0:0:
192,192,102447,1,0,0:0:0:0:
448,192,102522,1,0,0:0:0:0:
64,192,102522,1,0,0:0:0:0:
192,192,102822,1,0,0:0:0:0:
320,192,102822,1,0,0:0:0:0:
448,192,102822,1,0,0:0:0:0:
64,192,102822,1,0,0:0:0:0:
320,192,102972,1,0,0:0:0:0:
192,192,102972,1,0,0:0:0:0:
64,192,103122,1,0,0:0:0:0:
448,192,103122,1,0,0:0:0:0:
448,192,103272,1,0,0:0:0:0:
192,192,103272,1,0,0:0:0:0:
320,192,103272,1,0,0:0:0:0:
64,192,103272,1,0,0:0:0:0:
448,192,103422,1,0,0:0:0:0:
320,192,103422,1,0,0:0:0:0:
192,192,103572,1,0,0:0:0:0:
320,192,103572,1,0,0:0:0:0:
64,192,103722,1,0,0:0:0:0:
448,192,103722,1,0,0:0:0:0:
192,192,103872,1,0,0:0:0:0:
320,192,103872,1,0,0:0:0:0:
192,192,104022,1,0,0:0:0:0:
320,192,104022,1,0,0:0:0:0:
448,192,104022,1,0,0:0:0:0:
64,192,104022,1,0,0:0:0:0:
64,192,104172,1,0,0:0:0:0:
320,192,104172,1,0,0:0:0:0:
448,192,104322,1,0,0:0:0:0:
192,192,104322,1,0,0:0:0:0:
64,192,104472,1,0,0:0:0:0:
320,192,104472,1,0,0:0:0:0:
320,192,104622,1,0,0:0:0:0:
192,192,104622,1,0,0:0:0:0:
448,192,104622,1,0,0:0:0:0:
64,192,104622,1,0,0:0:0:0:
448,192,104772,1,0,0:0:0:0:
64,192,104772,1,0,0:0:0:0:
192,192,104772,1,0,0:0:0:0:
320,192,104847,1,0,0:0:0:0:
192,192,104922,1,0,0:0:0:0:
64,192,104922,1,0,0:0:0:0:
192,192,105222,1,0,0:0:0:0:
320,192,105222,1,0,0:0:0:0:
448,192,105222,1,0,0:0:0:0:
64,192,105222,1,0,0:0:0:0:
64,192,105372,1,0,0:0:0:0:
320,192,105372,1,0,0:0:0:0:
192,192,105522,1,0,0:0:0:0:
448,192,105522,1,0,0:0:0:0:
320,192,105522,1,0,0:0:0:0:
320,192,105672,1,0,0:0:0:0:
192,192,105672,1,0,0:0:0:0:
448,192,105672,1,0,0:0:0:0:
64,192,105672,1,0,0:0:0:0:
192,192,105822,1,0,0:0:0:0:
320,192,105822,1,0,0:0:0:0:
448,192,105972,1,0,0:0:0:0:
320,192,105972,1,0,0:0:0:0:
192,192,106122,1,0,0:0:0:0:
320,192,106122,1,0,0:0:0:0:
64,192,106272,1,0,0:0:0:0:
192,192,106272,1,0,0:0:0:0:
192,192,106422,1,0,0:0:0:0:
320,192,106422,1,0,0:0:0:0:
448,192,106422,1,0,0:0:0:0:
64,192,106422,1,0,0:0:0:0:
448,192,106572,1,0,0:0:0:0:
192,192,106572,1,0,0:0:0:0:
64,192,106722,1,0,0:0:0:0:
320,192,106722,1,0,0:0:0:0:
448,192,106872,1,0,0:0:0:0:
192,192,106872,1,0,0:0:0:0:
192,192,107022,1,0,0:0:0:0:
320,192,107022,1,0,0:0:0:0:
448,192,107022,1,0,0:0:0:0:
64,192,107022,1,0,0:0:0:0:
192,192,107172,1,0,0:0:0:0:
320,192,107172,1,0,0:0:0:0:
448,192,107172,1,0,0:0:0:0:
64,192,107172,1,0,0:0:0:0:
448,192,107322,1,0,0:0:0:0:
192,192,107322,1,0,0:0:0:0:
320,192,107472,1,0,0:0:0:0:
64,192,107472,1,0,0:0:0:0:
320,192,107622,1,0,0:0:0:0:
448,192,107622,1,0,0:0:0:0:
192,192,107622,1,0,0:0:0:0:
64,192,107622,1,0,0:0:0:0:
64,192,107772,1,0,0:0:0:0:
192,192,107772,1,0,0:0:0:0:
320,192,107922,1,0,0:0:0:0:
448,192,107922,1,0,0:0:0:0:
192,192,107922,1,0,0:0:0:0:
448,192,108072,1,0,0:0:0:0:
192,192,108072,1,0,0:0:0:0:
320,192,108072,1,0,0:0:0:0:
64,192,108072,1,0,0:0:0:0:
320,192,108222,1,0,0:0:0:0:
192,192,108222,1,0,0:0:0:0:
448,192,108372,1,0,0:0:0:0:
64,192,108372,1,0,0:0:0:0:
192,192,108522,1,0,0:0:0:0:
448,192,108522,1,0,0:0:0:0:
64,192,108672,1,0,0:0:0:0:
320,192,108672,1,0,0:0:0:0:
192,192,108822,1,0,0:0:0:0:
320,192,108822,1,0,0:0:0:0:
448,192,108822,1,0,0:0:0:0:
64,192,108822,1,0,0:0:0:0:
64,192,108972,1,0,0:0:0:0:
192,192,108972,1,0,0:0:0:0:
448,192,109122,1,0,0:0:0:0:
320,192,109122,1,0,0:0:0:0:
64,192,109272,1,0,0:0:0:0:
192,192,109272,1,0,0:0:0:0:
320,192,109422,1,0,0:0:0:0:
192,192,109422,1,0,0:0:0:0:
448,192,109422,1,0,0:0:0:0:
64,192,109422,1,0,0:0:0:0:
320,192,109572,1,0,0:0:0:0:
192,192,109572,1,0,0:0:0:0:
64,192,109722,1,0,0:0:0:0:
448,192,109722,1,0,0:0:0:0:
192,192,109722,1,0,0:0:0:0:
448,192,109872,1,0,0:0:0:0:
320,192,109872,1,0,0:0:0:0:
192,192,110022,1,0,0:0:0:0:
64,192,110022,1,0,0:0:0:0:
64,192,110172,1,0,0:0:0:0:
192,192,110172,1,0,0:0:0:0:
320,192,110322,1,0,0:0:0:0:
64,192,110322,1,0,0:0:0:0:
448,192,110322,1,0,0:0:0:0:
64,192,110472,1,0,0:0:0:0:
192,192,110472,1,0,0:0:0:0:
320,192,110622,1,0,0:0:0:0:
448,192,110622,1,0,0:0:0:0:
448,192,110772,1,0,0:0:0:0:
320,192,110772,1,0,0:0:0:0:
64,192,110922,1,0,0:0:0:0:
448,192,110922,1,0,0:0:0:0:
192,192,110922,1,0,0:0:0:0:
320,192,111072,1,0,0:0:0:0:
448,192,111072,1,0,0:0:0:0:
320,192,111222,1,0,0:0:0:0:
192,192,111222,1,0,0:0:0:0:
192,192,111372,1,0,0:0:0:0:
64,192,111372,1,0,0:0:0:0:
448,192,111522,1,0,0:0:0:0:
192,192,111522,1,0,0:0:0:0:
64,192,111522,1,0,0:0:0:0:
320,192,111522,1,0,0:0:0:0:
192,192,111672,1,0,0:0:0:0:
320,192,111672,1,0,0:0:0:0:
64,192,111747,1,0,0:0:0:0:
192,192,111822,1,0,0:0:0:0:
448,192,111822,1,0,0:0:0:0:
320,192,111897,1,0,0:0:0:0:
448,192,111972,1,0,0:0:0:0:
64,192,111972,1,0,0:0:0:0:
320,192,112047,1,0,0:0:0:0:
192,192,112122,5,0,0:0:0:0:
448,192,112122,1,0,0:0:0:0:
64,192,112272,1,0,0:0:0:0:
192,192,112422,1,0,0:0:0:0:
64,192,112572,1,0,0:0:0:0:
320,192,112722,1,0,0:0:0:0:
448,192,112872,1,0,0:0:0:0:
192,192,113022,1,0,0:0:0:0:
448,192,113172,1,0,0:0:0:0:
320,192,113322,1,0,0:0:0:0:
192,192,113322,1,0,0:0:0:0:
64,192,113472,1,0,0:0:0:0:
192,192,113622,1,0,0:0:0:0:
64,192,113772,1,0,0:0:0:0:
320,192,113922,1,0,0:0:0:0:
64,192,114072,1,0,0:0:0:0:
192,192,114222,1,0,0:0:0:0:
320,192,114372,1,0,0:0:0:0:
192,192,114522,1,0,0:0:0:0:
448,192,114522,1,0,0:0:0:0:
64,192,114672,1,0,0:0:0:0:
192,192,114822,1,0,0:0:0:0:
64,192,114972,1,0,0:0:0:0:
320,192,115122,1,0,0:0:0:0:
448,192,115272,1,0,0:0:0:0:
64,192,115422,1,0,0:0:0:0:
192,192,115572,1,0,0:0:0:0:
448,192,115722,1,0,0:0:0:0:
320,192,115722,1,0,0:0:0:0:
64,192,115872,1,0,0:0:0:0:
192,192,116022,1,0,0:0:0:0:
64,192,116172,1,0,0:0:0:0:
448,192,116322,1,0,0:0:0:0:
320,192,116472,1,0,0:0:0:0:
192,192,116622,1,0,0:0:0:0:
64,192,116772,1,0,0:0:0:0:
192,192,116922,5,0,0:0:0:0:
448,192,116922,1,0,0:0:0:0:
64,192,117072,1,0,0:0:0:0:
192,192,117222,1,0,0:0:0:0:
64,192,117372,1,0,0:0:0:0:
320,192,117522,1,0,0:0:0:0:
448,192,117672,1,0,0:0:0:0:
192,192,117822,1,0,0:0:0:0:
448,192,117972,1,0,0:0:0:0:
320,192,118122,1,0,0:0:0:0:
192,192,118122,1,0,0:0:0:0:
64,192,118272,1,0,0:0:0:0:
192,192,118422,1,0,0:0:0:0:
64,192,118572,1,0,0:0:0:0:
320,192,118722,1,0,0:0:0:0:
64,192,118872,1,0,0:0:0:0:
192,192,119022,1,0,0:0:0:0:
320,192,119172,1,0,0:0:0:0:
192,192,119322,1,0,0:0:0:0:
448,192,119322,1,0,0:0:0:0:
64,192,119472,1,0,0:0:0:0:
192,192,119622,1,0,0:0:0:0:
64,192,119772,1,0,0:0:0:0:
320,192,119922,1,0,0:0:0:0:
448,192,120072,1,0,0:0:0:0:
64,192,120222,1,0,0:0:0:0:
448,192,120372,1,0,0:0:0:0:
192,192,120522,128,0,120747:0:0:0:0:
320,192,120522,128,0,120747:0:0:0:0:
64,192,120522,1,0,0:0:0:0:
448,192,120822,1,0,0:0:0:0:
320,192,120822,1,0,0:0:0:0:
64,192,120897,1,0,0:0:0:0:
192,192,120897,1,0,0:0:0:0:
320,192,120972,1,0,0:0:0:0:
448,192,120972,1,0,0:0:0:0:
192,192,121047,1,0,0:0:0:0:
64,192,121047,1,0,0:0:0:0:
448,192,121122,1,0,0:0:0:0:
320,192,121122,1,0,0:0:0:0:
64,192,121197,1,0,0:0:0:0:
192,192,121197,1,0,0:0:0:0:
320,192,121272,1,0,0:0:0:0:
448,192,121272,1,0,0:0:0:0:
192,192,121347,1,0,0:0:0:0:
64,192,121347,1,0,0:0:0:0:
448,192,121422,1,0,0:0:0:0:
320,192,121422,1,0,0:0:0:0:
64,192,121497,1,0,0:0:0:0:
192,192,121497,1,0,0:0:0:0:
320,192,121572,1,0,0:0:0:0:
448,192,121572,1,0,0:0:0:0:
192,192,121647,1,0,0:0:0:0:
64,192,121647,1,0,0:0:0:0:
320,192,121722,1,0,0:0:0:0:
448,192,121722,1,0,0:0:0:0:
320,192,121872,1,0,0:0:0:0:
192,192,121872,1,0,0:0:0:0:
192,192,122022,1,0,0:0:0:0:
64,192,122022,1,0,0:0:0:0:
448,192,122153,1,0,0:0:0:0:
320,192,122153,1,0,0:0:0:0:
64,192,122322,1,0,0:0:0:0:
320,192,122322,1,0,0:0:0:0:
448,192,122322,1,0,0:0:0:0:
192,192,122322,1,0,0:0:0:0:
448,192,122472,1,0,0:0:0:0:
320,192,122472,1,0,0:0:0:0:
64,192,122622,1,0,0:0:0:0:
320,192,122622,1,0,0:0:0:0:
448,192,122622,1,0,0:0:0:0:
192,192,122622,1,0,0:0:0:0:
448,192,122772,1,0,0:0:0:0:
320,192,122772,1,0,0:0:0:0:
64,192,122922,1,0,0:0:0:0:
192,192,122922,1,0,0:0:0:0:
448,192,123072,1,0,0:0:0:0:
320,192,123072,1,0,0:0:0:0:
64,192,123222,1,0,0:0:0:0:
192,192,123222,1,0,0:0:0:0:
192,192,123372,1,0,0:0:0:0:
320,192,123372,1,0,0:0:0:0:
64,192,123522,1,0,0:0:0:0:
448,192,123522,1,0,0:0:0:0:
192,192,123522,1,0,0:0:0:0:
320,192,123522,1,0,0:0:0:0:
64,192,123822,1,0,0:0:0:0:
448,192,123972,1,0,0:0:0:0:
192,192,124122,1,0,0:0:0:0:
320,192,124122,1,0,0:0:0:0:
64,192,124272,1,0,0:0:0:0:
192,192,124272,1,0,0:0:0:0:
320,192,124422,1,0,0:0:0:0:
448,192,124422,1,0,0:0:0:0:
64,192,124572,1,0,0:0:0:0:
192,192,124572,1,0,0:0:0:0:
448,192,124722,1,0,0:0:0:0:
192,192,124722,1,0,0:0:0:0:
64,192,124722,1,0,0:0:0:0:
320,192,124722,128,0,124872:0:0:0:0:
192,192,124872,128,0,125022:0:0:0:0:
64,192,125022,1,0,0:0:0:0:
448,192,125022,1,0,0:0:0:0:
320,192,125022,1,0,0:0:0:0:
320,192,125172,1,0,0:0:0:0:
448,192,125172,128,0,125397:0:0:0:0:
64,192,125322,1,0,0:0:0:0:
192,192,125322,1,0,0:0:0:0:
320,192,125472,128,0,125622:0:0:0:0:
448,192,125472,1,0,0:0:0:0:
192,192,125622,128,0,125772:0:0:0:0:
64,192,125622,1,0,0:0:0:0:
448,192,125772,128,0,126072:0:0:0:0:
64,192,125922,1,0,0:0:0:0:
320,192,125922,1,0,0:0:0:0:
192,192,125922,1,0,0:0:0:0:
192,192,126072,1,0,0:0:0:0:
64,192,126222,1,0,0:0:0:0:
320,192,126372,1,0,0:0:0:0:
64,192,126522,1,0,0:0:0:0:
448,192,126522,128,0,126897:0:0:0:0:
192,192,126522,1,0,0:0:0:0:
192,192,126672,1,0,0:0:0:0:
320,192,126672,1,0,0:0:0:0:
64,192,126822,1,0,0:0:0:0:
192,192,126822,1,0,0:0:0:0:
448,192,126972,1,0,0:0:0:0:
320,192,126972,1,0,0:0:0:0:
64,192,127122,1,0,0:0:0:0:
320,192,127122,1,0,0:0:0:0:
448,192,127122,1,0,0:0:0:0:
192,192,127122,1,0,0:0:0:0:
448,192,127272,1,0,0:0:0:0:
320,192,127272,128,0,127422:0:0:0:0:
64,192,127422,1,0,0:0:0:0:
192,192,127422,128,0,127572:0:0:0:0:
448,192,127572,1,0,0:0:0:0:
320,192,127572,128,0,127872:0:0:0:0:
192,192,127722,1,0,0:0:0:0:
64,192,127722,1,0,0:0:0:0:
448,192,127872,128,0,128022:0:0:0:0:
64,192,127872,1,0,0:0:0:0:
320,192,128022,128,0,128172:0:0:0:0:
192,192,128022,1,0,0:0:0:0:
64,192,128022,1,0,0:0:0:0:
448,192,128172,128,0,128322:0:0:0:0:
192,192,128172,1,0,0:0:0:0:
64,192,128322,1,0,0:0:0:0:
192,192,128322,128,0,128472:0:0:0:0:
320,192,128472,1,0,0:0:0:0:
448,192,128472,1,0,0:0:0:0:
192,192,128622,1,0,0:0:0:0:
64,192,128622,1,0,0:0:0:0:
320,192,128772,1,0,0:0:0:0:
448,192,128772,128,0,128922:0:0:0:0:
192,192,128922,1,0,0:0:0:0:
64,192,128922,128,0,129372:0:0:0:0:
448,192,129072,1,0,0:0:0:0:
192,192,129222,1,0,0:0:0:0:
320,192,129222,1,0,0:0:0:0:
192,192,129372,1,0,0:0:0:0:
320,192,129372,1,0,0:0:0:0:
64,192,129522,1,0,0:0:0:0:
448,192,129522,1,0,0:0:0:0:
64,192,129822,1,0,0:0:0:0:
192,192,129822,1,0,0:0:0:0:
320,192,129972,1,0,0:0:0:0:
448,192,129972,128,0,130272:0:0:0:0:
192,192,130122,1,0,0:0:0:0:
64,192,130122,1,0,0:0:0:0:
192,192,130272,128,0,130422:0:0:0:0:
320,192,130272,1,0,0:0:0:0:
64,192,130422,128,0,130572:0:0:0:0:
320,192,130572,128,0,130872:0:0:0:0:
64,192,130722,1,0,0:0:0:0:
448,192,130722,1,0,0:0:0:0:
192,192,130722,1,0,0:0:0:0:
192,192,130872,1,0,0:0:0:0:
448,192,130947,1,0,0:0:0:0:
64,192,130947,1,0,0:0:0:0:
192,192,131022,1,0,0:0:0:0:
320,192,131097,1,0,0:0:0:0:
64,192,131172,1,0,0:0:0:0:
448,192,131247,1,0,0:0:0:0:
192,192,131322,1,0,0:0:0:0:
320,192,131322,1,0,0:0:0:0:
64,192,131472,1,0,0:0:0:0:
192,192,131622,1,0,0:0:0:0:
448,192,131772,1,0,0:0:0:0:
64,192,131772,1,0,0:0:0:0:
320,192,131922,1,0,0:0:0:0:
64,192,132072,1,0,0:0:0:0:
320,192,132222,1,0,0:0:0:0:
448,192,132222,1,0,0:0:0:0:
64,192,132372,1,0,0:0:0:0:
192,192,132447,1,0,0:0:0:0:
320,192,132522,1,0,0:0:0:0:
448,192,132597,1,0,0:0:0:0:
64,192,132597,1,0,0:0:0:0:
192,192,132634,1,0,0:0:0:0:
320,192,132672,1,0,0:0:0:0:
448,192,132709,1,0,0:0:0:0:
64,192,132822,1,0,0:0:0:0:
320,192,132972,1,0,0:0:0:0:
192,192,133122,1,0,0:0:0:0:
320,192,133197,1,0,0:0:0:0:
192,192,133272,1,0,0:0:0:0:
320,192,133347,1,0,0:0:0:0:
448,192,133422,1,0,0:0:0:0:
64,192,133497,1,0,0:0:0:0:
192,192,133572,1,0,0:0:0:0:
448,192,133647,1,0,0:0:0:0:
64,192,133722,1,0,0:0:0:0:
320,192,133722,1,0,0:0:0:0:
192,192,133797,1,0,0:0:0:0:
448,192,133797,1,0,0:0:0:0:
320,192,133872,1,0,0:0:0:0:
64,192,133872,1,0,0:0:0:0:
192,192,134022,1,0,0:0:0:0:
320,192,134097,1,0,0:0:0:0:
448,192,134172,1,0,0:0:0:0:
320,192,134247,1,0,0:0:0:0:
448,192,134322,1,0,0:0:0:0:
448,192,134472,128,0,134622:0:0:0:0:
64,192,134622,1,0,0:0:0:0:
192,192,134640,1,0,0:0:0:0:
448,192,134772,1,0,0:0:0:0:
320,192,134790,1,0,0:0:0:0:
64,192,135072,1,0,0:0:0:0:
448,192,135222,1,0,0:0:0:0:
320,192,135297,1,0,0:0:0:0:
192,192,135372,1,0,0:0:0:0:
320,192,135447,1,0,0:0:0:0:
448,192,135522,128,0,136047:0:0:0:0:
320,192,135672,128,0,136047:0:0:0:0:
192,192,135822,128,0,136047:0:0:0:0:
64,192,135972,128,0,136047:0:0:0:0:
64,192,136122,128,0,136197:0:0:0:0:
320,192,136122,128,0,136197:0:0:0:0:
64,192,136272,128,0,136422:0:0:0:0:
320,192,136272,128,0,136422:0:0:0:0:
192,192,136422,128,0,136497:0:0:0:0:
448,192,136422,128,0,136497:0:0:0:0:
64,192,136572,128,0,137097:0:0:0:0:
320,192,136572,128,0,136647:0:0:0:0:
448,192,136722,128,0,137097:0:0:0:0:
320,192,136872,128,0,137097:0:0:0:0:
192,192,137022,128,0,137097:0:0:0:0:
64,192,137172,1,0,0:0:0:0:
320,192,137247,1,0,0:0:0:0:
192,192,137322,1,0,0:0:0:0:
320,192,137472,1,0,0:0:0:0:
448,192,137622,1,0,0:0:0:0:
320,192,137772,128,0,137922:0:0:0:0:
192,192,137772,128,0,137922:0:0:0:0:
64,192,138072,128,0,138522:0:0:0:0:
192,192,138072,128,0,138522:0:0:0:0:
320,192,138522,1,0,0:0:0:0:
64,192,138597,1,0,0:0:0:0:
192,192,138672,1,0,0:0:0:0:
320,192,138747,1,0,0:0:0:0:
448,192,138822,1,0,0:0:0:0:
64,192,138897,1,0,0:0:0:0:
192,192,138972,1,0,0:0:0:0:
320,192,139047,1,0,0:0:0:0:
448,192,139122,128,0,139272:0:0:0:0:
320,192,139272,128,0,139572:0:0:0:0:
64,192,139422,128,0,139872:0:0:0:0:
448,192,139572,128,0,139872:0:0:0:0:
320,192,139872,128,0,140172:0:0:0:0:
64,192,140022,1,0,0:0:0:0:
192,192,140097,1,0,0:0:0:0:
448,192,140172,1,0,0:0:0:0:
320,192,140247,1,0,0:0:0:0:
64,192,140322,1,0,0:0:0:0:
192,192,140397,1,0,0:0:0:0:
448,192,140472,1,0,0:0:0:0:
320,192,140547,1,0,0:0:0:0:
64,192,140622,1,0,0:0:0:0:
192,192,140697,1,0,0:0:0:0:
448,192,140772,1,0,0:0:0:0:
320,192,140847,1,0,0:0:0:0:
192,192,140922,1,0,0:0:0:0:
64,192,140922,1,0,0:0:0:0:
320,192,141072,1,0,0:0:0:0:
192,192,141222,1,0,0:0:0:0:
320,192,141372,1,0,0:0:0:0:
448,192,141447,1,0,0:0:0:0:
320,192,141522,1,0,0:0:0:0:
192,192,141597,1,0,0:0:0:0:
64,192,141672,1,0,0:0:0:0:
320,192,141822,1,0,0:0:0:0:
448,192,141822,1,0,0:0:0:0:
192,192,141822,1,0,0:0:0:0:
64,192,141972,1,0,0:0:0:0:
192,192,142047,1,0,0:0:0:0:
320,192,142122,1,0,0:0:0:0:
192,192,142272,1,0,0:0:0:0:
320,192,142422,1,0,0:0:0:0:
64,192,142572,1,0,0:0:0:0:
192,192,142647,1,0,0:0:0:0:
320,192,142722,1,0,0:0:0:0:
448,192,142797,1,0,0:0:0:0:
320,192,142872,1,0,0:0:0:0:
448,192,143022,1,0,0:0:0:0:
64,192,143022,1,0,0:0:0:0:
192,192,143022,1,0,0:0:0:0:
320,192,143172,1,0,0:0:0:0:
192,192,143247,1,0,0:0:0:0:
320,192,143322,1,0,0:0:0:0:
192,192,143472,1,0,0:0:0:0:
320,192,143622,1,0,0:0:0:0:
448,192,143697,1,0,0:0:0:0:
320,192,143772,1,0,0:0:0:0:
192,192,143847,1,0,0:0:0:0:
320,192,143922,1,0,0:0:0:0:
192,192,143997,1,0,0:0:0:0:
64,192,144072,1,0,0:0:0:0:
192,192,144222,1,0,0:0:0:0:
320,192,144222,1,0,0:0:0:0:
448,192,144222,1,0,0:0:0:0:
64,192,144372,1,0,0:0:0:0:
448,192,144447,1,0,0:0:0:0:
192,192,144522,1,0,0:0:0:0:
320,192,144672,1,0,0:0:0:0:
64,192,144672,1,0,0:0:0:0:
448,192,144822,1,0,0:0:0:0:
192,192,144972,1,0,0:0:0:0:
320,192,145047,1,0,0:0:0:0:
192,192,145122,1,0,0:0:0:0:
64,192,145197,1,0,0:0:0:0:
192,192,145272,1,0,0:0:0:0:
448,192,145422,1,0,0:0:0:0:
320,192,145422,1,0,0:0:0:0:
64,192,145422,1,0,0:0:0:0:
192,192,145572,1,0,0:0:0:0:
64,192,145647,1,0,0:0:0:0:
448,192,145722,1,0,0:0:0:0:
320,192,145872,1,0,0:0:0:0:
64,192,146022,1,0,0:0:0:0:
448,192,146097,1,0,0:0:0:0:
320,192,146172,1,0,0:0:0:0:
448,192,146247,1,0,0:0:0:0:
320,192,146322,1,0,0:0:0:0:
192,192,146397,1,0,0:0:0:0:
64,192,146472,1,0,0:0:0:0:
192,192,146622,1,0,0:0:0:0:
320,192,146622,1,0,0:0:0:0:
448,192,146622,1,0,0:0:0:0:
64,192,146772,1,0,0:0:0:0:
192,192,146847,1,0,0:0:0:0:
64,192,146922,1,0,0:0:0:0:
192,192,147072,1,0,0:0:0:0:
448,192,147222,1,0,0:0:0:0:
320,192,147372,1,0,0:0:0:0:
448,192,147447,1,0,0:0:0:0:
320,192,147522,1,0,0:0:0:0:
192,192,147597,1,0,0:0:0:0:
64,192,147672,1,0,0:0:0:0:
320,192,147822,1,0,0:0:0:0:
448,192,147822,1,0,0:0:0:0:
192,192,147822,1,0,0:0:0:0:
64,192,147972,1,0,0:0:0:0:
192,192,148047,1,0,0:0:0:0:
320,192,148122,1,0,0:0:0:0:
192,192,148272,1,0,0:0:0:0:
448,192,148422,1,0,0:0:0:0:
320,192,148497,1,0,0:0:0:0:
448,192,148572,1,0,0:0:0:0:
320,192,148647,1,0,0:0:0:0:
192,192,148722,1,0,0:0:0:0:
64,192,148797,1,0,0:0:0:0:
192,192,148872,1,0,0:0:0:0:
320,192,149022,1,0,0:0:0:0:
64,192,149022,1,0,0:0:0:0:
448,192,149022,1,0,0:0:0:0:
192,192,149172,1,0,0:0:0:0:
320,192,149247,1,0,0:0:0:0:
192,192,149322,1,0,0:0:0:0:
320,192,149472,1,0,0:0:0:0:
192,192,149622,1,0,0:0:0:0:
64,192,149622,1,0,0:0:0:0:
320,192,149697,1,0,0:0:0:0:
448,192,149697,1,0,0:0:0:0:
192,192,149772,1,0,0:0:0:0:
64,192,149772,1,0,0:0:0:0:
320,192,149847,1,0,0:0:0:0:
448,192,149847,1,0,0:0:0:0:
192,192,149922,1,0,0:0:0:0:
64,192,149922,1,0,0:0:0:0:
320,192,149997,1,0,0:0:0:0:
448,192,149997,1,0,0:0:0:0:
192,192,150072,1,0,0:0:0:0:
64,192,150072,1,0,0:0:0:0:
320,192,150147,1,0,0:0:0:0:
448,192,150147,1,0,0:0:0:0:
192,192,150222,1,0,0:0:0:0:
64,192,150222,1,0,0:0:0:0:
320,192,150297,1,0,0:0:0:0:
448,192,150297,1,0,0:0:0:0:
192,192,150372,1,0,0:0:0:0:
64,192,150372,1,0,0:0:0:0:
320,192,150447,1,0,0:0:0:0:
448,192,150447,1,0,0:0:0:0:
192,192,150522,1,0,0:0:0:0:
64,192,150522,1,0,0:0:0:0:
320,192,150672,1,0,0:0:0:0:
192,192,150822,1,0,0:0:0:0:
64,192,150822,1,0,0:0:0:0:
448,192,150897,1,0,0:0:0:0:
320,192,150972,1,0,0:0:0:0:
448,192,151047,1,0,0:0:0:0:
64,192,151122,1,0,0:0:0:0:
192,192,151122,1,0,0:0:0:0:
320,192,151197,1,0,0:0:0:0:
448,192,151272,1,0,0:0:0:0:
192,192,151422,1,0,0:0:0:0:
448,192,151422,1,0,0:0:0:0:
320,192,151422,1,0,0:0:0:0:
448,192,151572,1,0,0:0:0:0:
320,192,151647,1,0,0:0:0:0:
64,192,151722,1,0,0:0:0:0:
192,192,151722,1,0,0:0:0:0:
320,192,151872,1,0,0:0:0:0:
64,192,152022,1,0,0:0:0:0:
192,192,152022,1,0,0:0:0:0:
448,192,152172,1,0,0:0:0:0:
320,192,152247,1,0,0:0:0:0:
64,192,152322,1,0,0:0:0:0:
192,192,152322,1,0,0:0:0:0:
448,192,152397,1,0,0:0:0:0:
320,192,152472,1,0,0:0:0:0:
192,192,152622,1,0,0:0:0:0:
448,192,152622,1,0,0:0:0:0:
320,192,152622,1,0,0:0:0:0:
64,192,152772,1,0,0:0:0:0:
192,192,152847,1,0,0:0:0:0:
320,192,152922,1,0,0:0:0:0:
448,192,152922,1,0,0:0:0:0:
64,192,153072,1,0,0:0:0:0:
320,192,153222,1,0,0:0:0:0:
448,192,153222,1,0,0:0:0:0:
192,192,153297,1,0,0:0:0:0:
320,192,153372,1,0,0:0:0:0:
192,192,153447,1,0,0:0:0:0:
320,192,153522,1,0,0:0:0:0:
448,192,153522,1,0,0:0:0:0:
192,192,153597,1,0,0:0:0:0:
64,192,153672,1,0,0:0:0:0:
320,192,153822,1,0,0:0:0:0:
192,192,153822,1,0,0:0:0:0:
64,192,153822,1,0,0:0:0:0:
320,192,153972,1,0,0:0:0:0:
192,192,154047,1,0,0:0:0:0:
320,192,154122,1,0,0:0:0:0:
448,192,154122,1,0,0:0:0:0:
192,192,154272,1,0,0:0:0:0:
448,192,154422,1,0,0:0:0:0:
320,192,154422,1,0,0:0:0:0:
64,192,154572,1,0,0:0:0:0:
192,192,154647,1,0,0:0:0:0:
448,192,154722,1,0,0:0:0:0:
320,192,154722,1,0,0:0:0:0:
64,192,154797,1,0,0:0:0:0:
192,192,154872,1,0,0:0:0:0:
64,192,155022,1,0,0:0:0:0:
320,192,155022,1,0,0:0:0:0:
192,192,155022,1,0,0:0:0:0:
448,192,155172,1,0,0:0:0:0:
320,192,155247,1,0,0:0:0:0:
192,192,155322,1,0,0:0:0:0:
64,192,155322,1,0,0:0:0:0:
448,192,155472,1,0,0:0:0:0:
320,192,155547,1,0,0:0:0:0:
64,192,155622,1,0,0:0:0:0:
192,192,155622,1,0,0:0:0:0:
320,192,155697,1,0,0:0:0:0:
448,192,155772,1,0,0:0:0:0:
320,192,155847,1,0,0:0:0:0:
192,192,155922,1,0,0:0:0:0:
64,192,155922,1,0,0:0:0:0:
320,192,155997,1,0,0:0:0:0:
448,192,156072,1,0,0:0:0:0:
448,192,156222,1,0,0:0:0:0:
320,192,156222,1,0,0:0:0:0:
192,192,156222,1,0,0:0:0:0:
448,192,156372,1,0,0:0:0:0:
320,192,156447,1,0,0:0:0:0:
64,192,156522,1,0,0:0:0:0:
192,192,156522,1,0,0:0:0:0:
320,192,156672,1,0,0:0:0:0:
64,192,156822,1,0,0:0:0:0:
192,192,156822,1,0,0:0:0:0:
448,192,156972,1,0,0:0:0:0:
320,192,157047,1,0,0:0:0:0:
192,192,157122,1,0,0:0:0:0:
64,192,157122,1,0,0:0:0:0:
320,192,157197,1,0,0:0:0:0:
448,192,157272,1,0,0:0:0:0:
192,192,157422,1,0,0:0:0:0:
448,192,157422,1,0,0:0:0:0:
320,192,157422,1,0,0:0:0:0:
64,192,157572,1,0,0:0:0:0:
192,192,157647,1,0,0:0:0:0:
448,192,157722,1,0,0:0:0:0:
320,192,157722,1,0,0:0:0:0:
64,192,157872,1,0,0:0:0:0:
192,192,157947,1,0,0:0:0:0:
448,192,158022,1,0,0:0:0:0:
320,192,158022,1,0,0:0:0:0:
192,192,158097,1,0,0:0:0:0:
64,192,158172,1,0,0:0:0:0:
192,192,158247,1,0,0:0:0:0:
448,192,158322,1,0,0:0:0:0:
320,192,158322,1,0,0:0:0:0:
192,192,158397,1,0,0:0:0:0:
64,192,158472,1,0,0:0:0:0:
64,192,158622,1,0,0:0:0:0:
320,192,158622,1,0,0:0:0:0:
192,192,158622,1,0,0:0:0:0:
64,192,158772,1,0,0:0:0:0:
192,192,158847,1,0,0:0:0:0:
448,192,158922,1,0,0:0:0:0:
320,192,158922,1,0,0:0:0:0:
192,192,159072,5,0,0:0:0:0:
448,192,159222,1,0,0:0:0:0:
320,192,159222,1,0,0:0:0:0:
64,192,159297,1,0,0:0:0:0:
192,192,159297,1,0,0:0:0:0:
448,192,159372,1,0,0:0:0:0:
320,192,159372,1,0,0:0:0:0:
64,192,159447,1,0,0:0:0:0:
192,192,159447,1,0,0:0:0:0:
448,192,159522,1,0,0:0:0:0:
320,192,159522,1,0,0:0:0:0:
64,192,159597,1,0,0:0:0:0:
192,192,159597,1,0,0:0:0:0:
448,192,159672,1,0,0:0:0:0:
320,192,159672,1,0,0:0:0:0:
64,192,159747,1,0,0:0:0:0:
192,192,159747,1,0,0:0:0:0:
448,192,159822,1,0,0:0:0:0:
320,192,159822,1,0,0:0:0:0:
64,192,159897,1,0,0:0:0:0:
192,192,159897,1,0,0:0:0:0:
448,192,159972,1,0,0:0:0:0:
320,192,159972,1,0,0:0:0:0:
64,192,160047,1,0,0:0:0:0:
192,192,160047,1,0,0:0:0:0:
448,192,160122,1,0,0:0:0:0:
320,192,160122,1,0,0:0:0:0:
192,192,160122,1,0,0:0:0:0:
64,192,160272,1,0,0:0:0:0:
64,192,160422,1,0,0:0:0:0:
192,192,160422,1,0,0:0:0:0:
320,192,160422,1,0,0:0:0:0:
448,192,160572,1,0,0:0:0:0:
448,192,160722,1,0,0:0:0:0:
320,192,160722,1,0,0:0:0:0:
192,192,160722,1,0,0:0:0:0:
64,192,160872,1,0,0:0:0:0:
64,192,161022,1,0,0:0:0:0:
192,192,161022,1,0,0:0:0:0:
320,192,161022,1,0,0:0:0:0:
192,192,161172,1,0,0:0:0:0:
64,192,161247,1,0,0:0:0:0:
448,192,161322,1,0,0:0:0:0:
320,192,161322,1,0,0:0:0:0:
192,192,161322,1,0,0:0:0:0:
64,192,161397,1,0,0:0:0:0:
192,192,161434,1,0,0:0:0:0:
320,192,161472,1,0,0:0:0:0:
448,192,161509,1,0,0:0:0:0:
64,192,161622,1,0,0:0:0:0:
192,192,161622,1,0,0:0:0:0:
320,192,161622,1,0,0:0:0:0:
448,192,161772,1,0,0:0:0:0:
448,192,161922,1,0,0:0:0:0:
320,192,161922,1,0,0:0:0:0:
64,192,161922,1,0,0:0:0:0:
192,192,161997,1,0,0:0:0:0:
320,192,162072,1,0,0:0:0:0:
448,192,162147,1,0,0:0:0:0:
64,192,162222,1,0,0:0:0:0:
192,192,162222,1,0,0:0:0:0:
320,192,162222,1,0,0:0:0:0:
448,192,162297,1,0,0:0:0:0:
192,192,162372,1,0,0:0:0:0:
64,192,162447,1,0,0:0:0:0:
448,192,162522,1,0,0:0:0:0:
192,192,162522,1,0,0:0:0:0:
320,192,162522,1,0,0:0:0:0:
64,192,162597,1,0,0:0:0:0:
192,192,162672,1,0,0:0:0:0:
64,192,162822,1,0,0:0:0:0:
192,192,162822,1,0,0:0:0:0:
320,192,162822,1,0,0:0:0:0:
448,192,162897,1,0,0:0:0:0:
320,192,162972,1,0,0:0:0:0:
64,192,163047,1,0,0:0:0:0:
448,192,163122,1,0,0:0:0:0:
320,192,163122,1,0,0:0:0:0:
192,192,163122,1,0,0:0:0:0:
448,192,163272,1,0,0:0:0:0:
64,192,163422,1,0,0:0:0:0:
192,192,163422,1,0,0:0:0:0:
320,192,163422,1,0,0:0:0:0:
448,192,163572,1,0,0:0:0:0:
320,192,163572,1,0,0:0:0:0:
448,192,163722,1,0,0:0:0:0:
320,192,163722,1,0,0:0:0:0:
192,192,163722,1,0,0:0:0:0:
64,192,163872,1,0,0:0:0:0:
192,192,163872,1,0,0:0:0:0:
64,192,164022,1,0,0:0:0:0:
192,192,164022,1,0,0:0:0:0:
320,192,164022,1,0,0:0:0:0:
448,192,164097,1,0,0:0:0:0:
320,192,164172,1,0,0:0:0:0:
64,192,164247,1,0,0:0:0:0:
448,192,164322,1,0,0:0:0:0:
320,192,164322,1,0,0:0:0:0:
192,192,164322,1,0,0:0:0:0:
64,192,164472,1,0,0:0:0:0:
64,192,164622,1,0,0:0:0:0:
192,192,164622,1,0,0:0:0:0:
320,192,164622,1,0,0:0:0:0:
448,192,164772,1,0,0:0:0:0:
192,192,164922,1,0,0:0:0:0:
320,192,164922,1,0,0:0:0:0:
448,192,164922,1,0,0:0:0:0:
448,192,165072,1,0,0:0:0:0:
320,192,165072,1,0,0:0:0:0:
320,192,165222,1,0,0:0:0:0:
192,192,165222,1,0,0:0:0:0:
64,192,165222,1,0,0:0:0:0:
64,192,165372,1,0,0:0:0:0:
192,192,165522,1,0,0:0:0:0:
320,192,165522,1,0,0:0:0:0:
448,192,165522,1,0,0:0:0:0:
448,192,165672,1,0,0:0:0:0:
320,192,165822,1,0,0:0:0:0:
192,192,165822,1,0,0:0:0:0:
64,192,165822,1,0,0:0:0:0:
192,192,165972,1,0,0:0:0:0:
64,192,166047,1,0,0:0:0:0:
192,192,166122,1,0,0:0:0:0:
320,192,166122,1,0,0:0:0:0:
448,192,166122,1,0,0:0:0:0:
448,192,166272,1,0,0:0:0:0:
320,192,166422,1,0,0:0:0:0:
192,192,166422,1,0,0:0:0:0:
64,192,166422,1,0,0:0:0:0:
64,192,166572,1,0,0:0:0:0:
192,192,166572,1,0,0:0:0:0:
192,192,166722,1,0,0:0:0:0:
320,192,166722,1,0,0:0:0:0:
448,192,166722,1,0,0:0:0:0:
320,192,166872,1,0,0:0:0:0:
448,192,166872,1,0,0:0:0:0:
320,192,167022,1,0,0:0:0:0:
192,192,167022,1,0,0:0:0:0:
64,192,167022,1,0,0:0:0:0:
448,192,167322,1,0,0:0:0:0:
320,192,167322,1,0,0:0:0:0:
192,192,167322,1,0,0:0:0:0:
64,192,167397,1,0,0:0:0:0:
192,192,167472,1,0,0:0:0:0:
448,192,167547,1,0,0:0:0:0:
64,192,167622,1,0,0:0:0:0:
192,192,167622,1,0,0:0:0:0:
320,192,167622,1,0,0:0:0:0:
448,192,167697,1,0,0:0:0:0:
192,192,167772,1,0,0:0:0:0:
64,192,167847,1,0,0:0:0:0:
448,192,167922,1,0,0:0:0:0:
320,192,167922,1,0,0:0:0:0:
192,192,167922,1,0,0:0:0:0:
64,192,168072,1,0,0:0:0:0:
64,192,168222,1,0,0:0:0:0:
192,192,168222,1,0,0:0:0:0:
320,192,168222,1,0,0:0:0:0:
448,192,168372,1,0,0:0:0:0:
448,192,168522,1,0,0:0:0:0:
320,192,168522,1,0,0:0:0:0:
192,192,168522,1,0,0:0:0:0:
64,192,168672,1,0,0:0:0:0:
64,192,168822,1,0,0:0:0:0:
192,192,168897,1,0,0:0:0:0:
320,192,168972,1,0,0:0:0:0:
448,192,169047,1,0,0:0:0:0:
64,192,169122,1,0,0:0:0:0:
192,192,169197,1,0,0:0:0:0:
320,192,169272,1,0,0:0:0:0:
448,192,169347,1,0,0:0:0:0:
64,192,169422,1,0,0:0:0:0:
192,192,169459,1,0,0:0:0:0:
320,192,169497,1,0,0:0:0:0:
448,192,169534,1,0,0:0:0:0:
64,192,169572,1,0,0:0:0:0:
192,192,169609,1,0,0:0:0:0:
320,192,169647,1,0,0:0:0:0:
448,192,169684,1,0,0:0:0:0:
192,192,169722,128,0,170922:0:0:0:0:
64,192,169722,1,0,0:0:0:0:
320,192,169872,128,0,170922:0:0:0:0:
64,192,170922,128,0,171822:0:0:0:0:
448,192,170922,128,0,172122:0:0:0:0:
320,192,171822,128,0,172122:0:0:0:0:
64,192,172122,128,0,173322:0:0:0:0:
192,192,172122,1,0,0:0:0:0:
192,192,172272,128,0,172722:0:0:0:0:
320,192,172722,128,0,173322:0:0:0:0:
448,192,173322,128,0,173922:0:0:0:0:
192,192,173322,128,0,174522:0:0:0:0:
320,192,173922,128,0,174522:0:0:0:0:
64,192,174522,128,0,175122:0:0:0:0:
448,192,174522,1,0,0:0:0:0:
448,192,174672,128,0,175722:0:0:0:0:
192,192,175122,128,0,175722:0:0:0:0:
320,192,175722,128,0,176322:0:0:0:0:
64,192,175722,128,0,176922:0:0:0:0:
192,192,176322,128,0,177822:0:0:0:0:
448,192,176922,1,0,0:0:0:0:
448,192,177072,128,0,178122:0:0:0:0:
64,192,177822,128,0,178122:0:0:0:0:
192,192,178122,128,0,178422:0:0:0:0:
320,192,178122,128,0,179322:0:0:0:0:
64,192,178422,128,0,178722:0:0:0:0:
448,192,178722,128,0,179022:0:0:0:0:
192,192,179022,128,0,179322:0:0:0:0:
448,192,179322,1,0,0:0:0:0:
64,192,179322,128,0,179903:0:0:0:0:
448,192,179472,128,0,180522:0:0:0:0:
192,192,179922,1,0,0:0:0:0:
320,192,179940,128,0,180147:0:0:0:0:
192,192,180222,1,0,0:0:0:0:
320,192,180240,128,0,180522:0:0:0:0:
64,192,180522,128,0,181122:0:0:0:0:
192,192,180522,128,0,181422:0:0:0:0:
448,192,181122,128,0,181422:0:0:0:0:
320,192,181422,128,0,181722:0:0:0:0:
448,192,181722,1,0,0:0:0:0:
192,192,181722,128,0,183972:0:0:0:0:
448,192,181872,128,0,184122:0:0:0:0:
64,192,182322,128,0,184122:0:0:0:0:
320,192,182922,128,0,184122:0:0:0:0:
192,192,184122,1,0,0:0:0:0:
320,192,184722,1,0,0:0:0:0:
192,192,185022,1,0,0:0:0:0:
448,192,185322,1,0,0:0:0:0:
64,192,185622,1,0,0:0:0:0:
192,192,185922,1,0,0:0:0:0:
64,192,186222,1,0,0:0:0:0:
320,192,186597,1,0,0:0:0:0:
64,192,186972,1,0,0:0:0:0:
448,192,187272,1,0,0:0:0:0:
192,192,187647,1,0,0:0:0:0:
320,192,188134,1,0,0:0:0:0:
448,192,188547,1,0,0:0:0:0:
64,192,189372,128,0,193122:0:0:0:0:
192,192,189390,128,0,193122:0:0:0:0:
320,192,189409,128,0,193122:0:0:0:0:
448,192,189484,128,0,193122:0:0:0:0:
192,192,195972,128,0,196122:0:0:0:0:
64,192,196122,128,0,198522:0:0:0:0:
448,192,196122,1,0,0:0:0:0:
192,192,196272,1,0,0:0:0:0:
320,192,196422,1,0,0:0:0:0:
192,192,196572,1,0,0:0:0:0:
448,192,196647,1,0,0:0:0:0:
192,192,196722,1,0,0:0:0:0:
448,192,196797,1,0,0:0:0:0:
192,192,196872,1,0,0:0:0:0:
448,192,197022,1,0,0:0:0:0:
320,192,197097,1,0,0:0:0:0:
192,192,197172,1,0,0:0:0:0:
320,192,197247,1,0,0:0:0:0:
448,192,197322,1,0,0:0:0:0:
320,192,197472,1,0,0:0:0:0:
448,192,197622,1,0,0:0:0:0:
192,192,197772,1,0,0:0:0:0:
320,192,197847,1,0,0:0:0:0:
192,192,197922,1,0,0:0:0:0:
320,192,197997,1,0,0:0:0:0:
192,192,198072,1,0,0:0:0:0:
320,192,198222,1,0,0:0:0:0:
192,192,198297,1,0,0:0:0:0:
320,192,198372,1,0,0:0:0:0:
448,192,198447,1,0,0:0:0:0:
192,192,198522,128,0,200922:0:0:0:0:
320,192,198522,1,0,0:0:0:0:
64,192,198672,1,0,0:0:0:0:
448,192,198822,1,0,0:0:0:0:
320,192,198972,1,0,0:0:0:0:
64,192,199047,1,0,0:0:0:0:
320,192,199122,1,0,0:0:0:0:
64,192,199197,1,0,0:0:0:0:
320,192,199272,1,0,0:0:0:0:
64,192,199422,1,0,0:0:0:0:
320,192,199497,1,0,0:0:0:0:
448,192,199572,1,0,0:0:0:0:
320,192,199647,1,0,0:0:0:0:
64,192,199722,1,0,0:0:0:0:
448,192,199872,1,0,0:0:0:0:
320,192,200022,1,0,0:0:0:0:
64,192,200172,1,0,0:0:0:0:
448,192,200247,1,0,0:0:0:0:
64,192,200322,1,0,0:0:0:0:
448,192,200397,1,0,0:0:0:0:
64,192,200472,1,0,0:0:0:0:
320,192,200622,1,0,0:0:0:0:
64,192,200772,1,0,0:0:0:0:
320,192,200922,128,0,205572:0:0:0:0:
448,192,200922,1,0,0:0:0:0:
192,192,201072,1,0,0:0:0:0:
64,192,201222,1,0,0:0:0:0:
192,192,201372,1,0,0:0:0:0:
448,192,201447,1,0,0:0:0:0:
192,192,201522,1,0,0:0:0:0:
448,192,201597,1,0,0:0:0:0:
192,192,201672,1,0,0:0:0:0:
448,192,201822,1,0,0:0:0:0:
192,192,201897,1,0,0:0:0:0:
64,192,201972,1,0,0:0:0:0:
192,192,202047,1,0,0:0:0:0:
448,192,202122,1,0,0:0:0:0:
64,192,202272,1,0,0:0:0:0:
448,192,202422,1,0,0:0:0:0:
64,192,202572,1,0,0:0:0:0:
192,192,202647,1,0,0:0:0:0:
64,192,202722,1,0,0:0:0:0:
192,192,202797,1,0,0:0:0:0:
64,192,202872,1,0,0:0:0:0:
192,192,203022,1,0,0:0:0:0:
64,192,203172,1,0,0:0:0:0:
448,192,203322,1,0,0:0:0:0:
64,192,203472,1,0,0:0:0:0:
192,192,203622,1,0,0:0:0:0:
448,192,203772,1,0,0:0:0:0:
192,192,203847,1,0,0:0:0:0:
64,192,203922,1,0,0:0:0:0:
192,192,203997,1,0,0:0:0:0:
448,192,204072,1,0,0:0:0:0:
192,192,204222,1,0,0:0:0:0:
64,192,204297,1,0,0:0:0:0:
192,192,204372,1,0,0:0:0:0:
448,192,204447,1,0,0:0:0:0:
64,192,204522,1,0,0:0:0:0:
448,192,204672,1,0,0:0:0:0:
192,192,204822,1,0,0:0:0:0:
64,192,204822,1,0,0:0:0:0:
448,192,204972,1,0,0:0:0:0:
192,192,205047,1,0,0:0:0:0:
448,192,205122,1,0,0:0:0:0:
192,192,205197,1,0,0:0:0:0:
448,192,205272,1,0,0:0:0:0:
192,192,205347,1,0,0:0:0:0:
448,192,205422,1,0,0:0:0:0:
64,192,205422,1,0,0:0:0:0:
192,192,205497,1,0,0:0:0:0:
448,192,205572,1,0,0:0:0:0:
64,192,205572,1,0,0:0:0:0:
320,192,205647,1,0,0:0:0:0:
448,192,205722,1,0,0:0:0:0:
192,192,205722,1,0,0:0:0:0:
64,192,205722,128,0,209322:0:0:0:0:
448,192,205872,1,0,0:0:0:0:
192,192,205872,1,0,0:0:0:0:
320,192,206022,1,0,0:0:0:0:
448,192,206022,1,0,0:0:0:0:
192,192,206022,1,0,0:0:0:0:
448,192,206172,1,0,0:0:0:0:
192,192,206322,1,0,0:0:0:0:
320,192,206322,1,0,0:0:0:0:
448,192,206472,1,0,0:0:0:0:
192,192,206472,1,0,0:0:0:0:
320,192,206472,1,0,0:0:0:0:
320,192,206622,1,0,0:0:0:0:
192,192,206772,1,0,0:0:0:0:
192,192,207072,1,0,0:0:0:0:
320,192,207072,1,0,0:0:0:0:
448,192,207222,1,0,0:0:0:0:
192,192,207222,1,0,0:0:0:0:
320,192,207222,1,0,0:0:0:0:
448,192,207372,1,0,0:0:0:0:
320,192,207522,1,0,0:0:0:0:
192,192,207672,1,0,0:0:0:0:
448,192,207672,1,0,0:0:0:0:
320,192,207822,1,0,0:0:0:0:
448,192,207822,1,0,0:0:0:0:
192,192,207822,1,0,0:0:0:0:
192,192,207972,1,0,0:0:0:0:
320,192,207972,1,0,0:0:0:0:
448,192,208047,1,0,0:0:0:0:
320,192,208122,1,0,0:0:0:0:
192,192,208122,1,0,0:0:0:0:
448,192,208272,1,0,0:0:0:0:
320,192,208422,1,0,0:0:0:0:
448,192,208422,1,0,0:0:0:0:
192,192,208422,1,0,0:0:0:0:
192,192,208572,1,0,0:0:0:0:
448,192,208722,1,0,0:0:0:0:
320,192,208722,1,0,0:0:0:0:
320,192,208872,1,0,0:0:0:0:
192,192,208872,1,0,0:0:0:0:
448,192,208872,1,0,0:0:0:0:
192,192,209022,1,0,0:0:0:0:
320,192,209172,1,0,0:0:0:0:
448,192,209172,1,0,0:0:0:0:
192,192,209322,128,0,210522:0:0:0:0:
448,192,209322,1,0,0:0:0:0:
64,192,209472,1,0,0:0:0:0:
320,192,209472,1,0,0:0:0:0:
320,192,209622,1,0,0:0:0:0:
448,192,209622,1,0,0:0:0:0:
64,192,209622,1,0,0:0:0:0:
448,192,209772,1,0,0:0:0:0:
320,192,209922,1,0,0:0:0:0:
64,192,210072,1,0,0:0:0:0:
448,192,210072,1,0,0:0:0:0:
64,192,210222,1,0,0:0:0:0:
448,192,210222,1,0,0:0:0:0:
320,192,210222,1,0,0:0:0:0:
320,192,210372,1,0,0:0:0:0:
448,192,210372,1,0,0:0:0:0:
64,192,210372,1,0,0:0:0:0:
64,192,210522,1,0,0:0:0:0:
320,192,210522,128,0,214272:0:0:0:0:
448,192,210522,1,0,0:0:0:0:
192,192,210672,1,0,0:0:0:0:
64,192,210672,1,0,0:0:0:0:
192,192,210822,1,0,0:0:0:0:
448,192,210822,1,0,0:0:0:0:
64,192,210822,1,0,0:0:0:0:
192,192,210972,1,0,0:0:0:0:
448,192,210972,1,0,0:0:0:0:
64,192,211122,1,0,0:0:0:0:
192,192,211272,1,0,0:0:0:0:
64,192,211272,1,0,0:0:0:0:
448,192,211272,1,0,0:0:0:0:
192,192,211422,1,0,0:0:0:0:
448,192,211422,1,0,0:0:0:0:
64,192,211572,1,0,0:0:0:0:
448,192,211722,1,0,0:0:0:0:
192,192,211872,1,0,0:0:0:0:
64,192,211872,1,0,0:0:0:0:
192,192,212022,1,0,0:0:0:0:
448,192,212022,1,0,0:0:0:0:
64,192,212022,1,0,0:0:0:0:
448,192,212172,1,0,0:0:0:0:
64,192,212322,1,0,0:0:0:0:
192,192,212472,1,0,0:0:0:0:
448,192,212472,1,0,0:0:0:0:
448,192,212622,1,0,0:0:0:0:
192,192,212622,1,0,0:0:0:0:
64,192,212622,1,0,0:0:0:0:
192,192,212772,1,0,0:0:0:0:
64,192,212922,1,0,0:0:0:0:
448,192,213072,1,0,0:0:0:0:
192,192,213072,1,0,0:0:0:0:
192,192,213222,1,0,0:0:0:0:
64,192,213222,1,0,0:0:0:0:
448,192,213222,1,0,0:0:0:0:
64,192,213372,1,0,0:0:0:0:
192,192,213447,1,0,0:0:0:0:
64,192,213522,1,0,0:0:0:0:
192,192,213672,1,0,0:0:0:0:
448,192,213672,1,0,0:0:0:0:
64,192,213672,1,0,0:0:0:0:
192,192,213822,1,0,0:0:0:0:
64,192,213822,1,0,0:0:0:0:
448,192,213822,1,0,0:0:0:0:
64,192,213972,1,0,0:0:0:0:
192,192,213972,1,0,0:0:0:0:
448,192,214122,1,0,0:0:0:0:
192,192,214272,1,0,0:0:0:0:
64,192,214272,1,0,0:0:0:0:
64,192,214422,1,0,0:0:0:0:
448,192,214422,1,0,0:0:0:0:
320,192,214422,1,0,0:0:0:0:
192,192,214497,1,0,0:0:0:0:
64,192,214572,1,0,0:0:0:0:
448,192,214572,1,0,0:0:0:0:
320,192,214572,1,0,0:0:0:0:
192,192,214647,1,0,0:0:0:0:
64,192,214722,1,0,0:0:0:0:
448,192,214722,1,0,0:0:0:0:
320,192,214722,1,0,0:0:0:0:
192,192,214797,1,0,0:0:0:0:
64,192,214872,1,0,0:0:0:0:
448,192,214872,1,0,0:0:0:0:
320,192,214872,1,0,0:0:0:0:
192,192,214947,1,0,0:0:0:0:
448,192,215022,1,0,0:0:0:0:
64,192,215022,1,0,0:0:0:0:
320,192,215022,1,0,0:0:0:0:
192,192,215097,1,0,0:0:0:0:
64,192,215172,1,0,0:0:0:0:
448,192,215172,1,0,0:0:0:0:
320,192,215172,1,0,0:0:0:0:
192,192,215247,1,0,0:0:0:0:
64,192,215322,1,0,0:0:0:0:
320,192,215322,1,0,0:0:0:0:
448,192,215322,128,0,215472:0:0:0:0:
192,192,215472,128,0,215622:0:0:0:0:
64,192,215472,1,0,0:0:0:0:
64,192,215622,128,0,215772:0:0:0:0:
448,192,215622,1,0,0:0:0:0:
320,192,215622,1,0,0:0:0:0:
192,192,215772,128,0,215922:0:0:0:0:
320,192,215772,1,0,0:0:0:0:
320,192,215922,128,0,216072:0:0:0:0:
448,192,215922,1,0,0:0:0:0:
64,192,215922,1,0,0:0:0:0:
448,192,216072,128,0,216222:0:0:0:0:
64,192,216072,1,0,0:0:0:0:
192,192,216072,1,0,0:0:0:0:
192,192,216222,128,0,216372:0:0:0:0:
320,192,216222,1,0,0:0:0:0:
448,192,216372,128,0,216522:0:0:0:0:
64,192,216372,1,0,0:0:0:0:
192,192,216522,128,0,216672:0:0:0:0:
320,192,216522,1,0,0:0:0:0:
320,192,216672,128,0,216822:0:0:0:0:
448,192,216672,1,0,0:0:0:0:
448,192,216822,128,0,216972:0:0:0:0:
192,192,216822,1,0,0:0:0:0:
64,192,216822,1,0,0:0:0:0:
320,192,216972,128,0,217122:0:0:0:0:
192,192,216972,1,0,0:0:0:0:
448,192,217122,128,0,217272:0:0:0:0:
64,192,217122,1,0,0:0:0:0:
64,192,217272,128,0,217422:0:0:0:0:
320,192,217272,1,0,0:0:0:0:
448,192,217422,1,0,0:0:0:0:
320,192,217422,1,0,0:0:0:0:
448,192,217572,1,0,0:0:0:0:
192,192,217572,1,0,0:0:0:0:
320,192,217647,1,0,0:0:0:0:
64,192,217647,1,0,0:0:0:0:
192,192,217722,128,0,217872:0:0:0:0:
448,192,217722,1,0,0:0:0:0:
320,192,217872,128,0,218022:0:0:0:0:
64,192,217872,1,0,0:0:0:0:
192,192,218022,128,0,218172:0:0:0:0:
448,192,218022,1,0,0:0:0:0:
64,192,218022,1,0,0:0:0:0:
64,192,218172,128,0,218322:0:0:0:0:
448,192,218172,1,0,0:0:0:0:
320,192,218172,1,0,0:0:0:0:
320,192,218322,128,0,218472:0:0:0:0:
192,192,218322,1,0,0:0:0:0:
448,192,218322,1,0,0:0:0:0:
448,192,218472,128,0,218622:0:0:0:0:
64,192,218472,1,0,0:0:0:0:
192,192,218472,1,0,0:0:0:0:
64,192,218622,128,0,218772:0:0:0:0:
320,192,218622,1,0,0:0:0:0:
448,192,218772,128,0,218922:0:0:0:0:
192,192,218772,1,0,0:0:0:0:
320,192,218772,1,0,0:0:0:0:
64,192,218922,128,0,219072:0:0:0:0:
320,192,218922,1,0,0:0:0:0:
320,192,219072,128,0,219222:0:0:0:0:
448,192,219072,1,0,0:0:0:0:
192,192,219072,1,0,0:0:0:0:
448,192,219222,128,0,219372:0:0:0:0:
64,192,219222,1,0,0:0:0:0:
192,192,219222,1,0,0:0:0:0:
320,192,219372,128,0,219522:0:0:0:0:
192,192,219372,1,0,0:0:0:0:
64,192,219372,1,0,0:0:0:0:
64,192,219522,128,0,219672:0:0:0:0:
192,192,219522,1,0,0:0:0:0:
448,192,219522,1,0,0:0:0:0:
320,192,219672,128,0,219822:0:0:0:0:
448,192,219672,1,0,0:0:0:0:
192,192,219672,1,0,0:0:0:0:
448,192,219822,128,0,219972:0:0:0:0:
64,192,219822,1,0,0:0:0:0:
192,192,219822,1,0,0:0:0:0:
192,192,219972,1,0,0:0:0:0:
64,192,219972,1,0,0:0:0:0:
320,192,219972,1,0,0:0:0:0:
448,192,220122,128,0,220272:0:0:0:0:
64,192,220122,1,0,0:0:0:0:
192,192,220122,1,0,0:0:0:0:
320,192,220122,1,0,0:0:0:0:
64,192,220272,128,0,220422:0:0:0:0:
320,192,220272,1,0,0:0:0:0:
192,192,220422,128,0,220572:0:0:0:0:
448,192,220422,1,0,0:0:0:0:
320,192,220422,1,0,0:0:0:0:
64,192,220572,128,0,220722:0:0:0:0:
320,192,220572,1,0,0:0:0:0:
320,192,220722,128,0,220872:0:0:0:0:
448,192,220722,1,0,0:0:0:0:
448,192,220872,128,0,221022:0:0:0:0:
64,192,220872,1,0,0:0:0:0:
192,192,220872,1,0,0:0:0:0:
64,192,221022,128,0,221172:0:0:0:0:
192,192,221022,1,0,0:0:0:0:
448,192,221172,128,0,221322:0:0:0:0:
320,192,221172,1,0,0:0:0:0:
192,192,221172,1,0,0:0:0:0:
64,192,221322,128,0,221472:0:0:0:0:
192,192,221322,1,0,0:0:0:0:
320,192,221472,128,0,221622:0:0:0:0:
448,192,221472,1,0,0:0:0:0:
448,192,221622,128,0,221772:0:0:0:0:
64,192,221622,1,0,0:0:0:0:
192,192,221622,1,0,0:0:0:0:
64,192,221772,128,0,221922:0:0:0:0:
320,192,221772,1,0,0:0:0:0:
448,192,221922,128,0,222072:0:0:0:0:
192,192,221922,1,0,0:0:0:0:
192,192,222072,128,0,222222:0:0:0:0:
320,192,222072,1,0,0:0:0:0:
64,192,222072,1,0,0:0:0:0:
64,192,222222,128,0,222372:0:0:0:0:
448,192,222222,1,0,0:0:0:0:
320,192,222222,1,0,0:0:0:0:
192,192,222372,128,0,222522:0:0:0:0:
448,192,222372,1,0,0:0:0:0:
448,192,222522,128,0,222672:0:0:0:0:
64,192,222522,1,0,0:0:0:0:
320,192,222522,1,0,0:0:0:0:
64,192,222672,128,0,222822:0:0:0:0:
320,192,222672,1,0,0:0:0:0:
192,192,222822,128,0,222972:0:0:0:0:
448,192,222822,1,0,0:0:0:0:
320,192,222822,1,0,0:0:0:0:
64,192,222972,128,0,223122:0:0:0:0:
448,192,222972,1,0,0:0:0:0:
320,192,222972,1,0,0:0:0:0:
320,192,223122,128,0,223272:0:0:0:0:
192,192,223122,1,0,0:0:0:0:
448,192,223122,1,0,0:0:0:0:
448,192,223272,128,0,223422:0:0:0:0:
192,192,223272,1,0,0:0:0:0:
64,192,223272,1,0,0:0:0:0:
64,192,223422,128,0,223572:0:0:0:0:
320,192,223422,1,0,0:0:0:0:
320,192,223572,128,0,223722:0:0:0:0:
448,192,223572,1,0,0:0:0:0:
64,192,223722,128,0,223872:0:0:0:0:
192,192,223722,1,0,0:0:0:0:
192,192,223872,128,0,224022:0:0:0:0:
320,192,223872,1,0,0:0:0:0:
64,192,224022,128,0,224172:0:0:0:0:
448,192,224022,1,0,0:0:0:0:
320,192,224022,1,0,0:0:0:0:
192,192,224172,128,0,224322:0:0:0:0:
448,192,224172,1,0,0:0:0:0:
64,192,224322,1,0,0:0:0:0:
320,192,224322,1,0,0:0:0:0:
192,192,224472,1,0,0:0:0:0:
448,192,224472,1,0,0:0:0:0:
64,192,224622,1,0,0:0:0:0:
192,192,224622,1,0,0:0:0:0:
320,192,224622,1,0,0:0:0:0:
448,192,224772,1,0,0:0:0:0:
192,192,224772,1,0,0:0:0:0:
320,192,224772,1,0,0:0:0:0:
448,192,224922,128,0,225072:0:0:0:0:
192,192,224922,1,0,0:0:0:0:
64,192,224922,1,0,0:0:0:0:
320,192,224922,1,0,0:0:0:0:
192,192,225072,128,0,225222:0:0:0:0:
320,192,225072,1,0,0:0:0:0:
64,192,225222,128,0,225372:0:0:0:0:
448,192,225222,1,0,0:0:0:0:
320,192,225222,1,0,0:0:0:0:
192,192,225372,128,0,225522:0:0:0:0:
320,192,225372,1,0,0:0:0:0:
320,192,225522,128,0,225672:0:0:0:0:
448,192,225522,1,0,0:0:0:0:
448,192,225672,128,0,225822:0:0:0:0:
64,192,225672,1,0,0:0:0:0:
192,192,225672,1,0,0:0:0:0:
320,192,225822,128,0,225972:0:0:0:0:
192,192,225822,1,0,0:0:0:0:
64,192,225822,1,0,0:0:0:0:
448,192,225972,128,0,226122:0:0:0:0:
192,192,225972,1,0,0:0:0:0:
192,192,226122,128,0,226272:0:0:0:0:
64,192,226122,1,0,0:0:0:0:
64,192,226272,128,0,226422:0:0:0:0:
448,192,226272,1,0,0:0:0:0:
192,192,226422,128,0,226572:0:0:0:0:
448,192,226422,1,0,0:0:0:0:
320,192,226422,1,0,0:0:0:0:
320,192,226572,128,0,226722:0:0:0:0:
64,192,226572,1,0,0:0:0:0:
448,192,226722,128,0,226872:0:0:0:0:
192,192,226722,1,0,0:0:0:0:
320,192,226872,128,0,227022:0:0:0:0:
64,192,226872,1,0,0:0:0:0:
448,192,227022,128,0,227172:0:0:0:0:
192,192,227022,1,0,0:0:0:0:
64,192,227022,1,0,0:0:0:0:
192,192,227172,1,0,0:0:0:0:
64,192,227172,1,0,0:0:0:0:
320,192,227247,1,0,0:0:0:0:
448,192,227247,1,0,0:0:0:0:
192,192,227322,128,0,227472:0:0:0:0:
64,192,227322,1,0,0:0:0:0:
64,192,227472,128,0,227622:0:0:0:0:
320,192,227472,1,0,0:0:0:0:
192,192,227622,128,0,227772:0:0:0:0:
448,192,227622,1,0,0:0:0:0:
320,192,227622,1,0,0:0:0:0:
64,192,227772,128,0,227922:0:0:0:0:
448,192,227772,1,0,0:0:0:0:
320,192,227922,128,0,228072:0:0:0:0:
192,192,227922,1,0,0:0:0:0:
448,192,228072,128,0,228222:0:0:0:0:
64,192,228072,1,0,0:0:0:0:
192,192,228072,1,0,0:0:0:0:
64,192,228222,128,0,228372:0:0:0:0:
320,192,228222,1,0,0:0:0:0:
448,192,228372,128,0,228522:0:0:0:0:
192,192,228372,1,0,0:0:0:0:
64,192,228522,128,0,228672:0:0:0:0:
320,192,228522,1,0,0:0:0:0:
320,192,228672,128,0,228822:0:0:0:0:
448,192,228672,1,0,0:0:0:0:
448,192,228822,128,0,228972:0:0:0:0:
64,192,228822,1,0,0:0:0:0:
192,192,228822,1,0,0:0:0:0:
320,192,228972,128,0,229122:0:0:0:0:
64,192,228972,1,0,0:0:0:0:
192,192,229122,128,0,229272:0:0:0:0:
448,192,229122,1,0,0:0:0:0:
64,192,229272,128,0,229422:0:0:0:0:
448,192,229272,1,0,0:0:0:0:
192,192,229422,1,0,0:0:0:0:
320,192,229422,1,0,0:0:0:0:
448,192,229422,1,0,0:0:0:0:
320,192,229572,1,0,0:0:0:0:
192,192,229572,1,0,0:0:0:0:
64,192,229572,1,0,0:0:0:0:
320,192,229722,1,0,0:0:0:0:
192,192,229722,1,0,0:0:0:0:
448,192,229722,128,0,229872:0:0:0:0:
64,192,229872,128,0,230022:0:0:0:0:
192,192,229872,1,0,0:0:0:0:
192,192,230022,128,0,230172:0:0:0:0:
320,192,230022,1,0,0:0:0:0:
448,192,230022,1,0,0:0:0:0:
64,192,230172,128,0,230322:0:0:0:0:
448,192,230172,1,0,0:0:0:0:
320,192,230322,128,0,230472:0:0:0:0:
192,192,230322,1,0,0:0:0:0:
448,192,230472,128,0,230622:0:0:0:0:
64,192,230472,1,0,0:0:0:0:
192,192,230472,1,0,0:0:0:0:
64,192,230622,128,0,230772:0:0:0:0:
192,192,230622,1,0,0:0:0:0:
320,192,230622,1,0,0:0:0:0:
448,192,230772,128,0,230922:0:0:0:0:
320,192,230772,1,0,0:0:0:0:
64,192,230922,128,0,231072:0:0:0:0:
192,192,230922,1,0,0:0:0:0:
320,192,231072,128,0,231222:0:0:0:0:
448,192,231072,1,0,0:0:0:0:
448,192,231222,128,0,231372:0:0:0:0:
64,192,231222,1,0,0:0:0:0:
192,192,231222,1,0,0:0:0:0:
64,192,231372,128,0,231522:0:0:0:0:
192,192,231372,1,0,0:0:0:0:
448,192,231522,128,0,231672:0:0:0:0:
320,192,231522,1,0,0:0:0:0:
192,192,231672,128,0,231822:0:0:0:0:
64,192,231672,1,0,0:0:0:0:
64,192,231822,128,0,231972:0:0:0:0:
448,192,231822,1,0,0:0:0:0:
320,192,231822,1,0,0:0:0:0:
192,192,231972,128,0,232122:0:0:0:0:
448,192,231972,1,0,0:0:0:0:
448,192,232122,128,0,232272:0:0:0:0:
320,192,232122,1,0,0:0:0:0:
64,192,232272,128,0,232422:0:0:0:0:
192,192,232272,1,0,0:0:0:0:
192,192,232422,128,0,232572:0:0:0:0:
448,192,232422,1,0,0:0:0:0:
320,192,232422,1,0,0:0:0:0:
64,192,232572,128,0,232722:0:0:0:0:
448,192,232572,1,0,0:0:0:0:
192,192,232722,128,0,232872:0:0:0:0:
320,192,232722,1,0,0:0:0:0:
448,192,232872,128,0,233022:0:0:0:0:
64,192,232872,1,0,0:0:0:0:
64,192,233022,128,0,233172:0:0:0:0:
192,192,233022,1,0,0:0:0:0:
320,192,233022,1,0,0:0:0:0:
448,192,233172,128,0,233322:0:0:0:0:
192,192,233172,1,0,0:0:0:0:
320,192,233322,128,0,233472:0:0:0:0:
64,192,233322,1,0,0:0:0:0:
64,192,233472,128,0,233622:0:0:0:0:
192,192,233472,1,0,0:0:0:0:
320,192,233622,1,0,0:0:0:0:
448,192,233622,1,0,0:0:0:0:
192,192,233622,1,0,0:0:0:0:
448,192,233772,1,0,0:0:0:0:
320,192,233772,1,0,0:0:0:0:
192,192,233772,1,0,0:0:0:0:
64,192,233922,1,0,0:0:0:0:
192,192,233922,1,0,0:0:0:0:
320,192,233922,1,0,0:0:0:0:
192,192,234072,1,0,0:0:0:0:
64,192,234072,1,0,0:0:0:0:
320,192,234072,1,0,0:0:0:0:
192,192,234222,1,0,0:0:0:0:
320,192,234222,1,0,0:0:0:0:
448,192,234222,1,0,0:0:0:0:
448,192,234372,1,0,0:0:0:0:
320,192,234372,1,0,0:0:0:0:
192,192,234372,1,0,0:0:0:0:
192,192,234522,128,0,235572:0:0:0:0:
448,192,234522,128,0,235572:0:0:0:0:
64,192,234522,1,0,0:0:0:0:
64,192,234672,1,0,0:0:0:0:
320,192,234822,1,0,0:0:0:0:
64,192,234972,1,0,0:0:0:0:
320,192,235122,1,0,0:0:0:0:
320,192,235272,1,0,0:0:0:0:
64,192,235422,1,0,0:0:0:0:
320,192,235572,1,0,0:0:0:0:
320,192,235722,128,0,236922:0:0:0:0:
192,192,235722,128,0,236922:0:0:0:0:
64,192,235872,1,0,0:0:0:0:
448,192,236022,1,0,0:0:0:0:
64,192,236172,1,0,0:0:0:0:
448,192,236322,1,0,0:0:0:0:
64,192,236472,1,0,0:0:0:0:
64,192,236622,1,0,0:0:0:0:
448,192,236772,1,0,0:0:0:0:
448,192,236922,1,0,0:0:0:0:
64,192,236922,1,0,0:0:0:0:
448,192,237072,128,0,237147:0:0:0:0:
64,192,237072,1,0,0:0:0:0:
192,192,237222,128,0,237297:0:0:0:0:
320,192,237222,1,0,0:0:0:0:
448,192,237372,128,0,237447:0:0:0:0:
64,192,237372,1,0,0:0:0:0:
192,192,237522,128,0,237597:0:0:0:0:
320,192,237522,1,0,0:0:0:0:
448,192,237672,128,0,237747:0:0:0:0:
320,192,237672,1,0,0:0:0:0:
192,192,237822,128,0,237897:0:0:0:0:
64,192,237822,1,0,0:0:0:0:
448,192,237972,128,0,238047:0:0:0:0:
320,192,237972,1,0,0:0:0:0:
320,192,238122,128,0,238197:0:0:0:0:
192,192,238122,1,0,0:0:0:0:
64,192,238122,1,0,0:0:0:0:
448,192,238272,128,0,238347:0:0:0:0:
64,192,238272,1,0,0:0:0:0:
320,192,238422,128,0,238497:0:0:0:0:
192,192,238422,1,0,0:0:0:0:
448,192,238572,128,0,238647:0:0:0:0:
64,192,238572,1,0,0:0:0:0:
320,192,238722,128,0,238797:0:0:0:0:
192,192,238722,1,0,0:0:0:0:
448,192,238872,128,0,238947:0:0:0:0:
192,192,238872,1,0,0:0:0:0:
320,192,239022,128,0,239097:0:0:0:0:
64,192,239022,1,0,0:0:0:0:
448,192,239172,128,0,239247:0:0:0:0:
64,192,239172,1,0,0:0:0:0:
192,192,239322,128,0,239397:0:0:0:0:
320,192,239322,1,0,0:0:0:0:
448,192,239322,1,0,0:0:0:0:
448,192,239472,128,0,239547:0:0:0:0:
64,192,239472,1,0,0:0:0:0:
192,192,239622,128,0,239697:0:0:0:0:
320,192,239622,1,0,0:0:0:0:
448,192,239772,128,0,239847:0:0:0:0:
64,192,239772,1,0,0:0:0:0:
320,192,239922,1,0,0:0:0:0:
192,192,239922,128,0,239997:0:0:0:0:
448,192,240072,128,0,240147:0:0:0:0:
320,192,240072,1,0,0:0:0:0:
192,192,240222,128,0,240297:0:0:0:0:
64,192,240222,1,0,0:0:0:0:
448,192,240372,128,0,240447:0:0:0:0:
320,192,240372,1,0,0:0:0:0:
192,192,240522,128,0,240597:0:0:0:0:
320,192,240522,1,0,0:0:0:0:
64,192,240522,1,0,0:0:0:0:
320,192,240672,128,0,240747:0:0:0:0:
64,192,240672,1,0,0:0:0:0:
192,192,240822,128,0,240897:0:0:0:0:
448,192,240822,1,0,0:0:0:0:
320,192,240972,128,0,241047:0:0:0:0:
64,192,240972,1,0,0:0:0:0:
192,192,241122,128,0,241197:0:0:0:0:
448,192,241122,1,0,0:0:0:0:
320,192,241272,128,0,241347:0:0:0:0:
64,192,241272,1,0,0:0:0:0:
192,192,241422,128,0,241497:0:0:0:0:
64,192,241422,1,0,0:0:0:0:
320,192,241572,128,0,241647:0:0:0:0:
448,192,241572,1,0,0:0:0:0:
192,192,241722,128,0,241797:0:0:0:0:
448,192,241722,1,0,0:0:0:0:
64,192,241722,1,0,0:0:0:0:
448,192,241872,128,0,241947:0:0:0:0:
64,192,241872,1,0,0:0:0:0:
192,192,242022,128,0,242097:0:0:0:0:
320,192,242022,1,0,0:0:0:0:
448,192,242172,128,0,242247:0:0:0:0:
64,192,242172,1,0,0:0:0:0:
192,192,242322,128,0,242397:0:0:0:0:
320,192,242322,1,0,0:0:0:0:
448,192,242472,128,0,242547:0:0:0:0:
320,192,242472,1,0,0:0:0:0:
192,192,242622,128,0,242697:0:0:0:0:
64,192,242622,1,0,0:0:0:0:
448,192,242772,128,0,242847:0:0:0:0:
320,192,242772,1,0,0:0:0:0:
320,192,242922,128,0,242997:0:0:0:0:
64,192,242922,1,0,0:0:0:0:
192,192,242922,1,0,0:0:0:0:
448,192,243072,128,0,243147:0:0:0:0:
64,192,243072,1,0,0:0:0:0:
320,192,243222,128,0,243297:0:0:0:0:
192,192,243222,1,0,0:0:0:0:
448,192,243372,128,0,243447:0:0:0:0:
64,192,243372,1,0,0:0:0:0:
320,192,243522,128,0,243597:0:0:0:0:
192,192,243522,1,0,0:0:0:0:
448,192,243672,128,0,243747:0:0:0:0:
192,192,243672,1,0,0:0:0:0:
320,192,243822,128,0,243897:0:0:0:0:
64,192,243822,1,0,0:0:0:0:
448,192,243972,128,0,244047:0:0:0:0:
64,192,243972,1,0,0:0:0:0:
448,192,244122,1,0,0:0:0:0:
192,192,244122,1,0,0:0:0:0:
64,192,244272,1,0,0:0:0:0:
192,192,244272,1,0,0:0:0:0:
320,192,244422,1,0,0:0:0:0:
192,192,244422,1,0,0:0:0:0:
64,192,244572,1,0,0:0:0:0:
320,192,244572,1,0,0:0:0:0:
192,192,244722,1,0,0:0:0:0:
320,192,244722,1,0,0:0:0:0:
448,192,244722,1,0,0:0:0:0:
448,192,244872,1,0,0:0:0:0:
192,192,244872,1,0,0:0:0:0:
64,192,245022,1,0,0:0:0:0:
320,192,245022,1,0,0:0:0:0:
448,192,245172,1,0,0:0:0:0:
192,192,245322,1,0,0:0:0:0:
320,192,245322,1,0,0:0:0:0:
64,192,245472,1,0,0:0:0:0:
320,192,245472,1,0,0:0:0:0:
192,192,245622,1,0,0:0:0:0:
64,192,245622,1,0,0:0:0:0:
64,192,245772,1,0,0:0:0:0:
320,192,245922,1,0,0:0:0:0:
64,192,246072,1,0,0:0:0:0:
192,192,246222,1,0,0:0:0:0:
320,192,246372,1,0,0:0:0:0:
192,192,246522,1,0,0:0:0:0:
448,192,246522,1,0,0:0:0:0:
64,192,246672,1,0,0:0:0:0:
192,192,246672,1,0,0:0:0:0:
192,192,246822,1,0,0:0:0:0:
320,192,246822,1,0,0:0:0:0:
64,192,246972,1,0,0:0:0:0:
320,192,246972,1,0,0:0:0:0:
192,192,247122,1,0,0:0:0:0:
448,192,247122,1,0,0:0:0:0:
320,192,247122,1,0,0:0:0:0:
192,192,247422,1,0,0:0:0:0:
320,192,247422,1,0,0:0:0:0:
448,192,247572,1,0,0:0:0:0:
320,192,247722,1,0,0:0:0:0:
448,192,247722,1,0,0:0:0:0:
192,192,247872,1,0,0:0:0:0:
64,192,247872,1,0,0:0:0:0:
320,192,248022,1,0,0:0:0:0:
64,192,248172,1,0,0:0:0:0:
448,192,248322,1,0,0:0:0:0:
320,192,248472,1,0,0:0:0:0:
192,192,248622,1,0,0:0:0:0:
64,192,248772,1,0,0:0:0:0:
448,192,248922,1,0,0:0:0:0:
192,192,248922,1,0,0:0:0:0:
64,192,249072,1,0,0:0:0:0:
192,192,249072,1,0,0:0:0:0:
320,192,249222,1,0,0:0:0:0:
192,192,249222,1,0,0:0:0:0:
64,192,249372,1,0,0:0:0:0:
320,192,249372,1,0,0:0:0:0:
192,192,249522,1,0,0:0:0:0:
320,192,249522,1,0,0:0:0:0:
448,192,249522,1,0,0:0:0:0:
64,192,249822,1,0,0:0:0:0:
320,192,249822,1,0,0:0:0:0:
448,192,249972,1,0,0:0:0:0:
192,192,250122,1,0,0:0:0:0:
320,192,250122,1,0,0:0:0:0:
64,192,250272,1,0,0:0:0:0:
320,192,250272,1,0,0:0:0:0:
192,192,250422,1,0,0:0:0:0:
64,192,250572,1,0,0:0:0:0:
320,192,250722,1,0,0:0:0:0:
64,192,250872,1,0,0:0:0:0:
192,192,251022,1,0,0:0:0:0:
320,192,251172,1,0,0:0:0:0:
192,192,251322,1,0,0:0:0:0:
448,192,251322,1,0,0:0:0:0:
64,192,251472,1,0,0:0:0:0:
192,192,251472,1,0,0:0:0:0:
192,192,251622,1,0,0:0:0:0:
320,192,251622,1,0,0:0:0:0:
64,192,251772,1,0,0:0:0:0:
320,192,251772,1,0,0:0:0:0:
192,192,251922,1,0,0:0:0:0:
448,192,251922,1,0,0:0:0:0:
320,192,251922,1,0,0:0:0:0:
192,192,252222,1,0,0:0:0:0:
320,192,252222,1,0,0:0:0:0:
448,192,252372,1,0,0:0:0:0:
320,192,252522,1,0,0:0:0:0:
448,192,252522,1,0,0:0:0:0:
192,192,252672,1,0,0:0:0:0:
64,192,252672,1,0,0:0:0:0:
320,192,252822,1,0,0:0:0:0:
64,192,252972,1,0,0:0:0:0:
448,192,253122,1,0,0:0:0:0:
320,192,253272,1,0,0:0:0:0:
192,192,253422,1,0,0:0:0:0:
64,192,253572,1,0,0:0:0:0:
192,192,253722,5,0,0:0:0:0:
448,192,253740,1,0,0:0:0:0:
64,192,253872,1,0,0:0:0:0:
192,192,254022,1,0,0:0:0:0:
64,192,254172,1,0,0:0:0:0:
320,192,254322,1,0,0:0:0:0:
448,192,254472,1,0,0:0:0:0:
192,192,254622,1,0,0:0:0:0:
448,192,254772,1,0,0:0:0:0:
320,192,254922,1,0,0:0:0:0:
192,192,254940,1,0,0:0:0:0:
64,192,255072,1,0,0:0:0:0:
192,192,255222,1,0,0:0:0:0:
64,192,255372,1,0,0:0:0:0:
320,192,255522,1,0,0:0:0:0:
64,192,255672,1,0,0:0:0:0:
192,192,255822,1,0,0:0:0:0:
320,192,255972,1,0,0:0:0:0:
192,192,256122,1,0,0:0:0:0:
448,192,256140,1,0,0:0:0:0:
64,192,256272,1,0,0:0:0:0:
192,192,256422,1,0,0:0:0:0:
64,192,256572,1,0,0:0:0:0:
320,192,256722,1,0,0:0:0:0:
448,192,256872,1,0,0:0:0:0:
64,192,257022,1,0,0:0:0:0:
320,192,257172,1,0,0:0:0:0:
448,192,257322,1,0,0:0:0:0:
192,192,257340,1,0,0:0:0:0:
64,192,257472,1,0,0:0:0:0:
192,192,257622,1,0,0:0:0:0:
64,192,257772,1,0,0:0:0:0:
448,192,257922,1,0,0:0:0:0:
320,192,258072,1,0,0:0:0:0:
192,192,258222,1,0,0:0:0:0:
64,192,258372,1,0,0:0:0:0:
192,192,258522,1,0,0:0:0:0:
448,192,258540,1,0,0:0:0:0:
64,192,258672,1,0,0:0:0:0:
192,192,258822,1,0,0:0:0:0:
64,192,258972,1,0,0:0:0:0:
320,192,259122,1,0,0:0:0:0:
448,192,259272,1,0,0:0:0:0:
192,192,259422,1,0,0:0:0:0:
448,192,259572,1,0,0:0:0:0:
320,192,259722,1,0,0:0:0:0:
192,192,259740,1,0,0:0:0:0:
64,192,259872,1,0,0:0:0:0:
192,192,260022,1,0,0:0:0:0:
64,192,260172,1,0,0:0:0:0:
320,192,260322,1,0,0:0:0:0:
64,192,260472,1,0,0:0:0:0:
192,192,260622,1,0,0:0:0:0:
320,192,260772,1,0,0:0:0:0:
192,192,260922,1,0,0:0:0:0:
448,192,260940,1,0,0:0:0:0:
64,192,261072,1,0,0:0:0:0:
192,192,261222,1,0,0:0:0:0:
64,192,261372,1,0,0:0:0:0:
320,192,261522,1,0,0:0:0:0:
448,192,261672,1,0,0:0:0:0:
64,192,261822,1,0,0:0:0:0:
320,192,261972,1,0,0:0:0:0:
448,192,262122,1,0,0:0:0:0:
192,192,262140,1,0,0:0:0:0:
64,192,262272,1,0,0:0:0:0:
192,192,262422,1,0,0:0:0:0:
64,192,262572,1,0,0:0:0:0:
448,192,262722,1,0,0:0:0:0:
320,192,262872,1,0,0:0:0:0:
192,192,263022,1,0,0:0:0:0:
64,192,263172,1,0,0:0:0:0:
