osu file format v14

[General]
AudioFilename: audio.mp3
AudioLeadIn: 0
PreviewTime: 72129
Countdown: 0
SampleSet: Soft
StackLeniency: 0.3
Mode: 0
LetterboxInBreaks: 0
WidescreenStoryboard: 1

[Editor]
Bookmarks: 685,13477,20787,28096,35406,42715,48715,53857,71311,72129,73380,82610,91841,100046,102987,106848,111918
DistanceSpacing: 0.9
BeatDivisor: 2
GridSize: 16
TimelineZoom: 1.9

[Metadata]
Title:Sanctuary o Utatte feat. Wakeshima Kanon
TitleUnicode:サンクチュアリを謳って feat. 分島花音
Artist:sasakure.UK
ArtistUnicode:sasakure.UK
Creator:-Tochi
Version:chill's Normal
Source:セブンスドラゴンⅢ code:VFD
Tags:古代祐三 Koshiro Yuzo 7th Dragon III Code VFD japanese video game Lince Cosmico Chekito verychill
BeatmapID:2320219
BeatmapSetID:663733

[Difficulty]
HPDrainRate:4
CircleSize:4.2
OverallDifficulty:4
ApproachRate:5.5
SliderMultiplier:2
SliderTickRate:1

[Events]
//Background and Video events
0,0,"bg.jpg",0,0
//Break Periods
//Storyboard Layer 0 (Background)
//Storyboard Layer 1 (Fail)
//Storyboard Layer 2 (Pass)
//Storyboard Layer 3 (Foreground)
//Storyboard Layer 4 (Overlay)
//Storyboard Sound Samples

[TimingPoints]
-228,304.568527918782,3,2,2,35,1,0
685,-250,3,2,2,35,0,0
7386,-250,3,2,2,10,0,0
7995,-250,3,2,2,35,0,0
13477,-222.222222222222,3,2,1,45,0,0
42715,500,3,2,2,35,1,0
42715,-125,3,2,2,35,0,0
44715,-125,3,2,2,35,0,0
50965,571.428571428571,3,2,2,40,1,0
51822,666.666666666667,3,2,2,30,1,0
52822,-117.647058823529,3,2,2,20,0,0
53857,363.636363636364,3,3,1,40,1,0
53857,-142.857142857143,3,1,1,50,0,0
62584,-125,3,1,1,50,0,0
69129,-125,3,1,1,40,0,0
69675,-125,3,1,1,45,0,0
70220,-125,3,1,1,50,0,0
70766,-125,3,1,1,55,0,0
71311,-176.991150442478,3,1,1,60,0,0
73380,256.410256410256,4,2,3,60,1,1
73380,-250,4,2,3,60,0,1
91328,-250,4,2,3,60,0,0
91841,-250,4,1,1,60,0,1
91969,-181.818181818182,4,1,1,60,0,1
94405,-181.818181818182,4,1,1,60,0,0
94918,-181.818181818182,4,1,1,60,0,1
97482,-181.818181818182,4,1,1,60,0,0
97995,-181.818181818182,4,1,1,60,0,1
98508,-181.818181818182,4,1,1,60,0,0
99021,-181.818181818182,4,1,1,60,0,1
99533,-181.818181818182,4,1,1,60,0,0
100046,267.857142857143,4,3,1,60,1,1
100046,-173.913043478261,4,3,1,60,0,1
100112,-100,4,3,1,60,0,0
100581,315.789473684211,4,3,1,60,1,0
100581,-100,4,3,1,60,0,0
100791,-100,4,3,1,40,0,0
101212,375,4,3,1,60,1,0
101212,-100,4,3,1,60,0,0
101462,-100,4,3,1,40,0,0
101962,512.820512820513,4,3,1,60,1,0
101962,-100,4,3,1,50,0,0
102303,-100,4,3,1,5,0,0
102987,307.692307692308,3,2,2,35,1,0
102987,-250,3,2,2,35,0,0
105756,352.941176470588,3,3,1,35,1,0
105756,-200,3,2,2,35,0,0
106848,422.535211267606,3,2,2,35,1,0
106848,-142.857142857143,3,2,2,35,0,0
106953,-166.666666666667,3,2,2,35,0,0
109383,-100,3,2,2,25,0,0
110650,-100,3,2,2,15,0,0
111918,-100,3,2,2,5,0,0

[Colours]
Combo1 : 140,131,180
Combo2 : 175,169,131
Combo3 : 121,200,156
Combo4 : 183,119,119

[HitObjects]
126,345,685,6,0,P|151:357|206:361,1,80,2|0,0:0|0:0,0:0:0:0:
270,337,1294,1,2,0:0:0:0:
247,268,1599,2,0,B|205:303|151:279,1,80,2|0,0:0|0:0,0:0:0:0:
195,216,2208,1,2,0:0:0:0:
262,189,2513,6,0,P|291:131|285:94,1,80,2|0,0:0|0:0,0:0:0:0:
311,49,3122,1,2,0:0:0:0:
359,101,3426,2,0,P|409:123|443:119,1,80,2|0,0:0|0:0,0:0:0:0:
487,74,4035,1,2,0:0:0:0:
426,36,4340,6,0,P|368:28|312:49,1,120,2|2,0:0|0:0,0:0:0:0:
267,148,5254,2,0,B|249:156|225:148|225:148|212:166|178:176,2,80,2|0|2,0:0|0:0|0:0,0:0:0:0:
335,127,6167,2,0,B|346:161|328:187|328:187|315:199|320:268,1,120,2|0,0:0|0:0,0:0:0:0:
288,309,6929,1,2,0:0:0:0:
288,309,7081,2,0,B|317:319|344:311|344:311|385:315,1,80,2|0,0:0|0:0,0:0:0:0:
237,250,7995,6,0,P|201:220|157:211,1,80,2|0,0:0|0:0,0:0:0:0:
97,216,8604,1,2,0:0:0:0:
73,284,8909,2,0,P|89:327|122:357,1,80,2|0,0:0|0:0,0:0:0:0:
180,374,9518,1,2,0:0:0:0:
250,355,9822,6,0,P|253:290|277:261,1,80,2|0,0:0|0:0,0:0:0:0:
275,208,10431,1,2,0:0:0:0:
208,229,10736,2,0,P|153:223|126:202,1,80,2|0,0:0|0:0,0:0:0:0:
111,141,11344,1,2,0:0:0:0:
183,140,11650,6,0,P|238:162|275:208,1,120,2|0,0:0|0:0,0:0:0:0:
369,261,12563,2,0,P|400:258|445:274,2,80,2|0|2,0:0|0:0|0:0,0:0:0:0:
352,181,13477,6,0,L|406:31,1,134.999995880127,4|0,1:2|1:0,0:0:0:0:
412,15,14086,1,0,3:0:0:0:
332,29,14391,2,0,P|309:28|287:33,2,44.999998626709,0|0|0,3:0|1:0|1:0,0:0:0:0:
305,107,15000,1,0,1:0:0:0:
305,107,15304,6,0,B|254:114|226:75|226:75|204:62|171:77,1,134.999995880127,2|0,1:2|1:0,0:0:0:0:
150,97,15914,2,0,P|122:100|88:98,1,44.999998626709,2|2,3:2|0:0,0:0:0:0:
74,74,16218,2,0,P|73:47|81:13,2,44.999998626709,2|0|0,3:2|1:2|1:2,0:2:0:0:
14,127,16827,1,0,1:0:0:0:
14,127,17132,6,0,P|88:123|141:187,1,134.999995880127,2|0,1:2|1:0,0:0:0:0:
139,200,17741,1,0,3:0:0:0:
67,238,18046,2,0,P|56:218|58:194,2,44.999998626709,2|0|0,0:0|1:0|1:0,0:0:0:0:
25,309,18655,1,0,1:0:0:0:
25,309,18959,6,0,B|68:327|106:309|106:309|119:334|151:343,1,134.999995880127,2|0,1:2|1:0,0:0:0:0:
181,358,19568,2,0,P|212:366|277:347,2,89.9999972534181,2|2|2,3:2|0:0|1:2,0:0:0:0:
222,290,20482,1,0,1:0:0:0:
222,290,20787,6,0,B|229:191|229:191|272:135,1,134.999995880127,4|0,1:2|1:0,0:0:0:0:
283,138,21396,1,8,0:0:0:0:
361,158,21700,2,0,P|383:164|424:157,2,44.999998626709,2|0|2,0:0|1:0|1:2,0:0:0:0:
309,231,22310,1,0,1:0:0:0:
309,231,22614,6,0,B|269:258|261:304|261:304|284:340|329:334,1,134.999995880127,2|0,1:2|1:0,0:0:0:0:
335,339,23223,2,0,P|336:366|328:400,2,44.999998626709,8|2|2,0:0|0:0|0:0,0:0:0:0:
494,369,24137,1,0,1:0:0:0:
494,369,24442,6,0,B|473:357|450:354|450:354|466:304|447:256,1,134.999995880127,2|0,1:2|1:0,0:0:0:0:
434,230,25051,1,8,0:0:0:0:
464,155,25355,2,0,P|486:152|508:153,2,44.999998626709,2|2|2,0:0|1:2|1:2,0:0:0:0:
399,105,25964,2,0,P|402:83|401:61,1,44.999998626709,0|0,1:0|1:0,0:0:0:0:
377,27,26269,6,0,P|321:28|308:102,1,134.999995880127,2|0,1:2|1:0,0:0:0:0:
323,131,26878,1,8,0:0:0:0:
301,209,27183,2,0,P|283:229|276:266,2,44.999998626709,2|0|0,0:0|1:0|1:0,0:0:0:0:
249,154,27792,1,0,1:0:0:0:
249,154,28096,6,0,L|105:141,1,134.999995880127,4|0,1:2|1:0,0:0:0:0:
81,118,28706,2,0,P|77:88|85:64,1,44.999998626709,2|2,3:2|0:0,0:0:0:0:
95,36,29010,2,0,P|69:24|46:26,2,44.999998626709,2|0|2,0:0|1:0|1:2,0:0:0:0:
175,68,29619,1,0,1:0:0:0:
175,68,29924,6,0,B|216:72|216:72|258:56|258:56|294:54|321:82,1,134.999995880127,2|0,1:2|1:0,0:0:0:0:
331,99,30533,2,0,P|334:127|331:150,1,44.999998626709,2|2,3:2|0:0,0:0:0:0:
302,170,30837,2,0,P|274:173|251:170,2,44.999998626709,2|0|0,0:0|1:0|1:0,0:0:0:0:
367,218,31447,2,0,P|395:221|418:218,1,44.999998626709,0|0,1:0|1:0,0:0:0:0:
444,243,31751,6,0,P|445:311|389:335,1,134.999995880127,2|0,3:2|3:0,0:0:0:0:
350,335,32360,1,0,3:0:0:0:
270,320,32665,2,0,P|269:342|273:364,2,44.999998626709,2|0|0,0:0|1:0|1:0,0:0:0:0:
283,243,33274,1,0,1:0:0:0:
283,243,33579,6,0,B|247:238|213:263|213:263|168:251|139:215,1,134.999995880127,2|0,1:2|1:0,0:0:0:0:
139,206,34188,1,2,3:2:0:0:
139,206,34340,2,0,P|137:178|150:145,1,44.999998626709,2|2,0:0|0:0,0:0:0:0:
147,121,34645,2,0,P|149:93|136:60,1,44.999998626709,0|0,1:0|1:0,0:0:0:0:
72,51,35101,1,0,1:0:0:0:
72,51,35406,6,0,B|46:73|46:73|32:123|69:199,1,134.999995880127,4|0,1:2|1:0,0:0:0:0:
69,210,36015,2,0,P|69:231|62:258,1,44.999998626709,8|2,0:0|0:0,0:0:0:0:
46,291,36320,2,0,P|38:310|39:340,2,44.999998626709,2|2|2,0:0|1:2|1:2,0:0:0:0:
123,330,36929,1,0,1:0:0:0:
123,330,37234,6,0,B|142:363|142:363|224:363|226:303,1,134.999995880127,2|0,1:2|1:0,0:0:0:0:
239,285,37843,2,0,P|266:281|289:284,2,44.999998626709,8|2|2,0:0|0:0|0:0,0:0:0:0:
104,204,38756,5,0,1:0:0:0:
104,204,39061,2,0,B|104:183|83:173|83:173|32:178|32:178|7:166|-2:138,1,134.999995880127,2|0,1:2|1:0,0:0:0:0:
5,107,39670,1,8,0:0:0:0:
45,36,39975,2,0,P|32:14|8:-5,2,44.999998626709,2|2|2,0:0|1:2|1:2,0:0:0:0:
116,74,40584,2,0,P|140:67|165:48,1,44.999998626709,0|0,1:0|1:0,0:0:0:0:
191,37,40888,6,0,P|205:92|288:86,1,134.999995880127,2|0,1:2|1:0,2:0:0:0:
307,74,41497,1,8,0:0:0:0:
370,22,41802,2,0,P|354:6|310:-1,2,44.999998626709,2|0|0,3:2|1:0|1:0,0:0:0:0:
437,67,42411,1,0,1:0:0:0:
375,127,42715,6,0,P|423:149|481:144,2,80,6|0|0,0:0|0:0|0:0,0:0:0:0:
308,155,43465,2,0,P|272:136|233:132,2,80,2|0|0,0:0|0:0|0:0,0:0:0:0:
331,223,44215,1,2,0:0:0:0:
450,303,44715,5,2,0:0:0:0:
390,344,44965,2,0,P|340:355|302:351,1,80,2|2,0:0|0:0,0:0:0:0:
242,332,45465,1,2,0:0:0:0:
175,304,45715,6,0,P|155:327|154:392,2,80,2|0|0,0:0|0:0|0:0,0:0:0:0:
231,259,46465,2,0,P|251:236|252:171,2,80,2|0|0,0:0|0:0|0:0,0:0:0:0:
186,201,47215,2,0,P|166:177|102:165,2,80,2|2|2,0:0|0:0|0:0,0:0:0:0:
122,235,47965,1,2,0:0:0:0:
74,94,48715,6,0,P|35:74|-15:78,2,80,2|0|0,3:2|3:2|3:2,0:0:0:0:
142,70,49465,2,0,P|166:34|211:13,1,80,2|2,3:2|3:2,0:0:0:0:
266,0,49965,1,0,3:0:0:0:
337,9,50215,1,2,3:2:0:0:
278,140,50715,5,0,3:0:0:0:
282,218,50965,2,0,P|227:197|201:154,2,100,2|0|0,3:2|3:0|3:0,0:0:0:0:
346,175,51822,2,0,P|379:127|427:113,2,100,2|0|0,3:2|3:0|3:0,0:0:0:0:
351,251,52822,1,2,3:2:0:0:
6,341,53857,5,2,0:2:0:0:
188,292,54402,1,0,0:2:0:0:
9,230,54947,5,2,0:2:0:0:
191,278,55492,1,0,0:2:0:0:
67,135,56038,5,2,0:2:0:0:
200,267,56583,1,0,0:2:0:0:
164,81,57129,5,2,0:2:0:0:
213,262,57674,1,0,0:2:0:0:
346,128,58220,5,2,0:2:0:0:
164,81,58765,1,0,0:2:0:0:
283,227,59311,5,2,0:2:0:0:
271,36,59856,1,0,0:2:0:0:
167,194,60402,5,2,0:2:0:0:
346,128,60947,1,0,0:2:0:0:
412,307,61493,1,2,0:2:0:0:
233,373,62038,1,0,0:2:0:0:
384,218,62584,5,6,0:2:0:0:
234,62,63129,1,0,0:2:0:0:
244,277,63675,5,2,0:2:0:0:
222,62,64220,1,0,0:2:0:0:
91,235,64766,5,2,0:2:0:0:
212,56,65311,1,0,0:2:0:0:
0,102,65857,5,2,0:2:0:0:
208,45,66402,1,0,0:2:0:0:
156,253,66947,5,6,0:2:0:0:
0,102,67493,1,0,0:2:0:0:
213,135,68038,5,6,0:2:0:0:
19,231,68584,1,0,0:2:0:0:
120,41,69129,5,2,0:2:0:0:
156,253,69675,1,2,0:2:0:0:
368,217,70220,1,6,0:2:0:0:
332,5,70766,1,6,0:2:0:0:
244,129,71311,5,4,0:2:0:0:
244,129,73380,6,0,P|208:134|152:122,1,80,4|0,1:0|0:0,0:0:0:0:
106,169,73892,2,0,P|93:204|108:261,1,80,2|2,0:0|0:0,0:0:0:0:
167,272,74405,2,0,P|189:166|164:126,1,160,8|0,0:0|1:0,1:0:0:0:
115,75,75174,1,2,0:0:0:0:
240,0,75687,6,0,P|218:33|215:72,2,80,8|2|2,0:0|0:0|0:0,1:0:0:0:
286,58,76456,2,0,P|323:71|362:64,1,80,0|0,1:3|0:3,0:3:0:0:
425,29,76969,1,2,0:0:0:0:
489,60,77226,1,0,1:3:0:0:
510,129,77482,6,0,P|472:215|551:298,1,160,8|0,0:0|1:0,1:0:0:0:
442,313,78251,2,0,P|391:272|284:278,1,160,2|0,2:0|1:0,1:0:0:0:
230,290,79021,1,0,0:0:0:0:
185,346,79277,2,0,P|161:312|195:231,1,80,0|0,1:0|1:0,0:0:0:0:
39,196,80046,5,0,1:0:0:0:
39,196,80303,2,0,P|18:228|26:307,1,80,8|0,0:0|1:0,0:0:0:0:
40,335,80815,1,0,0:0:0:0:
109,355,81072,1,2,1:2:0:0:
153,299,81328,2,0,P|102:224|120:147,1,160,8|0,0:0|1:0,1:0:0:0:
163,109,82097,1,2,0:0:0:0:
235,108,82354,1,2,1:2:0:0:
291,153,82610,6,0,P|298:188|288:245,1,80,4|0,1:0|0:0,0:0:0:0:
336,289,83122,2,0,P|372:300|428:283,1,80,2|0,0:0|1:0,0:0:0:0:
437,224,83636,2,0,P|331:205|292:232,1,160,8|0,0:0|1:0,1:0:0:0:
242,283,84405,1,2,0:0:0:0:
237,130,84918,6,0,P|275:138|316:119,2,80,8|2|2,0:0|0:0|0:2,1:0:0:0:
195,71,85687,2,0,P|166:45|127:42,1,80,0|2,1:0|0:0,0:0:0:0:
56,59,86200,1,2,0:0:0:0:
57,130,86456,1,0,1:0:0:0:
125,151,86713,6,0,P|185:101|264:88,1,160,8|0,0:0|1:0,1:0:0:0:
283,19,87482,2,0,P|335:74|309:145,1,160,2|0,0:0|1:0,1:0:0:0:
425,230,88508,5,0,1:0:0:0:
459,166,88764,2,0,P|421:158|383:171,1,80,0|0,1:0|0:0,0:0:0:0:
325,214,89277,2,0,P|285:213|252:190,1,80,8|0,0:0|0:0,0:0:0:0:
209,133,89790,1,0,1:0:0:0:
223,62,90046,1,2,0:0:0:0:
294,68,90303,2,0,P|314:102|312:141,1,80,8|0,0:0|0:0,0:0:0:0:
296,211,90815,1,2,2:0:0:0:
276,280,91072,2,0,P|274:319|294:353,2,80,0|8|0,1:0|2:0|1:0,1:0:0:0:
344,301,91841,5,4,0:2:0:0:
145,301,92354,1,0,0:2:0:0:
308,188,92867,5,8,2:2:0:0:
136,287,93379,1,0,0:2:0:0:
220,108,93892,5,0,0:2:0:0:
120,279,94405,1,0,0:2:0:0:
17,109,94918,5,4,0:2:0:0:
215,126,95431,1,0,0:2:0:0:
43,225,95944,5,8,2:2:0:0:
223,141,96457,1,0,0:2:0:0:
123,312,96969,5,0,0:2:0:0:
238,150,97482,1,0,0:2:0:0:
333,323,97995,5,4,0:2:0:0:
135,330,98508,1,0,0:2:0:0:
67,143,99021,1,12,2:2:0:0:
223,20,99533,1,0,0:2:0:0:
387,132,100046,1,4,1:2:0:0:
256,192,100179,12,0,101962,2:0:0:0:
339,214,102987,6,0,L|319:123,1,80,2|0,0:0|0:0,0:0:0:0:
305,65,103602,1,2,0:0:0:0:
253,115,103910,2,0,L|233:206,1,80,2|0,0:0|0:0,0:0:0:0:
219,264,104525,1,2,0:0:0:0:
288,244,104833,6,0,P|323:257|386:250,1,80,2|0,0:0|0:0,0:0:0:0:
437,259,105448,1,2,0:0:0:0:
401,321,105756,2,0,P|356:344|326:383,2,100,2|2|2,0:0|0:0|0:0,0:0:0:0:
511,356,106848,5,4,0:0:0:0:
256,192,107059,12,0,111918,0:0:0:0:
