osu file format v14

[General]
AudioFilename: audio.mp3
AudioLeadIn: 0
PreviewTime: 72129
Countdown: 0
SampleSet: Soft
StackLeniency: 0.3
Mode: 0
LetterboxInBreaks: 0
WidescreenStoryboard: 1

[Editor]
Bookmarks: 685,13477,20787,28096,35406,42715,48715,53857,71311,72129,73380,82610,91841,100046,102987,106848,111918
DistanceSpacing: 1
BeatDivisor: 4
GridSize: 16
TimelineZoom: 1.9

[Metadata]
Title:Sanctuary o Utatte feat. Wakeshima Kanon
TitleUnicode:サンクチュアリを謳って feat. 分島花音
Artist:sasakure.UK
ArtistUnicode:sasakure.UK
Creator:-Tochi
Version:chill's Easy
Source:セブンスドラゴンⅢ code:VFD
Tags:古代祐三 Koshiro Yuzo 7th Dragon III Code VFD japanese video game Lince Cosmico Chekito verychill
BeatmapID:2420429
BeatmapSetID:663733

[Difficulty]
HPDrainRate:2
CircleSize:3
OverallDifficulty:2
ApproachRate:3
SliderMultiplier:1.4
SliderTickRate:1

[Events]
//Background and Video events
0,0,"bg.jpg",0,0
//Break Periods
//Storyboard Layer 0 (Background)
//Storyboard Layer 1 (Fail)
//Storyboard Layer 2 (Pass)
//Storyboard Layer 3 (Foreground)
//Storyboard Layer 4 (Overlay)
//Storyboard Sound Samples

[TimingPoints]
-228,304.568527918782,3,2,2,35,1,0
685,-250,3,2,2,45,0,0
4340,-250,3,2,0,45,0,0
7995,-250,3,2,2,45,0,0
11650,-250,3,2,0,45,0,0
13477,-222.222222222222,3,2,1,55,0,0
20787,-222.222222222222,3,2,1,80,0,0
28096,-222.222222222222,3,2,1,55,0,0
35406,-222.222222222222,3,2,1,80,0,0
39061,-222.222222222222,3,2,1,55,0,0
42715,500,3,2,2,45,1,0
42715,-125,3,2,2,45,0,0
50965,571.428571428571,3,2,2,50,1,0
51822,666.666666666667,3,2,2,40,1,0
51822,-125,3,2,2,40,0,0
52822,-125,3,2,2,30,0,0
53857,363.636363636364,3,3,1,50,1,0
53857,-181.818181818182,3,1,1,60,0,0
69129,-125,3,1,1,80,0,0
69675,-125,3,1,1,80,0,0
70220,-125,3,1,1,60,0,0
70766,-125,3,1,1,65,0,0
71311,-125,3,1,1,70,0,0
73380,256.410256410256,4,2,3,70,1,1
73380,-250,4,2,3,70,0,1
91328,-250,4,2,3,70,0,0
91841,-250,4,1,1,70,0,1
94405,-250,4,1,1,70,0,0
94918,-250,4,1,1,70,0,1
97482,-250,4,1,1,70,0,0
100046,267.857142857143,4,3,1,70,1,0
100046,-250,4,3,1,70,0,0
100581,315.789473684211,4,3,1,70,1,0
100581,-250,4,3,1,70,0,0
101212,375,4,3,1,70,1,0
101212,-181.818181818182,4,3,1,70,0,0
101962,512.820512820513,4,3,1,70,1,0
101962,-100,4,3,1,50,0,0
102987,307.692307692308,3,2,2,45,1,0
102987,-250,3,2,2,45,0,0
105756,352.941176470588,3,3,1,45,1,0
105756,-217.391304347826,3,2,2,45,0,0
106848,422.535211267606,3,2,2,45,1,0
106848,-217.391304347826,3,2,2,45,0,0
109383,-100,3,2,2,30,0,0
110650,-100,3,2,2,15,0,0
111918,-100,3,2,2,5,0,0

[Colours]
Combo1 : 140,131,180
Combo2 : 175,169,131
Combo3 : 121,200,156
Combo4 : 183,119,119

[HitObjects]
22,156,685,5,2,0:0:0:0:
157,255,1599,1,2,0:0:0:0:
292,156,2513,1,2,0:0:0:0:
426,256,3426,1,2,0:0:0:0:
423,88,4340,6,0,P|341:69|225:95,1,168,2|2,0:0|0:0,0:0:0:0:
254,248,6167,2,0,P|172:266|56:241,1,168,2|2,0:0|0:0,0:0:0:0:
47,91,7995,5,2,0:0:0:0:
215,87,8909,1,2,0:0:0:0:
354,180,9823,1,2,0:0:0:0:
338,347,10736,1,2,0:0:0:0:
488,276,11650,6,0,B|463:210|524:179|487:113,1,168,2|2,0:0|0:0,0:0:0:0:
389,164,13173,1,0,0:0:0:0:
326,171,13477,6,0,L|128:191,1,188.999994232178,4|8,1:2|0:2,0:0:0:0:
75,80,15000,1,0,1:0:0:0:
139,73,15304,2,0,L|267:59,1,125.999996154785,2|2,1:2|0:2,0:0:0:0:
325,53,16218,1,8,0:2:0:0:
438,110,16827,5,0,1:0:0:0:
469,164,17132,2,0,P|492:247|452:373,1,188.999994232178,4|8,1:0|0:2,0:0:0:0:
343,347,18655,1,0,1:0:0:0:
280,341,18960,2,0,P|257:258|297:132,1,188.999994232178,0|8,1:0|0:2,0:0:0:0:
186,74,20482,5,0,1:0:0:0:
139,31,20787,2,0,P|23:36|22:140,2,188.999994232178,2|8|2,1:2|0:2|1:2,0:0:0:0:
232,195,23528,1,8,0:0:0:0:
286,308,24137,5,0,1:0:0:0:
337,271,24442,2,0,P|453:276|454:380,2,188.999994232178,2|8|2,1:2|0:2|1:2,0:0:0:0:
165,350,27183,1,8,0:0:0:0:
64,274,27792,1,0,1:0:0:0:
70,212,28096,6,0,L|89:14,1,188.999994232178,4|10,1:0|0:2,0:0:0:0:
214,22,29619,1,0,1:0:0:0:
223,84,29924,2,0,L|235:211,1,125.999996154785,0|2,1:0|0:0,0:0:0:0:
243,271,30837,1,8,0:2:0:0:
323,367,31447,5,0,1:0:0:0:
385,370,31751,2,0,P|459:346|473:221,1,188.999994232178,4|8,1:0|0:2,0:0:0:0:
442,128,33274,1,0,1:0:0:0:
403,78,33578,2,0,P|341:30|230:91,1,188.999994232178,0|8,1:0|0:2,0:0:0:0:
209,184,35101,5,0,1:0:0:0:
146,191,35406,2,0,B|53:195|53:195|-11:101,2,188.999994232178,2|8|2,1:2|0:2|1:2,2:0:0:0:
334,183,38147,1,8,0:0:0:0:
459,174,38756,1,0,1:0:0:0:
466,236,39061,6,0,B|471:331|471:331|378:395,2,188.999994232178,2|8|2,1:2|0:2|1:2,0:0:0:0:
369,73,41802,1,8,0:0:0:0:
204,197,42715,6,0,P|186:299|225:383,2,168,6|2|2,0:0|0:0|0:0,0:0:0:0:
140,41,44965,1,2,0:0:0:0:
34,171,45715,1,2,0:0:0:0:
98,326,46465,1,2,0:0:0:0:
265,336,47215,2,0,B|298:317|340:315|355:343|394:345|428:329,1,168,2|2,0:0|0:0,0:0:0:0:
511,182,48715,6,0,P|453:120|368:87,1,168,2|0,3:2|0:0,3:0:0:0:
266,71,49965,1,0,3:0:0:0:
210,74,50215,2,0,P|130:100|64:162,1,168,0|0,3:0|3:0,3:0:0:0:
117,286,51536,1,0,3:0:0:0:
164,289,51822,6,0,P|243:262|309:200,1,168,2|0,3:2|3:0,3:0:0:0:
478,73,53857,6,0,B|449:81|428:73|428:73|387:91|369:65|345:82,1,115.50000352478,2|0,0:2|0:2,3:0:0:0:
279,154,54947,2,0,L|291:300,1,115.50000352478,2|0,0:2|0:2,3:0:0:0:
218,364,56038,1,2,0:2:0:0:
115,378,56584,1,0,0:0:0:0:
16,321,57129,2,0,L|4:174,1,115.50000352478,2|0,0:2|0:2,3:0:0:0:
70,109,58220,6,0,B|119:100|137:125|183:100,1,115.50000352478,2|0,0:2|0:2,3:0:0:0:
273,172,59311,2,0,L|285:319,1,115.50000352478,2|0,0:2|0:2,3:0:0:0:
397,280,60402,1,2,0:2:0:0:
387,164,60947,1,0,0:0:0:0:
502,157,61493,1,2,0:2:0:0:
512,273,62038,1,0,0:0:0:0:
455,373,62584,6,0,B|426:365|405:373|405:373|364:355|346:381|310:364,1,115.50000352478,6|0,0:2|0:2,3:0:0:0:
292,265,63675,2,0,L|304:119,1,115.50000352478,2|0,0:2|0:2,3:0:0:0:
244,50,64766,1,2,0:2:0:0:
128,40,65311,1,0,0:0:0:0:
29,98,65857,2,0,L|17:245,1,115.50000352478,2|0,0:2|0:2,3:0:0:0:
86,307,66947,6,0,B|111:310|128:320|128:320|158:327|187:318|198:319,1,115.50000352478,6|0,0:2|0:2,3:0:0:0:
313,319,68038,2,0,B|325:318|354:327|384:320|384:320|401:310|426:307,1,115.50000352478,6|0,0:2|0:2,3:0:0:0:
489,210,69129,5,2,0:2:0:0:
427,112,69675,1,2,0:2:0:0:
312,95,70220,1,6,0:2:0:0:
221,166,70766,1,6,0:2:0:0:
106,148,71311,5,4,0:2:0:0:
46,260,73380,5,4,1:2:0:0:
145,209,73892,1,2,0:0:0:0:
237,272,74405,2,0,P|344:299|437:274,1,168,8|2,2:2|0:0,0:0:0:0:
461,197,75687,1,0,1:0:0:0:
445,85,76200,1,8,0:0:0:0:
411,41,76456,6,0,P|304:14|211:39,1,168,0|0,1:2|1:0,0:0:0:0:
196,43,77482,1,8,0:0:0:0:
169,153,77995,1,0,1:0:0:0:
204,196,78251,2,0,P|293:198|335:166,1,112,2|8,0:0|2:0,0:0:0:0:
247,95,79277,5,0,1:0:0:0:
195,75,79533,2,0,P|132:65|56:140,1,168,2|2,1:2|0:0,0:0:0:0:
44,184,80559,1,8,0:2:0:0:
69,294,81072,1,2,1:2:0:0:
110,331,81328,2,0,P|192:319|276:328,1,168,8|0,0:0|1:0,0:0:0:0:
384,356,82610,5,4,1:2:0:0:
482,302,83123,1,2,0:0:0:0:
505,192,83636,2,0,B|482:168|440:168|405:198|395:279,1,168,8|2,0:2|0:0,0:0:0:0:
318,352,84918,1,0,1:0:0:0:
241,272,85431,1,8,0:0:0:0:
224,218,85687,6,0,B|187:134|301:128|242:10,1,168,0|0,1:0|1:0,0:0:0:0:
253,5,86713,1,8,0:0:0:0:
162,70,87226,1,0,1:0:0:0:
108,87,87483,2,0,P|53:93|1:73,1,112,0|8,1:0|0:0,0:0:0:0:
2,185,88508,5,0,1:0:0:0:
11,240,88764,2,0,P|61:315|122:331,1,112,2|8,1:2|0:2,0:0:0:0:
182,363,89790,2,0,P|233:344|288:352,1,112,0|8,1:0|0:0,0:0:0:0:
429,354,91072,2,0,L|445:240,1,112,2|8,1:2|0:0,0:0:0:0:
453,188,91841,6,0,B|396:168|396:168|303:184|303:184|222:161,1,224,4|8,0:2|2:2,0:0:0:0:
192,64,93379,1,0,0:2:0:0:
81,48,93892,1,0,0:2:0:0:
25,145,94405,1,0,0:2:0:0:
83,240,94918,6,0,B|139:259|139:259|232:243|232:243|313:266,1,224,4|8,0:2|2:2,0:0:0:0:
410,278,96456,1,0,0:2:0:0:
492,201,96969,1,0,0:2:0:0:
499,89,97482,1,0,0:2:0:0:
403,30,97995,6,0,L|281:41,1,112,4|0,0:2|0:2,2:0:0:0:
305,151,99021,2,0,L|426:140,1,112,12|0,2:2|0:2,2:0:0:0:
431,247,100046,2,0,L|321:258,1,112,4|0,1:2|1:0,2:0:0:0:
190,253,101212,6,0,P|208:180|274:132,1,154.000004699707,4|4,1:2|1:2,2:0:0:0:
439,210,102987,5,2,0:0:0:0:
304,110,103910,1,2,0:0:0:0:
169,210,104833,1,2,0:0:0:0:
35,110,105756,1,2,0:0:0:0:
160,0,106848,5,4,0:0:0:0:
256,192,107270,12,0,111918,0:0:0:0:
