osu file format v14

[General]
AudioFilename: audio.mp3
AudioLeadIn: 0
PreviewTime: 72129
Countdown: 0
SampleSet: Soft
StackLeniency: 0.3
Mode: 0
LetterboxInBreaks: 0
WidescreenStoryboard: 0

[Editor]
Bookmarks: 685,13477,20787,28096,35406,42715,48715,53857,71311,72129,73380,91841,100046,102987,106848,111918
DistanceSpacing: 1.4
BeatDivisor: 4
GridSize: 8
TimelineZoom: 2.6

[Metadata]
Title:Sanctuary o Utatte feat. Wakeshima Kanon
TitleUnicode:サンクチュアリを謳って feat. 分島花音
Artist:sasakure.UK
ArtistUnicode:sasakure.UK
Creator:-Tochi
Version:Lince's Insane
Source:セブンスドラゴンⅢ code:VFD
Tags:古代祐三 Koshiro Yuzo 7th Dragon III Code VFD japanese video game Lince Cosmico Chekito verychill
BeatmapID:1405501
BeatmapSetID:663733

[Difficulty]
HPDrainRate:5
CircleSize:4
OverallDifficulty:7
ApproachRate:9
SliderMultiplier:2
SliderTickRate:1

[Events]
//Background and Video events
0,0,"bg.jpg",0,0
//Break Periods
//Storyboard Layer 0 (Background)
//Storyboard Layer 1 (Fail)
//Storyboard Layer 2 (Pass)
//Storyboard Layer 3 (Foreground)
//Storyboard Layer 4 (Overlay)
//Storyboard Sound Samples

[TimingPoints]
-228,304.568527918782,3,2,2,45,1,0
685,-100,3,2,2,45,0,0
2817,-133.333333333333,3,2,2,45,0,0
3122,-200,3,2,2,45,0,0
3426,-100,3,2,2,45,0,0
3731,-133.333333333333,3,2,2,45,0,0
4035,-200,3,2,2,45,0,0
4340,-133.333333333333,3,2,2,45,0,0
7081,-200,3,2,2,45,0,0
7995,-100,3,2,2,45,0,0
10127,-133.333333333333,3,2,2,45,0,0
10431,-200,3,2,2,45,0,0
10736,-100,3,2,2,45,0,0
11041,-133.333333333333,3,2,2,45,0,0
11345,-200,3,2,2,45,0,0
11650,-133.333333333333,3,2,2,45,0,0
13477,-133.333333333333,3,2,1,55,0,0
14391,-200,3,2,1,55,0,0
15000,-133.333333333333,3,2,1,55,0,0
16523,-200,3,2,1,55,0,0
16751,-200,3,2,1,5,0,0
16827,-200,3,2,1,55,0,0
17132,-133.333333333333,3,2,1,55,0,0
18350,-200,3,2,1,55,0,0
18959,-133.333333333333,3,2,1,55,0,0
20178,-200,3,2,1,55,0,0
20787,-133.333333333333,3,2,1,55,0,0
22614,-200,3,2,1,55,0,0
23071,-133.333333333333,3,2,1,55,0,0
27487,-200,3,2,1,55,0,0
28096,-133.333333333333,3,2,1,55,0,0
29315,-200,3,2,1,55,0,0
29924,-133.333333333333,3,2,1,55,0,0
31142,-200,3,2,1,55,0,0
31751,-133.333333333333,3,2,1,55,0,0
32969,-200,3,2,1,55,0,0
33579,-133.333333333333,3,2,1,55,0,0
34797,-200,3,2,1,55,0,0
35406,-133.333333333333,3,2,1,55,0,0
36624,-200,3,2,1,55,0,0
37233,-133.333333333333,3,2,1,55,0,0
38452,-200,3,2,1,55,0,0
39061,-133.333333333333,3,2,1,55,0,0
42715,500,3,2,2,45,1,0
42715,-133.333333333333,3,2,2,45,0,0
48715,-100,3,3,1,45,0,0
50965,571.428571428571,3,3,1,50,1,0
50965,-142.857142857143,3,3,1,50,0,0
51822,666.666666666667,3,3,1,50,1,0
52822,-100,3,3,1,50,0,0
52905,-100,3,3,1,20,0,0
52988,-100,3,3,1,30,0,0
53155,-100,3,3,1,40,0,0
53322,-100,3,3,1,50,0,0
53488,-100,3,3,1,60,0,0
53655,-100,3,3,1,70,0,0
53857,363.636363636364,3,3,1,50,1,0
53857,-100,3,3,1,50,0,0
62038,-100,3,3,1,40,0,0
62220,-100,3,3,1,50,0,0
62402,-100,3,3,1,60,0,0
62584,-100,3,3,1,50,0,0
73380,256.410256410256,4,2,3,70,1,1
73380,-142.857142857143,4,2,3,70,0,1
82610,-111.111111111111,4,2,3,70,0,1
82674,-111.111111111111,4,2,3,70,0,1
82995,-142.857142857143,4,2,3,70,0,1
91328,-142.857142857143,4,2,3,70,0,0
91841,-125,4,3,1,70,0,1
94405,-125,4,3,1,70,0,0
94918,-125,4,3,1,70,0,1
97482,-125,4,3,1,70,0,0
97995,-125,4,3,1,70,0,1
98508,-125,4,3,1,70,0,0
99021,-125,4,3,1,70,0,1
99533,-125,4,3,1,70,0,0
100046,267.857142857143,4,3,1,70,1,1
100112,-100,4,3,1,70,0,0
100581,315.789473684211,4,3,1,70,1,0
100581,-100,4,3,1,70,0,0
100791,-100,4,3,1,50,0,0
101212,375,4,3,1,70,1,0
101212,-100,4,3,1,70,0,0
101462,-100,4,3,1,50,0,0
101962,512.820512820513,4,3,1,70,1,0
101962,-100,4,3,1,70,0,0
102303,-100,4,3,1,50,0,0
102987,307.692307692308,3,2,2,45,1,0
102987,-100,3,2,2,45,0,0
105140,-133.333333333333,3,2,2,45,0,0
105448,-200,3,2,2,45,0,0
105756,352.941176470588,3,3,1,45,1,0
105756,-142.857142857143,3,2,2,45,0,0
106108,-166.666666666666,3,2,2,45,0,0
106461,-200,3,2,2,45,0,0
106848,422.535211267606,3,2,2,45,1,0
106953,-100,3,2,2,45,0,0
109383,-100,3,2,2,30,0,0
110650,-100,3,2,2,15,0,0
111918,-100,3,2,2,5,0,0

[Colours]
Combo1 : 140,131,180
Combo2 : 175,169,131
Combo3 : 121,200,156
Combo4 : 183,119,119

[HitObjects]
110,137,685,6,0,P|161:146|209:129,1,100,2|0,0:0|0:0,0:0:0:0:
224,225,990,2,0,P|268:199|294:155,1,100,2|0,0:0|0:0,0:0:0:0:
376,214,1294,2,0,P|393:165|385:115,1,100,2|0,0:0|0:0,0:0:0:0:
205,131,1599,6,0,P|202:180|224:225,1,100,2|0,0:0|0:0,0:0:0:0:
131,264,1903,2,0,P|160:303|206:323,1,100,2|0,0:0|0:0,0:0:0:0:
70,175,2208,2,0,P|35:217|24:265,1,100,2|0,0:0|0:0,0:0:0:0:
205,131,2513,6,0,P|223:91|217:32,1,100,2|0,0:0|0:0,0:0:0:0:
301,160,2817,2,0,P|340:140|367:103,1,75.0000028610231,2|0,0:0|0:0,0:0:0:0:
340,254,3122,2,0,P|382:264|401:261,1,50,2|0,0:0|0:0,0:0:0:0:
244,240,3426,6,0,P|244:295|275:358,1,100,2|0,0:0|0:0,0:0:0:0:
189,162,3731,2,0,P|162:194|148:233,1,75.0000028610231,2|0,0:0|0:0,0:0:0:0:
197,66,4035,2,0,P|163:71|137:86,1,50,2|0,0:0|0:0,0:0:0:0:
274,126,4340,6,0,B|289:107|292:87|292:87|335:127|396:109,1,150.000005722046,2|0,0:0|0:0,0:0:0:0:
485,35,4797,2,0,P|477:90|481:189,1,150.000005722046,2|0,0:0|0:0,0:0:0:0:
403,277,5254,2,0,P|372:245|362:217,1,75.0000028610231,2|0,0:0|0:0,0:0:0:0:
276,244,5558,2,0,P|272:199|283:171,1,75.0000028610231,2|0,0:0|0:0,0:0:0:0:
199,137,5863,2,0,P|225:100|250:86,1,75.0000028610231,2|0,0:0|0:0,0:0:0:0:
184,227,6167,6,0,B|110:257|111:199|28:222,1,150.000005722046,2|0,0:0|0:0,0:0:0:0:
19,353,6624,2,0,P|49:331|67:290,1,75.0000028610231,2|0,0:0|0:0,0:0:0:0:
203,384,6929,1,2,0:0:0:0:
203,384,7081,2,0,P|173:362|259:342,1,200,2|0,0:0|0:0,0:0:0:0:
258,331,7995,6,0,P|312:340|357:324,1,100,2|0,0:0|0:0,0:0:0:0:
302,249,8299,2,0,P|349:221|373:180,1,100,2|0,0:0|0:0,0:0:0:0:
282,157,8604,2,0,P|300:105|292:58,1,100,2|0,0:0|0:0,0:0:0:0:
118,106,8909,6,0,B|158:114|158:114|226:96,1,100,2|0,0:0|0:0,0:0:0:0:
212,224,9213,2,0,B|247:204|247:204|288:146,1,100,2|0,0:0|0:0,0:0:0:0:
359,253,9518,2,0,B|373:214|373:214|367:144,1,100,2|0,0:0|0:0,0:0:0:0:
207,4,9822,6,0,P|198:59|221:105,1,100,2|0,0:0|0:0,0:0:0:0:
119,121,10127,2,0,P|133:153|167:181,1,75.0000028610231,2|0,0:0|0:0,0:0:0:0:
105,257,10431,2,0,P|132:272|165:275,1,50,2|0,0:0|0:0,0:0:0:0:
304,182,10736,6,0,P|277:220|269:277,1,100,2|0,0:0|0:0,0:0:0:0:
453,232,11041,2,0,P|444:209|403:173,1,75.0000028610231,2|0,0:0|0:0,0:0:0:0:
349,343,11345,2,0,P|382:345|410:334,1,50,2|0,0:0|0:0,0:0:0:0:
304,182,11650,6,0,B|226:161|237:224|160:202,1,150.000005722046,2|0,0:0|0:0,0:0:0:0:
60,90,12107,2,0,L|71:178,1,75.0000028610231,2|0,0:0|0:0,0:0:0:0:
86,313,12411,1,0,0:0:0:0:
86,313,12563,2,0,P|114:295|138:260,1,75.0000028610231,2|0,0:0|0:0,0:0:0:0:
220,304,12868,2,0,P|229:272|225:229,1,75.0000028610231,2|0,0:0|0:0,0:0:0:0:
314,208,13173,2,0,P|301:177|270:147,1,75.0000028610231,2|0,0:0|0:0,0:0:0:0:
127,111,13477,6,0,L|137:266,1,150.000005722046,4|0,1:2|0:0,0:0:0:0:
219,348,13934,1,0,1:0:0:0:
290,251,14086,2,0,P|322:287|335:318,1,75.0000028610231,8|0,0:0|0:0,0:0:0:0:
433,377,14391,6,0,P|449:343|501:306,1,100,2|0,0:0|1:0,0:0:0:0:
499,306,15000,1,0,1:0:0:0:
499,306,15152,1,0,1:0:0:0:
433,377,15304,6,0,L|351:375,1,75.0000028610231,0|8,1:0|0:0,0:0:0:0:
252,374,15609,1,0,0:0:0:0:
192,287,15761,2,0,L|108:291,2,75.0000028610231,0|8|0,1:0|0:0|0:0,0:0:0:0:
279,227,16218,2,0,P|293:184|291:147,1,75.0000028610231,2|0,0:0|1:0,0:0:0:0:
275,145,16523,6,0,P|274:182|260:220,1,75,0|0,1:0|0:0,0:0:0:0:
191,169,16827,1,0,1:0:0:0:
191,169,16980,1,0,1:0:0:0:
267,57,17132,6,0,B|320:74|320:74|416:60,1,150.000005722046,0|0,1:0|0:0,0:0:0:0:
413,60,17589,1,0,1:0:0:0:
479,160,17741,2,0,P|443:168|398:157,1,75.0000028610231,8|0,0:0|0:0,0:0:0:0:
377,251,18046,2,0,P|344:233|316:196,1,75.0000028610231,2|0,0:0|1:0,0:0:0:0:
262,100,18350,6,0,P|238:128|205:146,1,75.0000028610231,0|0,1:0|0:3,0:0:0:0:
182,55,18655,1,0,1:0:0:0:
182,55,18807,1,0,1:0:0:0:
135,197,18959,5,0,1:0:0:0:
205,146,19112,1,8,0:0:0:0:
293,269,19416,5,0,1:0:0:0:
214,232,19568,1,8,0:0:0:0:
284,182,19721,1,0,0:0:0:0:
223,318,19873,2,0,P|181:311|150:291,1,75.0000028610231,2|0,0:0|1:0,0:0:0:0:
159,278,20178,6,0,P|191:296|228:301,1,75.0000028610231,0|0,1:0|0:0,0:0:0:0:
219,209,20482,1,0,1:0:0:0:
219,209,20634,1,0,1:0:0:0:
98,209,20787,6,0,P|71:247|64:278,1,75.0000028610231,0|8,1:0|0:0,0:0:0:0:
105,127,21091,2,8,P|59:138|34:158,1,75.0000028610231,0|0,0:0|1:0,0:0:0:0:
163,68,21396,1,8,0:0:0:0:
163,68,21548,1,0,0:0:0:0:
219,209,21700,6,0,P|268:219|301:212,1,75.0000028610231,2|0,0:0|1:0,0:0:0:0:
261,126,22005,2,0,P|304:102|325:75,1,75.0000028610231,0|0,1:0|0:0,0:0:0:0:
239,35,22310,1,0,1:0:0:0:
239,35,22462,1,0,1:0:0:0:
219,209,22614,6,0,P|251:219|323:204,1,100,0|0,1:0|0:0,0:0:0:0:
326,64,23071,1,0,1:0:0:0:
261,126,23223,1,8,0:0:0:0:
392,144,23376,1,0,0:0:0:0:
239,35,23528,5,0,0:0:0:0:
239,35,23680,1,0,1:0:0:0:
239,35,23832,1,0,1:0:0:0:
219,209,24137,1,0,1:0:0:0:
261,126,24289,1,0,1:0:0:0:
126,194,24442,6,0,P|128:237|146:267,1,75.0000028610231,0|8,1:0|0:0,0:0:0:0:
219,209,24746,2,0,P|248:240|281:252,1,75.0000028610231,0|0,0:0|1:0,0:0:0:0:
299,160,25051,2,0,P|341:165|374:152,1,75.0000028610231,8|0,0:0|0:0,0:0:0:0:
423,47,25355,5,2,0:0:0:0:
461,192,25508,1,0,1:0:0:0:
329,87,25660,2,0,P|321:52|328:9,1,75.0000028610231,0|0,1:0|0:0,0:0:0:0:
294,185,25964,2,0,P|267:210|230:225,1,75.0000028610231,0|0,1:0|0:0,0:0:0:0:
394,170,26269,5,0,1:0:0:0:
394,170,26421,1,8,0:0:0:0:
228,105,26726,5,0,1:0:0:0:
294,185,26878,1,8,0:0:0:0:
329,87,27030,1,2,0:0:0:0:
198,198,27183,2,0,L|203:278,1,75.0000028610231,2|0,0:0|1:0,0:0:0:0:
107,338,27487,6,0,L|111:263,1,75.0000028610231,0|0,1:0|0:0,0:0:0:0:
117,169,27792,1,0,1:0:0:0:
117,169,27944,1,0,1:0:0:0:
202,272,28096,5,0,1:0:0:0:
228,105,28249,1,8,0:0:0:0:
358,208,28553,5,0,1:0:0:0:
265,197,28706,1,8,0:0:0:0:
320,122,28858,1,0,0:0:0:0:
320,122,28934,1,0,0:0:0:0:
320,122,29010,6,0,P|368:117|398:122,1,75.0000028610231,2|0,0:0|1:0,0:0:0:0:
396,138,29315,6,0,P|348:133|318:138,1,75.0000028610231,0|0,1:0|0:0,0:0:0:0:
357,226,29619,1,0,1:0:0:0:
357,226,29772,1,0,1:0:0:0:
450,215,29924,5,0,1:0:0:0:
263,242,30076,1,8,0:0:0:0:
263,242,30381,5,0,1:0:0:0:
357,226,30533,1,0,0:0:0:0:
323,313,30685,1,8,0:0:0:0:
221,161,30837,6,0,P|186:194|173:227,1,75.0000028610231,2|0,0:0|1:0,0:0:0:0:
187,226,31142,6,0,P|204:193|233:170,1,75.0000028610231,0|0,1:0|0:0,0:0:0:0:
277,251,31447,1,0,1:0:0:0:
277,251,31599,1,0,1:0:0:0:
173,345,31751,6,0,P|135:355|84:346,1,75.0000028610231,0|8,1:0|0:0,0:0:0:0:
103,262,32056,2,0,P|67:245|41:216,1,75.0000028610231,0|0,0:0|1:0,0:0:0:0:
102,153,32360,2,0,P|85:117|84:77,1,75.0000028610231,8|0,0:0|0:0,0:0:0:0:
202,1,32665,6,0,P|180:31|171:68,1,75.0000028610231,2|0,0:0|1:0,0:0:0:0:
184,77,32969,6,0,P|192:41|215:11,1,75.0000028610231,0|0,1:0|0:0,0:0:0:0:
276,84,33274,1,0,1:0:0:0:
276,84,33426,1,0,1:0:0:0:
337,14,33579,6,0,P|358:44|337:153,1,150.000005722046,0|0,1:0|0:0,0:0:0:0:
222,161,34035,1,0,1:0:0:0:
291,254,34188,1,8,0:0:0:0:
341,148,34340,1,0,0:0:0:0:
222,161,34492,6,0,P|190:197|177:228,1,75.0000028610231,2|0,0:0|1:0,0:0:0:0:
153,330,34797,6,0,P|136:296|110:269,1,75.0000028610231,0|0,1:0|0:0,0:0:0:0:
62,351,35101,2,0,L|37:354,3,25,0|2|0|2,1:0|0:0|1:0|0:0,0:0:0:0:
110,269,35406,6,0,P|114:226|97:188,1,75.0000028610231,0|8,1:0|0:0,0:0:0:0:
212,190,35711,2,8,P|187:154|149:136,1,75.0000028610231,0|0,0:0|1:0,0:0:0:0:
43,114,36015,1,8,0:0:0:0:
103,196,36167,1,0,0:0:0:0:
181,67,36320,6,0,L|273:73,1,75.0000028610231,2|0,0:0|1:0,0:0:0:0:
267,93,36624,6,0,L|173:87,1,75,0|0,1:0|0:0,0:0:0:0:
227,173,36929,1,0,1:0:0:0:
227,173,37081,1,0,1:0:0:0:
303,249,37233,6,0,P|319:208|320:172,1,75.0000028610231,0|8,1:0|0:0,0:0:0:0:
202,272,37690,5,0,1:0:0:0:
227,173,37842,1,8,0:0:0:0:
303,249,37995,1,0,0:0:0:0:
251,365,38147,6,0,P|213:372|170:361,1,75.0000028610231,0|0,0:0|1:0,0:0:0:0:
179,348,38452,6,0,P|217:355|260:344,1,75.0000028610231,0|0,1:0|0:0,0:0:0:0:
216,263,38756,1,0,1:0:0:0:
216,263,38909,1,0,1:0:0:0:
100,294,39061,6,0,P|84:343|88:376,1,75.0000028610231,0|8,1:0|0:0,0:0:0:0:
77,204,39365,2,0,P|33:231|15:259,1,75.0000028610231,0|0,0:0|1:0,0:0:0:0:
117,120,39670,2,0,P|65:112|34:122,1,75.0000028610231,8|0,0:0|0:0,0:0:0:0:
168,198,39975,5,2,0:0:0:0:
243,146,40127,1,0,1:0:0:0:
195,68,40279,1,0,1:0:0:0:
117,120,40431,1,2,0:0:0:0:
251,240,40584,5,0,1:0:0:0:
243,146,40736,1,0,1:0:0:0:
168,198,40888,5,0,1:0:0:0:
327,187,41041,1,8,0:0:0:0:
327,187,41345,5,0,1:0:0:0:
243,146,41497,1,8,0:0:0:0:
168,198,41650,1,2,0:0:0:0:
254,314,41802,6,0,L|250:222,1,75.0000028610231,2|0,0:0|1:0,0:0:0:0:
163,109,42107,1,0,1:0:0:0:
168,198,42259,1,0,0:0:0:0:
81,245,42411,5,0,1:0:0:0:
86,156,42563,1,0,1:0:0:0:
163,296,42715,5,4,1:2:0:0:
81,245,42965,1,2,0:0:0:0:
168,198,43215,1,2,0:0:0:0:
175,323,43465,5,0,1:0:0:0:
187,176,43715,1,2,0:0:0:0:
51,243,43965,1,2,0:0:0:0:
295,269,44215,5,0,1:0:0:0:
327,122,44465,1,0,0:0:0:0:
187,176,44715,1,2,0:0:0:0:
157,168,44965,5,0,1:0:0:0:
339,97,45215,1,2,0:0:0:0:
307,292,45465,1,2,0:0:0:0:
307,292,45715,5,0,1:0:0:0:
204,270,45965,1,2,0:0:0:0:
273,191,46215,1,2,0:0:0:0:
307,292,46465,5,0,1:0:0:0:
204,270,46715,1,2,0:0:0:0:
168,171,46965,1,0,0:0:0:0:
168,171,47215,5,0,1:0:0:0:
204,270,47465,1,2,0:0:0:0:
169,369,47715,1,2,0:0:0:0:
57,272,47965,6,0,B|129:297|127:243|211:272,1,150.000005722046,0|0,1:0|0:0,0:0:0:0:
204,270,48715,1,0,1:0:0:0:
168,171,48965,2,0,L|172:132,3,25,0|0|0|0,0:0|0:0|0:0|0:0,0:0:0:0:
263,193,49215,2,0,L|261:136,1,50,0|0,0:0|0:0,0:0:0:0:
258,63,49465,5,0,1:0:0:0:
346,110,49715,1,0,0:0:0:0:
431,57,49965,2,0,L|431:8,1,50,0|0,0:0|0:0,0:0:0:0:
433,155,50215,5,0,1:0:0:0:
431,254,50465,2,0,L|421:311,1,50
433,155,50715,1,0,0:0:0:0:
433,155,50965,1,0,1:0:0:0:
344,202,51250,6,0,L|296:198,1,34.9999989318848
238,147,51536,2,0,L|190:151,1,34.9999989318848
88,217,51822,6,0,P|79:238|78:273,1,50,0|0,1:0|0:0,0:0:0:0:
162,308,52155,2,0,P|168:329|190:357,1,50,0|0,0:0|0:0,0:0:0:0:
184,351,52405,1,0,0:0:0:0:
184,351,52488,1,0,0:0:0:0:
260,286,52655,1,0,0:0:0:0:
195,209,52822,2,0,L|155:206,11,25,0|8|8|8|8|8|8|8|8|8|8|8,1:0|0:0|0:0|0:0|0:0|0:0|0:0|0:0|0:0|0:0|0:0|0:0,0:0:0:0:
299,186,53857,6,0,P|325:148|327:86,1,100,0|8,1:0|0:0,0:0:0:0:
329,95,54129,1,8,0:0:0:0:
329,95,54220,1,8,0:0:0:0:
148,85,54402,5,0,1:0:0:0:
243,115,54584,1,2,0:0:0:0:
224,16,54766,1,2,0:0:0:0:
169,183,54947,6,0,L|180:289,2,100,0|2|2,1:0|0:0|0:0,0:0:0:0:
51,116,55493,2,0,L|62:10,2,100,0|2|2,1:0|0:0|0:0,0:0:0:0:
37,275,56038,5,0,1:0:0:0:
169,183,56220,1,8,0:0:0:0:
169,183,56311,1,8,0:0:0:0:
169,183,56402,1,8,0:0:0:0:
177,372,56584,5,0,1:0:0:0:
133,300,56766,1,2,0:0:0:0:
232,292,56947,1,2,0:0:0:0:
110,264,57129,5,0,1:0:0:0:
169,183,57311,1,2,0:0:0:0:
70,175,57492,1,2,0:0:0:0:
192,147,57675,5,0,1:0:0:0:
275,201,57857,1,2,0:0:0:0:
369,168,58038,1,2,0:0:0:0:
288,108,58220,5,0,1:0:0:0:
262,296,58402,1,8,0:0:0:0:
262,296,58493,1,8,0:0:0:0:
262,296,58584,1,8,0:0:0:0:
275,201,58766,5,0,1:0:0:0:
262,296,58947,1,2,0:0:0:0:
187,238,59129,1,2,0:0:0:0:
354,261,59311,6,0,P|374:216|368:167,2,100,0|2|2,1:0|0:0|0:0,0:0:0:0:
199,143,59857,2,0,P|238:113|287:107,2,100,0|10|10,1:0|0:0|0:0,0:0:0:0:
164,306,60402,6,0,B|207:312|207:312|266:294,1,100,0|8,1:0|0:0,0:0:0:0:
261,295,60675,1,8,0:0:0:0:
261,295,60766,1,8,0:0:0:0:
106,221,60947,5,0,1:0:0:0:
65,312,61129,1,2,0:0:0:0:
164,306,61311,1,2,0:0:0:0:
106,221,61493,5,0,1:0:0:0:
106,221,61675,1,2,0:0:0:0:
106,221,61857,1,2,0:0:0:0:
13,241,62038,5,8,1:0:0:0:
203,229,62220,1,10,0:0:0:0:
210,199,62311,1,8,0:0:0:0:
209,168,62402,1,10,0:0:0:0:
197,140,62493,1,8,0:0:0:0:
175,118,62584,6,0,P|156:80|165:15,1,100,4|8,1:2|0:0,0:0:0:0:
160,23,62857,1,8,0:0:0:0:
160,23,62947,1,8,0:0:0:0:
337,54,63129,5,0,1:0:0:0:
237,60,63311,1,2,0:0:0:0:
293,142,63493,1,2,0:0:0:0:
337,54,63675,5,0,1:0:0:0:
293,142,63857,1,2,0:0:0:0:
337,230,64038,1,2,0:0:0:0:
293,142,64220,5,0,1:0:0:0:
241,227,64402,1,2,0:0:0:0:
288,315,64584,1,2,0:0:0:0:
288,315,64766,6,0,L|167:311,1,100,0|8,1:0|0:0,0:0:0:0:
188,311,65038,1,8,0:0:0:0:
188,311,65129,1,8,0:0:0:0:
40,190,65311,5,0,1:0:0:0:
135,221,65493,1,2,0:0:0:0:
58,286,65675,1,2,0:0:0:0:
117,125,65857,5,0,1:0:0:0:
212,156,66039,1,2,0:0:0:0:
135,221,66221,1,2,0:0:0:0:
95,114,66402,5,0,1:0:0:0:
140,249,66584,1,2,0:0:0:0:
242,157,66766,1,2,0:0:0:0:
140,249,66947,6,0,L|148:356,1,100,4|8,1:2|0:0,0:0:0:0:
147,348,67220,1,8,0:0:0:0:
147,348,67311,1,8,0:0:0:0:
247,245,67493,5,0,1:0:0:0:
250,334,67675,1,2,0:0:0:0:
242,157,67857,1,2,0:0:0:0:
344,238,68038,6,0,P|290:250|237:242,2,100,4|2|2,1:2|0:0|0:0,0:0:0:0:
413,115,68584,2,0,P|467:103|520:111,2,100,0|2|2,1:0|0:0|0:0,0:0:0:0:
344,238,69129,5,4,1:2:0:0:
314,80,69311,1,8,0:0:0:0:
314,80,69402,1,8,0:0:0:0:
314,80,69493,1,8,0:0:0:0:
194,186,69675,5,0,1:0:0:0:
292,166,69857,1,10,0:0:0:0:
226,89,70038,1,10,0:0:0:0:
261,265,70220,6,0,L|365:261,2,100,4|10|10,1:2|0:0|0:0,0:0:0:0:
137,108,70766,2,0,L|33:104,2,100,0|10|10,1:0|0:0|0:0,0:0:0:0:
317,111,71311,1,4,1:2:0:0:
317,111,73380,6,0,B|323:218|323:218|294:200,1,139.999995727539,4|0,1:2|0:0,0:0:0:0:
205,112,73764,1,0,1:0:0:0:
205,112,73892,2,0,P|214:60|233:36,1,69.9999978637696,0|8,0:0|0:0,0:0:0:0:
205,201,74149,2,0,P|155:219|125:214,1,69.9999978637696,0|0,1:0|0:0,0:0:0:0:
40,116,74405,6,0,P|66:186|43:253,1,139.999995727539,8|0,0:0|0:0,0:0:0:0:
128,344,74790,1,0,0:0:0:0:
128,344,74918,2,0,P|152:322|188:307,1,69.9999978637696,0|0,1:0|0:0,0:0:0:0:
292,332,75174,2,0,P|324:345|350:368,1,69.9999978637696,0|0,0:0|1:0,0:0:0:0:
350,368,75431,1,0,1:0:0:0:
332,257,75687,5,0,1:0:0:0:
332,257,75815,1,8,0:0:0:0:
420,267,75944,2,0,L|500:277,1,69.9999978637696,8|0,0:0|0:0,0:0:0:0:
512,163,76200,2,0,L|432:173,1,69.9999978637696,0|0,1:0|0:0,0:0:0:0:
321,172,76456,6,0,P|265:135|257:47,1,139.999995727539,0|0,1:0|0:0,0:0:0:0:
179,197,76841,2,0,P|235:158|249:92,1,139.999995727539,0|0,1:0|0:0,0:0:0:0:
112,58,77226,2,0,P|128:88|171:112,1,69.9999978637696,0|0,1:0|0:0,0:0:0:0:
302,17,77482,6,0,P|257:69|245:138,1,139.999995727539,8|0,0:0|0:0,0:0:0:0:
300,252,77867,1,0,0:0:0:0:
300,252,77995,2,0,L|386:241,1,69.9999978637696,0|0,1:0|1:0,0:0:0:0:
448,164,78251,2,0,L|362:153,1,69.9999978637696,0|0,0:0|1:0,0:0:0:0:
266,145,78508,5,0,0:0:0:0:
266,145,78636,1,0,1:0:0:0:
154,133,78764,5,8,0:0:0:0:
266,145,78892,1,8,0:0:0:0:
200,236,79021,2,0,L|208:312,1,69.9999978637696,0|0,0:0|0:0,0:0:0:0:
109,358,79277,2,0,L|116:288,1,69.9999978637696,0|0,1:0|0:0,0:0:0:0:
54,195,79533,6,0,B|48:147|48:147|69:120|69:120|60:61,1,139.999995727539,0|0,1:0|0:0,0:0:0:0:
60,63,79918,1,0,0:0:0:0:
154,133,80046,2,0,P|187:140|232:127,1,69.9999978637696,0|0,1:0|1:0,0:0:0:0:
313,25,80303,2,0,P|290:50|279:95,1,69.9999978637696,8|0,0:0|0:0,0:0:0:0:
341,209,80559,6,0,L|417:204,1,69.9999978637696,0|0,1:0|0:0,0:0:0:0:
361,240,80815,2,0,L|437:235,1,69.9999978637696,0|8,0:0|0:0,0:0:0:0:
315,316,81072,2,0,L|239:311,1,69.9999978637696,0|0,1:0|0:0,0:0:0:0:
295,347,81328,2,0,L|219:342,1,69.9999978637696,8|0,0:0|0:0,0:0:0:0:
84,335,81585,6,0,P|82:277|71:194,1,139.999995727539,0|8,1:0|0:0,0:0:0:0:
27,93,81969,1,0,0:0:0:0:
27,93,82097,2,0,P|66:108|99:107,1,69.9999978637696,0|8,1:0|0:0,0:0:0:0:
242,45,82354,2,0,P|210:32|176:31,1,69.9999978637696,8|8,0:0|0:0,0:0:0:0:
229,220,82610,6,0,B|267:240|313:220|313:220|332:172|317:128,1,179.999994506836,4|0,1:2|0:0,0:0:0:0:
136,157,82995,1,0,1:0:0:0:
136,157,83123,2,0,P|118:189|112:233,1,69.9999978637696,0|8,0:0|0:0,0:0:0:0:
11,219,83379,2,0,P|17:255|41:292,1,69.9999978637696,0|0,1:0|0:0,0:0:0:0:
133,336,83636,6,0,B|202:359|200:307|268:333,1,139.999995727539,8|0,0:0|0:0,0:0:0:0:
371,380,84021,2,0,P|353:320|394:259,1,139.999995727539,0|0,0:0|0:0,0:0:0:0:
499,332,84405,2,0,L|427:329,1,69.9999978637696,0|0,0:0|1:0,0:0:0:0:
429,329,84662,1,0,1:0:0:0:
486,161,84918,5,0,1:0:0:0:
486,161,85046,1,8,0:0:0:0:
456,240,85174,2,0,L|378:242,1,69.9999978637696,8|0,0:0|0:0,0:0:0:0:
301,155,85431,2,0,L|379:157,1,69.9999978637696,0|0,1:0|0:0,0:0:0:0:
267,250,85687,6,0,P|212:208|200:137,1,139.999995727539,0|0,1:0|0:0,0:0:0:0:
368,46,86072,2,0,P|354:113|300:154,1,139.999995727539,0|0,1:0|0:0,0:0:0:0:
213,51,86456,2,0,P|248:51|280:66,1,69.9999978637696,0|0,1:0|0:0,0:0:0:0:
63,137,86713,6,0,B|150:156|150:156|199:141,1,139.999995727539,8|0,0:0|0:0,0:0:0:0:
199,141,87097,1,0,0:0:0:0:
89,247,87226,2,0,L|159:260,1,69.9999978637696,0|0,1:0|1:0,0:0:0:0:
268,277,87482,1,0,0:0:0:0:
268,277,87610,1,0,1:0:0:0:
332,368,87738,6,0,L|261:374,1,69.9999978637696,0|0,0:0|1:0,0:0:0:0:
359,284,87995,1,8,0:0:0:0:
359,284,88123,1,8,0:0:0:0:
444,283,88251,2,0,P|452:252|446:211,1,69.9999978637696,0|0,0:0|0:0,0:0:0:0:
303,141,88508,1,0,0:0:0:0:
373,195,88636,1,0,0:0:0:0:
485,26,88764,6,0,P|454:34|387:121,1,139.999995727539,0|0,1:0|0:0,0:0:0:0:
388,114,89149,1,0,0:0:0:0:
447,214,89277,2,0,P|452:249|444:283,1,69.9999978637696,0|0,1:0|1:0,0:0:0:0:
347,339,89533,2,0,P|338:305|343:270,1,69.9999978637696,8|0,0:0|0:0,0:0:0:0:
303,141,89790,6,0,P|276:170|244:182,1,69.9999978637696,0|0,1:0|0:0,0:0:0:0:
257,268,90046,2,0,P|217:272|185:261,1,69.9999978637696,0|8,0:0|0:0,0:0:0:0:
138,326,90303,2,0,P|104:304|87:275,1,69.9999978637696,0|0,1:0|0:0,0:0:0:0:
12,287,90559,2,0,P|0:249|5:215,1,69.9999978637696,8|0,0:0|0:0,0:0:0:0:
66,94,90815,6,0,L|150:100,1,69.9999978637696,0|0,1:0|0:0,0:0:0:0:
135,98,91072,1,8,0:0:0:0:
135,98,91200,1,0,0:0:0:0:
201,187,91328,2,0,L|117:193,1,69.9999978637696,0|8,1:0|0:0,0:0:0:0:
132,191,91585,1,8,0:0:0:0:
132,191,91713,1,8,0:0:0:0:
236,92,91841,6,0,B|297:72|297:72|343:80,2,106.666666666667,4|2|2,1:2|0:0|0:0,0:0:0:0:
236,263,92354,2,0,B|297:283|297:283|343:275,2,106.666666666667,0|2|2,1:0|0:0|0:0,0:0:0:0:
397,222,92867,6,0,P|419:278|405:328,2,106.666666666667,0|2|2,1:0|0:0|0:0,0:0:0:0:
397,139,93379,2,0,P|419:83|405:33,2,106.666666666667,0|2|2,1:0|0:0|0:0,0:0:0:0:
299,184,93892,2,0,L|193:184,1,106.666666666667,0|2,1:0|0:0,0:0:0:0:
192,184,94149,1,2,0:0:0:0:
192,184,94234,1,2,0:0:0:0:
71,184,94405,5,0,1:0:0:0:
192,184,94576,1,2,0:0:0:0:
131,288,94747,1,2,0:0:0:0:
71,184,94918,6,0,B|69:127|69:127|99:86,2,106.666666666667,4|2|2,1:2|0:0|0:0,0:0:0:0:
131,288,95431,2,0,B|133:345|133:345|101:385,2,106.666666666667,0|2|2,1:0|0:0|0:0,0:0:0:0:
192,184,95944,2,0,B|190:127|190:127|220:86,1,106.666666666667,0|2,1:0|0:0,0:0:0:0:
219,86,96200,1,0,0:0:0:0:
219,86,96285,1,0,0:0:0:0:
252,288,96457,2,0,B|254:345|254:345|222:385,2,106.666666666667,0|2|2,1:0|0:0|0:0,0:0:0:0:
312,184,96969,5,0,1:0:0:0:
192,184,97140,1,2,0:0:0:0:
252,288,97311,1,2,0:0:0:0:
335,151,97482,5,0,1:0:0:0:
169,151,97653,1,2,0:0:0:0:
169,151,97824,5,2,0:0:0:0:
335,151,97995,1,4,1:2:0:0:
252,288,98166,1,2,0:0:0:0:
252,288,98251,1,2,0:0:0:0:
252,288,98337,1,2,0:0:0:0:
252,127,98508,5,0,1:0:0:0:
330,242,98679,1,2,0:0:0:0:
173,242,98850,1,2,0:0:0:0:
335,151,99021,6,0,L|448:155,2,106.666666666667,4|2|2,1:2|0:0|0:0,0:0:0:0:
166,151,99533,2,0,L|53:155,2,106.666666666667,0|2|2,0:0|0:0|0:0,0:0:0:0:
252,127,100046,1,4,1:2:0:0:
252,259,100224,1,2,0:0:0:0:
252,259,100313,1,2,0:0:0:0:
252,259,100403,1,2,0:0:0:0:
166,151,100581,6,0,P|165:99|221:40,2,133.333333333333,4|2|2,1:2|0:0|0:0,0:0:0:0:
335,233,101212,6,0,P|336:285|280:344,2,133.333333333333,4|2|2,1:2|0:0|0:0,0:0:0:0:
166,151,101962,5,4,1:2:0:0:
250,192,102303,5,2,0:0:0:0:
335,233,102645,5,2,0:0:0:0:
335,233,102987,6,0,P|342:180|323:128,1,100,2|0,0:0|0:0,0:0:0:0:
250,192,103294,2,0,P|221:146|173:119,1,100,2|0,0:0|0:0,0:0:0:0:
159,216,103602,2,0,P|108:199|53:209,1,100,2|0,0:0|0:0,0:0:0:0:
226,284,103910,6,0,P|250:241|249:191,1,100,2|0,0:0|0:0,0:0:0:0:
341,199,104217,2,0,P|331:150|299:113,1,100,2|0,0:0|0:0,0:0:0:0:
198,102,104525,1,2,0:0:0:0:
249,191,104679,1,0,0:0:0:0:
320,25,104833,6,0,P|370:21|415:44,1,100,2|0,0:0|0:0,0:0:0:0:
372,127,105140,2,0,P|412:156|428:193,1,75.0000028610231,2|0,0:0|0:0,0:0:0:0:
346,238,105448,2,0,P|359:270|357:301,1,50,2|0,0:0|0:0,0:0:0:0:
252,211,105756,6,0,P|271:171|298:149,1,69.9999978637696,2|0,0:0|0:0,0:0:0:0:
273,305,106108,2,0,P|246:310|206:296,1,59.9999981689454,2|0,0:0|0:0,0:0:0:0:
128,181,106461,2,0,P|146:201|157:243,1,50,2|0,0:0|0:0,0:0:0:0:
95,345,106848,5,2,0:0:0:0:
256,192,106953,12,0,111918,0:0:0:0:
