osu file format v14

[General]
AudioFilename: audio.mp3
AudioLeadIn: 0
PreviewTime: 72129
Countdown: 0
SampleSet: Soft
StackLeniency: 0.7
Mode: 0
LetterboxInBreaks: 0
WidescreenStoryboard: 0

[Editor]
Bookmarks: 685,13477,20787,28096,35406,42715,48715,53857,71311,72129,73380,91841,100046,102987,106848,111918
DistanceSpacing: 1.3
BeatDivisor: 8
GridSize: 4
TimelineZoom: 2.6

[Metadata]
Title:Sanctuary o Utatte feat. Wakeshima Kanon
TitleUnicode:サンクチュアリを謳って feat. 分島花音
Artist:sasakure.UK
ArtistUnicode:sasakure.UK
Creator:-Tochi
Version:Hard
Source:セブンスドラゴンⅢ code:VFD
Tags:古代祐三 Koshiro Yuzo 7th Dragon III Code VFD japanese video game Lince Cosmico Chekito verychill
BeatmapID:1438434
BeatmapSetID:663733

[Difficulty]
HPDrainRate:5
CircleSize:4
OverallDifficulty:6
ApproachRate:8
SliderMultiplier:1.7
SliderTickRate:1

[Events]
//Background and Video events
0,0,"bg.jpg",0,0
//Break Periods
//Storyboard Layer 0 (Background)
//Storyboard Layer 1 (Fail)
//Storyboard Layer 2 (Pass)
//Storyboard Layer 3 (Foreground)
//Storyboard Layer 4 (Overlay)
//Storyboard Sound Samples

[TimingPoints]
-228,304.568527918782,3,2,2,45,1,0
685,-100,3,2,2,45,0,0
990,-125,3,2,2,45,0,0
1599,-111.111111111111,3,2,2,45,0,0
1903,-142.857142857143,3,2,2,45,0,0
2513,-125,3,2,2,45,0,0
2817,-166.666666666667,3,2,2,45,0,0
3426,-142.857142857143,3,2,2,45,0,0
3731,-200,3,2,2,45,0,0
4340,-142.857142857143,3,2,2,45,0,0
4797,-200,3,2,2,45,0,0
5254,-142.857142857143,3,2,2,45,0,0
7995,-100,3,2,2,45,0,0
8299,-125,3,2,2,45,0,0
8909,-111.111111111111,3,2,2,45,0,0
9213,-142.857142857143,3,2,2,45,0,0
9822,-125,3,2,2,45,0,0
10127,-166.666666666667,3,2,2,45,0,0
10736,-142.857142857143,3,2,2,45,0,0
11041,-200,3,2,2,45,0,0
11650,-142.857142857143,3,2,2,45,0,0
12107,-200,3,2,2,45,0,0
12563,-142.857142857143,3,2,2,45,0,0
13477,-133.333333333333,3,2,1,55,0,0
42715,500,3,2,2,45,1,0
42715,-133.333333333333,3,2,2,45,0,0
48715,-142.857142857143,3,3,1,45,0,0
50965,571.428571428571,3,3,1,50,1,0
50965,-142.857142857143,3,3,1,50,0,0
51822,666.666666666667,3,3,1,50,1,0
51822,-142.857142857143,3,3,1,50,0,0
52822,-100,3,3,1,50,0,0
52905,-100,3,3,1,20,0,0
52988,-100,3,3,1,30,0,0
53155,-100,3,3,1,40,0,0
53322,-100,3,3,1,50,0,0
53488,-100,3,3,1,60,0,0
53655,-100,3,3,1,70,0,0
53857,363.636363636364,3,3,1,50,1,0
53857,-125,3,3,1,50,0,0
72129,-166.666666666667,3,3,1,50,0,0
73380,256.410256410256,4,2,3,70,1,1
73380,-142.857142857143,4,2,3,70,0,1
91328,-142.857142857143,4,2,3,70,0,0
91841,-111.111111111111,4,3,1,70,0,1
94405,-111.111111111111,4,3,1,70,0,0
94918,-111.111111111111,4,3,1,70,0,1
97482,-111.111111111111,4,3,1,70,0,0
97995,-111.111111111111,4,3,1,70,0,1
98508,-125,4,3,1,70,0,0
99021,-142.857142857143,4,3,1,70,0,1
99533,-166.666666666666,4,3,1,70,0,0
100046,267.857142857143,4,3,1,70,1,1
100581,315.789473684211,4,3,1,70,1,0
101212,375,4,3,1,70,1,0
101212,-125,4,3,1,70,0,0
101962,512.820512820513,4,3,1,70,1,0
101962,-166.666666666667,4,3,1,70,0,0
102987,307.692307692308,3,2,2,45,1,0
102987,-100,3,2,2,45,0,0
103294,-125,3,2,2,45,0,0
103910,-111.111111111111,3,2,2,45,0,0
104217,-142.857142857143,3,2,2,45,0,0
104833,-125,3,2,2,45,0,0
105140,-166.666666666667,3,2,2,45,0,0
105756,352.941176470588,3,2,2,45,1,0
105756,-142.857142857143,3,2,2,45,0,0
106108,-200,3,2,2,45,0,0
106848,422.535211267606,3,2,2,45,1,0
109383,-100,3,2,2,30,0,0
110650,-100,3,2,2,15,0,0
111918,-100,3,2,2,5,0,0

[Colours]
Combo1 : 140,131,180
Combo2 : 175,169,131
Combo3 : 121,200,156
Combo4 : 183,119,119

[HitObjects]
448,309,685,6,0,L|353:302,1,85,2|0,0:0|0:0,0:0:0:0:
275,290,990,2,0,L|204:284,3,68,2|0|2|0,0:0|0:0|0:0|0:0,0:0:0:0:
268,204,1599,6,0,L|178:197,1,76.4999976654053,2|0,0:0|0:0,0:0:0:0:
107,186,1904,2,0,L|46:180,3,59.4999981842042,2|0|2|0,0:0|0:0|0:0|0:0,0:0:0:0:
86,101,2513,6,0,L|172:89,1,68,2|0,0:0|0:0,0:0:0:0:
235,81,2817,2,0,L|287:74,3,50.9999984436036,2|0|2|0,0:0|0:0|0:0|0:0,0:0:0:0:
272,158,3426,6,0,L|337:166,1,59.4999981842042,2|0,0:0|0:0,0:0:0:0:
412,180,3731,2,0,L|458:186,3,42.5,2|0|2|0,0:0|0:0|0:0|0:0,0:0:0:0:
410,265,4340,6,0,L|288:272,1,118.999996368408,2|0,0:0|0:0,0:0:0:0:
224,319,4797,2,0,L|132:310,1,85,2|0,0:0|0:0,0:0:0:0:
67,359,5254,6,0,B|48:315|48:315|70:246,2,118.999996368408,2|2|2,0:0|0:0|0:0,0:0:0:0:
224,319,6167,2,0,B|268:300|268:300|335:321,1,118.999996368408,2|0,0:0|0:0,0:0:0:0:
418,352,6624,2,0,L|407:221,1,118.999996368408,2|2,0:0|0:0,0:0:0:0:
400,147,7081,1,2,0:0:0:0:
400,147,7995,6,0,L|308:135,1,85,2|0,0:0|0:0,0:0:0:0:
228,119,8299,2,0,L|151:108,3,68,2|0|2|0,0:0|0:0|0:0|0:0,0:0:0:0:
111,198,8909,6,0,L|192:208,1,76.4999976654053,2|0,0:0|0:0,0:0:0:0:
271,222,9213,2,0,L|334:230,3,59.4999981842042,2|0|2|0,0:0|0:0|0:0|0:0,0:0:0:0:
405,291,9822,6,0,L|422:225,1,68,2|0,0:0|0:0,0:0:0:0:
448,147,10127,2,0,L|461:97,3,50.9999984436036,2|0|2|0,0:0|0:0|0:0|0:0,0:0:0:0:
365,98,10736,6,0,L|306:82,1,59.4999981842042,2|0,0:0|0:0,0:0:0:0:
229,56,11041,2,0,L|188:45,3,42.5,2|0|2|0,0:0|0:0|0:0|0:0,0:0:0:0:
178,134,11650,6,0,P|161:191|161:258,1,118.999996368408,2|0,0:0|0:0,0:0:0:0:
210,315,12107,2,0,P|249:326|295:326,1,85,2|0,0:0|0:0,0:0:0:0:
371,289,12563,6,0,L|496:305,2,118.999996368408,2|2|2,0:0|0:0|0:0,0:0:0:0:
262,234,13477,6,0,B|246:192|246:192|279:109,1,127.500004863739,4|0,1:2|0:0,0:0:0:0:
276,115,13934,2,0,L|340:109,1,63.7500024318696,0|8,1:0|0:0,0:0:0:0:
416,102,14239,1,0,0:0:0:0:
416,102,14391,2,0,P|413:141|401:166,1,63.7500024318696,2|0,0:0|1:0,0:0:0:0:
450,222,14695,2,0,P|418:292|378:330,1,127.500004863739,0|0,1:0|1:0,0:0:0:0:
309,349,15152,1,0,1:0:0:0:
309,349,15304,6,0,B|253:344|253:344|237:334|237:334|182:329,1,127.500004863739,0|0,1:0|0:0,0:0:0:0:
108,321,15761,1,0,1:0:0:0:
152,258,15914,2,0,P|165:224|169:186,1,63.7500024318696,8|0,0:0|0:0,0:0:0:0:
101,161,16218,2,0,L|232:144,2,127.500004863739,2|0|0,0:0|1:0|1:0,0:0:0:0:
43,110,16980,1,0,1:0:0:0:
79,42,17132,6,0,L|205:25,1,127.500004863739,0|0,1:0|0:0,0:0:0:0:
205,25,17589,2,0,L|271:40,1,63.7500024318696,0|8,1:0|0:0,0:0:0:0:
341,57,17893,1,0,0:0:0:0:
304,124,18046,2,0,P|307:158|322:196,1,63.7500024318696,2|0,0:0|1:0,0:0:0:0:
270,246,18350,2,0,P|294:298|340:350,1,127.500004863739,0|0,1:0|1:0,0:0:0:0:
417,350,18807,1,0,1:0:0:0:
417,350,18959,6,0,P|459:302|487:245,1,127.500004863739,0|0,1:0|0:0,0:0:0:0:
491,168,19416,1,0,1:0:0:0:
443,108,19568,2,0,L|371:91,1,63.7500024318696,8|0,0:0|0:0,0:0:0:0:
313,130,19873,2,0,L|186:148,2,127.500004863739,2|0|0,0:0|1:0|1:0,0:0:0:0:
240,265,20787,6,0,P|236:298|246:333,1,63.7500024318696,0|8,1:0|0:0,0:0:0:0:
167,321,21091,2,0,P|151:350|149:386,1,63.7500024318696,0|0,0:0|1:0,0:0:0:0:
79,348,21396,1,8,0:0:0:0:
141,237,21700,6,0,P|145:204|135:169,1,63.7500024318696,2|0,0:0|1:0,0:0:0:0:
214,181,22004,2,0,P|229:151|231:115,1,63.7500024318696,0|0,1:0|0:0,0:0:0:0:
302,154,22310,2,0,P|326:130|340:97,1,63.7500024318696,0|0,1:0|1:0,0:0:0:0:
393,158,22614,6,0,P|450:183|497:232,1,127.500004863739,0|0,1:0|0:0,0:0:0:0:
491,305,23071,1,0,1:0:0:0:
432,353,23223,2,0,L|352:358,1,63.7500024318696,8|0,0:0|0:0,0:0:0:0:
294,336,23528,6,0,P|298:274|320:204,1,127.500004863739,0|0,0:0|1:0,0:0:0:0:
390,107,24137,2,0,P|408:77|411:41,1,63.7500024318696,0|0,1:0|1:0,0:0:0:0:
335,53,24442,6,0,B|291:28|244:49|244:49|210:42,1,127.500004863739,0|0,1:0|0:0,0:0:0:0:
138,20,24898,1,0,1:0:0:0:
138,20,25051,2,0,P|122:48|123:92,1,63.7500024318696,8|0,0:0|0:0,0:0:0:0:
152,148,25355,2,0,L|214:170,2,63.7500024318696,2|0|0,0:0|1:0|1:0,0:0:0:0:
75,147,25812,1,2,0:0:0:0:
75,147,25964,2,0,L|13:169,1,63.7500024318696,0|0,1:0|1:0,0:0:0:0:
52,235,26269,6,0,P|110:257|175:235,1,127.500004863739,0|0,1:0|0:0,0:0:0:0:
234,196,26726,2,0,P|292:174|357:196,1,127.500004863739,0|2,1:0|0:0,0:0:0:0:
400,252,27183,6,0,L|414:330,2,63.7500024318696,2|0|0,0:0|1:0|1:0,0:0:0:0:
422,126,27792,2,0,L|436:48,1,63.7500024318696,0|0,1:0|1:0,0:0:0:0:
357,56,28096,6,0,P|298:68|230:72,1,127.500004863739,0|0,1:0|0:0,0:0:0:0:
230,72,28553,2,0,P|224:98|229:137,1,63.7500024318696,0|8,1:0|0:0,0:0:0:0:
270,198,28858,1,0,0:0:0:0:
270,198,29010,2,0,P|276:223|271:262,1,63.7500024318696,2|0,0:0|1:0,0:0:0:0:
217,314,29315,2,0,L|83:330,1,127.500004863739,0|0,1:0|1:0,0:0:0:0:
26,286,29772,1,0,1:0:0:0:
26,286,29924,6,0,B|30:234|30:234|39:218|39:218|45:159,1,127.500004863739,0|0,1:0|0:0,0:0:0:0:
18,89,30381,1,0,1:0:0:0:
93,100,30533,2,0,P|128:99|161:88,1,63.7500024318696,8|0,0:0|0:0,0:0:0:0:
211,39,30837,2,0,L|194:166,2,127.500004863739,2|0|0,0:0|1:0|1:0,0:0:0:0:
285,19,31599,1,0,1:0:0:0:
352,66,31751,6,0,L|335:193,1,127.500004863739,0|0,1:0|0:0,0:0:0:0:
335,192,32208,2,0,L|367:252,1,63.7500024318696,0|8,1:0|0:0,0:0:0:0:
347,323,32513,1,0,0:0:0:0:
273,301,32665,2,0,L|242:244,1,63.7500024318696,2|0,0:0|1:0,0:0:0:0:
167,255,32969,2,0,L|106:142,1,127.500004863739,0|0,1:0|1:0,0:0:0:0:
38,107,33426,1,0,1:0:0:0:
38,107,33579,6,0,P|15:178|24:238,1,127.500004863739,0|0,1:0|0:0,0:0:0:0:
61,294,34035,1,0,1:0:0:0:
130,327,34188,2,0,L|197:313,1,63.7500024318696,8|0,0:0|0:0,0:0:0:0:
260,280,34492,2,0,B|344:289|344:289|372:325,2,127.500004863739,2|0|0,0:0|1:0|1:0,0:0:0:0:
209,162,35406,6,0,L|280:152,1,63.7500024318696,0|8,1:0|0:0,0:0:0:0:
311,87,35711,2,0,L|381:101,1,63.7500024318696,0|0,0:0|1:0,0:0:0:0:
432,51,36015,1,8,0:0:0:0:
489,164,36320,6,0,L|480:227,1,63.7500024318696,2|0,0:0|1:0,0:0:0:0:
405,241,36624,2,0,L|375:297,1,63.7500024318696,0|0,1:0|0:0,0:0:0:0:
299,285,36929,2,0,L|251:327,1,63.7500024318696,0|0,1:0|1:0,0:0:0:0:
184,290,37233,6,0,P|126:306|59:309,1,127.500004863739,0|0,1:0|0:0,0:0:0:0:
5,254,37690,1,0,1:0:0:0:
48,190,37843,2,0,P|77:182|110:180,1,63.7500024318696,8|0,0:0|0:0,0:0:0:0:
185,195,38147,2,0,P|246:211|310:213,1,127.500004863739,0|0,0:0|1:0,0:0:0:0:
418,146,38756,2,0,B|432:122|432:122|421:77,1,63.7500024318696,0|0,1:0|1:0,0:0:0:0:
350,112,39061,6,0,B|264:127|264:127|226:111,1,127.500004863739,0|0,1:0|0:0,0:0:0:0:
158,77,39518,1,0,1:0:0:0:
158,77,39670,2,0,B|136:102|136:102|137:136,1,63.7500024318696,8|0,0:0|0:0,0:0:0:0:
109,204,39975,2,0,P|86:229|40:242,2,63.7500024318696,2|0|0,0:0|1:0|1:0,0:0:0:0:
185,197,40431,1,2,0:0:0:0:
185,197,40584,2,0,P|208:222|254:235,1,63.7500024318696,0|0,1:0|1:0,0:0:0:0:
207,304,40888,6,0,P|151:325|82:309,1,127.500004863739,0|0,1:0|0:0,0:0:0:0:
30,259,41345,2,0,P|9:203|25:134,1,127.500004863739,0|2,1:0|0:0,0:0:0:0:
75,82,41802,2,0,P|103:71|137:79,1,63.7500024318696,2|0,0:0|1:0,0:0:0:0:
203,114,42107,2,0,P|231:124|265:116,1,63.7500024318696,0|0,1:0|0:0,0:0:0:0:
331,82,42411,2,0,P|359:71|393:79,1,63.7500024318696,0|0,1:0|1:0,0:0:0:0:
429,104,42715,6,0,B|454:150|459:191|459:191|449:226,1,127.500004863739,4|2,1:2|0:0,0:0:0:0:
410,290,43465,2,0,P|350:305|339:250,1,127.500004863739,0|2,1:0|0:0,0:0:0:0:
291,192,44215,2,0,B|247:170|247:170|175:205,1,127.500004863739,0|2,1:0|0:0,0:0:0:0:
128,263,44965,2,0,P|133:292|147:323,2,63.7500024318696,0|2|2,1:0|0:0|0:0,0:0:0:0:
90,195,45715,6,0,P|117:136|128:72,1,127.500004863739,0|2,1:0|0:0,0:0:0:0:
202,54,46465,2,0,P|213:116|240:174,1,127.500004863739,0|0,1:0|0:0,0:0:0:0:
306,213,47215,1,0,1:0:0:0:
307,136,47465,1,2,0:0:0:0:
240,174,47715,1,2,0:0:0:0:
240,250,47965,2,0,B|266:339|266:339|289:308,1,127.500004863739,0|0,1:0|0:0,0:0:0:0:
369,263,48715,6,0,P|399:255|434:250,1,59.4999981842042,0|0,1:0|0:0,0:0:0:0:
468,252,49090,1,0,0:0:0:0:
468,252,49215,1,0,0:0:0:0:
492,172,49465,1,0,1:0:0:0:
436,110,49715,2,0,L|363:103,1,59.4999981842042,0|0,0:0|0:0,0:0:0:0:
308,152,50215,6,0,L|183:163,1,118.999996368408,0|0,1:0|0:0,0:0:0:0:
119,208,50965,6,0,L|109:277,2,59.4999981842042,0|0|0,1:0|0:0|0:0,0:0:0:0:
114,126,51822,6,0,L|104:59,2,59.4999981842042,0|0|0,1:0|0:0|0:0,0:0:0:0:
45,176,52822,6,0,L|13:179,11,21.25,0|8|8|8|8|8|8|8|8|8|8|8,1:0|0:0|0:0|0:0|0:0|0:0|0:0|0:0|0:0|0:0|0:0|0:0,0:0:0:0:
90,172,53857,5,0,1:0:0:0:
177,183,54038,2,0,L|214:189,2,34,8|8|8,0:0|0:0|0:0,0:0:0:0:
179,271,54402,1,0,1:0:0:0:
93,294,54584,1,2,0:0:0:0:
93,294,54766,1,2,0:0:0:0:
179,271,54947,6,0,P|208:273|242:293,1,68,0|2,1:0|0:0,0:0:0:0:
321,330,55311,1,2,0:0:0:0:
321,330,55493,2,0,P|350:328|384:308,1,68,0|2,1:0|0:0,0:0:0:0:
425,230,55857,1,2,0:0:0:0:
360,169,56038,5,0,1:0:0:0:
439,129,56220,2,0,L|471:115,2,34,8|8|8,0:0|0:0|0:0,0:0:0:0:
360,169,56584,1,0,1:0:0:0:
362,81,56766,1,2,0:0:0:0:
362,81,56947,1,2,0:0:0:0:
360,169,57129,6,0,P|328:188|291:186,2,68,0|2|2,1:0|0:0|0:0,0:0:0:0:
298,265,57675,2,0,P|261:258|234:233,1,68,0|2,1:0|0:0,0:0:0:0:
209,156,58038,1,2,0:0:0:0:
111,193,58220,5,0,1:0:0:0:
184,143,58402,2,0,P|191:125|189:103,2,34,8|8|8,0:0|0:0|0:0,0:0:0:0:
111,193,58766,1,0,1:0:0:0:
101,104,58947,1,2,0:0:0:0:
101,104,59129,1,2,0:0:0:0:
111,193,59311,6,0,P|109:224|104:262,1,68,0|2,1:0|0:0,0:0:0:0:
73,344,59675,1,2,0:0:0:0:
120,269,59857,2,0,P|151:267|189:262,1,68,0|10,1:0|0:0,0:0:0:0:
271,231,60221,1,10,0:0:0:0:
300,340,60402,5,0,1:0:0:0:
387,350,60584,2,0,L|448:358,2,34,8|8|8,0:0|0:0|0:0,0:0:0:0:
350,269,60947,1,0,1:0:0:0:
396,193,61129,1,2,0:0:0:0:
484,197,61311,1,2,0:0:0:0:
484,197,61493,6,0,P|488:227|496:273,2,68,0|2|2,1:0|0:0|0:0,0:0:0:0:
487,108,62038,2,0,P|489:91|492:74,5,34,8|8|10|8|10|8,1:0|0:0|0:0|0:0|0:0|0:0,0:0:0:0:
408,76,62584,6,0,L|321:64,1,68,4|8,1:2|0:0,0:0:0:0:
340,66,62857,1,8,0:0:0:0:
340,66,62947,1,8,0:0:0:0:
300,145,63129,2,0,L|217:152,1,68,0|2,1:0|0:0,0:0:0:0:
143,160,63493,1,2,0:0:0:0:
173,242,63675,6,0,L|90:249,1,68,0|2,1:0|0:0,0:0:0:0:
16,257,64039,1,2,0:0:0:0:
62,331,64220,2,0,L|129:336,2,68,0|2|2,1:0|0:0|0:0,0:0:0:0:
16,257,64766,6,0,P|9:223|20:176,1,68,0|8,1:0|0:0,0:0:0:0:
13,190,65038,1,8,0:0:0:0:
13,190,65129,1,8,0:0:0:0:
85,138,65311,2,0,P|92:104|81:57,1,68,0|2,1:0|0:0,0:0:0:0:
4,105,65675,1,2,0:0:0:0:
87,71,65857,6,0,P|120:66|153:73,1,68,0|2,1:0|0:0,0:0:0:0:
227,121,66220,1,2,0:0:0:0:
309,154,66402,2,0,P|342:161|375:156,2,68,0|2|2,1:0|0:0|0:0,0:0:0:0:
227,121,66947,5,4,1:2:0:0:
298,68,67129,1,8,0:0:0:0:
298,68,67220,1,8,0:0:0:0:
298,68,67311,1,8,0:0:0:0:
309,154,67493,1,0,1:0:0:0:
245,215,67675,2,0,L|166:206,1,68,2|2,0:0|0:0,0:0:0:0:
136,128,68038,6,0,L|215:119,2,68,4|2|2,1:2|0:0|0:0,0:0:0:0:
67,209,68584,2,0,L|-12:218,2,68,0|2|2,1:0|0:0|0:0,0:0:0:0:
154,269,69129,2,0,L|232:257,1,68,4|8,1:2|0:0,0:0:0:0:
221,258,69402,1,8,0:0:0:0:
221,258,69493,1,8,0:0:0:0:
294,208,69675,5,0,1:0:0:0:
348,277,69857,1,10,0:0:0:0:
348,277,70038,1,10,0:0:0:0:
422,229,70220,1,4,1:2:0:0:
369,157,70402,2,0,P|364:117|362:68,1,68,10|10,0:0|0:0,0:0:0:0:
447,115,70766,2,0,L|487:110,9,22.6666666666667,0|8|8|10|8|8|10|8|8|4,1:0|0:0|0:0|0:0|0:0|0:0|0:0|0:0|0:0|1:2,0:0:0:0:
79,285,72129,5,0,0:0:0:0:
79,285,72402,2,0,P|70:215|84:147,1,140.24999571991
85,148,73380,6,0,L|164:142,1,59.4999981842042,4|0,1:2|0:0,0:0:0:0:
206,98,73636,2,0,P|218:124|220:154,1,59.4999981842042,0|0,0:0|1:0,0:0:0:0:
281,199,73892,2,0,L|341:204,1,59.4999981842042,0|8,0:0|0:0,0:0:0:0:
410,238,74149,2,0,L|284:247,1,118.999996368408,0|8,1:0|0:0,0:0:0:0:
425,323,74662,2,0,P|459:320|491:302,1,59.4999981842042,0|0,0:0|0:0,0:0:0:0:
510,237,74918,2,0,B|504:182|504:182|498:173|498:173|493:106,1,118.999996368408,0|0,1:0|0:0,0:0:0:0:
494,120,75303,1,0,1:0:0:0:
417,113,75431,6,0,L|335:106,1,59.4999981842042,0|0,1:0|0:0,0:0:0:0:
335,181,75687,2,0,L|253:188,1,59.4999981842042,0|8,1:0|0:0,0:0:0:0:
253,113,75944,2,0,L|193:107,1,59.4999981842042,8|0,0:0|0:0,0:0:0:0:
171,181,76200,2,0,L|111:186,1,59.4999981842042,0|0,1:0|0:0,0:0:0:0:
35,142,76456,6,0,P|16:195|27:263,1,118.999996368408,0|0,1:0|0:0,0:0:0:0:
70,318,76841,2,0,L|142:312,1,59.4999981842042,0|0,1:0|0:0,0:0:0:0:
265,238,77226,2,0,P|237:236|209:221,1,59.4999981842042,0|0,1:0|0:0,0:0:0:0:
261,164,77482,6,0,P|321:149|383:159,1,118.999996368408,8|0,0:0|0:0,0:0:0:0:
295,314,77995,1,0,1:0:0:0:
295,314,78123,1,0,1:0:0:0:
295,314,78251,2,0,P|263:318|226:307,1,59.4999981842042,0|0,0:0|1:0,0:0:0:0:
170,271,78508,2,0,P|141:264|111:269,1,59.4999981842042,0|0,0:0|1:0,0:0:0:0:
46,309,78764,1,8,0:0:0:0:
46,309,78892,1,8,0:0:0:0:
46,309,79021,1,0,0:0:0:0:
22,156,79277,2,0,L|40:224,1,59.4999981842042,0|0,1:0|0:0,0:0:0:0:
111,191,79533,6,0,P|142:142|163:74,2,118.999996368408,0|0|0,1:0|0:0|1:0,0:0:0:0:
140,343,80303,2,0,P|195:325|255:286,2,118.999996368408,8|0|0,0:0|1:0|0:0,0:0:0:0:
41,223,81072,2,0,P|71:222|113:238,1,59.4999981842042,0|0,1:0|0:0,0:0:0:0:
168,195,81328,2,0,P|225:201|289:181,1,118.999996368408,8|0,0:0|1:0,0:0:0:0:
341,131,81713,1,0,0:0:0:0:
353,207,81841,2,0,L|286:197,1,59.4999981842042,8|0,0:0|0:0,0:0:0:0:
237,146,82097,1,0,1:0:0:0:
237,146,82226,1,8,0:0:0:0:
283,84,82354,2,0,L|341:75,1,59.4999981842042,8|8,0:0|0:0,0:0:0:0:
428,156,82610,6,0,P|444:212|418:270,1,118.999996368408,4|0,1:2|0:0,0:0:0:0:
350,298,82995,1,0,1:0:0:0:
350,298,83123,2,0,L|280:289,1,59.4999981842042,0|8,0:0|0:0,0:0:0:0:
231,241,83379,2,0,L|171:248,1,59.4999981842042,0|0,1:0|0:0,0:0:0:0:
107,292,83636,2,0,P|124:242|129:168,1,118.999996368408,8|0,0:0|0:0,0:0:0:0:
202,150,84021,2,0,P|200:97|180:25,1,118.999996368408,0|0,0:0|0:0,0:0:0:0:
108,53,84405,2,0,P|94:83|90:112,1,59.4999981842042,0|0,0:0|1:0,0:0:0:0:
129,176,84662,6,0,L|254:165,1,118.999996368408,0|0,1:0|1:0,0:0:0:0:
291,229,85046,1,8,0:0:0:0:
334,165,85174,2,0,L|452:175,1,118.999996368408,8|0,0:0|1:0,0:0:0:0:
354,55,85687,6,0,P|300:29|227:44,1,118.999996368408,0|0,1:0|0:0,0:0:0:0:
178,79,86072,2,0,P|151:91|114:84,1,59.4999981842042,0|0,1:0|0:0,0:0:0:0:
55,50,86328,1,8,0:0:0:0:
55,50,86456,1,0,1:0:0:0:
85,202,86713,6,0,P|134:233|203:230,1,118.999996368408,8|0,0:0|0:0,0:0:0:0:
265,204,87097,1,0,0:0:0:0:
265,204,87226,2,0,P|276:232|281:266,1,59.4999981842042,0|0,1:0|1:0,0:0:0:0:
335,315,87482,2,0,P|364:310|391:299,1,59.4999981842042,0|0,0:0|1:0,0:0:0:0:
446,245,87738,2,0,P|441:215|430:188,1,59.4999981842042,0|0,0:0|1:0,0:0:0:0:
376,134,87995,1,8,0:0:0:0:
376,134,88123,1,8,0:0:0:0:
376,134,88251,2,0,P|344:135|307:131,1,59.4999981842042,0|0,0:0|0:0,0:0:0:0:
334,56,88508,2,0,P|363:53|393:54,1,59.4999981842042,0|0,1:0|0:0,0:0:0:0:
481,120,88764,6,0,B|505:164|505:164|485:243,1,118.999996368408,0|0,1:0|0:0,0:0:0:0:
412,248,89149,2,0,P|383:240|344:236,2,59.4999981842042,0|0|0,0:0|1:0|1:0,0:0:0:0:
456,318,89533,2,0,P|427:326|388:330,1,59.4999981842042,8|0,0:0|0:0,0:0:0:0:
280,312,89790,2,0,P|270:255|236:197,2,118.999996368408,0|0|0,1:0|0:0|1:0,0:0:0:0:
162,210,90559,2,0,P|163:180|182:146,1,59.4999981842042,8|0,0:0|0:0,0:0:0:0:
246,123,90815,2,0,L|319:111,1,59.4999981842042,0|0,1:0|0:0,0:0:0:0:
330,186,91072,2,0,L|388:195,1,59.4999981842042,8|0,0:0|0:0,0:0:0:0:
456,159,91328,5,0,1:0:0:0:
491,90,91456,1,8,0:0:0:0:
430,41,91585,1,8,0:0:0:0:
430,41,91713,1,0,0:0:0:0:
430,41,91841,6,0,B|312:31|312:31|340:58,1,152.999995330811,4|2,1:2|0:0,0:0:0:0:
388,195,92354,2,0,B|270:205|270:205|298:178,1,152.999995330811,0|2,1:0|0:0,0:0:0:0:
196,63,92867,6,0,B|157:40|157:40|116:54|116:54|45:44,1,152.999995330811,0|2,1:0|0:0,0:0:0:0:
39,197,93379,2,0,B|102:188|102:188|143:202|143:202|182:179,1,152.999995330811,0|2,1:0|0:0,0:0:0:0:
190,331,93892,6,0,P|118:303|34:312,1,152.999995330811,0|2,1:0|0:0,0:0:0:0:
164,213,94405,2,0,P|236:185|320:194,1,152.999995330811,0|2,1:0|0:0,0:0:0:0:
438,106,94918,6,0,B|385:51|385:51|358:129,1,152.999995330811,4|2,1:2|0:0,0:0:0:0:
320,271,95431,2,0,B|294:343|294:343|241:288,1,152.999995330811,0|2,1:0|0:0,0:0:0:0:
168,153,95944,6,0,P|157:85|186:3,1,152.999995330811,0|2,1:0|0:0,0:0:0:0:
257,142,96456,2,0,P|268:210|239:292,1,152.999995330811,0|2,1:0|0:0,0:0:0:0:
88,289,96969,6,0,P|70:241|77:191,2,101.999996887207,0|2|2,1:0|0:0|0:0,0:0:0:0:
173,346,97482,2,0,P|223:352|270:335,2,101.999996887207,0|2|2,1:0|0:0|0:0,0:0:0:0:
185,244,97995,6,0,P|232:179|296:100,1,152.999995330811,4|2,1:2|0:0,0:0:0:0:
391,224,98508,2,0,P|355:273|306:334,1,136,0|2,1:0|0:0,0:0:0:0:
169,263,99021,6,0,P|130:214|94:165,1,118.999996368408,4|2,1:2|0:0,0:0:0:0:
190,39,99533,2,0,P|224:82|257:128,1,101.999996887207,0|2,0:0|0:0,0:0:0:0:
314,270,100046,5,4,1:2:0:0:
426,256,100224,2,0,L|497:245,2,56.6666666666667,2|2|2,0:0|0:0|0:0,0:0:0:0:
360,185,100581,6,0,L|347:59,2,113.333333333333,4|2|2,1:2|0:0|0:0,0:0:0:0:
294,253,101212,6,0,L|283:351,2,90.6666666666667,4|2|2,1:2|0:0|0:0,0:0:0:0:
228,185,101962,6,0,L|219:102,2,67.9999979248048,4|2|2,1:2|0:0|0:0,0:0:0:0:
57,265,102987,6,0,L|66:180,1,85,2|0,0:0|0:0,0:0:0:0:
79,93,103294,2,0,L|87:18,3,68,2|0|2|0,0:0|0:0|0:0|0:0,0:0:0:0:
178,64,103910,6,0,L|186:140,1,76.4999976654053,2|0,0:0|0:0,0:0:0:0:
197,216,104217,2,0,L|205:290,3,59.4999981842042,2|0|2|0,0:0|0:0|0:0|0:0,0:0:0:0:
296,245,104833,6,0,L|304:168,1,68,2|0,0:0|0:0,0:0:0:0:
316,98,105140,2,0,L|322:38,3,50.9999984436036,2|0|2|0,0:0|0:0|0:0|0:0,0:0:0:0:
415,69,105756,6,0,L|421:131,1,59.4999981842042,2|0,0:0|0:0,0:0:0:0:
433,202,106108,2,0,L|437:243,1,42.5,2|0,0:0|0:0,0:0:0:0:
446,328,106461,2,0,L|441:286,1,42.5,2|0,0:0|0:0,0:0:0:0:
353,237,106848,5,2,0:0:0:0:
256,192,107059,12,0,111918,0:0:0:0:
