osu file format v14

[General]
AudioFilename: audio.mp3
AudioLeadIn: 0
PreviewTime: 72129
Countdown: 0
SampleSet: Soft
StackLeniency: 0.3
Mode: 0
LetterboxInBreaks: 0
WidescreenStoryboard: 0

[Editor]
Bookmarks: 685,13477,20787,28096,35406,42715,48715,53857,71311,73380,91841,100046,102987,106848,111918
DistanceSpacing: 1.4
BeatDivisor: 4
GridSize: 8
TimelineZoom: 2.6

[Metadata]
Title:Sanctuary o Utatte feat. Wakeshima Kanon
TitleUnicode:サンクチュアリを謳って feat. 分島花音
Artist:sasakure.UK
ArtistUnicode:sasakure.UK
Creator:-Tochi
Version:Altar
Source:セブンスドラゴンⅢ code:VFD
Tags:古代祐三 Koshiro Yuzo 7th Dragon III Code VFD japanese video game Lince Cosmico Chekito verychill
BeatmapID:1404869
BeatmapSetID:663733

[Difficulty]
HPDrainRate:6
CircleSize:4
OverallDifficulty:8.5
ApproachRate:9.3
SliderMultiplier:2
SliderTickRate:1

[Events]
//Background and Video events
0,0,"bg.jpg",0,0
//Break Periods
//Storyboard Layer 0 (Background)
//Storyboard Layer 1 (Fail)
//Storyboard Layer 2 (Pass)
//Storyboard Layer 3 (Foreground)
//Storyboard Layer 4 (Overlay)
//Storyboard Sound Samples

[TimingPoints]
-228,304.568527918782,3,2,2,45,1,0
685,-100,3,2,2,45,0,0
990,-142.857142857143,3,2,2,45,0,0
1599,-105.263157894737,3,2,2,45,0,0
1903,-153.846153846154,3,2,2,45,0,0
3426,-117.647058823529,3,2,2,45,0,0
3731,-181.818181818182,3,2,2,45,0,0
4340,-125,3,2,2,45,0,0
4797,-200,3,2,2,45,0,0
5254,-125,3,2,2,45,0,0
6624,-166.666666666667,3,2,2,45,0,0
7995,-100,3,2,2,45,0,0
8299,-142.857142857143,3,2,2,45,0,0
8909,-105.263157894737,3,2,2,45,0,0
9213,-153.846153846154,3,2,2,45,0,0
10736,-111.111111111111,3,2,2,45,0,0
11041,-166.666666666667,3,2,2,45,0,0
11650,-117.647058823529,3,2,2,45,0,0
13477,-100,3,2,1,50,0,0
14086,-125,3,2,1,50,0,0
15304,-100,3,2,1,50,0,0
16370,-125,3,2,1,50,0,0
17132,-100,3,2,1,50,0,0
17589,-125,3,2,1,50,0,0
18046,-100,3,2,1,50,0,0
18350,-125,3,2,1,60,0,0
18959,-100,3,2,1,60,0,0
20025,-125,3,2,1,60,0,0
20939,-100,3,2,1,60,0,0
21396,-125,3,2,1,60,0,0
21700,-100,3,2,1,60,0,0
23680,-125,3,2,1,60,0,0
24442,-100,3,2,1,60,0,0
25660,-111.111111111111,3,2,1,60,0,0
26269,-100,3,2,1,60,0,0
26726,-125,3,2,1,60,0,0
27792,-100,3,2,1,60,0,0
28706,-125,3,2,1,60,0,0
29924,-100,3,2,1,60,0,0
31751,-142.857142857143,3,2,1,60,0,0
32056,-125,3,2,1,60,0,0
32360,-111.111111111111,3,2,1,60,0,0
32665,-100,3,2,1,60,0,0
32969,-90.9090909090909,3,2,1,60,0,0
33579,-100,3,2,1,60,0,0
34797,-142.857142857143,3,2,1,60,0,0
35558,-100,3,2,1,60,0,0
36015,-142.857142857143,3,2,1,60,0,0
36320,-100,3,2,1,60,0,0
38299,-142.857142857143,3,2,1,60,0,0
38756,-100,3,2,1,60,0,0
40279,-111.111111111111,3,2,1,60,0,0
40888,-100,3,2,1,60,0,0
41345,-125,3,2,1,60,0,0
42715,500,3,2,2,60,1,0
42715,-142.857142857143,3,2,2,60,0,0
47965,-100,3,2,2,60,0,0
48715,-100,3,3,1,60,0,0
50965,571.428571428571,3,3,1,60,1,0
50965,-142.857142857143,3,3,1,60,0,0
51822,666.666666666667,3,3,1,60,1,0
52822,-100,3,3,1,60,0,0
52905,-100,3,3,1,30,0,0
52988,-100,3,3,1,40,0,0
53155,-100,3,3,1,50,0,0
53322,-100,3,3,1,60,0,0
53488,-100,3,3,1,70,0,0
53655,-100,3,3,1,80,0,0
53857,363.636363636364,3,3,1,60,1,0
53857,-100,3,3,1,60,0,0
62038,-100,3,3,1,50,0,0
62220,-100,3,3,1,60,0,0
62402,-100,3,3,1,70,0,0
62584,-100,3,3,1,60,0,0
72129,-142.857142857143,3,3,1,60,0,0
73380,256.410256410256,4,2,3,80,1,1
73380,-142.857142857143,4,2,3,80,0,1
91328,-142.857142857143,4,2,3,80,0,0
91841,-83.3333333333333,4,3,1,80,0,1
94405,-83.3333333333333,4,3,1,80,0,0
94918,-83.3333333333333,4,3,1,80,0,1
97482,-83.3333333333333,4,3,1,80,0,0
97995,-83.3333333333333,4,3,1,80,0,1
98508,-83.3333333333333,4,3,1,80,0,0
99021,-83.3333333333333,4,3,1,80,0,1
99533,-83.3333333333333,4,3,1,80,0,0
100046,267.857142857143,4,3,1,80,1,1
100112,-100,4,3,1,80,0,0
100581,315.789473684211,4,3,1,80,1,0
100581,-100,4,3,1,80,0,0
100791,-100,4,3,1,60,0,0
101212,375,4,3,1,80,1,0
101212,-100,4,3,1,80,0,0
101462,-100,4,3,1,60,0,0
101962,512.820512820513,4,3,1,80,1,0
101962,-100,4,3,1,80,0,0
102303,-100,4,3,1,60,0,0
102987,307.692307692308,3,2,2,45,1,0
102987,-100,3,2,2,45,0,0
103294,-142.857142857143,3,2,2,45,0,0
103910,-105.263157894737,3,2,2,45,0,0
104217,-153.846153846154,3,2,2,45,0,0
105756,352.941176470588,3,3,1,45,1,0
105756,-111.111111111111,3,2,2,45,0,0
106108,-166.666666666667,3,2,2,45,0,0
106848,422.535211267606,3,2,2,45,1,0
106953,-100,3,2,2,45,0,0
109383,-100,3,2,2,30,0,0
110650,-100,3,2,2,15,0,0
111918,-100,3,2,2,5,0,0

[Colours]
Combo1 : 140,131,180
Combo2 : 175,169,131
Combo3 : 121,200,156
Combo4 : 183,119,119

[HitObjects]
459,119,685,6,0,B|413:99|413:99|366:114,1,100,2|0,0:0|0:0,0:0:0:0:
252,171,990,6,0,P|217:178|180:179,1,69.9999978637696,2|0,0:0|0:0,0:0:0:0:
116,241,1294,2,0,P|146:257|180:268,1,69.9999978637696,2|0,0:0|0:0,0:0:0:0:
302,313,1599,6,0,B|343:289|343:289|390:299,1,94.9999974632264,2|0,0:0|0:0,0:0:0:0:
498,211,1903,6,0,P|487:245|481:285,1,64.9999970245363,2|0,0:0|0:0,0:0:0:0:
459,119,2208,2,0,P|432:142|407:174,1,64.9999970245363,2|0,0:0|0:0,0:0:0:0:
390,299,2513,5,2,0:0:0:0:
322,207,2665,1,0,0:0:0:0:
225,313,2817,5,2,0:0:0:0:
201,229,2969,1,0,0:0:0:0:
105,278,3122,5,2,0:0:0:0:
110,213,3274,1,0,0:0:0:0:
16,306,3426,6,0,P|23:264|29:221,1,85.0000016212464,2|0,0:0|0:0,0:0:0:0:
162,86,3731,6,0,P|165:113|170:141,1,55.0000016784668,2|0,0:0|0:0,0:0:0:0:
192,283,4035,2,0,P|197:256|201:229,1,55.0000016784668,2|0,0:0|0:0,0:0:0:0:
316,91,4340,6,0,P|382:84|480:79,1,160,2|0,0:0|0:0,0:0:0:0:
464,255,4797,6,0,P|413:252|364:247,1,100,2|0,0:0|0:0,0:0:0:0:
458,354,5254,6,0,P|392:347|294:342,1,160,2|2,0:0|0:0,0:0:0:0:
257,160,5863,1,2,0:0:0:0:
197,336,6167,2,0,P|117:331|37:320,1,160,2|0,0:0|0:0,0:0:0:0:
136,240,6624,6,0,L|205:233,1,59.9999981689454,2|0,0:0|0:0,0:0:0:0:
195,233,6929,1,2,0:0:0:0:
55,194,7081,1,2,0:0:0:0:
55,194,7995,6,0,L|43:94,1,100,2|0,0:0|0:0,0:0:0:0:
170,139,8299,6,0,P|204:145|239:148,1,69.9999978637696,2|0,0:0|0:0,0:0:0:0:
304,217,8604,2,0,P|272:231|239:243,1,69.9999978637696,2|0,0:0|0:0,0:0:0:0:
219,55,8909,6,0,L|316:43,1,94.9999974632264,2|0,0:0|0:0,0:0:0:0:
434,28,9213,6,0,L|425:92,1,64.9999970245363,2|0,0:0|0:0,0:0:0:0:
395,235,9518,2,0,L|386:171,1,64.9999970245363,2|0,0:0|0:0,0:0:0:0:
170,139,9822,5,2,0:0:0:0:
304,217,9975,1,0,0:0:0:0:
125,257,10127,5,2,0:0:0:0:
239,277,10280,1,0,0:0:0:0:
126,366,10431,5,2,0:0:0:0:
211,350,10584,1,0,0:0:0:0:
138,275,10736,6,0,P|92:271|38:269,1,89.9999972534181,2|0,0:0|0:0,0:0:0:0:
110,142,11041,6,0,P|140:141|170:139,1,59.9999981689454,2|0,0:0|0:0,0:0:0:0:
304,217,11345,2,0,P|274:219|244:220,1,59.9999981689454,2|0,0:0|0:0,0:0:0:0:
273,125,11650,5,2,0:0:0:0:
256,192,11726,12,2,13173,0:0:0:0:
105,308,13477,5,4,1:2:0:0:
191,260,13629,2,0,B|295:228|279:316|383:284,1,200,8|0,0:0|1:0,0:0:0:0:
344,194,14086,2,0,P|335:155|332:115,1,80,8|0,0:0|0:0,0:0:0:0:
429,142,14391,1,2,0:0:0:0:
250,210,14543,1,0,1:0:0:0:
240,39,14695,2,0,P|232:78|228:118,1,80,0|2,1:0|0:0,0:0:0:0:
145,67,15000,1,0,1:0:0:0:
268,204,15152,1,0,1:0:0:0:
65,112,15304,6,0,P|92:208|105:307,1,200,0|0,1:0|0:0,0:0:0:0:
28,368,15761,1,0,1:0:0:0:
210,301,15914,1,8,0:0:0:0:
320,348,16066,1,0,0:0:0:0:
206,384,16218,1,2,0:0:0:0:
309,257,16370,2,0,P|348:257|389:261,1,80,0|0,1:0|1:0,0:0:0:0:
340,350,16675,1,2,0:0:0:0:
349,163,16827,1,0,1:0:0:0:
210,301,16980,1,0,1:0:0:0:
202,307,17056,1,2,0:0:0:0:
192,310,17132,6,0,P|142:308|85:303,1,100,0|8,1:0|0:0,0:0:0:0:
340,350,17436,1,0,0:0:0:0:
419,343,17589,2,0,P|379:347|339:349,1,80,0|8,1:0|0:0,0:0:0:0:
180,230,17893,1,0,0:0:0:0:
365,116,18046,2,0,B|384:164|384:164|364:208,1,100,2|0,0:0|1:0,0:0:0:0:
192,310,18350,2,0,L|180:229,1,80,0|2,1:0|0:0,0:0:0:0:
289,161,18655,1,0,1:0:0:0:
92,280,18807,1,0,1:0:0:0:
150,57,18959,6,0,P|250:67|350:71,1,200,0|0,1:0|0:0,0:0:0:0:
440,179,19416,1,0,1:0:0:0:
384,72,19568,1,8,0:0:0:0:
402,258,19721,1,0,0:0:0:0:
476,96,19873,1,2,0:0:0:0:
329,197,20025,2,0,P|287:201|247:204,1,80,0|0,1:0|1:0,0:0:0:0:
122,192,20330,1,2,0:0:0:0:
269,332,20482,1,0,1:0:0:0:
298,336,20558,1,2,0:0:0:0:
312,309,20634,1,0,1:0:0:0:
292,288,20711,1,2,0:0:0:0:
264,301,20787,5,0,1:0:0:0:
454,325,20939,2,0,B|352:357|368:269|264:301,1,200,8|0,0:0|1:0,0:0:0:0:
410,167,21396,2,0,B|429:201|429:201|417:239,1,80,8|0,0:0|0:0,0:0:0:0:
182,363,21700,2,0,L|168:257,1,100,2|0,0:0|1:0,0:0:0:0:
334,212,22005,1,0,1:0:0:0:
334,212,22157,1,0,0:0:0:0:
165,231,22310,1,0,1:0:0:0:
332,182,22462,1,0,1:0:0:0:
97,306,22614,6,0,B|51:270|51:270|88:115,1,200,0|0,1:0|0:0,0:0:0:0:
265,253,23071,1,0,1:0:0:0:
165,231,23223,1,8,0:0:0:0:
187,133,23376,1,0,0:0:0:0:
284,154,23528,1,0,0:0:0:0:
344,261,23680,2,0,P|304:258|264:252,1,80,0|0,1:0|1:0,0:0:0:0:
155,218,23985,1,2,0:0:0:0:
301,356,24137,1,0,1:0:0:0:
326,150,24289,1,0,1:0:0:0:
414,356,24442,6,0,P|315:371|215:378,1,200,0|0,1:0|0:0,0:0:0:0:
126,336,24898,1,0,1:0:0:0:
155,218,25051,2,0,L|177:114,1,100,8|0,0:0|0:0,0:0:0:0:
69,147,25355,1,2,0:0:0:0:
261,189,25508,1,0,1:0:0:0:
155,32,25660,2,0,L|175:120,1,89.9999972534181,0|2,1:0|0:0,0:0:0:0:
262,60,25964,1,0,1:0:0:0:
70,102,26117,1,0,1:0:0:0:
325,130,26269,6,0,B|397:122|397:122|434:87|434:87|515:80,1,200,0|0,1:0|0:0,0:0:0:0:
494,243,26726,2,0,B|468:213|468:213|479:174,2,80,0|8|2,1:0|0:0|0:0,0:0:0:0:
411,286,27183,1,2,0:0:0:0:
331,158,27335,1,0,1:0:0:0:
293,306,27487,1,0,1:0:0:0:
293,306,27792,2,0,B|248:325|248:325|194:309,1,100,0|0,1:0|1:0,0:0:0:0:
90,170,28096,5,0,1:0:0:0:
242,227,28249,2,0,B|138:195|154:283|50:251,1,200,8|0,0:0|1:0,0:0:0:0:
107,91,28706,2,0,L|90:170,1,80,8|0,0:0|0:0,0:0:0:0:
90,170,28934,1,0,0:0:0:0:
90,170,29010,1,2,0:0:0:0:
224,305,29162,1,0,1:0:0:0:
224,305,29315,2,0,L|242:227,1,80,0|2,1:0|0:0,0:0:0:0:
442,313,29619,1,0,1:0:0:0:
325,292,29772,1,0,1:0:0:0:
475,227,29924,6,0,B|372:258|388:170|284:202,1,200,0|0,1:0|0:0,0:0:0:0:
325,292,30381,1,0,1:0:0:0:
436,137,30533,1,8,0:0:0:0:
344,304,30685,1,0,0:0:0:0:
264,177,30837,1,2,0:0:0:0:
435,159,30990,1,0,1:0:0:0:
264,177,31142,2,0,P|213:175|159:171,1,100,0|2,1:0|0:0,0:0:0:0:
77,97,31447,1,0,1:0:0:0:
106,260,31599,1,0,1:0:0:0:
104,274,31675,1,2,0:0:0:0:
102,288,31751,6,0,P|138:289|177:292,1,69.9999978637696,0|8,1:0|0:0,0:0:0:0:
440,240,32056,6,0,P|403:243|360:235,1,80,0|0,0:0|1:0,0:0:0:0:
71,181,32360,6,0,P|112:188|160:184,1,89.9999972534181,8|0,0:0|0:0,0:0:0:0:
490,95,32665,6,0,B|444:109|444:109|393:98,1,100,2|0,0:0|1:0,0:0:0:0:
40,34,32969,6,0,B|96:34|96:34|142:61,1,110.000003356934,0|2,1:0|0:0,0:0:0:0:
195,298,33274,1,0,1:0:0:0:
273,158,33426,1,0,1:0:0:0:
337,365,33579,6,0,B|273:406|187:377|187:377|210:379|236:367,1,200,0|0,1:0|0:0,0:0:0:0:
289,292,34035,1,0,1:0:0:0:
103,253,34188,1,8,0:0:0:0:
111,355,34340,1,0,0:0:0:0:
195,298,34492,1,2,0:0:0:0:
96,268,34645,1,0,1:0:0:0:
254,203,34797,2,0,P|290:201|332:203,1,69.9999978637696,0|2,1:0|0:0,0:0:0:0:
496,334,35101,1,0,1:0:0:0:
475,353,35177,1,2,0:0:0:0:
448,339,35253,1,0,1:0:0:0:
453,310,35330,1,2,0:0:0:0:
482,304,35406,5,0,1:0:0:0:
294,338,35558,2,0,B|398:365|377:278|483:305,1,200,8|0,0:0|1:0,0:0:0:0:
337,180,36015,2,0,P|322:212|328:246,1,69.9999978637696,8|0,0:0|0:0,0:0:0:0:
188,377,36320,2,0,P|196:328|174:283,1,100,2|0,0:0|1:0,0:0:0:0:
22,358,36624,1,0,1:0:0:0:
114,340,36777,1,0,0:0:0:0:
75,162,36929,1,0,1:0:0:0:
53,272,37082,1,0,1:0:0:0:
293,337,37233,6,0,P|286:237|277:138,1,200,0|0,1:0|0:0,0:0:0:0:
139,92,37690,1,0,1:0:0:0:
183,182,37842,1,8,0:0:0:0:
276,137,37995,1,0,0:0:0:0:
227,47,38147,1,0,0:0:0:0:
114,192,38299,2,0,P|148:189|183:182,1,69.9999978637696,0|0,1:0|1:0,0:0:0:0:
139,92,38604,1,2,0:0:0:0:
148,289,38756,6,0,P|99:284|50:273,1,100,0|0,1:0|1:0,0:0:0:0:
139,92,39061,6,0,P|237:69|337:60,1,200,0|0,1:0|0:0,0:0:0:0:
410,126,39518,1,0,1:0:0:0:
461,209,39670,2,0,P|413:223|365:212,1,100,8|0,0:0|0:0,0:0:0:0:
276,137,39975,5,2,0:0:0:0:
228,320,40127,1,0,1:0:0:0:
157,209,40279,2,0,B|194:219|194:219|210:216|210:216|245:227,1,89.9999972534181,0|2,1:0|0:0,0:0:0:0:
329,251,40584,1,0,1:0:0:0:
147,299,40736,1,0,1:0:0:0:
86,127,40888,6,0,B|153:100|153:100|276:137,1,200,0|0,1:0|0:0,0:0:0:0:
194,376,41345,2,0,L|108:385,2,80,0|8|2,1:0|0:0|0:0,0:0:0:0:
302,366,41802,1,2,0:0:0:0:
175,291,41954,1,0,1:0:0:0:
313,337,42107,2,0,P|354:342|395:329,1,80,0|0,1:0|0:0,0:0:0:0:
398,161,42411,1,0,1:0:0:0:
348,254,42563,1,0,1:0:0:0:
275,136,42715,6,0,P|238:129|201:139,1,69.9999978637696,4|2,1:2|0:0,0:0:0:0:
137,205,43215,1,2,0:0:0:0:
71,277,43465,2,0,P|36:284|2:276,1,69.9999978637696,0|2,1:0|0:0,0:0:0:0:
92,118,43965,1,2,0:0:0:0:
137,205,44215,6,0,P|199:237|266:223,1,139.999995727539,0|2,1:0|0:0,0:0:0:0:
335,154,44965,1,0,1:0:0:0:
335,57,45215,1,2,0:0:0:0:
249,105,45465,1,2,0:0:0:0:
412,197,45715,6,0,P|422:164|419:129,2,69.9999978637696,0|2|2,1:0|0:0|0:0,0:0:0:0:
336,259,46465,2,0,L|261:268,1,69.9999978637696,0|2,1:0|0:0,0:0:0:0:
169,281,46965,1,0,0:0:0:0:
314,359,47215,5,0,1:0:0:0:
169,281,47465,1,2,0:0:0:0:
239,132,47715,1,2,0:0:0:0:
19,342,47965,6,0,B|112:302|120:396|208:356,1,200,0|0,1:0|0:0,0:0:0:0:
434,165,48715,5,0,1:0:0:0:
347,260,48965,2,0,L|328:205,1,50
317,180,49152,1,0,0:0:0:0:
317,180,49215,2,0,L|259:176,1,50
266,86,49465,2,0,L|366:93,1,100,0|0,1:0|0:0,0:0:0:0:
251,258,49965,1,0,0:0:0:0:
188,290,50090,1,0,0:0:0:0:
122,266,50215,5,0,1:0:0:0:
183,147,50465,1,0,0:0:0:0:
183,147,50590,1,0,0:0:0:0:
183,147,50715,1,0,0:0:0:0:
183,147,50840,1,0,0:0:0:0:
183,147,50965,6,0,L|109:153,1,69.9999978637696,0|0,1:0|0:0,0:0:0:0:
70,176,51393,5,0,0:0:0:0:
46,219,51536,1,0,0:0:0:0:
57,266,51679,1,0,0:0:0:0:
97,294,51822,6,0,L|153:289,2,50,0|0|0,1:0|0:0|0:0,0:0:0:0:
297,279,52322,1,0,0:0:0:0:
297,279,52405,1,0,0:0:0:0:
297,279,52488,2,0,L|246:283,1,50,0|0,0:0|0:0,0:0:0:0:
390,319,52822,5,0,1:0:0:0:
398,310,52905,1,8,0:0:0:0:
403,296,52988,1,8,0:0:0:0:
405,279,53072,1,8,0:0:0:0:
403,259,53155,1,8,0:0:0:0:
393,238,53238,1,8,0:0:0:0:
373,214,53322,1,8,0:0:0:0:
353,186,53405,1,8,0:0:0:0:
340,156,53488,2,0,P|339:141|342:124,3,25,8|8|8|8,0:0|0:0|0:0|0:0,0:0:0:0:
385,63,53857,5,0,1:0:0:0:
297,279,54038,1,8,0:0:0:0:
257,287,54129,1,8,0:0:0:0:
220,271,54220,1,8,0:0:0:0:
168,149,54402,5,0,1:0:0:0:
90,297,54583,1,2,0:0:0:0:
39,111,54765,1,2,0:0:0:0:
142,148,54947,5,0,1:0:0:0:
64,296,55128,1,2,0:0:0:0:
13,110,55310,1,2,0:0:0:0:
194,270,55493,5,0,1:0:0:0:
56,199,55674,1,2,0:0:0:0:
267,152,55856,1,2,0:0:0:0:
387,232,56038,5,0,1:0:0:0:
222,81,56220,1,8,0:0:0:0:
259,65,56311,1,8,0:0:0:0:
299,73,56402,1,8,0:0:0:0:
285,269,56584,5,0,1:0:0:0:
267,152,56766,1,2,0:0:0:0:
222,358,56947,1,2,0:0:0:0:
493,303,57129,5,0,1:0:0:0:
428,329,57311,1,2,0:0:0:0:
350,314,57493,1,2,0:0:0:0:
285,269,57675,5,0,1:0:0:0:
206,244,57857,1,2,0:0:0:0:
118,265,58038,1,2,0:0:0:0:
56,334,58220,5,0,1:0:0:0:
143,171,58402,1,8,0:0:0:0:
147,131,58493,1,8,0:0:0:0:
125,97,58584,1,8,0:0:0:0:
52,155,58766,5,0,1:0:0:0:
205,40,58946,1,2,0:0:0:0:
41,64,59128,1,2,0:0:0:0:
285,269,59311,5,0,1:0:0:0:
147,275,59492,1,2,0:0:0:0:
230,167,59674,1,2,0:0:0:0:
463,261,59857,5,0,1:0:0:0:
285,269,60038,2,0,L|235:272,2,50,10|8|10,0:0|0:0|0:0,0:0:0:0:
391,128,60402,5,0,1:0:0:0:
305,359,60584,2,0,L|272:361,4,25,8|8|8|8|8,0:0|0:0|0:0|0:0|0:0,0:0:0:0:
139,185,60947,5,0,1:0:0:0:
377,289,61128,1,2,0:0:0:0:
170,198,61310,1,2,0:0:0:0:
363,205,61493,5,0,1:0:0:0:
196,277,61674,1,2,0:0:0:0:
341,214,61856,1,2,0:0:0:0:
200,360,62038,5,8,1:0:0:0:
161,353,62129,1,8,0:0:0:0:
130,328,62219,1,10,0:0:0:0:
114,292,62311,1,8,0:0:0:0:
116,253,62401,1,10,0:0:0:0:
136,218,62493,1,8,0:0:0:0:
169,198,62583,5,4,1:2:0:0:
377,289,62766,1,8,0:0:0:0:
337,297,62857,1,8,0:0:0:0:
299,283,62947,1,8,0:0:0:0:
244,97,63129,5,0,1:0:0:0:
341,214,63310,1,2,0:0:0:0:
390,53,63492,1,2,0:0:0:0:
270,98,63675,5,0,1:0:0:0:
367,215,63856,1,2,0:0:0:0:
416,54,64038,1,2,0:0:0:0:
260,205,64220,5,0,1:0:0:0:
439,149,64401,1,2,0:0:0:0:
254,17,64583,1,2,0:0:0:0:
123,99,64766,5,0,1:0:0:0:
338,147,64947,1,8,0:0:0:0:
356,111,65038,1,8,0:0:0:0:
351,71,65129,1,8,0:0:0:0:
169,179,65311,5,0,1:0:0:0:
270,98,65492,1,2,0:0:0:0:
213,274,65674,1,2,0:0:0:0:
111,119,65857,5,0,1:0:0:0:
111,76,66037,1,2,0:0:0:0:
146,97,66219,1,2,0:0:0:0:
94,147,66402,5,0,1:0:0:0:
94,48,66583,1,2,0:0:0:0:
180,97,66765,1,2,0:0:0:0:
77,175,66947,5,4,1:2:0:0:
270,98,67129,1,8,0:0:0:0:
310,98,67220,1,8,0:0:0:0:
344,118,67311,1,8,0:0:0:0:
285,191,67493,5,0,1:0:0:0:
337,7,67674,1,2,0:0:0:0:
400,216,67856,1,2,0:0:0:0:
195,172,68038,5,4,1:2:0:0:
344,118,68219,1,2,0:0:0:0:
267,276,68401,1,2,0:0:0:0:
78,216,68584,5,0,1:0:0:0:
271,145,68765,1,2,0:0:0:0:
171,351,68947,1,2,0:0:0:0:
114,125,69129,5,4,1:2:0:0:
336,213,69311,2,0,P|356:215|385:214,2,50,8|8|8,0:0|0:0|0:0,0:0:0:0:
203,65,69675,5,0,1:0:0:0:
233,277,69857,2,0,L|225:226,1,50,10|8,0:0|0:0,0:0:0:0:
209,98,70038,1,10,0:0:0:0:
93,273,70220,5,4,1:2:0:0:
114,125,70402,1,10,0:0:0:0:
114,125,70493,1,8,0:0:0:0:
114,125,70584,1,10,0:0:0:0:
98,250,70766,1,0,1:0:0:0:
133,231,70856,1,8,0:0:0:0:
172,223,70947,1,10,0:0:0:0:
212,227,71038,1,8,0:0:0:0:
249,242,71129,2,0,L|278:260,2,33.3333333333333,10|8|8,0:0|0:0|0:0,0:0:0:0:
178,324,71311,5,4,1:2:0:0:
108,145,72129,6,0,L|96:250,1,104.999996795654,0|0,0:0|0:0,0:0:0:0:
417,290,72902,1,0,0:0:0:0:
191,278,73380,6,0,P|256:300|321:277,1,139.999995727539,4|0,1:2|0:0,0:0:0:0:
389,217,73764,1,0,1:0:0:0:
302,188,73892,1,0,0:0:0:0:
397,209,74021,1,8,0:0:0:0:
397,209,74149,2,0,P|391:174|388:133,1,69.9999978637696,0|0,1:0|0:0,0:0:0:0:
173,122,74405,6,0,P|170:156|164:191,1,69.9999978637696,8|0,0:0|0:0,0:0:0:0:
261,301,74662,1,0,0:0:0:0:
190,346,74790,1,0,0:0:0:0:
111,317,74918,2,0,B|67:301|24:320|24:320|51:329|64:348,1,139.999995727539,0|0,1:0|0:0,0:0:0:0:
64,348,75303,1,0,1:0:0:0:
57,221,75431,5,0,1:0:0:0:
459,204,75687,2,0,B|430:223|430:223|397:209,1,69.9999978637696,0|8,1:0|0:0,0:0:0:0:
292,168,75944,1,8,0:0:0:0:
292,168,76072,1,0,0:0:0:0:
359,301,76200,2,0,L|284:309,1,69.9999978637696,0|0,1:0|0:0,0:0:0:0:
425,128,76456,6,0,L|277:112,1,139.999995727539,0|0,1:0|0:0,0:0:0:0:
202,150,76841,1,0,1:0:0:0:
124,103,76969,1,0,0:0:0:0:
124,103,77097,1,8,0:0:0:0:
110,263,77226,2,0,L|116:194,1,69.9999978637696,0|0,1:0|0:0,0:0:0:0:
207,238,77482,5,8,0:0:0:0:
53,334,77610,2,0,B|18:310|18:310|31:209,1,139.999995727539,0|0,0:0|0:0,0:0:0:0:
48,91,77995,1,0,1:0:0:0:
35,181,78123,2,0,P|68:181|101:166,1,69.9999978637696,0|0,1:0|0:0,0:0:0:0:
285,113,78379,1,0,1:0:0:0:
298,203,78508,2,0,P|265:203|232:188,1,69.9999978637696,0|0,0:0|1:0,0:0:0:0:
184,84,78764,1,8,0:0:0:0:
184,84,78892,1,8,0:0:0:0:
285,113,79021,5,0,0:0:0:0:
285,113,79149,1,0,0:0:0:0:
364,69,79277,1,0,1:0:0:0:
364,69,79405,1,0,0:0:0:0:
364,69,79533,6,0,L|434:76,1,69.9999978637696,0|0,1:0|0:0,0:0:0:0:
473,274,79790,2,0,L|404:281,1,69.9999978637696,0|0,0:0|0:0,0:0:0:0:
95,149,80046,1,0,1:0:0:0:
175,182,80174,1,0,0:0:0:0:
247,133,80303,2,0,P|214:140|176:143,1,69.9999978637696,8|0,0:0|0:0,0:0:0:0:
176,325,80559,6,0,P|246:330|316:345,1,139.999995727539,0|0,1:0|0:0,0:0:0:0:
314,344,80944,1,8,0:0:0:0:
200,233,81072,2,0,P|165:230|130:223,1,69.9999978637696,0|0,1:0|0:0,0:0:0:0:
209,51,81328,6,0,P|277:36|347:31,1,139.999995727539,8|0,0:0|1:0,0:0:0:0:
347,31,81713,1,0,0:0:0:0:
231,141,81841,2,0,P|196:138|161:131,1,69.9999978637696,8|0,0:0|0:0,0:0:0:0:
81,57,82097,1,0,1:0:0:0:
21,106,82226,1,8,0:0:0:0:
12,196,82354,1,8,0:0:0:0:
79,267,82482,1,8,0:0:0:0:
200,233,82610,6,0,P|262:219|346:222,1,139.999995727539,4|0,1:2|0:0,0:0:0:0:
405,282,82995,1,0,1:0:0:0:
322,319,83123,1,0,0:0:0:0:
434,277,83251,1,8,0:0:0:0:
434,277,83379,2,0,P|441:245|445:203,1,69.9999978637696,0|0,1:0|0:0,0:0:0:0:
347,31,83636,6,0,P|354:63|358:105,1,69.9999978637696,8|0,0:0|0:0,0:0:0:0:
338,220,83892,1,0,0:0:0:0:
251,248,84021,1,0,0:0:0:0:
178,192,84149,2,0,B|159:107|159:107|183:54,1,139.999995727539,0|0,1:0|0:0,0:0:0:0:
180,58,84533,1,0,1:0:0:0:
74,175,84662,5,0,1:0:0:0:
422,239,84918,2,0,B|429:207|429:207|413:174,1,69.9999978637696,0|8,1:0|0:0,0:0:0:0:
340,94,85174,1,8,0:0:0:0:
340,94,85303,1,0,0:0:0:0:
338,220,85431,2,0,L|260:234,1,69.9999978637696,0|0,1:0|0:0,0:0:0:0:
14,333,85687,6,0,L|153:357,1,139.999995727539,0|0,1:0|0:0,0:0:0:0:
240,378,86072,1,0,1:0:0:0:
208,292,86200,1,0,0:0:0:0:
208,292,86328,1,8,0:0:0:0:
354,322,86456,2,0,L|286:310,1,69.9999978637696,0|0,1:0|0:0,0:0:0:0:
81,160,86713,5,8,0:0:0:0:
30,233,86841,2,0,P|97:248|154:211,1,139.999995727539,0|0,0:0|0:0,0:0:0:0:
254,43,87226,1,0,1:0:0:0:
207,120,87354,2,0,L|288:132,1,69.9999978637696,0|0,1:0|0:0,0:0:0:0:
411,154,87610,1,0,1:0:0:0:
364,231,87738,2,0,L|445:243,1,69.9999978637696,0|0,0:0|1:0,0:0:0:0:
275,222,87995,1,8,0:0:0:0:
275,222,88123,1,8,0:0:0:0:
354,322,88251,5,0,0:0:0:0:
354,322,88379,1,0,0:0:0:0:
262,316,88508,1,0,1:0:0:0:
262,316,88636,1,0,0:0:0:0:
262,316,88764,6,0,L|193:312,1,69.9999978637696,0|0,1:0|0:0,0:0:0:0:
157,157,89021,2,0,L|227:153,1,69.9999978637696,0|0,0:0|0:0,0:0:0:0:
240,29,89277,1,0,1:0:0:0:
324,84,89405,1,0,1:0:0:0:
218,30,89533,2,0,L|148:34,1,69.9999978637696,8|0,0:0|0:0,0:0:0:0:
33,326,89790,6,0,P|92:340|174:345,1,139.999995727539,0|0,1:0|0:0,0:0:0:0:
171,345,90174,1,8,0:0:0:0:
349,280,90303,2,0,P|319:287|278:289,1,69.9999978637696,0|0,1:0|0:0,0:0:0:0:
339,178,90559,2,0,P|408:181|477:197,1,139.999995727539,8|0,0:0|1:0,0:0:0:0:
477,197,90944,1,0,0:0:0:0:
333,92,91072,2,0,P|297:95|264:102,1,69.9999978637696,8|0,0:0|0:0,0:0:0:0:
163,277,91328,5,0,1:0:0:0:
68,146,91456,1,8,0:0:0:0:
68,246,91585,1,8,0:0:0:0:
163,114,91713,1,8,0:0:0:0:
222,195,91841,6,0,B|293:198|293:198|309:211|309:211|381:215,1,159.999995117188,4|2,1:2|0:0,0:0:0:0:
417,220,92097,1,2,0:0:0:0:
417,220,92183,1,2,0:0:0:0:
55,292,92354,6,0,B|126:288|126:288|142:275|142:275|214:271,1,159.999995117188,0|2,1:0|0:0,0:0:0:0:
250,272,92610,1,2,0:0:0:0:
250,272,92696,1,2,0:0:0:0:
482,86,92867,6,0,P|415:42|339:53,1,159.999995117188,0|2,1:0|0:0,0:0:0:0:
272,110,93123,1,2,0:0:0:0:
272,110,93209,1,2,0:0:0:0:
338,334,93379,6,0,P|271:378|195:367,1,159.999995117188,0|2,1:0|0:0,0:0:0:0:
128,310,93635,1,2,0:0:0:0:
128,310,93721,1,2,0:0:0:0:
78,26,93892,6,0,B|158:35|158:35|117:47|97:97,1,159.999995117188,0|2,1:0|0:0,0:0:0:0:
184,119,94149,1,2,0:0:0:0:
184,119,94234,1,2,0:0:0:0:
417,343,94405,6,0,B|337:334|337:334|378:322|398:272,1,159.999995117188,0|2,1:0|0:0,0:0:0:0:
311,250,94662,1,2,0:0:0:0:
311,250,94747,1,2,0:0:0:0:
128,310,94918,5,4,1:2:0:0:
281,149,95089,1,2,0:0:0:0:
327,138,95174,1,2,0:0:0:0:
368,162,95260,1,2,0:0:0:0:
311,250,95431,5,0,1:0:0:0:
158,89,95602,1,2,0:0:0:0:
112,78,95687,1,2,0:0:0:0:
71,102,95773,1,2,0:0:0:0:
128,190,95944,5,0,1:0:0:0:
422,93,96115,1,2,0:0:0:0:
454,127,96200,1,2,0:0:0:0:
451,174,96285,1,2,0:0:0:0:
340,324,96456,5,0,1:0:0:0:
46,227,96627,1,2,0:0:0:0:
14,261,96712,1,2,0:0:0:0:
17,308,96797,1,2,0:0:0:0:
182,371,96969,5,0,1:0:0:0:
368,162,97140,1,2,0:0:0:0:
368,162,97226,1,2,0:0:0:0:
368,162,97311,1,2,0:0:0:0:
449,371,97482,5,0,1:0:0:0:
263,162,97653,1,2,0:0:0:0:
263,162,97738,1,2,0:0:0:0:
263,162,97824,1,2,0:0:0:0:
461,259,97995,5,4,1:2:0:0:
167,259,98166,1,2,0:0:0:0:
167,259,98251,1,2,0:0:0:0:
167,259,98337,1,2,0:0:0:0:
440,55,98508,6,0,B|368:61|368:61|366:52|366:52|351:63|351:63|290:69,1,159.999995117188,0|2,1:0|0:0,0:0:0:0:
204,84,98764,1,2,0:0:0:0:
204,84,98850,1,2,0:0:0:0:
449,371,99021,6,0,B|377:365|377:365|375:374|375:374|360:363|360:363|299:357,1,159.999995117188,4|2,1:2|0:0,0:0:0:0:
213,342,99277,1,2,0:0:0:0:
213,342,99363,1,2,0:0:0:0:
419,250,99533,6,0,L|338:258,1,79.9999975585938
167,259,99704,2,0,L|246:251,1,79.9999975585938,2|2,0:0|0:0,0:0:0:0:
486,199,99875,1,2,0:0:0:0:
504,233,99960,1,0,0:0:0:0:
497,279,100046,5,4,1:2:0:0:
301,171,100224,1,2,0:0:0:0:
301,171,100313,1,2,0:0:0:0:
301,171,100403,1,2,0:0:0:0:
95,330,100581,5,4,1:2:0:0:
330,156,100791,1,2,0:0:0:0:
213,342,101002,1,2,0:0:0:0:
80,228,101212,5,4,1:2:0:0:
301,171,101462,1,2,0:0:0:0:
161,271,101712,1,2,0:0:0:0:
105,126,101962,5,4,1:2:0:0:
303,138,102303,1,2,0:0:0:0:
160,183,102645,1,2,0:0:0:0:
129,209,102730,1,2,0:0:0:0:
118,249,102815,1,2,0:0:0:0:
133,288,102901,1,2,0:0:0:0:
167,312,102987,6,0,B|216:296|216:296|263:308,1,100,2|0,0:0|0:0,0:0:0:0:
487,340,103294,6,0,P|452:346|417:345,1,69.9999978637696,2|0,0:0|0:0,0:0:0:0:
355,239,103602,2,0,P|389:245|424:244,1,69.9999978637696,2|0,0:0|0:0,0:0:0:0:
512,115,103910,6,0,B|470:94|470:94|423:106,1,94.9999974632264,2|0,0:0|0:0,0:0:0:0:
269,166,104217,6,0,P|235:172|203:173,1,64.9999970245363,2|0,0:0|0:0,0:0:0:0:
53,241,104525,2,0,P|85:248|118:249,1,64.9999970245363,2|0,0:0|0:0,0:0:0:0:
229,75,104833,5,2,0:0:0:0:
116,41,104987,1,0,0:0:0:0:
210,98,105140,5,2,0:0:0:0:
116,87,105294,1,0,0:0:0:0:
191,121,105448,5,2,0:0:0:0:
116,133,105602,1,0,0:0:0:0:
323,60,105756,6,0,L|426:50,1,89.9999972534181,2|0,0:0|0:0,0:0:0:0:
486,213,106108,6,0,L|419:206,1,59.9999981689454,2|0,0:0|0:0,0:0:0:0:
283,284,106461,2,0,L|343:279,1,59.9999981689454,2|0,0:0|0:0,0:0:0:0:
467,121,106848,5,2,0:0:0:0:
256,192,106953,12,0,111918,0:0:0:0:
