osu file format v14

[General]
AudioFilename: audio.mp3
AudioLeadIn: 0
PreviewTime: 55273
Countdown: 0
SampleSet: Normal
StackLeniency: 0.7
Mode: 1
LetterboxInBreaks: 0
WidescreenStoryboard: 0

[Editor]
Bookmarks: 524,7524,23524,39524,55524,71524,87524,103524,119524,127524,135524,151524,167524,181524,193524
DistanceSpacing: 1.3
BeatDivisor: 1
GridSize: 32
TimelineZoom: 2.2

[Metadata]
Title:Replica feat. Hatsune Miku
TitleUnicode:レプリカ feat. 初音ミク
Artist:sasakure.UK
ArtistUnicode:sasakure.UK
Creator:Skull Kid
Version:Kqrth's Futsuu
Source:
Tags:Japanese Electronic Rock Novelty Vocaloid エルゴスム ergosum 革蝉 kawasemi sasakuration ササクレイション C97 Comic Market Comiket 佐々木秀尚 Sasaki Hidehisa mami Kqrth Ulqui HiroK eae
BeatmapID:2319895
BeatmapSetID:1038855

[Difficulty]
HPDrainRate:7
CircleSize:4
OverallDifficulty:4
ApproachRate:5
SliderMultiplier:1.4
SliderTickRate:1

[Events]
//Background and Video events
0,0,"BG.jpg",0,-30
//Break Periods
2,119724,126324
2,181474,192324
//Storyboard Layer 0 (Background)
//Storyboard Layer 1 (Fail)
//Storyboard Layer 2 (Pass)
//Storyboard Layer 3 (Foreground)
//Storyboard Layer 4 (Overlay)
//Storyboard Sound Samples

[TimingPoints]
524,250,4,1,0,90,1,0
524,-125,4,1,0,90,0,0
6524,-125,4,1,0,80,0,0
23774,-125,4,1,0,70,0,0
39274,-125,4,1,0,90,0,0
55274,-100,4,1,0,100,0,0
55524,-100,4,1,0,100,0,1
55961,-100,4,1,0,100,0,1
56086,-111.111111111111,4,1,0,100,0,1
56461,-100,4,1,0,100,0,1
56586,-111.111111111111,4,1,0,100,0,1
56961,-100,4,1,0,100,0,1
57086,-111.111111111111,4,1,0,100,0,1
57461,-100,4,1,0,100,0,1
57586,-111.111111111111,4,1,0,100,0,1
57961,-100,4,1,0,100,0,1
58086,-111.111111111111,4,1,0,100,0,1
58461,-100,4,1,0,100,0,1
58586,-111.111111111111,4,1,0,100,0,1
58961,-100,4,1,0,100,0,1
59086,-111.111111111111,4,1,0,100,0,1
59461,-100,4,1,0,100,0,1
59586,-111.111111111111,4,1,0,100,0,1
59961,-100,4,1,0,100,0,1
60086,-111.111111111111,4,1,0,100,0,1
60461,-100,4,1,0,100,0,1
60586,-111.111111111111,4,1,0,100,0,1
60961,-100,4,1,0,100,0,1
61086,-111.111111111111,4,1,0,100,0,1
61461,-100,4,1,0,100,0,1
61586,-111.111111111111,4,1,0,100,0,1
61961,-100,4,1,0,100,0,1
62086,-111.111111111111,4,1,0,100,0,1
62461,-100,4,1,0,100,0,1
62586,-111.111111111111,4,1,0,100,0,1
63461,-100,4,1,0,100,0,1
63586,-111.111111111111,4,1,0,100,0,1
63961,-100,4,1,0,100,0,1
64086,-111.111111111111,4,1,0,100,0,1
64461,-100,4,1,0,100,0,1
64586,-111.111111111111,4,1,0,100,0,1
64961,-100,4,1,0,100,0,1
65086,-111.111111111111,4,1,0,100,0,1
65461,-100,4,1,0,100,0,1
65586,-111.111111111111,4,1,0,100,0,1
65961,-100,4,1,0,100,0,1
66086,-111.111111111111,4,1,0,100,0,1
66461,-100,4,1,0,100,0,1
66586,-111.111111111111,4,1,0,100,0,1
66961,-100,4,1,0,100,0,1
67086,-111.111111111111,4,1,0,100,0,1
67461,-100,4,1,0,100,0,1
67586,-111.111111111111,4,1,0,100,0,1
67961,-100,4,1,0,100,0,1
68086,-111.111111111111,4,1,0,100,0,1
68461,-100,4,1,0,100,0,1
68586,-111.111111111111,4,1,0,100,0,1
68961,-100,4,1,0,100,0,1
69086,-111.111111111111,4,1,0,100,0,1
69461,-100,4,1,0,100,0,1
69586,-111.111111111111,4,1,0,100,0,1
69961,-100,4,1,0,100,0,1
70086,-111.111111111111,4,1,0,100,0,1
70524,-100,4,1,0,100,0,0
71274,-125,4,1,0,80,0,0
87774,-125,4,1,0,70,0,0
103274,-125,4,1,0,90,0,0
119524,-125,4,1,0,45,0,0
127274,-125,4,1,0,90,0,0
134524,-125,4,1,0,70,0,0
151274,-100,4,1,0,100,0,0
151524,-100,4,1,0,100,0,1
151961,-100,4,1,0,100,0,1
152086,-111.111111111111,4,1,0,100,0,1
152461,-100,4,1,0,100,0,1
152586,-111.111111111111,4,1,0,100,0,1
152961,-100,4,1,0,100,0,1
153086,-111.111111111111,4,1,0,100,0,1
153461,-100,4,1,0,100,0,1
153586,-111.111111111111,4,1,0,100,0,1
153961,-100,4,1,0,100,0,1
154086,-111.111111111111,4,1,0,100,0,1
154461,-100,4,1,0,100,0,1
154586,-111.111111111111,4,1,0,100,0,1
154961,-100,4,1,0,100,0,1
155086,-111.111111111111,4,1,0,100,0,1
155461,-100,4,1,0,100,0,1
155586,-111.111111111111,4,1,0,100,0,1
155961,-100,4,1,0,100,0,1
156086,-111.111111111111,4,1,0,100,0,1
156461,-100,4,1,0,100,0,1
156586,-111.111111111111,4,1,0,100,0,1
156961,-100,4,1,0,100,0,1
157086,-111.111111111111,4,1,0,100,0,1
157461,-100,4,1,0,100,0,1
157586,-111.111111111111,4,1,0,100,0,1
157961,-100,4,1,0,100,0,1
158086,-111.111111111111,4,1,0,100,0,1
158461,-100,4,1,0,100,0,1
158586,-111.111111111111,4,1,0,100,0,1
159461,-100,4,1,0,100,0,1
159586,-111.111111111111,4,1,0,100,0,1
159961,-100,4,1,0,100,0,1
160086,-111.111111111111,4,1,0,100,0,1
160461,-100,4,1,0,100,0,1
160586,-111.111111111111,4,1,0,100,0,1
160961,-100,4,1,0,100,0,1
161086,-111.111111111111,4,1,0,100,0,1
161461,-100,4,1,0,100,0,1
161586,-111.111111111111,4,1,0,100,0,1
161961,-100,4,1,0,100,0,1
162086,-111.111111111111,4,1,0,100,0,1
162461,-100,4,1,0,100,0,1
162586,-111.111111111111,4,1,0,100,0,1
162961,-100,4,1,0,100,0,1
163086,-111.111111111111,4,1,0,100,0,1
163461,-100,4,1,0,100,0,1
163586,-111.111111111111,4,1,0,100,0,1
163961,-100,4,1,0,100,0,1
164086,-111.111111111111,4,1,0,100,0,1
164461,-100,4,1,0,100,0,1
164586,-111.111111111111,4,1,0,100,0,1
164961,-100,4,1,0,100,0,1
165086,-111.111111111111,4,1,0,100,0,1
165461,-100,4,1,0,100,0,1
165586,-111.111111111111,4,1,0,100,0,1
165961,-100,4,1,0,100,0,1
166086,-111.111111111111,4,1,0,100,0,1
166461,-100,4,1,0,100,0,1
166586,-111.111111111111,4,1,0,100,0,1
181524,250,48,1,0,5,1,0
181524,-125,4,1,0,5,0,0
193274,-125,4,1,0,80,0,0
193524,250,4,1,0,80,1,0
193524,-125,4,1,0,80,0,0

[HitObjects]
200,284,524,5,4,0:0:0:0:
296,236,899,1,8,0:0:0:0:
296,236,1274,1,8,0:0:0:0:
308,240,1524,1,12,0:0:0:0:
252,196,1899,1,8,0:0:0:0:
300,172,2274,1,8,0:0:0:0:
312,204,2524,1,4,0:0:0:0:
237,259,2899,1,8,0:0:0:0:
237,259,3274,1,8,0:0:0:0:
237,259,3524,1,12,0:0:0:0:
237,259,3899,1,8,0:0:0:0:
237,259,4274,1,8,0:0:0:0:
237,259,4524,1,4,0:0:0:0:
237,259,4899,1,8,0:0:0:0:
237,259,5274,1,8,0:0:0:0:
237,259,5524,1,12,0:0:0:0:
237,259,5899,1,8,0:0:0:0:
237,259,6024,1,8,0:0:0:0:
237,259,6149,1,8,0:0:0:0:
237,259,6274,1,8,0:0:0:0:
243,214,7524,1,4,0:0:0:0:
237,217,8024,1,8,0:0:0:0:
237,217,8524,1,0,0:0:0:0:
237,217,8774,1,8,0:0:0:0:
329,229,8899,1,8,0:0:0:0:
329,229,9024,1,0,0:0:0:0:
315,202,9274,1,8,0:0:0:0:
269,211,9524,1,0,0:0:0:0:
272,216,10024,1,8,0:0:0:0:
269,211,10524,1,0,0:0:0:0:
269,211,10649,1,8,0:0:0:0:
272,216,10899,1,8,0:0:0:0:
272,216,11024,1,0,0:0:0:0:
272,216,11274,1,8,0:0:0:0:
243,214,11524,1,4,0:0:0:0:
237,217,12024,1,8,0:0:0:0:
237,217,12524,1,0,0:0:0:0:
237,217,12774,1,8,0:0:0:0:
329,229,12899,1,8,0:0:0:0:
329,229,13024,1,0,0:0:0:0:
269,211,13274,1,8,0:0:0:0:
315,202,13524,1,8,0:0:0:0:
315,202,13899,1,8,0:0:0:0:
272,216,14024,1,0,0:0:0:0:
273,254,14274,1,8,0:0:0:0:
273,254,14524,1,0,0:0:0:0:
273,254,14649,1,0,0:0:0:0:
273,254,14899,1,8,0:0:0:0:
273,254,15024,1,8,0:0:0:0:
243,214,15524,1,4,0:0:0:0:
237,217,16024,1,8,0:0:0:0:
237,217,16524,1,0,0:0:0:0:
237,217,16774,1,8,0:0:0:0:
329,229,16899,1,8,0:0:0:0:
329,229,17024,1,0,0:0:0:0:
315,202,17274,1,8,0:0:0:0:
269,211,17524,1,0,0:0:0:0:
272,216,18024,1,8,0:0:0:0:
269,211,18524,1,0,0:0:0:0:
269,211,18649,1,8,0:0:0:0:
272,216,18899,1,8,0:0:0:0:
272,216,19024,1,0,0:0:0:0:
272,216,19274,1,8,0:0:0:0:
243,214,19524,1,4,0:0:0:0:
237,217,20024,1,8,0:0:0:0:
237,217,20524,1,0,0:0:0:0:
237,217,20774,1,8,0:0:0:0:
329,229,20899,1,8,0:0:0:0:
329,229,21024,1,0,0:0:0:0:
269,211,21274,1,8,0:0:0:0:
315,202,21524,1,8,0:0:0:0:
315,202,21899,1,8,0:0:0:0:
272,216,22024,1,0,0:0:0:0:
273,254,22274,1,8,0:0:0:0:
273,254,22524,1,0,0:0:0:0:
273,254,22649,1,0,0:0:0:0:
273,254,22899,1,8,0:0:0:0:
273,254,23024,1,8,0:0:0:0:
183,237,23524,1,0,0:0:0:0:
235,265,24024,1,8,0:0:0:0:
235,265,24399,1,8,0:0:0:0:
235,265,25524,1,0,0:0:0:0:
235,265,25774,1,8,0:0:0:0:
235,265,26024,1,8,0:0:0:0:
235,265,26399,1,8,0:0:0:0:
235,265,27524,1,0,0:0:0:0:
235,265,28024,1,8,0:0:0:0:
235,265,28399,1,8,0:0:0:0:
235,265,29524,1,0,0:0:0:0:
235,265,29774,1,8,0:0:0:0:
235,265,30024,1,8,0:0:0:0:
235,265,30399,1,8,0:0:0:0:
183,237,31524,1,0,0:0:0:0:
235,265,32024,1,8,0:0:0:0:
235,265,32399,1,8,0:0:0:0:
235,265,33524,1,0,0:0:0:0:
235,265,33774,1,8,0:0:0:0:
235,265,34024,1,8,0:0:0:0:
235,265,34399,1,8,0:0:0:0:
235,265,35524,1,0,0:0:0:0:
235,265,36024,1,8,0:0:0:0:
235,265,36399,1,8,0:0:0:0:
235,265,37524,1,0,0:0:0:0:
235,265,37774,1,8,0:0:0:0:
235,265,38024,1,8,0:0:0:0:
235,265,38399,1,8,0:0:0:0:
256,192,39524,1,4,0:0:0:0:
279,245,39774,1,0,0:0:0:0:
279,245,39899,1,8,0:0:0:0:
279,245,40149,1,8,0:0:0:0:
269,243,40274,1,0,0:0:0:0:
256,192,40524,1,12,0:0:0:0:
217,248,40899,1,0,0:0:0:0:
217,248,41274,1,8,0:0:0:0:
256,192,41524,1,4,0:0:0:0:
217,248,41774,1,8,0:0:0:0:
207,245,41899,1,0,0:0:0:0:
207,245,42149,1,0,0:0:0:0:
207,245,42274,1,8,0:0:0:0:
207,245,42524,1,4,0:0:0:0:
221,260,42899,1,0,0:0:0:0:
221,260,43274,1,0,0:0:0:0:
256,192,43524,1,12,0:0:0:0:
190,249,43774,1,0,0:0:0:0:
190,249,43899,1,8,0:0:0:0:
190,249,44024,1,0,0:0:0:0:
190,249,44274,1,8,0:0:0:0:
190,249,44524,1,4,0:0:0:0:
190,249,44774,1,8,0:0:0:0:
190,249,44899,1,8,0:0:0:0:
190,249,45274,1,0,0:0:0:0:
190,249,45524,1,12,0:0:0:0:
272,233,45899,1,0,0:0:0:0:
272,233,46149,1,0,0:0:0:0:
190,249,46274,1,0,0:0:0:0:
190,249,46399,1,8,0:0:0:0:
272,233,46524,1,8,0:0:0:0:
272,233,46774,1,0,0:0:0:0:
256,192,47524,1,12,0:0:0:0:
279,245,47774,1,8,0:0:0:0:
279,245,47899,1,0,0:0:0:0:
269,243,48149,1,0,0:0:0:0:
279,245,48274,1,8,0:0:0:0:
256,192,48524,1,4,0:0:0:0:
217,248,48899,1,8,0:0:0:0:
217,248,49274,1,0,0:0:0:0:
256,192,49524,1,12,0:0:0:0:
217,248,49774,1,0,0:0:0:0:
207,245,49899,1,8,0:0:0:0:
207,245,50149,1,8,0:0:0:0:
207,245,50274,1,0,0:0:0:0:
207,245,50524,1,12,0:0:0:0:
221,260,50899,1,8,0:0:0:0:
221,260,51274,1,8,0:0:0:0:
256,192,51524,1,4,0:0:0:0:
190,249,51774,1,8,0:0:0:0:
190,249,51899,1,0,0:0:0:0:
190,249,52024,1,8,0:0:0:0:
190,249,52274,1,0,0:0:0:0:
190,249,52524,1,12,0:0:0:0:
190,249,52774,1,0,0:0:0:0:
190,249,52899,1,0,0:0:0:0:
190,249,53274,1,8,0:0:0:0:
190,249,53524,1,0,0:0:0:0:
256,192,55524,1,4,0:0:0:0:
256,192,56024,1,4,0:0:0:0:
268,215,56274,1,8,0:0:0:0:
256,192,56524,1,4,0:0:0:0:
268,215,56774,1,8,0:0:0:0:
256,192,57024,1,4,0:0:0:0:
268,215,57274,1,8,0:0:0:0:
256,192,57524,1,4,0:0:0:0:
256,192,58024,1,4,0:0:0:0:
268,215,58274,1,8,0:0:0:0:
256,192,58524,1,4,0:0:0:0:
268,215,58774,1,8,0:0:0:0:
220,246,59024,1,4,0:0:0:0:
256,192,59524,1,12,0:0:0:0:
256,192,60024,1,12,0:0:0:0:
177,197,60274,1,0,0:0:0:0:
256,192,60524,1,12,0:0:0:0:
177,197,60774,1,0,0:0:0:0:
256,192,61024,1,12,0:0:0:0:
177,197,61274,1,0,0:0:0:0:
256,192,61524,1,12,0:0:0:0:
256,192,62024,1,12,0:0:0:0:
256,192,62524,1,12,0:0:0:0:
256,192,63524,1,4,0:0:0:0:
256,192,64024,1,4,0:0:0:0:
177,283,64274,1,8,0:0:0:0:
256,192,64524,1,4,0:0:0:0:
177,283,64774,1,8,0:0:0:0:
256,192,65024,1,4,0:0:0:0:
177,283,65274,1,8,0:0:0:0:
256,192,65524,1,4,0:0:0:0:
256,192,66024,1,4,0:0:0:0:
177,283,66274,1,8,0:0:0:0:
256,192,66524,1,4,0:0:0:0:
237,259,66774,1,8,0:0:0:0:
237,259,67024,1,4,0:0:0:0:
256,192,67524,1,12,0:0:0:0:
237,259,67774,1,0,0:0:0:0:
256,192,68024,1,12,0:0:0:0:
237,259,68274,1,0,0:0:0:0:
256,192,68524,1,12,0:0:0:0:
237,259,68774,1,0,0:0:0:0:
256,192,69024,1,12,0:0:0:0:
180,246,69274,1,0,0:0:0:0:
256,192,69524,1,12,0:0:0:0:
237,259,69774,1,0,0:0:0:0:
256,192,70024,1,12,0:0:0:0:
180,246,70274,1,0,0:0:0:0:
243,214,71524,1,4,0:0:0:0:
237,217,72024,1,8,0:0:0:0:
237,217,72524,1,0,0:0:0:0:
237,217,72774,1,8,0:0:0:0:
329,229,72899,1,8,0:0:0:0:
329,229,73024,1,0,0:0:0:0:
315,202,73274,1,8,0:0:0:0:
269,211,73524,1,0,0:0:0:0:
272,216,74024,1,8,0:0:0:0:
269,211,74524,1,0,0:0:0:0:
269,211,74649,1,8,0:0:0:0:
272,216,74899,1,8,0:0:0:0:
272,216,75024,1,0,0:0:0:0:
272,216,75274,1,8,0:0:0:0:
243,214,75524,1,4,0:0:0:0:
237,217,76024,1,8,0:0:0:0:
237,217,76524,1,0,0:0:0:0:
237,217,76774,1,8,0:0:0:0:
329,229,76899,1,8,0:0:0:0:
329,229,77024,1,0,0:0:0:0:
269,211,77274,1,8,0:0:0:0:
315,202,77524,1,8,0:0:0:0:
315,202,77899,1,8,0:0:0:0:
272,216,78024,1,0,0:0:0:0:
273,254,78274,1,8,0:0:0:0:
273,254,78524,1,0,0:0:0:0:
273,254,78649,1,0,0:0:0:0:
273,254,78899,1,8,0:0:0:0:
273,254,79024,1,8,0:0:0:0:
243,214,79524,1,4,0:0:0:0:
237,217,80024,1,8,0:0:0:0:
237,217,80524,1,0,0:0:0:0:
237,217,80774,1,8,0:0:0:0:
329,229,80899,1,8,0:0:0:0:
329,229,81024,1,0,0:0:0:0:
315,202,81274,1,8,0:0:0:0:
269,211,81524,1,0,0:0:0:0:
272,216,82024,1,8,0:0:0:0:
269,211,82524,1,0,0:0:0:0:
269,211,82649,1,8,0:0:0:0:
272,216,82899,1,8,0:0:0:0:
272,216,83024,1,0,0:0:0:0:
272,216,83274,1,8,0:0:0:0:
243,214,83524,1,4,0:0:0:0:
237,217,84024,1,8,0:0:0:0:
237,217,84524,1,0,0:0:0:0:
237,217,84774,1,8,0:0:0:0:
329,229,84899,1,8,0:0:0:0:
329,229,85024,1,0,0:0:0:0:
269,211,85274,1,8,0:0:0:0:
315,202,85524,1,8,0:0:0:0:
315,202,85899,1,8,0:0:0:0:
272,216,86024,1,0,0:0:0:0:
273,254,86274,1,8,0:0:0:0:
273,254,86524,1,0,0:0:0:0:
273,254,86649,1,0,0:0:0:0:
273,254,86899,1,8,0:0:0:0:
273,254,87024,1,8,0:0:0:0:
183,237,87524,1,4,0:0:0:0:
261,269,88024,1,0,0:0:0:0:
261,269,88399,1,0,0:0:0:0:
261,269,88524,1,8,0:0:0:0:
261,269,88649,1,0,0:0:0:0:
261,269,88899,1,0,0:0:0:0:
261,269,89024,1,8,0:0:0:0:
261,269,89524,1,0,0:0:0:0:
261,269,90024,1,8,0:0:0:0:
261,269,90149,1,8,0:0:0:0:
261,269,90399,1,8,0:0:0:0:
261,269,90524,1,0,0:0:0:0:
261,269,90649,1,8,0:0:0:0:
261,269,90899,1,0,0:0:0:0:
261,269,91024,1,8,0:0:0:0:
261,269,91524,1,0,0:0:0:0:
378,246,92024,1,8,0:0:0:0:
276,196,92399,1,0,0:0:0:0:
276,196,92524,1,8,0:0:0:0:
276,196,92649,1,0,0:0:0:0:
276,196,92899,1,0,0:0:0:0:
276,196,93024,1,8,0:0:0:0:
276,196,93524,1,0,0:0:0:0:
276,196,93899,1,0,0:0:0:0:
276,196,94024,1,8,0:0:0:0:
276,196,94149,1,8,0:0:0:0:
276,196,94399,1,8,0:0:0:0:
276,196,94524,1,0,0:0:0:0:
276,196,95024,1,8,0:0:0:0:
183,237,95524,1,0,0:0:0:0:
261,269,96024,1,0,0:0:0:0:
261,269,96399,1,0,0:0:0:0:
261,269,96524,1,8,0:0:0:0:
261,269,96649,1,0,0:0:0:0:
261,269,96899,1,0,0:0:0:0:
261,269,97024,1,8,0:0:0:0:
261,269,97524,1,0,0:0:0:0:
261,269,98024,1,8,0:0:0:0:
261,269,98149,1,8,0:0:0:0:
261,269,98399,1,8,0:0:0:0:
261,269,98524,1,0,0:0:0:0:
261,269,98649,1,8,0:0:0:0:
261,269,98899,1,0,0:0:0:0:
261,269,99024,1,8,0:0:0:0:
261,269,99524,1,0,0:0:0:0:
378,246,100024,1,8,0:0:0:0:
276,196,100399,1,0,0:0:0:0:
276,196,100524,1,8,0:0:0:0:
276,196,100649,1,0,0:0:0:0:
276,196,100899,1,0,0:0:0:0:
276,196,101024,1,8,0:0:0:0:
276,196,101524,1,0,0:0:0:0:
276,196,101899,1,0,0:0:0:0:
276,196,102024,1,8,0:0:0:0:
276,196,102149,1,8,0:0:0:0:
276,196,102399,1,8,0:0:0:0:
276,196,102524,1,0,0:0:0:0:
276,196,103024,1,8,0:0:0:0:
256,192,103524,1,4,0:0:0:0:
279,245,103774,1,0,0:0:0:0:
279,245,103899,1,8,0:0:0:0:
279,245,104149,1,8,0:0:0:0:
269,243,104274,1,0,0:0:0:0:
256,192,104524,1,12,0:0:0:0:
217,248,104899,1,0,0:0:0:0:
217,248,105274,1,8,0:0:0:0:
256,192,105524,1,4,0:0:0:0:
217,248,105774,1,8,0:0:0:0:
207,245,105899,1,0,0:0:0:0:
207,245,106149,1,0,0:0:0:0:
207,245,106274,1,8,0:0:0:0:
207,245,106524,1,4,0:0:0:0:
221,260,106899,1,0,0:0:0:0:
221,260,107274,1,0,0:0:0:0:
256,192,107524,1,12,0:0:0:0:
190,249,107774,1,0,0:0:0:0:
190,249,107899,1,8,0:0:0:0:
190,249,108024,1,0,0:0:0:0:
190,249,108274,1,8,0:0:0:0:
190,249,108524,1,4,0:0:0:0:
190,249,108774,1,8,0:0:0:0:
190,249,108899,1,8,0:0:0:0:
190,249,109274,1,0,0:0:0:0:
190,249,109524,1,12,0:0:0:0:
272,233,109899,1,0,0:0:0:0:
272,233,110149,1,0,0:0:0:0:
190,249,110274,1,0,0:0:0:0:
190,249,110399,1,8,0:0:0:0:
272,233,110524,1,8,0:0:0:0:
272,233,110774,1,0,0:0:0:0:
256,192,111524,1,12,0:0:0:0:
279,245,111774,1,8,0:0:0:0:
279,245,111899,1,0,0:0:0:0:
269,243,112149,1,0,0:0:0:0:
279,245,112274,1,8,0:0:0:0:
256,192,112524,1,4,0:0:0:0:
217,248,112899,1,8,0:0:0:0:
217,248,113274,1,0,0:0:0:0:
256,192,113524,1,12,0:0:0:0:
217,248,113774,1,0,0:0:0:0:
207,245,113899,1,8,0:0:0:0:
207,245,114149,1,8,0:0:0:0:
207,245,114274,1,0,0:0:0:0:
207,245,114524,1,12,0:0:0:0:
221,260,114899,1,8,0:0:0:0:
221,260,115274,1,8,0:0:0:0:
256,192,115524,1,4,0:0:0:0:
190,249,115774,1,8,0:0:0:0:
190,249,115899,1,0,0:0:0:0:
190,249,116274,1,0,0:0:0:0:
190,249,116524,1,12,0:0:0:0:
190,249,116774,1,0,0:0:0:0:
190,249,116899,1,8,0:0:0:0:
190,249,117274,1,8,0:0:0:0:
190,249,117524,1,4,0:0:0:0:
233,293,117774,1,8,0:0:0:0:
233,293,117899,1,0,0:0:0:0:
233,293,118024,1,8,0:0:0:0:
256,192,118274,12,8,119524,0:0:0:0:
247,279,127524,5,4,0:0:0:0:
247,279,127899,1,8,0:0:0:0:
247,279,128024,1,4,0:0:0:0:
247,279,128274,1,8,0:0:0:0:
247,279,128524,1,4,0:0:0:0:
279,212,128774,1,0,0:0:0:0:
247,279,129024,1,12,0:0:0:0:
247,279,129524,1,4,0:0:0:0:
279,212,129899,1,8,0:0:0:0:
247,279,130024,1,4,0:0:0:0:
279,212,130274,1,8,0:0:0:0:
247,279,130524,1,4,0:0:0:0:
279,212,130774,1,0,0:0:0:0:
279,212,131024,1,12,0:0:0:0:
247,279,131524,1,4,0:0:0:0:
279,212,131899,1,8,0:0:0:0:
247,279,132024,1,4,0:0:0:0:
279,212,132274,1,8,0:0:0:0:
247,279,132524,1,4,0:0:0:0:
279,212,132774,1,0,0:0:0:0:
279,212,133024,1,12,0:0:0:0:
224,250,133274,1,8,0:0:0:0:
224,250,133399,1,8,0:0:0:0:
218,267,135524,1,4,0:0:0:0:
218,267,136024,1,8,0:0:0:0:
231,304,136357,1,0,0:0:0:0:
231,304,136524,1,8,0:0:0:0:
231,304,136857,1,0,0:0:0:0:
231,304,137024,1,8,0:0:0:0:
231,304,137524,1,12,0:0:0:0:
231,304,138024,1,8,0:0:0:0:
231,304,138357,1,0,0:0:0:0:
231,304,138524,1,8,0:0:0:0:
231,304,138857,1,0,0:0:0:0:
231,304,139024,1,8,0:0:0:0:
231,304,139524,1,12,0:0:0:0:
231,304,140024,1,8,0:0:0:0:
285,254,140149,1,0,0:0:0:0:
285,254,140399,1,0,0:0:0:0:
285,254,140524,1,8,0:0:0:0:
285,254,140774,1,0,0:0:0:0:
285,254,141024,1,8,0:0:0:0:
285,254,141524,1,4,0:0:0:0:
285,254,141899,1,0,0:0:0:0:
285,254,142024,1,8,0:0:0:0:
285,254,142149,1,0,0:0:0:0:
285,254,142399,1,0,0:0:0:0:
285,254,142524,1,8,0:0:0:0:
285,254,142774,1,8,0:0:0:0:
285,254,142899,1,8,0:0:0:0:
218,267,143524,1,4,0:0:0:0:
218,267,144024,1,8,0:0:0:0:
231,304,144357,1,0,0:0:0:0:
231,304,144524,1,8,0:0:0:0:
231,304,144857,1,0,0:0:0:0:
231,304,145024,1,8,0:0:0:0:
231,304,145524,1,12,0:0:0:0:
231,304,146024,1,8,0:0:0:0:
231,304,146357,1,0,0:0:0:0:
231,304,146524,1,8,0:0:0:0:
231,304,146857,1,0,0:0:0:0:
231,304,147024,1,8,0:0:0:0:
231,304,147524,1,12,0:0:0:0:
231,304,148024,1,8,0:0:0:0:
285,254,148149,1,0,0:0:0:0:
285,254,148399,1,0,0:0:0:0:
285,254,148524,1,8,0:0:0:0:
285,254,148774,1,8,0:0:0:0:
285,254,149024,1,0,0:0:0:0:
285,254,149524,1,12,0:0:0:0:
285,254,149899,1,0,0:0:0:0:
285,254,150024,1,8,0:0:0:0:
285,254,150274,1,0,0:0:0:0:
285,254,150524,1,8,0:0:0:0:
256,192,151524,5,4,0:0:0:0:
256,192,152024,1,4,0:0:0:0:
268,215,152274,1,8,0:0:0:0:
256,192,152524,1,4,0:0:0:0:
268,215,152774,1,8,0:0:0:0:
256,192,153024,1,4,0:0:0:0:
268,215,153274,1,8,0:0:0:0:
256,192,153524,1,4,0:0:0:0:
256,192,154024,1,4,0:0:0:0:
268,215,154274,1,8,0:0:0:0:
256,192,154524,1,4,0:0:0:0:
268,215,154774,1,8,0:0:0:0:
220,246,155024,1,4,0:0:0:0:
256,192,155524,1,12,0:0:0:0:
256,192,156024,1,12,0:0:0:0:
177,197,156274,1,0,0:0:0:0:
256,192,156524,1,12,0:0:0:0:
177,197,156774,1,0,0:0:0:0:
256,192,157024,1,12,0:0:0:0:
177,197,157274,1,0,0:0:0:0:
256,192,157524,1,12,0:0:0:0:
256,192,158024,1,12,0:0:0:0:
256,192,158524,1,12,0:0:0:0:
256,192,159524,1,4,0:0:0:0:
256,192,160024,1,4,0:0:0:0:
177,283,160274,1,8,0:0:0:0:
256,192,160524,1,4,0:0:0:0:
177,283,160774,1,8,0:0:0:0:
256,192,161024,1,4,0:0:0:0:
177,283,161274,1,8,0:0:0:0:
256,192,161524,1,4,0:0:0:0:
256,192,162024,1,4,0:0:0:0:
177,283,162274,1,8,0:0:0:0:
256,192,162524,1,4,0:0:0:0:
237,259,162774,1,8,0:0:0:0:
237,259,163024,1,4,0:0:0:0:
256,192,163524,1,12,0:0:0:0:
237,259,163774,1,0,0:0:0:0:
256,192,164024,1,12,0:0:0:0:
237,259,164274,1,0,0:0:0:0:
256,192,164524,1,12,0:0:0:0:
237,259,164774,1,0,0:0:0:0:
256,192,165024,1,12,0:0:0:0:
180,246,165274,1,0,0:0:0:0:
256,192,165524,1,12,0:0:0:0:
237,259,165774,1,0,0:0:0:0:
256,192,166024,1,12,0:0:0:0:
180,246,166274,1,0,0:0:0:0:
294,242,166524,1,12,0:0:0:0:
264,291,167524,1,4,0:0:0:0:
190,296,167899,1,8,0:0:0:0:
190,296,168149,1,0,0:0:0:0:
190,296,168274,1,8,0:0:0:0:
264,291,168524,1,4,0:0:0:0:
190,296,168899,1,0,0:0:0:0:
190,296,169149,1,8,0:0:0:0:
190,296,169274,1,0,0:0:0:0:
190,296,169524,1,12,0:0:0:0:
190,296,169899,1,8,0:0:0:0:
190,296,170274,1,8,0:0:0:0:
264,291,170524,1,4,0:0:0:0:
190,296,170774,1,8,0:0:0:0:
190,296,171024,1,0,0:0:0:0:
190,296,171149,1,0,0:0:0:0:
190,296,171274,1,8,0:0:0:0:
264,291,171524,1,4,0:0:0:0:
190,296,171899,1,8,0:0:0:0:
190,296,172274,1,8,0:0:0:0:
264,291,172524,1,4,0:0:0:0:
190,296,172899,1,0,0:0:0:0:
190,296,173149,1,8,0:0:0:0:
190,296,173274,1,0,0:0:0:0:
190,296,173524,1,12,0:0:0:0:
190,296,173899,1,8,0:0:0:0:
190,296,174274,1,8,0:0:0:0:
264,291,174524,1,4,0:0:0:0:
190,296,174774,1,8,0:0:0:0:
190,296,174899,1,8,0:0:0:0:
190,296,175024,1,0,0:0:0:0:
190,296,175274,1,8,0:0:0:0:
264,291,175524,1,4,0:0:0:0:
190,296,175899,1,8,0:0:0:0:
190,296,176149,1,0,0:0:0:0:
190,296,176274,1,8,0:0:0:0:
264,291,176524,1,4,0:0:0:0:
190,296,176899,1,0,0:0:0:0:
190,296,177149,1,8,0:0:0:0:
190,296,177274,1,0,0:0:0:0:
190,296,177524,1,12,0:0:0:0:
190,296,177899,1,8,0:0:0:0:
190,296,178274,1,8,0:0:0:0:
264,291,178524,1,4,0:0:0:0:
190,296,178774,1,8,0:0:0:0:
190,296,179024,1,0,0:0:0:0:
190,296,179149,1,0,0:0:0:0:
190,296,179274,1,8,0:0:0:0:
264,291,179524,1,4,0:0:0:0:
190,296,179899,1,8,0:0:0:0:
190,296,180274,1,8,0:0:0:0:
264,291,180524,1,4,0:0:0:0:
190,296,180774,1,8,0:0:0:0:
190,296,181024,1,0,0:0:0:0:
190,296,181149,1,8,0:0:0:0:
190,296,181274,1,0,0:0:0:0:
243,214,193524,5,4,0:0:0:0:
237,217,194024,1,8,0:0:0:0:
237,217,194524,1,0,0:0:0:0:
237,217,194774,1,8,0:0:0:0:
329,229,194899,1,8,0:0:0:0:
329,229,195024,1,0,0:0:0:0:
315,202,195274,1,8,0:0:0:0:
269,211,195524,1,0,0:0:0:0:
272,216,196024,1,8,0:0:0:0:
269,211,196524,1,0,0:0:0:0:
269,211,196649,1,8,0:0:0:0:
272,216,196899,1,8,0:0:0:0:
272,216,197024,1,0,0:0:0:0:
272,216,197149,1,0,0:0:0:0:
272,216,197274,1,8,0:0:0:0:
243,214,197524,1,4,0:0:0:0:
237,217,198024,1,8,0:0:0:0:
237,217,198524,1,0,0:0:0:0:
237,217,198774,1,8,0:0:0:0:
329,229,198899,1,8,0:0:0:0:
329,229,199024,1,0,0:0:0:0:
269,211,199274,1,8,0:0:0:0:
315,202,199524,1,8,0:0:0:0:
315,202,199899,1,8,0:0:0:0:
272,216,200024,1,0,0:0:0:0:
273,254,200274,1,8,0:0:0:0:
273,254,200524,1,0,0:0:0:0:
273,254,200649,1,0,0:0:0:0:
273,254,200899,1,8,0:0:0:0:
273,254,201024,1,8,0:0:0:0:
243,214,201524,1,4,0:0:0:0:
237,217,202024,1,8,0:0:0:0:
237,217,202524,1,0,0:0:0:0:
237,217,202774,1,8,0:0:0:0:
329,229,202899,1,8,0:0:0:0:
329,229,203024,1,0,0:0:0:0:
315,202,203274,1,8,0:0:0:0:
269,211,203524,1,0,0:0:0:0:
272,216,204024,1,8,0:0:0:0:
269,211,204524,1,0,0:0:0:0:
269,211,204649,1,8,0:0:0:0:
272,216,204899,1,8,0:0:0:0:
272,216,205024,1,0,0:0:0:0:
272,216,205149,1,0,0:0:0:0:
272,216,205274,1,8,0:0:0:0:
243,214,205524,1,4,0:0:0:0:
237,217,206024,1,8,0:0:0:0:
237,217,206524,1,0,0:0:0:0:
237,217,206774,1,8,0:0:0:0:
329,229,206899,1,8,0:0:0:0:
329,229,207024,1,0,0:0:0:0:
269,211,207274,1,8,0:0:0:0:
315,202,207524,1,8,0:0:0:0:
315,202,207899,1,8,0:0:0:0:
272,216,208024,1,0,0:0:0:0:
273,254,208274,1,8,0:0:0:0:
273,254,208524,1,0,0:0:0:0:
273,254,208649,1,0,0:0:0:0:
273,254,208899,1,8,0:0:0:0:
273,254,209024,1,8,0:0:0:0:
183,237,209524,1,0,0:0:0:0:
