osu file format v14

[General]
AudioFilename: audio.mp3
AudioLeadIn: 0
PreviewTime: 55273
Countdown: 0
SampleSet: Normal
StackLeniency: 0.7
Mode: 1
LetterboxInBreaks: 0
WidescreenStoryboard: 0

[Editor]
Bookmarks: 524,7524,23524,39524,55524,70524,87524,103524,119524,135524,151524,167524,193524,209524
DistanceSpacing: 1.3
BeatDivisor: 8
GridSize: 32
TimelineZoom: 3.199999

[Metadata]
Title:Replica feat. Hatsune Miku
TitleUnicode:レプリカ feat. 初音ミク
Artist:sasakure.UK
ArtistUnicode:sasakure.UK
Creator:Skull Kid
Version:HiroK's Oni
Source:
Tags:Japanese Electronic Rock Novelty Vocaloid エルゴスム ergosum 革蝉 kawasemi sasakuration ササクレイション C97 Comic Market Comiket 佐々木秀尚 Sasaki Hidehisa mami Kqrth Ulqui HiroK eae
BeatmapID:2327057
BeatmapSetID:1038855

[Difficulty]
HPDrainRate:5.5
CircleSize:2
OverallDifficulty:6
ApproachRate:9
SliderMultiplier:1.4
SliderTickRate:1

[Events]
//Background and Video events
0,0,"BG.jpg",0,-30
//Break Periods
2,181661,192924
//Storyboard Layer 0 (Background)
//Storyboard Layer 1 (Fail)
//Storyboard Layer 2 (Pass)
//Storyboard Layer 3 (Foreground)
//Storyboard Layer 4 (Overlay)
//Storyboard Sound Samples

[TimingPoints]
524,250,4,1,0,90,1,0
711,-102.040816326531,4,1,0,90,0,0
836,-104.166666666667,4,1,0,90,0,0
961,-106.382978723404,4,1,0,90,0,0
1086,-108.695652173913,4,1,0,90,0,0
1211,-111.111111111111,4,1,0,90,0,0
1461,-100,4,1,0,90,0,0
1586,-102.040816326531,4,1,0,90,0,0
1711,-104.166666666667,4,1,0,90,0,0
1836,-106.382978723404,4,1,0,90,0,0
1961,-108.695652173913,4,1,0,90,0,0
2086,-111.111111111111,4,1,0,90,0,0
2211,-113.636363636364,4,1,0,90,0,0
2461,-100,4,1,0,90,0,0
2711,-102.040816326531,4,1,0,90,0,0
2836,-104.166666666667,4,1,0,90,0,0
2961,-106.382978723404,4,1,0,90,0,0
3086,-108.695652173913,4,1,0,90,0,0
3211,-111.111111111111,4,1,0,90,0,0
3461,-100,4,1,0,90,0,0
3586,-102.040816326531,4,1,0,90,0,0
3711,-104.166666666667,4,1,0,90,0,0
3836,-106.382978723404,4,1,0,90,0,0
3961,-108.695652173913,4,1,0,90,0,0
4086,-111.111111111111,4,1,0,90,0,0
4211,-113.636363636364,4,1,0,90,0,0
4461,-100,4,1,0,90,0,0
4711,-102.040816326531,4,1,0,90,0,0
4836,-104.166666666667,4,1,0,90,0,0
4961,-106.382978723404,4,1,0,90,0,0
5086,-108.695652173913,4,1,0,90,0,0
5211,-111.111111111111,4,1,0,90,0,0
5461,-100,4,1,0,90,0,0
5711,-104.166666666667,4,1,0,90,0,0
5836,-106.382978723404,4,1,0,90,0,0
5961,-108.695652173913,4,1,0,90,0,0
6086,-111.111111111111,4,1,0,90,0,0
6211,-113.636363636364,4,1,0,90,0,0
6336,-116.279069767442,4,1,0,90,0,0
7399,-125,4,1,0,80,0,0
23211,-128.205128205128,4,1,0,80,0,0
23336,-131.578947368421,4,1,0,80,0,0
23461,-135.135135135135,4,1,0,80,0,0
23586,-142.857142857143,4,1,0,70,0,0
39461,-100,4,1,0,90,0,0
39586,-102.040816326531,4,1,0,90,0,0
39711,-104.166666666667,4,1,0,90,0,0
39836,-106.382978723404,4,1,0,90,0,0
39961,-108.695652173913,4,1,0,90,0,0
40086,-111.111111111111,4,1,0,90,0,0
40180,-112.359550561798,4,1,0,90,0,0
40242,-113.636363636364,4,1,0,90,0,0
40336,-116.279069767442,4,1,0,90,0,0
40461,-100,4,1,0,90,0,0
40586,-102.040816326531,4,1,0,90,0,0
40742,-104.166666666667,4,1,0,90,0,0
40836,-106.382978723404,4,1,0,90,0,0
40961,-108.695652173913,4,1,0,90,0,0
41086,-111.111111111111,4,1,0,90,0,0
41211,-113.636363636364,4,1,0,90,0,0
41461,-100,4,1,0,90,0,0
41586,-102.040816326531,4,1,0,90,0,0
41711,-104.166666666667,4,1,0,90,0,0
41836,-106.382978723404,4,1,0,90,0,0
41961,-108.695652173913,4,1,0,90,0,0
42086,-111.111111111111,4,1,0,90,0,0
42180,-112.359550561798,4,1,0,90,0,0
42242,-113.636363636364,4,1,0,90,0,0
42336,-116.279069767442,4,1,0,90,0,0
42461,-100,4,1,0,90,0,0
42586,-102.040816326531,4,1,0,90,0,0
42680,-103.092783505155,4,1,0,90,0,0
42742,-104.166666666667,4,1,0,90,0,0
42836,-106.382978723404,4,1,0,90,0,0
42961,-108.695652173913,4,1,0,90,0,0
43117,-111.111111111111,4,1,0,90,0,0
43211,-113.636363636364,4,1,0,90,0,0
43461,-100,4,1,0,90,0,0
43586,-102.040816326531,4,1,0,90,0,0
43711,-104.166666666667,4,1,0,90,0,0
43836,-106.382978723404,4,1,0,90,0,0
43961,-108.695652173913,4,1,0,90,0,0
44086,-111.111111111111,4,1,0,90,0,0
44180,-112.359550561798,4,1,0,90,0,0
44242,-113.636363636364,4,1,0,90,0,0
44336,-116.279069767442,4,1,0,90,0,0
44461,-100,4,1,0,90,0,0
44586,-102.040816326531,4,1,0,90,0,0
44742,-104.166666666667,4,1,0,90,0,0
44836,-106.382978723404,4,1,0,90,0,0
44961,-108.695652173913,4,1,0,90,0,0
45086,-111.111111111111,4,1,0,90,0,0
45211,-113.636363636364,4,1,0,90,0,0
45461,-100,4,1,0,90,0,0
45586,-102.040816326531,4,1,0,90,0,0
45711,-104.166666666667,4,1,0,90,0,0
45836,-106.382978723404,4,1,0,90,0,0
45961,-108.695652173913,4,1,0,90,0,0
46086,-111.111111111111,4,1,0,90,0,0
46180,-112.359550561798,4,1,0,90,0,0
46242,-113.636363636364,4,1,0,90,0,0
46336,-116.279069767442,4,1,0,90,0,0
46461,-119.047619047619,4,1,0,90,0,0
46586,-121.951219512195,4,1,0,90,0,0
46836,-125,4,1,0,90,0,0
46961,-128.205128205128,4,1,0,90,0,0
47086,-131.578947368421,4,1,0,90,0,0
47211,-135.135135135135,4,1,0,90,0,0
47336,-138.888888888889,4,1,0,90,0,0
47461,-100,4,1,0,90,0,0
47586,-102.040816326531,4,1,0,90,0,0
47711,-104.166666666667,4,1,0,90,0,0
47836,-106.382978723404,4,1,0,90,0,0
47961,-108.695652173913,4,1,0,90,0,0
48086,-111.111111111111,4,1,0,90,0,0
48180,-112.359550561798,4,1,0,90,0,0
48242,-113.636363636364,4,1,0,90,0,0
48336,-116.279069767442,4,1,0,90,0,0
48461,-100,4,1,0,90,0,0
48586,-102.040816326531,4,1,0,90,0,0
48742,-104.166666666667,4,1,0,90,0,0
48836,-106.382978723404,4,1,0,90,0,0
48961,-108.695652173913,4,1,0,90,0,0
49086,-111.111111111111,4,1,0,90,0,0
49211,-113.636363636364,4,1,0,90,0,0
49461,-100,4,1,0,90,0,0
49586,-102.040816326531,4,1,0,90,0,0
49711,-104.166666666667,4,1,0,90,0,0
49836,-106.382978723404,4,1,0,90,0,0
49961,-108.695652173913,4,1,0,90,0,0
50086,-111.111111111111,4,1,0,90,0,0
50180,-112.359550561798,4,1,0,90,0,0
50242,-113.636363636364,4,1,0,90,0,0
50336,-116.279069767442,4,1,0,90,0,0
50461,-100,4,1,0,90,0,0
50586,-102.040816326531,4,1,0,90,0,0
50680,-103.092783505155,4,1,0,90,0,0
50742,-104.166666666667,4,1,0,90,0,0
50836,-106.382978723404,4,1,0,90,0,0
50961,-108.695652173913,4,1,0,90,0,0
51117,-111.111111111111,4,1,0,90,0,0
51211,-113.636363636364,4,1,0,90,0,0
51461,-100,4,1,0,90,0,0
51586,-102.040816326531,4,1,0,90,0,0
51711,-104.166666666667,4,1,0,90,0,0
51836,-106.382978723404,4,1,0,90,0,0
51961,-108.695652173913,4,1,0,90,0,0
52086,-111.111111111111,4,1,0,90,0,0
52180,-112.359550561798,4,1,0,90,0,0
52242,-113.636363636364,4,1,0,90,0,0
52336,-116.279069767442,4,1,0,90,0,0
52461,-100,4,1,0,90,0,0
52586,-102.040816326531,4,1,0,90,0,0
52742,-104.166666666667,4,1,0,90,0,0
52836,-106.382978723404,4,1,0,90,0,0
52961,-108.695652173913,4,1,0,90,0,0
53086,-111.111111111111,4,1,0,90,0,0
53211,-113.636363636364,4,1,0,90,0,0
53336,-116.279069767442,4,1,0,90,0,0
53461,-119.047619047619,4,1,0,90,0,0
55461,-95.2380952380952,4,1,0,100,0,0
55524,-95.2380952380952,4,1,0,100,0,1
55742,-102.564102564103,4,1,0,100,0,1
55867,-105.263157894737,4,1,0,100,0,1
55992,-95.2380952380952,4,1,0,100,0,1
56117,-100,4,1,0,100,0,1
56180,-101.26582278481,4,1,0,100,0,1
56242,-102.564102564103,4,1,0,100,0,1
56367,-105.263157894737,4,1,0,100,0,1
56492,-95.2380952380952,4,1,0,100,0,1
56617,-100,4,1,0,100,0,1
56680,-101.26582278481,4,1,0,100,0,1
56742,-102.564102564103,4,1,0,100,0,1
56867,-105.263157894737,4,1,0,100,0,1
56992,-95.2380952380952,4,1,0,100,0,1
57242,-102.564102564103,4,1,0,100,0,1
57492,-95.2380952380952,4,1,0,100,0,1
57742,-102.564102564103,4,1,0,100,0,1
57867,-105.263157894737,4,1,0,100,0,1
57992,-95.2380952380952,4,1,0,100,0,1
58117,-100,4,1,0,100,0,1
58180,-101.26582278481,4,1,0,100,0,1
58242,-102.564102564103,4,1,0,100,0,1
58367,-105.263157894737,4,1,0,100,0,1
58492,-95.2380952380952,4,1,0,100,0,1
58617,-100,4,1,0,100,0,1
58680,-101.26582278481,4,1,0,100,0,1
58742,-102.564102564103,4,1,0,100,0,1
58867,-105.263157894737,4,1,0,100,0,1
58992,-95.2380952380952,4,1,0,100,0,1
59211,-102.564102564103,4,1,0,100,0,1
59336,-105.263157894737,4,1,0,100,0,1
59492,-95.2380952380952,4,1,0,100,0,1
59742,-102.564102564103,4,1,0,100,0,1
59867,-105.263157894737,4,1,0,100,0,1
59992,-95.2380952380952,4,1,0,100,0,1
60117,-100,4,1,0,100,0,1
60180,-101.26582278481,4,1,0,100,0,1
60242,-102.564102564103,4,1,0,100,0,1
60367,-105.263157894737,4,1,0,100,0,1
60492,-95.2380952380952,4,1,0,100,0,1
60617,-100,4,1,0,100,0,1
60680,-101.26582278481,4,1,0,100,0,1
60742,-102.564102564103,4,1,0,100,0,1
60867,-105.263157894737,4,1,0,100,0,1
60992,-95.2380952380952,4,1,0,100,0,1
61117,-100,4,1,0,100,0,1
61242,-101.26582278481,4,1,0,100,0,1
61492,-95.2380952380952,4,1,0,100,0,1
61867,-93.0232558139535,4,1,0,100,0,1
61992,-95.2380952380952,4,1,0,100,0,1
62117,-100,4,1,0,100,0,1
62242,-102.564102564103,4,1,0,100,0,1
62367,-105.263157894737,4,1,0,100,0,1
62492,-95.2380952380952,4,1,0,100,0,1
62617,-97.5609756097561,4,1,0,100,0,1
62867,-100,4,1,0,100,0,1
62930,-101.26582278481,4,1,0,100,0,1
62992,-102.564102564103,4,1,0,100,0,1
63086,-105.263157894737,4,1,0,100,0,1
63211,-108.108108108108,4,1,0,100,0,1
63336,-111.111111111111,4,1,0,100,0,1
63492,-95.2380952380952,4,1,0,100,0,1
63742,-102.564102564103,4,1,0,100,0,1
63867,-105.263157894737,4,1,0,100,0,1
63992,-95.2380952380952,4,1,0,100,0,1
64117,-100,4,1,0,100,0,1
64180,-101.26582278481,4,1,0,100,0,1
64242,-102.564102564103,4,1,0,100,0,1
64367,-105.263157894737,4,1,0,100,0,1
64492,-95.2380952380952,4,1,0,100,0,1
64617,-100,4,1,0,100,0,1
64680,-101.26582278481,4,1,0,100,0,1
64742,-102.564102564103,4,1,0,100,0,1
64867,-105.263157894737,4,1,0,100,0,1
64992,-95.2380952380952,4,1,0,100,0,1
65242,-102.564102564103,4,1,0,100,0,1
65492,-95.2380952380952,4,1,0,100,0,1
65742,-102.564102564103,4,1,0,100,0,1
65867,-105.263157894737,4,1,0,100,0,1
65992,-95.2380952380952,4,1,0,100,0,1
66117,-100,4,1,0,100,0,1
66180,-101.26582278481,4,1,0,100,0,1
66242,-102.564102564103,4,1,0,100,0,1
66367,-105.263157894737,4,1,0,100,0,1
66492,-95.2380952380952,4,1,0,100,0,1
66617,-100,4,1,0,100,0,1
66680,-101.26582278481,4,1,0,100,0,1
66742,-102.564102564103,4,1,0,100,0,1
66867,-105.263157894737,4,1,0,100,0,1
66992,-95.2380952380952,4,1,0,100,0,1
67211,-102.564102564103,4,1,0,100,0,1
67336,-105.263157894737,4,1,0,100,0,1
67492,-95.2380952380952,4,1,0,100,0,1
67742,-102.564102564103,4,1,0,100,0,1
67867,-105.263157894737,4,1,0,100,0,1
67992,-95.2380952380952,4,1,0,100,0,1
68117,-100,4,1,0,100,0,1
68180,-101.26582278481,4,1,0,100,0,1
68242,-102.564102564103,4,1,0,100,0,1
68367,-105.263157894737,4,1,0,100,0,1
68492,-95.2380952380952,4,1,0,100,0,1
68617,-100,4,1,0,100,0,1
68680,-101.26582278481,4,1,0,100,0,1
68742,-102.564102564103,4,1,0,100,0,1
68867,-105.263157894737,4,1,0,100,0,1
68992,-95.2380952380952,4,1,0,100,0,1
69117,-100,4,1,0,100,0,1
69242,-102.564102564103,4,1,0,100,0,1
69492,-95.2380952380952,4,1,0,100,0,1
69711,-103.448347205757,4,1,0,100,0,1
69836,-105.263157894737,4,1,0,100,0,1
69961,-108.108108108108,4,1,0,100,0,1
70086,-111.111111111111,4,1,0,100,0,1
70211,-114.285714285714,4,1,0,100,0,1
70305,-115.942028985507,4,1,0,100,0,1
70367,-117.647058823529,4,1,0,100,0,1
70461,-119.402985074627,4,1,0,100,0,1
70524,-119.402985074627,4,1,0,100,0,0
71461,-125,4,1,0,80,0,0
87649,-142.857142857143,4,1,0,70,0,0
103461,-100,4,1,0,90,0,0
103586,-102.040816326531,4,1,0,90,0,0
103711,-104.166666666667,4,1,0,90,0,0
103836,-106.382978723404,4,1,0,90,0,0
103961,-108.695652173913,4,1,0,90,0,0
104086,-111.111111111111,4,1,0,90,0,0
104180,-112.359550561798,4,1,0,90,0,0
104242,-113.636363636364,4,1,0,90,0,0
104336,-116.279069767442,4,1,0,90,0,0
104461,-100,4,1,0,90,0,0
104586,-102.040816326531,4,1,0,90,0,0
104742,-104.166666666667,4,1,0,90,0,0
104836,-106.382978723404,4,1,0,90,0,0
104961,-108.695652173913,4,1,0,90,0,0
105086,-111.111111111111,4,1,0,90,0,0
105211,-113.636363636364,4,1,0,90,0,0
105461,-100,4,1,0,90,0,0
105586,-102.040816326531,4,1,0,90,0,0
105711,-104.166666666667,4,1,0,90,0,0
105836,-106.382978723404,4,1,0,90,0,0
105961,-108.695652173913,4,1,0,90,0,0
106086,-111.111111111111,4,1,0,90,0,0
106180,-112.359550561798,4,1,0,90,0,0
106242,-113.636363636364,4,1,0,90,0,0
106336,-116.279069767442,4,1,0,90,0,0
106461,-100,4,1,0,90,0,0
106586,-102.040816326531,4,1,0,90,0,0
106680,-103.092783505155,4,1,0,90,0,0
106742,-104.166666666667,4,1,0,90,0,0
106836,-106.382978723404,4,1,0,90,0,0
106961,-108.695652173913,4,1,0,90,0,0
107117,-111.111111111111,4,1,0,90,0,0
107211,-113.636363636364,4,1,0,90,0,0
107461,-100,4,1,0,90,0,0
107586,-102.040816326531,4,1,0,90,0,0
107711,-104.166666666667,4,1,0,90,0,0
107836,-106.382978723404,4,1,0,90,0,0
107961,-108.695652173913,4,1,0,90,0,0
108086,-111.111111111111,4,1,0,90,0,0
108180,-112.359550561798,4,1,0,90,0,0
108242,-113.636363636364,4,1,0,90,0,0
108336,-116.279069767442,4,1,0,90,0,0
108461,-100,4,1,0,90,0,0
108586,-102.040816326531,4,1,0,90,0,0
108742,-104.166666666667,4,1,0,90,0,0
108836,-106.382978723404,4,1,0,90,0,0
108961,-108.695652173913,4,1,0,90,0,0
109086,-111.111111111111,4,1,0,90,0,0
109211,-113.636363636364,4,1,0,90,0,0
109461,-100,4,1,0,90,0,0
109586,-102.040816326531,4,1,0,90,0,0
109711,-104.166666666667,4,1,0,90,0,0
109836,-106.382978723404,4,1,0,90,0,0
109961,-108.695652173913,4,1,0,90,0,0
110086,-111.111111111111,4,1,0,90,0,0
110180,-112.359550561798,4,1,0,90,0,0
110242,-113.636363636364,4,1,0,90,0,0
110336,-116.279069767442,4,1,0,90,0,0
110461,-119.047619047619,4,1,0,90,0,0
110586,-121.951219512195,4,1,0,90,0,0
110836,-125,4,1,0,90,0,0
110961,-128.205128205128,4,1,0,90,0,0
111086,-131.578947368421,4,1,0,90,0,0
111211,-135.135135135135,4,1,0,90,0,0
111336,-138.888888888889,4,1,0,90,0,0
111461,-100,4,1,0,90,0,0
111586,-102.040816326531,4,1,0,90,0,0
111711,-104.166666666667,4,1,0,90,0,0
111836,-106.382978723404,4,1,0,90,0,0
111961,-108.695652173913,4,1,0,90,0,0
112086,-111.111111111111,4,1,0,90,0,0
112180,-112.359550561798,4,1,0,90,0,0
112242,-113.636363636364,4,1,0,90,0,0
112336,-116.279069767442,4,1,0,90,0,0
112461,-100,4,1,0,90,0,0
112586,-102.040816326531,4,1,0,90,0,0
112742,-104.166666666667,4,1,0,90,0,0
112836,-106.382978723404,4,1,0,90,0,0
112961,-108.695652173913,4,1,0,90,0,0
113086,-111.111111111111,4,1,0,90,0,0
113211,-113.636363636364,4,1,0,90,0,0
113461,-100,4,1,0,90,0,0
113586,-102.040816326531,4,1,0,90,0,0
113711,-104.166666666667,4,1,0,90,0,0
113836,-106.382978723404,4,1,0,90,0,0
113961,-108.695652173913,4,1,0,90,0,0
114086,-111.111111111111,4,1,0,90,0,0
114180,-112.359550561798,4,1,0,90,0,0
114242,-113.636363636364,4,1,0,90,0,0
114336,-116.279069767442,4,1,0,90,0,0
114461,-100,4,1,0,90,0,0
114586,-102.040816326531,4,1,0,90,0,0
114680,-103.092783505155,4,1,0,90,0,0
114742,-104.166666666667,4,1,0,90,0,0
114836,-106.382978723404,4,1,0,90,0,0
114961,-108.695652173913,4,1,0,90,0,0
115117,-111.111111111111,4,1,0,90,0,0
115211,-113.636363636364,4,1,0,90,0,0
115461,-100,4,1,0,90,0,0
115586,-102.040816326531,4,1,0,90,0,0
115711,-104.166666666667,4,1,0,90,0,0
115836,-106.382978723404,4,1,0,90,0,0
115961,-108.695652173913,4,1,0,90,0,0
116086,-111.111111111111,4,1,0,90,0,0
116180,-112.359550561798,4,1,0,90,0,0
116242,-113.636363636364,4,1,0,90,0,0
116336,-116.279069767442,4,1,0,90,0,0
116461,-100,4,1,0,90,0,0
116586,-102.040816326531,4,1,0,90,0,0
116742,-104.166666666667,4,1,0,90,0,0
116836,-106.382978723404,4,1,0,90,0,0
116961,-108.695652173913,4,1,0,90,0,0
117086,-111.111111111111,4,1,0,90,0,0
117211,-113.636363636364,4,1,0,90,0,0
117336,-116.279069767442,4,1,0,90,0,0
117461,-119.047619047619,4,1,0,90,0,0
117711,-100,4,1,0,90,0,0
117836,-102.040816326531,4,1,0,90,0,0
117961,-104.166666666667,4,1,0,90,0,0
118086,-106.382978723404,4,1,0,90,0,0
118211,-108.695652173913,4,1,0,90,0,0
118336,-111.111111111111,4,1,0,90,0,0
118461,-113.636363636364,4,1,0,90,0,0
118586,-116.279069767442,4,1,0,90,0,0
118711,-119.047619047619,4,1,0,90,0,0
118836,-121.951219512195,4,1,0,90,0,0
118961,-125,4,1,0,90,0,0
119055,-126.582278481013,4,1,0,90,0,0
119117,-128.205128205128,4,1,0,90,0,0
119180,-129.87012987013,4,1,0,90,0,0
119242,-131.578947368421,4,1,0,90,0,0
119336,-135.135135135135,4,1,0,90,0,0
119461,-138.888888888889,4,1,0,45,0,0
119586,-142.857142857143,4,1,0,45,0,0
127461,-125,4,1,0,90,0,0
127711,-123.456790123457,4,1,0,90,0,0
127836,-121.951219512195,4,1,0,90,0,0
127961,-119.047619047619,4,1,0,90,0,0
128211,-117.647058823529,4,1,0,90,0,0
128336,-116.279069767442,4,1,0,90,0,0
128461,-113.636363636364,4,1,0,90,0,0
128711,-112.359550561798,4,1,0,90,0,0
128836,-111.111111111111,4,1,0,90,0,0
128961,-108.695652173913,4,1,0,90,0,0
129211,-107.52688172043,4,1,0,90,0,0
129461,-105.263157894737,4,1,0,90,0,0
129711,-104.166666666667,4,1,0,90,0,0
129836,-103.092783505155,4,1,0,90,0,0
129961,-101.010101010101,4,1,0,90,0,0
130211,-100,4,1,0,90,0,0
130461,-98.0392156862745,4,1,0,90,0,0
130711,-97.0873786407767,4,1,0,90,0,0
130836,-96.1538461538461,4,1,0,90,0,0
130961,-95.2380952380952,4,1,0,90,0,0
131086,-94.3396226415094,4,1,0,90,0,0
131211,-93.4579439252336,4,1,0,90,0,0
131336,-92.5925925925926,4,1,0,90,0,0
131461,-90.9090909090909,4,1,0,90,0,0
131711,-90.0900900900901,4,1,0,90,0,0
131836,-89.2857142857143,4,1,0,90,0,0
131961,-87.719298245614,4,1,0,90,0,0
132211,-86.9565217391304,4,1,0,90,0,0
132336,-86.2068965517241,4,1,0,90,0,0
132461,-85.4700854700855,4,1,0,90,0,0
132586,-84.7457627118644,4,1,0,90,0,0
132836,-84.0336134453781,4,1,0,90,0,0
132961,-83.3333333333333,4,1,0,90,0,0
133086,-82.6446280991736,4,1,0,90,0,0
133211,-81.9672131147541,4,1,0,90,0,0
133336,-81.3008130081301,4,1,0,90,0,0
133524,-71.4285714285714,4,1,0,90,0,0
134524,-105.263157894737,4,1,0,90,0,0
135399,-125,4,1,0,70,0,0
151461,-95.2380952380952,4,1,0,100,0,0
151524,-95.2380952380952,4,1,0,100,0,1
151742,-102.564102564103,4,1,0,100,0,1
151867,-105.263157894737,4,1,0,100,0,1
151992,-95.2380952380952,4,1,0,100,0,1
152117,-100,4,1,0,100,0,1
152180,-101.26582278481,4,1,0,100,0,1
152242,-102.564102564103,4,1,0,100,0,1
152367,-105.263157894737,4,1,0,100,0,1
152492,-95.2380952380952,4,1,0,100,0,1
152617,-100,4,1,0,100,0,1
152680,-101.26582278481,4,1,0,100,0,1
152742,-102.564102564103,4,1,0,100,0,1
152867,-105.263157894737,4,1,0,100,0,1
152992,-95.2380952380952,4,1,0,100,0,1
153242,-102.564102564103,4,1,0,100,0,1
153492,-95.2380952380952,4,1,0,100,0,1
153742,-102.564102564103,4,1,0,100,0,1
153867,-105.263157894737,4,1,0,100,0,1
153992,-95.2380952380952,4,1,0,100,0,1
154117,-100,4,1,0,100,0,1
154180,-101.26582278481,4,1,0,100,0,1
154242,-102.564102564103,4,1,0,100,0,1
154367,-105.263157894737,4,1,0,100,0,1
154492,-95.2380952380952,4,1,0,100,0,1
154617,-100,4,1,0,100,0,1
154680,-101.26582278481,4,1,0,100,0,1
154742,-102.564102564103,4,1,0,100,0,1
154867,-105.263157894737,4,1,0,100,0,1
154992,-95.2380952380952,4,1,0,100,0,1
155211,-102.564102564103,4,1,0,100,0,1
155336,-105.263157894737,4,1,0,100,0,1
155492,-95.2380952380952,4,1,0,100,0,1
155742,-102.564102564103,4,1,0,100,0,1
155867,-105.263157894737,4,1,0,100,0,1
155992,-95.2380952380952,4,1,0,100,0,1
156117,-100,4,1,0,100,0,1
156180,-101.26582278481,4,1,0,100,0,1
156242,-102.564102564103,4,1,0,100,0,1
156367,-105.263157894737,4,1,0,100,0,1
156492,-95.2380952380952,4,1,0,100,0,1
156617,-100,4,1,0,100,0,1
156680,-101.26582278481,4,1,0,100,0,1
156742,-102.564102564103,4,1,0,100,0,1
156867,-105.263157894737,4,1,0,100,0,1
156992,-95.2380952380952,4,1,0,100,0,1
157117,-100,4,1,0,100,0,1
157242,-101.26582278481,4,1,0,100,0,1
157492,-95.2380952380952,4,1,0,100,0,1
157867,-93.0232558139535,4,1,0,100,0,1
157992,-95.2380952380952,4,1,0,100,0,1
158117,-100,4,1,0,100,0,1
158242,-102.564102564103,4,1,0,100,0,1
158367,-105.263157894737,4,1,0,100,0,1
158492,-95.2380952380952,4,1,0,100,0,1
158617,-97.5609756097561,4,1,0,100,0,1
158867,-100,4,1,0,100,0,1
158930,-101.26582278481,4,1,0,100,0,1
158992,-102.564102564103,4,1,0,100,0,1
159086,-105.263157894737,4,1,0,100,0,1
159211,-108.108108108108,4,1,0,100,0,1
159336,-111.111111111111,4,1,0,100,0,1
159492,-95.2380952380952,4,1,0,100,0,1
159742,-102.564102564103,4,1,0,100,0,1
159867,-105.263157894737,4,1,0,100,0,1
159992,-95.2380952380952,4,1,0,100,0,1
160117,-100,4,1,0,100,0,1
160180,-101.26582278481,4,1,0,100,0,1
160242,-102.564102564103,4,1,0,100,0,1
160367,-105.263157894737,4,1,0,100,0,1
160492,-95.2380952380952,4,1,0,100,0,1
160617,-100,4,1,0,100,0,1
160680,-101.26582278481,4,1,0,100,0,1
160742,-102.564102564103,4,1,0,100,0,1
160867,-105.263157894737,4,1,0,100,0,1
160992,-95.2380952380952,4,1,0,100,0,1
161242,-102.564102564103,4,1,0,100,0,1
161492,-95.2380952380952,4,1,0,100,0,1
161742,-102.564102564103,4,1,0,100,0,1
161867,-105.263157894737,4,1,0,100,0,1
161992,-95.2380952380952,4,1,0,100,0,1
162117,-100,4,1,0,100,0,1
162180,-101.26582278481,4,1,0,100,0,1
162242,-102.564102564103,4,1,0,100,0,1
162367,-105.263157894737,4,1,0,100,0,1
162492,-95.2380952380952,4,1,0,100,0,1
162617,-100,4,1,0,100,0,1
162680,-101.26582278481,4,1,0,100,0,1
162742,-102.564102564103,4,1,0,100,0,1
162867,-105.263157894737,4,1,0,100,0,1
162992,-95.2380952380952,4,1,0,100,0,1
163211,-102.564102564103,4,1,0,100,0,1
163336,-105.263157894737,4,1,0,100,0,1
163492,-95.2380952380952,4,1,0,100,0,1
163742,-102.564102564103,4,1,0,100,0,1
163867,-105.263157894737,4,1,0,100,0,1
163992,-95.2380952380952,4,1,0,100,0,1
164117,-100,4,1,0,100,0,1
164180,-101.26582278481,4,1,0,100,0,1
164242,-102.564102564103,4,1,0,100,0,1
164367,-105.263157894737,4,1,0,100,0,1
164492,-95.2380952380952,4,1,0,100,0,1
164617,-100,4,1,0,100,0,1
164680,-101.26582278481,4,1,0,100,0,1
164742,-102.564102564103,4,1,0,100,0,1
164867,-105.263157894737,4,1,0,100,0,1
164992,-95.2380952380952,4,1,0,100,0,1
165117,-100,4,1,0,100,0,1
165242,-102.564102564103,4,1,0,100,0,1
165492,-95.2380952380952,4,1,0,100,0,1
165711,-103.448347205757,4,1,0,100,0,1
165836,-105.263157894737,4,1,0,100,0,1
165961,-95.2380952380952,4,1,0,100,0,1
166086,-100,4,1,0,100,0,1
166180,-101.26582278481,4,1,0,100,0,1
166242,-102.564102564103,4,1,0,100,0,1
166336,-105.263157894737,4,1,0,100,0,1
166461,-108.108108108108,4,1,0,100,0,1
166711,-102.564102564103,4,1,0,100,0,1
166836,-105.263157894737,4,1,0,100,0,1
166961,-108.108108108108,4,1,0,100,0,1
167086,-111.111111111111,4,1,0,100,0,1
167211,-114.285714285714,4,1,0,100,0,1
167305,-115.942028985507,4,1,0,100,0,1
167367,-117.647058823529,4,1,0,100,0,1
167461,-95.2380952380952,4,1,0,100,0,1
167711,-100,4,1,0,100,0,1
167836,-102.564102564103,4,1,0,100,0,1
167961,-105.263157894737,4,1,0,100,0,1
168086,-108.108108108108,4,1,0,100,0,1
168211,-90.9090909090909,4,1,0,100,0,1
168461,-95.2380952380952,4,1,0,100,0,1
168711,-100,4,1,0,100,0,1
168836,-102.564102564103,4,1,0,100,0,1
168930,-103.896103896104,4,1,0,100,0,1
168992,-105.263157894737,4,1,0,100,0,1
169086,-108.108108108108,4,1,0,100,0,1
169211,-90.9090909090909,4,1,0,100,0,1
169461,-95.2380952380952,4,1,0,100,0,1
169711,-100,4,1,0,100,0,1
169836,-102.564102564103,4,1,0,100,0,1
169961,-105.263157894737,4,1,0,100,0,1
170086,-108.108108108108,4,1,0,100,0,1
170211,-90.9090909090909,4,1,0,100,0,1
170461,-95.2380952380952,4,1,0,100,0,1
170711,-100,4,1,0,100,0,1
170836,-102.564102564103,4,1,0,100,0,1
170930,-103.896103896104,4,1,0,100,0,1
170992,-105.263157894737,4,1,0,100,0,1
171086,-108.108108108108,4,1,0,100,0,1
171211,-90.9090909090909,4,1,0,100,0,1
171461,-95.2380952380952,4,1,0,100,0,1
171711,-100,4,1,0,100,0,1
171836,-102.564102564103,4,1,0,100,0,1
171961,-105.263157894737,4,1,0,100,0,1
172086,-108.108108108108,4,1,0,100,0,1
172211,-90.9090909090909,4,1,0,100,0,1
172461,-95.2380952380952,4,1,0,100,0,1
172711,-100,4,1,0,100,0,1
172836,-102.564102564103,4,1,0,100,0,1
172930,-103.896103896104,4,1,0,100,0,1
172992,-105.263157894737,4,1,0,100,0,1
173086,-108.108108108108,4,1,0,100,0,1
173211,-90.9090909090909,4,1,0,100,0,1
173461,-95.2380952380952,4,1,0,100,0,1
173711,-100,4,1,0,100,0,1
173836,-102.564102564103,4,1,0,100,0,1
173961,-105.263157894737,4,1,0,100,0,1
174086,-108.108108108108,4,1,0,100,0,1
174211,-90.9090909090909,4,1,0,100,0,1
174461,-95.2380952380952,4,1,0,100,0,1
174711,-100,4,1,0,100,0,1
174836,-102.564102564103,4,1,0,100,0,1
174930,-103.896103896104,4,1,0,100,0,1
174992,-105.263157894737,4,1,0,100,0,1
175086,-108.108108108108,4,1,0,100,0,1
175211,-90.9090909090909,4,1,0,100,0,1
175461,-95.2380952380952,4,1,0,100,0,1
175711,-100,4,1,0,100,0,1
175836,-102.564102564103,4,1,0,100,0,1
175961,-105.263157894737,4,1,0,100,0,1
176086,-108.108108108108,4,1,0,100,0,1
176211,-90.9090909090909,4,1,0,100,0,1
176461,-95.2380952380952,4,1,0,100,0,1
176711,-100,4,1,0,100,0,1
176836,-102.564102564103,4,1,0,100,0,1
176930,-103.896103896104,4,1,0,100,0,1
176992,-105.263157894737,4,1,0,100,0,1
177086,-108.108108108108,4,1,0,100,0,1
177211,-90.9090909090909,4,1,0,100,0,1
177461,-95.2380952380952,4,1,0,100,0,1
177711,-100,4,1,0,100,0,1
177836,-102.564102564103,4,1,0,100,0,1
177961,-105.263157894737,4,1,0,100,0,1
178086,-108.108108108108,4,1,0,100,0,1
178211,-90.9090909090909,4,1,0,100,0,1
178461,-95.2380952380952,4,1,0,100,0,1
178711,-100,4,1,0,100,0,1
178836,-102.564102564103,4,1,0,100,0,1
178930,-103.896103896104,4,1,0,100,0,1
178992,-105.263157894737,4,1,0,100,0,1
179086,-108.108108108108,4,1,0,100,0,1
179211,-90.9090909090909,4,1,0,100,0,1
179430,-95.2380952380952,4,1,0,100,0,1
179711,-100,4,1,0,100,0,1
179836,-102.564102564103,4,1,0,100,0,1
179961,-105.263157894737,4,1,0,100,0,1
180086,-108.108108108108,4,1,0,100,0,1
180211,-90.9090909090909,4,1,0,100,0,1
180430,-95.2380952380952,4,1,0,100,0,1
180711,-100,4,1,0,100,0,1
180836,-102.564102564103,4,1,0,100,0,1
180961,-105.263157894737,4,1,0,100,0,1
181086,-108.108108108108,4,1,0,100,0,1
181211,-111.111111111111,4,1,0,100,0,1
181305,-113.636363636364,4,1,0,100,0,1
181367,-116.279069767442,4,1,0,100,0,1
181430,-119.047619047619,4,1,0,100,0,1
181524,250,48,1,0,5,1,0
181524,-121.951219512195,48,1,0,5,0,0
193274,-125,48,1,0,80,0,0
193524,250,4,1,0,80,1,0
193524,-125,4,1,0,80,0,0

[HitObjects]
256,192,524,5,4,0:0:0:0:
256,192,774,1,0,0:0:0:0:
256,192,899,1,8,0:0:0:0:
256,192,1024,1,0,0:0:0:0:
256,192,1149,1,0,0:0:0:0:
256,192,1274,1,8,0:0:0:0:
256,192,1524,1,12,0:0:0:0:
256,192,1649,1,0,0:0:0:0:
256,192,1774,1,0,0:0:0:0:
256,192,1899,1,8,0:0:0:0:
256,192,2024,1,0,0:0:0:0:
256,192,2149,1,0,0:0:0:0:
256,192,2274,1,8,0:0:0:0:
256,192,2524,1,4,0:0:0:0:
256,192,2774,1,0,0:0:0:0:
256,192,2899,1,8,0:0:0:0:
256,192,3024,1,0,0:0:0:0:
256,192,3149,1,0,0:0:0:0:
256,192,3274,1,8,0:0:0:0:
256,192,3524,1,12,0:0:0:0:
256,192,3649,1,0,0:0:0:0:
256,192,3774,1,0,0:0:0:0:
256,192,3899,1,8,0:0:0:0:
256,192,4024,1,0,0:0:0:0:
256,192,4149,1,0,0:0:0:0:
256,192,4274,1,8,0:0:0:0:
256,192,4524,1,4,0:0:0:0:
256,192,4774,1,0,0:0:0:0:
256,192,4899,1,8,0:0:0:0:
256,192,5024,1,0,0:0:0:0:
256,192,5149,1,0,0:0:0:0:
256,192,5274,1,8,0:0:0:0:
256,192,5524,1,12,0:0:0:0:
256,192,5774,1,0,0:0:0:0:
256,192,5899,1,8,0:0:0:0:
256,192,6024,1,8,0:0:0:0:
256,192,6149,1,8,0:0:0:0:
256,192,6274,1,8,0:0:0:0:
256,192,6399,1,8,0:0:0:0:
256,192,7524,1,4,0:0:0:0:
256,192,7774,1,8,0:0:0:0:
256,192,7857,1,8,0:0:0:0:
256,192,7940,1,8,0:0:0:0:
256,192,8024,1,0,0:0:0:0:
256,192,8149,1,8,0:0:0:0:
256,192,8399,1,8,0:0:0:0:
256,192,8524,1,0,0:0:0:0:
256,192,8649,1,8,0:0:0:0:
256,192,8899,1,8,0:0:0:0:
256,192,9024,1,0,0:0:0:0:
256,192,9274,1,8,0:0:0:0:
256,192,9399,1,8,0:0:0:0:
256,192,9524,1,0,0:0:0:0:
256,192,9774,1,8,0:0:0:0:
256,192,9857,1,8,0:0:0:0:
256,192,9940,1,8,0:0:0:0:
256,192,10024,1,0,0:0:0:0:
256,192,10149,1,8,0:0:0:0:
256,192,10399,1,8,0:0:0:0:
256,192,10524,1,0,0:0:0:0:
256,192,10649,1,8,0:0:0:0:
256,192,10899,1,8,0:0:0:0:
256,192,11024,1,0,0:0:0:0:
256,192,11149,1,0,0:0:0:0:
256,192,11274,1,8,0:0:0:0:
256,192,11524,1,0,0:0:0:0:
256,192,11774,1,8,0:0:0:0:
256,192,11857,1,8,0:0:0:0:
256,192,11940,1,8,0:0:0:0:
256,192,12024,1,0,0:0:0:0:
256,192,12149,1,8,0:0:0:0:
256,192,12399,1,8,0:0:0:0:
256,192,12524,1,0,0:0:0:0:
256,192,12649,1,8,0:0:0:0:
256,192,12899,1,8,0:0:0:0:
256,192,13024,1,0,0:0:0:0:
256,192,13274,1,8,0:0:0:0:
256,192,13399,1,8,0:0:0:0:
256,192,13524,1,0,0:0:0:0:
256,192,13774,1,8,0:0:0:0:
256,192,13857,1,8,0:0:0:0:
256,192,13940,1,8,0:0:0:0:
256,192,14024,1,0,0:0:0:0:
256,192,14149,1,8,0:0:0:0:
256,192,14399,1,8,0:0:0:0:
256,192,14524,1,0,0:0:0:0:
256,192,14649,1,8,0:0:0:0:
256,160,14774,1,8,0:0:0:0:
256,192,14899,1,8,0:0:0:0:
256,192,15024,1,0,0:0:0:0:
256,192,15274,1,8,0:0:0:0:
256,192,15399,1,8,0:0:0:0:
256,192,15524,1,0,0:0:0:0:
256,192,15774,1,8,0:0:0:0:
256,192,15857,1,8,0:0:0:0:
256,192,15940,1,8,0:0:0:0:
256,192,16024,1,0,0:0:0:0:
256,192,16149,1,8,0:0:0:0:
256,192,16399,1,8,0:0:0:0:
256,192,16524,1,0,0:0:0:0:
256,192,16649,1,8,0:0:0:0:
256,192,16899,1,8,0:0:0:0:
256,192,17024,1,0,0:0:0:0:
256,192,17274,1,8,0:0:0:0:
256,192,17399,1,8,0:0:0:0:
256,192,17524,1,0,0:0:0:0:
256,192,17774,1,8,0:0:0:0:
256,192,17857,1,8,0:0:0:0:
256,192,17940,1,8,0:0:0:0:
256,192,18024,1,0,0:0:0:0:
256,192,18149,1,8,0:0:0:0:
256,192,18399,1,8,0:0:0:0:
256,192,18524,1,0,0:0:0:0:
256,192,18649,1,8,0:0:0:0:
256,192,18899,1,8,0:0:0:0:
256,192,19024,1,0,0:0:0:0:
256,192,19149,1,0,0:0:0:0:
256,192,19274,1,8,0:0:0:0:
256,192,19524,1,0,0:0:0:0:
256,192,19774,1,8,0:0:0:0:
256,192,19857,1,8,0:0:0:0:
256,192,19940,1,8,0:0:0:0:
256,192,20024,1,0,0:0:0:0:
256,192,20149,1,8,0:0:0:0:
256,192,20399,1,8,0:0:0:0:
256,192,20524,1,0,0:0:0:0:
256,192,20649,1,8,0:0:0:0:
256,192,20899,1,8,0:0:0:0:
256,192,21024,1,0,0:0:0:0:
256,192,21274,1,8,0:0:0:0:
256,192,21399,1,8,0:0:0:0:
256,192,21524,1,0,0:0:0:0:
256,192,21774,1,8,0:0:0:0:
256,192,21857,1,8,0:0:0:0:
256,192,21940,1,8,0:0:0:0:
256,192,22024,1,0,0:0:0:0:
256,192,22149,1,8,0:0:0:0:
256,192,22399,1,8,0:0:0:0:
256,192,22524,1,0,0:0:0:0:
256,192,22649,1,8,0:0:0:0:
256,160,22774,1,8,0:0:0:0:
256,192,22899,1,8,0:0:0:0:
256,192,23024,1,0,0:0:0:0:
256,192,23274,1,8,0:0:0:0:
256,192,23399,1,8,0:0:0:0:
256,192,23524,1,0,0:0:0:0:
256,192,23774,1,8,0:0:0:0:
256,192,24024,1,0,0:0:0:0:
256,192,24149,1,8,0:0:0:0:
256,192,24399,1,8,0:0:0:0:
256,192,24524,1,0,0:0:0:0:
256,192,25024,1,0,0:0:0:0:
256,192,25524,1,0,0:0:0:0:
256,192,25649,1,0,0:0:0:0:
256,192,25774,1,8,0:0:0:0:
256,192,26024,1,0,0:0:0:0:
256,192,26149,1,8,0:0:0:0:
256,192,26399,1,8,0:0:0:0:
256,192,26524,1,0,0:0:0:0:
256,192,27024,1,0,0:0:0:0:
256,192,27524,1,0,0:0:0:0:
256,192,27774,1,8,0:0:0:0:
256,192,28024,1,0,0:0:0:0:
256,192,28149,1,8,0:0:0:0:
256,192,28399,1,8,0:0:0:0:
256,192,28524,1,0,0:0:0:0:
256,192,29024,1,0,0:0:0:0:
256,192,29524,1,0,0:0:0:0:
256,192,29649,1,0,0:0:0:0:
256,192,29774,1,8,0:0:0:0:
256,192,30024,1,0,0:0:0:0:
256,192,30149,1,8,0:0:0:0:
256,192,30399,1,8,0:0:0:0:
256,192,30524,1,0,0:0:0:0:
256,192,30774,1,8,0:0:0:0:
256,192,31024,1,0,0:0:0:0:
256,192,31524,1,0,0:0:0:0:
256,192,31774,1,8,0:0:0:0:
256,192,32024,1,0,0:0:0:0:
256,192,32149,1,8,0:0:0:0:
256,192,32399,1,8,0:0:0:0:
256,192,32524,1,0,0:0:0:0:
256,192,33024,1,0,0:0:0:0:
256,192,33524,1,0,0:0:0:0:
256,192,33649,1,0,0:0:0:0:
256,192,33774,1,8,0:0:0:0:
256,192,34024,1,0,0:0:0:0:
256,192,34149,1,8,0:0:0:0:
256,192,34399,1,8,0:0:0:0:
256,192,34524,1,0,0:0:0:0:
256,192,35024,1,0,0:0:0:0:
256,192,35524,1,0,0:0:0:0:
256,192,35774,1,8,0:0:0:0:
256,192,36024,1,0,0:0:0:0:
256,192,36149,1,8,0:0:0:0:
256,192,36399,1,8,0:0:0:0:
256,192,36524,1,0,0:0:0:0:
256,192,37024,1,0,0:0:0:0:
256,192,37524,1,0,0:0:0:0:
256,192,37649,1,0,0:0:0:0:
256,192,37774,1,8,0:0:0:0:
256,192,38024,1,0,0:0:0:0:
256,192,38149,1,8,0:0:0:0:
256,192,38399,1,8,0:0:0:0:
256,192,38524,1,0,0:0:0:0:
256,192,39024,1,0,0:0:0:0:
256,192,39524,5,4,0:0:0:0:
288,192,39649,1,8,0:0:0:0:
256,192,39774,1,0,0:0:0:0:
256,192,39899,1,8,0:0:0:0:
256,192,40024,1,0,0:0:0:0:
256,192,40149,1,0,0:0:0:0:
224,192,40211,1,0,0:0:0:0:
256,192,40274,1,8,0:0:0:0:
256,192,40399,1,0,0:0:0:0:
256,192,40524,1,12,0:0:0:0:
256,192,40649,1,0,0:0:0:0:
256,192,40774,1,0,0:0:0:0:
256,192,40899,1,8,0:0:0:0:
256,192,41024,1,0,0:0:0:0:
256,192,41149,1,0,0:0:0:0:
256,192,41274,1,8,0:0:0:0:
256,192,41524,1,4,0:0:0:0:
256,192,41649,1,8,0:0:0:0:
256,192,41774,1,0,0:0:0:0:
256,192,41899,1,8,0:0:0:0:
256,192,42024,1,0,0:0:0:0:
256,192,42149,1,0,0:0:0:0:
256,160,42211,1,0,0:0:0:0:
256,192,42274,1,8,0:0:0:0:
256,192,42399,1,0,0:0:0:0:
256,192,42524,1,12,0:0:0:0:
256,192,42649,1,0,0:0:0:0:
288,160,42711,1,0,0:0:0:0:
256,192,42774,1,0,0:0:0:0:
256,192,42899,1,8,0:0:0:0:
256,192,43024,1,0,0:0:0:0:
256,192,43149,1,0,0:0:0:0:
256,192,43274,1,8,0:0:0:0:
256,192,43524,1,4,0:0:0:0:
256,192,43649,1,8,0:0:0:0:
256,192,43774,1,0,0:0:0:0:
256,192,43899,1,8,0:0:0:0:
256,192,44024,5,0,0:0:0:0:
256,192,44149,1,0,0:0:0:0:
256,192,44211,1,0,0:0:0:0:
256,192,44274,1,8,0:0:0:0:
256,192,44399,1,0,0:0:0:0:
256,192,44524,1,12,0:0:0:0:
256,192,44649,1,0,0:0:0:0:
256,192,44774,1,0,0:0:0:0:
256,192,44899,1,8,0:0:0:0:
256,192,45024,1,0,0:0:0:0:
256,192,45149,1,0,0:0:0:0:
256,192,45274,1,8,0:0:0:0:
256,192,45524,1,4,0:0:0:0:
256,192,45649,1,8,0:0:0:0:
256,192,45774,1,0,0:0:0:0:
256,192,45899,1,8,0:0:0:0:
256,192,46024,1,0,0:0:0:0:
256,192,46149,1,0,0:0:0:0:
256,192,46211,1,0,0:0:0:0:
256,192,46274,1,8,0:0:0:0:
256,192,46399,1,0,0:0:0:0:
256,192,46524,1,0,0:0:0:0:
256,192,46649,1,8,0:0:0:0:
256,192,46899,1,0,0:0:0:0:
256,192,47024,1,8,0:0:0:0:
256,192,47149,1,8,0:0:0:0:
256,192,47274,1,8,0:0:0:0:
256,192,47399,1,8,0:0:0:0:
256,192,47524,1,4,0:0:0:0:
256,192,47649,1,8,0:0:0:0:
256,192,47774,1,0,0:0:0:0:
256,192,47899,1,8,0:0:0:0:
256,192,48024,1,0,0:0:0:0:
256,192,48149,1,0,0:0:0:0:
256,192,48211,5,0,0:0:0:0:
256,192,48274,1,8,0:0:0:0:
256,192,48399,1,0,0:0:0:0:
256,192,48524,1,12,0:0:0:0:
256,192,48649,1,0,0:0:0:0:
256,192,48774,1,0,0:0:0:0:
256,192,48899,1,8,0:0:0:0:
256,192,49024,1,0,0:0:0:0:
256,192,49149,1,0,0:0:0:0:
256,192,49274,1,8,0:0:0:0:
256,192,49524,1,4,0:0:0:0:
256,160,49649,1,8,0:0:0:0:
256,160,49774,1,0,0:0:0:0:
256,160,49899,1,8,0:0:0:0:
256,160,50024,1,0,0:0:0:0:
256,160,50149,1,0,0:0:0:0:
256,192,50211,1,0,0:0:0:0:
256,160,50274,1,8,0:0:0:0:
256,160,50399,1,0,0:0:0:0:
256,160,50524,1,12,0:0:0:0:
256,160,50649,1,0,0:0:0:0:
320,192,50711,1,0,0:0:0:0:
256,192,50774,1,0,0:0:0:0:
256,192,50899,1,8,0:0:0:0:
256,192,51024,1,0,0:0:0:0:
256,192,51149,1,0,0:0:0:0:
256,192,51274,1,8,0:0:0:0:
256,192,51524,1,4,0:0:0:0:
256,192,51649,1,8,0:0:0:0:
256,192,51774,1,0,0:0:0:0:
256,192,51899,1,8,0:0:0:0:
256,192,52024,1,0,0:0:0:0:
256,192,52149,1,0,0:0:0:0:
256,192,52211,1,0,0:0:0:0:
256,192,52274,1,8,0:0:0:0:
256,192,52399,1,0,0:0:0:0:
256,192,52524,1,12,0:0:0:0:
256,192,52649,1,0,0:0:0:0:
256,192,52774,1,0,0:0:0:0:
256,192,52899,1,8,0:0:0:0:
256,192,53024,1,0,0:0:0:0:
256,192,53149,1,0,0:0:0:0:
256,192,53274,1,8,0:0:0:0:
256,192,53399,1,8,0:0:0:0:
256,192,53524,1,0,0:0:0:0:
256,192,55524,1,4,0:0:0:0:
256,192,55774,1,8,0:0:0:0:
256,192,55899,1,8,0:0:0:0:
256,192,56024,1,4,0:0:0:0:
256,192,56149,1,8,0:0:0:0:
256,192,56211,1,8,0:0:0:0:
256,192,56274,1,0,0:0:0:0:
256,192,56399,1,8,0:0:0:0:
256,192,56524,5,4,0:0:0:0:
256,192,56649,1,0,0:0:0:0:
256,192,56711,1,0,0:0:0:0:
256,192,56774,1,8,0:0:0:0:
256,192,56899,1,8,0:0:0:0:
256,192,57024,1,4,0:0:0:0:
256,192,57274,1,8,0:0:0:0:
256,192,57524,1,4,0:0:0:0:
256,192,57774,1,8,0:0:0:0:
256,192,57899,1,8,0:0:0:0:
256,192,58024,1,4,0:0:0:0:
256,192,58149,1,8,0:0:0:0:
256,192,58211,1,8,0:0:0:0:
256,192,58274,1,0,0:0:0:0:
256,192,58399,1,8,0:0:0:0:
256,192,58524,1,4,0:0:0:0:
256,192,58649,1,0,0:0:0:0:
288,128,58711,1,0,0:0:0:0:
256,192,58774,1,8,0:0:0:0:
256,192,58899,1,8,0:0:0:0:
256,192,59024,1,4,0:0:0:0:
256,192,59274,1,8,0:0:0:0:
256,192,59399,1,0,0:0:0:0:
256,192,59524,1,12,0:0:0:0:
256,192,59774,1,0,0:0:0:0:
256,192,59899,1,0,0:0:0:0:
256,192,60024,1,12,0:0:0:0:
256,192,60149,1,0,0:0:0:0:
256,192,60211,1,0,0:0:0:0:
256,192,60274,1,8,0:0:0:0:
256,192,60399,1,0,0:0:0:0:
256,192,60524,1,12,0:0:0:0:
256,192,60649,1,8,0:0:0:0:
256,192,60711,1,8,0:0:0:0:
256,192,60774,1,0,0:0:0:0:
256,192,60899,1,0,0:0:0:0:
256,192,61024,1,12,0:0:0:0:
256,192,61149,1,0,0:0:0:0:
256,192,61274,1,0,0:0:0:0:
256,192,61524,1,12,0:0:0:0:
256,192,61899,1,0,0:0:0:0:
256,192,62024,1,12,0:0:0:0:
256,192,62149,1,0,0:0:0:0:
256,192,62274,1,0,0:0:0:0:
256,192,62399,1,0,0:0:0:0:
256,192,62524,1,12,0:0:0:0:
256,192,62649,1,0,0:0:0:0:
256,192,62899,1,0,0:0:0:0:
256,192,62961,1,0,0:0:0:0:
256,192,63024,1,8,0:0:0:0:
256,192,63149,1,8,0:0:0:0:
256,192,63274,1,8,0:0:0:0:
256,192,63399,1,8,0:0:0:0:
256,192,63524,1,4,0:0:0:0:
256,192,63774,1,8,0:0:0:0:
256,192,63899,1,8,0:0:0:0:
256,192,64024,1,4,0:0:0:0:
256,192,64149,1,8,0:0:0:0:
256,192,64211,1,8,0:0:0:0:
256,192,64274,1,0,0:0:0:0:
256,192,64399,1,8,0:0:0:0:
256,192,64524,1,4,0:0:0:0:
256,192,64649,1,0,0:0:0:0:
256,192,64711,1,0,0:0:0:0:
256,192,64774,1,8,0:0:0:0:
256,192,64899,1,8,0:0:0:0:
256,192,65024,1,4,0:0:0:0:
256,192,65274,1,8,0:0:0:0:
256,192,65524,1,4,0:0:0:0:
256,192,65774,1,8,0:0:0:0:
256,192,65899,1,8,0:0:0:0:
256,192,66024,1,4,0:0:0:0:
256,192,66149,1,8,0:0:0:0:
256,192,66211,1,8,0:0:0:0:
256,192,66274,1,0,0:0:0:0:
256,192,66399,1,8,0:0:0:0:
256,192,66524,1,4,0:0:0:0:
256,192,66649,1,0,0:0:0:0:
256,192,66711,1,8,0:0:0:0:
256,192,66774,1,0,0:0:0:0:
256,192,66899,1,8,0:0:0:0:
256,192,67024,1,4,0:0:0:0:
256,192,67274,1,8,0:0:0:0:
256,192,67399,1,0,0:0:0:0:
256,192,67524,1,12,0:0:0:0:
256,192,67774,1,0,0:0:0:0:
256,192,67899,1,0,0:0:0:0:
256,192,68024,1,12,0:0:0:0:
256,192,68149,1,0,0:0:0:0:
256,192,68211,1,0,0:0:0:0:
256,192,68274,1,8,0:0:0:0:
256,192,68399,1,0,0:0:0:0:
256,192,68524,1,12,0:0:0:0:
256,192,68649,1,8,0:0:0:0:
256,192,68711,1,8,0:0:0:0:
256,192,68774,1,0,0:0:0:0:
256,192,68899,1,0,0:0:0:0:
256,192,69024,1,12,0:0:0:0:
256,192,69149,1,0,0:0:0:0:
256,192,69274,1,0,0:0:0:0:
256,192,69524,1,12,0:0:0:0:
256,192,69774,1,0,0:0:0:0:
256,192,69899,1,8,0:0:0:0:
256,192,70024,1,0,0:0:0:0:
256,192,70149,1,0,0:0:0:0:
256,192,70274,1,8,0:0:0:0:
256,192,70336,1,8,0:0:0:0:
256,192,70399,1,8,0:0:0:0:
256,192,70461,1,8,0:0:0:0:
256,192,71524,1,4,0:0:0:0:
256,192,71774,1,8,0:0:0:0:
256,192,71857,1,8,0:0:0:0:
256,192,71940,1,8,0:0:0:0:
256,192,72024,1,0,0:0:0:0:
256,192,72149,1,8,0:0:0:0:
256,192,72399,1,8,0:0:0:0:
256,192,72524,1,0,0:0:0:0:
256,192,72649,1,8,0:0:0:0:
256,192,72899,1,8,0:0:0:0:
256,192,73024,1,0,0:0:0:0:
256,192,73274,1,8,0:0:0:0:
256,192,73399,1,8,0:0:0:0:
256,192,73524,1,0,0:0:0:0:
256,192,73774,1,8,0:0:0:0:
256,192,73857,1,8,0:0:0:0:
256,192,73940,1,8,0:0:0:0:
256,192,74024,1,0,0:0:0:0:
256,192,74149,1,8,0:0:0:0:
256,192,74399,1,8,0:0:0:0:
256,192,74524,1,0,0:0:0:0:
256,192,74649,1,8,0:0:0:0:
256,192,74899,1,8,0:0:0:0:
256,192,75024,1,0,0:0:0:0:
256,192,75149,1,0,0:0:0:0:
256,192,75274,1,8,0:0:0:0:
256,192,75524,1,0,0:0:0:0:
256,192,75774,1,8,0:0:0:0:
256,192,75857,1,8,0:0:0:0:
256,192,75940,1,8,0:0:0:0:
256,192,76024,1,0,0:0:0:0:
256,192,76149,1,8,0:0:0:0:
256,192,76399,1,8,0:0:0:0:
256,192,76524,1,0,0:0:0:0:
256,192,76649,1,8,0:0:0:0:
256,192,76899,1,8,0:0:0:0:
256,192,77024,1,0,0:0:0:0:
256,192,77274,1,8,0:0:0:0:
256,192,77399,1,8,0:0:0:0:
256,192,77524,1,0,0:0:0:0:
256,192,77774,1,8,0:0:0:0:
256,192,77857,1,8,0:0:0:0:
256,192,77940,1,8,0:0:0:0:
256,192,78024,1,0,0:0:0:0:
256,192,78149,1,8,0:0:0:0:
256,192,78399,1,8,0:0:0:0:
256,192,78524,1,0,0:0:0:0:
256,192,78649,1,8,0:0:0:0:
256,160,78774,1,8,0:0:0:0:
256,192,78899,1,8,0:0:0:0:
256,192,79024,1,0,0:0:0:0:
256,192,79274,1,8,0:0:0:0:
256,192,79399,1,8,0:0:0:0:
256,192,79524,1,0,0:0:0:0:
256,192,79774,1,8,0:0:0:0:
256,192,79857,1,8,0:0:0:0:
256,192,79940,1,8,0:0:0:0:
256,192,80024,1,0,0:0:0:0:
256,192,80149,1,8,0:0:0:0:
256,192,80399,1,8,0:0:0:0:
256,192,80524,1,0,0:0:0:0:
256,192,80649,1,8,0:0:0:0:
256,192,80899,1,8,0:0:0:0:
256,192,81024,1,0,0:0:0:0:
256,192,81274,1,8,0:0:0:0:
256,192,81399,1,8,0:0:0:0:
256,192,81524,1,0,0:0:0:0:
256,192,81774,1,8,0:0:0:0:
256,192,81857,1,8,0:0:0:0:
256,192,81940,1,8,0:0:0:0:
256,192,82024,1,0,0:0:0:0:
256,192,82149,1,8,0:0:0:0:
256,192,82399,1,8,0:0:0:0:
256,192,82524,1,0,0:0:0:0:
256,192,82649,1,8,0:0:0:0:
256,192,82899,1,8,0:0:0:0:
256,192,83024,1,0,0:0:0:0:
256,192,83149,1,0,0:0:0:0:
256,192,83274,1,8,0:0:0:0:
256,192,83524,1,0,0:0:0:0:
256,192,83774,1,8,0:0:0:0:
256,192,83857,1,8,0:0:0:0:
256,192,83940,1,8,0:0:0:0:
256,192,84024,1,0,0:0:0:0:
256,192,84149,1,8,0:0:0:0:
256,192,84399,1,8,0:0:0:0:
256,192,84524,1,0,0:0:0:0:
256,192,84649,1,8,0:0:0:0:
256,192,84899,1,8,0:0:0:0:
256,192,85024,1,0,0:0:0:0:
256,192,85274,1,8,0:0:0:0:
256,192,85399,1,8,0:0:0:0:
256,192,85524,1,0,0:0:0:0:
256,192,85774,1,8,0:0:0:0:
256,192,85857,1,8,0:0:0:0:
256,192,85940,1,8,0:0:0:0:
256,192,86024,1,0,0:0:0:0:
256,192,86149,1,8,0:0:0:0:
256,192,86399,1,8,0:0:0:0:
256,192,86524,1,0,0:0:0:0:
256,192,86649,1,8,0:0:0:0:
256,160,86774,1,8,0:0:0:0:
256,192,86899,1,8,0:0:0:0:
256,192,87024,1,0,0:0:0:0:
256,192,87274,1,8,0:0:0:0:
256,192,87399,1,8,0:0:0:0:
256,192,87524,1,0,0:0:0:0:
256,192,87774,1,0,0:0:0:0:
256,192,87857,1,0,0:0:0:0:
256,192,87940,1,0,0:0:0:0:
256,192,88024,1,8,0:0:0:0:
256,192,88149,1,0,0:0:0:0:
256,192,88399,1,0,0:0:0:0:
256,192,88524,1,8,0:0:0:0:
256,192,88649,1,0,0:0:0:0:
256,192,88899,1,0,0:0:0:0:
256,192,89024,1,8,0:0:0:0:
256,192,89274,1,0,0:0:0:0:
256,192,89524,1,8,0:0:0:0:
256,192,89774,1,0,0:0:0:0:
256,192,89857,1,0,0:0:0:0:
256,192,89940,1,0,0:0:0:0:
256,192,90024,1,8,0:0:0:0:
256,192,90149,1,0,0:0:0:0:
256,192,90399,1,0,0:0:0:0:
256,192,90524,1,8,0:0:0:0:
256,192,90649,1,0,0:0:0:0:
256,192,90899,1,0,0:0:0:0:
256,192,91024,1,8,0:0:0:0:
256,192,91274,1,0,0:0:0:0:
256,192,91524,1,8,0:0:0:0:
256,192,91774,1,0,0:0:0:0:
256,192,91857,1,0,0:0:0:0:
256,192,91940,1,0,0:0:0:0:
256,192,92024,1,8,0:0:0:0:
256,192,92149,1,0,0:0:0:0:
256,192,92399,1,0,0:0:0:0:
256,192,92524,1,8,0:0:0:0:
256,192,92649,1,0,0:0:0:0:
256,192,92899,1,0,0:0:0:0:
256,192,93024,1,8,0:0:0:0:
256,192,93274,1,0,0:0:0:0:
256,192,93524,1,8,0:0:0:0:
256,192,93774,1,0,0:0:0:0:
256,192,93857,1,0,0:0:0:0:
256,192,93940,1,0,0:0:0:0:
256,192,94024,1,8,0:0:0:0:
288,160,94149,1,0,0:0:0:0:
288,160,94399,1,0,0:0:0:0:
288,160,94524,1,8,0:0:0:0:
288,160,94649,1,0,0:0:0:0:
288,160,94774,1,0,0:0:0:0:
288,160,94899,1,0,0:0:0:0:
288,160,95024,1,8,0:0:0:0:
288,160,95274,1,0,0:0:0:0:
288,160,95524,1,8,0:0:0:0:
256,192,95774,1,0,0:0:0:0:
256,192,95857,1,0,0:0:0:0:
256,192,95940,1,0,0:0:0:0:
256,192,96024,1,8,0:0:0:0:
256,192,96149,1,0,0:0:0:0:
256,192,96399,1,0,0:0:0:0:
256,192,96524,1,8,0:0:0:0:
256,192,96649,1,0,0:0:0:0:
256,192,96899,1,0,0:0:0:0:
256,192,97024,1,8,0:0:0:0:
256,192,97274,1,0,0:0:0:0:
256,192,97524,1,8,0:0:0:0:
256,192,97774,1,0,0:0:0:0:
256,192,97857,1,0,0:0:0:0:
256,192,97940,1,0,0:0:0:0:
256,192,98024,1,8,0:0:0:0:
256,192,98149,1,0,0:0:0:0:
256,192,98399,1,0,0:0:0:0:
256,192,98524,1,8,0:0:0:0:
256,192,98649,1,0,0:0:0:0:
256,192,98899,1,0,0:0:0:0:
256,192,99024,1,8,0:0:0:0:
256,192,99274,1,0,0:0:0:0:
256,192,99524,1,8,0:0:0:0:
256,192,99774,1,0,0:0:0:0:
256,192,99857,1,0,0:0:0:0:
256,192,99940,1,0,0:0:0:0:
256,192,100024,1,8,0:0:0:0:
256,192,100149,1,0,0:0:0:0:
256,192,100399,1,0,0:0:0:0:
256,192,100524,1,8,0:0:0:0:
256,192,100649,1,0,0:0:0:0:
256,192,100899,1,0,0:0:0:0:
256,192,101024,1,8,0:0:0:0:
256,192,101274,1,0,0:0:0:0:
256,192,101524,1,8,0:0:0:0:
256,192,101774,1,0,0:0:0:0:
256,192,101857,1,0,0:0:0:0:
256,192,101940,1,0,0:0:0:0:
256,192,102024,1,8,0:0:0:0:
288,160,102149,1,0,0:0:0:0:
288,160,102399,1,0,0:0:0:0:
288,160,102524,1,8,0:0:0:0:
288,160,102649,1,0,0:0:0:0:
288,160,102899,1,0,0:0:0:0:
288,160,103024,1,8,0:0:0:0:
256,192,103274,1,8,0:0:0:0:
256,192,103524,5,4,0:0:0:0:
288,192,103649,1,8,0:0:0:0:
256,192,103774,1,0,0:0:0:0:
256,192,103899,1,8,0:0:0:0:
256,192,104024,1,0,0:0:0:0:
256,192,104149,1,0,0:0:0:0:
224,192,104211,1,0,0:0:0:0:
256,192,104274,1,8,0:0:0:0:
256,192,104399,1,0,0:0:0:0:
256,192,104524,1,12,0:0:0:0:
256,192,104649,1,0,0:0:0:0:
256,192,104774,1,0,0:0:0:0:
256,192,104899,1,8,0:0:0:0:
256,192,105024,1,0,0:0:0:0:
256,192,105149,1,0,0:0:0:0:
256,192,105274,1,8,0:0:0:0:
256,192,105524,1,4,0:0:0:0:
256,192,105649,1,8,0:0:0:0:
256,192,105774,1,0,0:0:0:0:
256,192,105899,1,8,0:0:0:0:
256,192,106024,1,0,0:0:0:0:
256,192,106149,1,0,0:0:0:0:
256,160,106211,1,0,0:0:0:0:
256,192,106274,1,8,0:0:0:0:
256,192,106399,1,0,0:0:0:0:
256,192,106524,1,12,0:0:0:0:
256,192,106649,1,0,0:0:0:0:
256,192,106711,1,0,0:0:0:0:
256,192,106774,1,0,0:0:0:0:
256,192,106899,1,8,0:0:0:0:
256,192,107024,1,0,0:0:0:0:
256,192,107149,1,0,0:0:0:0:
256,192,107274,1,8,0:0:0:0:
256,192,107524,1,4,0:0:0:0:
256,192,107649,1,8,0:0:0:0:
256,192,107774,1,0,0:0:0:0:
256,192,107899,1,8,0:0:0:0:
256,192,108024,5,0,0:0:0:0:
256,192,108149,1,0,0:0:0:0:
256,192,108211,1,0,0:0:0:0:
256,192,108274,1,8,0:0:0:0:
256,192,108399,1,0,0:0:0:0:
256,192,108524,1,12,0:0:0:0:
256,192,108649,1,0,0:0:0:0:
256,192,108774,1,0,0:0:0:0:
256,192,108899,1,8,0:0:0:0:
256,192,109024,1,0,0:0:0:0:
256,192,109149,1,0,0:0:0:0:
256,192,109274,1,8,0:0:0:0:
256,192,109524,1,4,0:0:0:0:
256,192,109649,1,8,0:0:0:0:
256,192,109774,1,0,0:0:0:0:
256,192,109899,1,8,0:0:0:0:
256,192,110024,1,0,0:0:0:0:
256,192,110149,1,0,0:0:0:0:
256,192,110211,1,0,0:0:0:0:
256,192,110274,1,8,0:0:0:0:
256,192,110399,1,0,0:0:0:0:
256,192,110524,1,0,0:0:0:0:
256,192,110649,1,8,0:0:0:0:
256,192,110899,1,0,0:0:0:0:
256,192,111024,1,8,0:0:0:0:
256,192,111149,1,8,0:0:0:0:
256,192,111274,1,8,0:0:0:0:
256,192,111399,1,8,0:0:0:0:
256,192,111524,1,4,0:0:0:0:
256,192,111649,1,8,0:0:0:0:
256,192,111774,1,0,0:0:0:0:
256,192,111899,1,8,0:0:0:0:
256,192,112024,1,0,0:0:0:0:
256,192,112149,1,0,0:0:0:0:
256,192,112211,5,0,0:0:0:0:
256,192,112274,1,8,0:0:0:0:
256,192,112399,1,0,0:0:0:0:
256,192,112524,1,12,0:0:0:0:
256,192,112649,1,0,0:0:0:0:
256,192,112774,1,0,0:0:0:0:
256,192,112899,1,8,0:0:0:0:
256,192,113024,1,0,0:0:0:0:
256,192,113149,1,0,0:0:0:0:
256,192,113274,1,8,0:0:0:0:
256,192,113524,1,4,0:0:0:0:
256,160,113649,1,8,0:0:0:0:
256,160,113774,1,0,0:0:0:0:
256,160,113899,1,8,0:0:0:0:
256,160,114024,1,0,0:0:0:0:
256,160,114149,1,0,0:0:0:0:
256,192,114211,1,0,0:0:0:0:
256,160,114274,1,8,0:0:0:0:
256,160,114399,1,0,0:0:0:0:
256,160,114524,1,12,0:0:0:0:
256,160,114649,1,0,0:0:0:0:
256,192,114711,1,0,0:0:0:0:
256,192,114774,1,0,0:0:0:0:
256,192,114899,1,8,0:0:0:0:
256,192,115024,1,0,0:0:0:0:
256,192,115149,1,0,0:0:0:0:
256,192,115274,1,8,0:0:0:0:
256,192,115524,1,4,0:0:0:0:
256,192,115649,1,8,0:0:0:0:
256,192,115774,1,0,0:0:0:0:
256,192,115899,1,8,0:0:0:0:
256,192,116024,1,0,0:0:0:0:
256,192,116149,1,0,0:0:0:0:
256,192,116211,1,0,0:0:0:0:
256,192,116274,1,8,0:0:0:0:
256,192,116399,1,0,0:0:0:0:
256,192,116524,1,12,0:0:0:0:
256,192,116649,1,0,0:0:0:0:
256,192,116774,1,0,0:0:0:0:
256,192,116899,1,8,0:0:0:0:
256,192,117024,1,0,0:0:0:0:
256,192,117149,1,0,0:0:0:0:
256,192,117274,1,8,0:0:0:0:
256,192,117399,1,8,0:0:0:0:
256,192,117524,1,4,0:0:0:0:
256,192,117774,1,0,0:0:0:0:
256,192,117899,1,8,0:0:0:0:
256,192,118024,1,0,0:0:0:0:
256,192,118149,1,0,0:0:0:0:
256,192,118274,1,8,0:0:0:0:
256,192,118399,1,8,0:0:0:0:
256,192,118524,1,0,0:0:0:0:
256,192,118649,1,8,0:0:0:0:
256,192,118774,1,0,0:0:0:0:
256,192,118899,1,0,0:0:0:0:
256,192,119024,1,8,0:0:0:0:
256,192,119086,1,8,0:0:0:0:
256,192,119149,1,8,0:0:0:0:
256,192,119211,1,8,0:0:0:0:
256,192,119274,1,8,0:0:0:0:
256,192,119399,1,8,0:0:0:0:
256,192,119524,1,0,0:0:0:0:
256,192,119774,1,0,0:0:0:0:
256,192,119899,1,8,0:0:0:0:
256,192,120024,1,0,0:0:0:0:
288,192,120149,1,0,0:0:0:0:
288,192,120274,1,8,0:0:0:0:
256,192,120524,1,0,0:0:0:0:
256,192,120649,1,0,0:0:0:0:
256,192,120899,1,8,0:0:0:0:
256,192,121024,1,0,0:0:0:0:
256,192,121149,1,8,0:0:0:0:
256,192,121274,1,8,0:0:0:0:
256,192,121399,1,8,0:0:0:0:
256,192,121524,1,0,0:0:0:0:
256,192,121774,1,8,0:0:0:0:
256,192,121899,1,8,0:0:0:0:
256,192,122024,1,0,0:0:0:0:
256,192,122149,1,0,0:0:0:0:
256,192,122274,1,8,0:0:0:0:
256,192,122524,1,0,0:0:0:0:
256,192,122649,1,8,0:0:0:0:
256,192,122899,1,8,0:0:0:0:
256,192,122961,1,8,0:0:0:0:
256,192,123024,1,8,0:0:0:0:
256,192,123149,1,0,0:0:0:0:
256,192,123274,1,8,0:0:0:0:
256,192,123399,1,0,0:0:0:0:
256,192,123524,1,0,0:0:0:0:
256,192,123774,1,0,0:0:0:0:
256,192,123899,1,8,0:0:0:0:
256,192,124024,1,0,0:0:0:0:
256,192,124149,1,0,0:0:0:0:
256,192,124274,1,8,0:0:0:0:
256,160,124524,1,0,0:0:0:0:
256,160,124649,1,0,0:0:0:0:
256,160,124899,1,8,0:0:0:0:
256,160,125024,1,0,0:0:0:0:
256,160,125149,1,8,0:0:0:0:
256,160,125274,1,8,0:0:0:0:
256,160,125399,1,8,0:0:0:0:
256,160,125524,1,0,0:0:0:0:
256,160,125774,1,8,0:0:0:0:
256,160,125899,1,8,0:0:0:0:
256,160,126024,1,0,0:0:0:0:
256,160,126149,1,0,0:0:0:0:
256,160,126274,1,8,0:0:0:0:
256,192,126524,1,0,0:0:0:0:
256,192,126649,1,8,0:0:0:0:
256,192,126899,1,8,0:0:0:0:
256,192,126961,1,8,0:0:0:0:
256,192,127024,1,8,0:0:0:0:
256,192,127149,1,0,0:0:0:0:
256,192,127274,1,8,0:0:0:0:
256,192,127399,1,0,0:0:0:0:
256,192,127524,1,12,0:0:0:0:
256,192,127774,1,0,0:0:0:0:
256,192,127899,1,8,0:0:0:0:
256,192,128024,1,4,0:0:0:0:
256,192,128274,1,8,0:0:0:0:
256,192,128399,1,0,0:0:0:0:
256,192,128524,1,12,0:0:0:0:
256,192,128774,1,0,0:0:0:0:
256,192,128899,1,8,0:0:0:0:
256,192,129024,1,4,0:0:0:0:
256,192,129274,1,8,0:0:0:0:
256,192,129524,1,12,0:0:0:0:
256,192,129774,1,0,0:0:0:0:
256,192,129899,1,8,0:0:0:0:
256,192,130024,1,4,0:0:0:0:
256,192,130274,1,8,0:0:0:0:
256,192,130524,1,12,0:0:0:0:
256,192,130774,1,0,0:0:0:0:
256,192,130899,1,8,0:0:0:0:
256,192,131024,1,4,0:0:0:0:
256,192,131149,1,0,0:0:0:0:
256,192,131274,1,8,0:0:0:0:
256,192,131399,1,0,0:0:0:0:
256,192,131524,1,12,0:0:0:0:
256,192,131774,1,0,0:0:0:0:
256,192,131899,1,8,0:0:0:0:
256,192,132024,1,4,0:0:0:0:
256,192,132274,1,8,0:0:0:0:
256,192,132399,1,0,0:0:0:0:
256,192,132524,1,12,0:0:0:0:
256,192,132649,1,0,0:0:0:0:
256,192,132899,1,8,0:0:0:0:
256,192,133024,1,4,0:0:0:0:
256,192,133149,1,8,0:0:0:0:
256,192,133274,1,8,0:0:0:0:
256,192,133399,1,8,0:0:0:0:
256,192,135524,1,4,0:0:0:0:
256,192,135774,1,0,0:0:0:0:
256,192,135857,1,0,0:0:0:0:
256,192,135940,1,0,0:0:0:0:
256,192,136024,1,8,0:0:0:0:
256,192,136149,1,0,0:0:0:0:
256,192,136399,1,0,0:0:0:0:
256,192,136524,1,8,0:0:0:0:
256,192,136649,1,0,0:0:0:0:
256,192,136899,1,0,0:0:0:0:
256,192,137024,1,8,0:0:0:0:
256,192,137274,1,0,0:0:0:0:
256,192,137524,1,8,0:0:0:0:
256,192,137774,1,0,0:0:0:0:
256,192,137857,1,0,0:0:0:0:
256,192,137940,1,0,0:0:0:0:
256,192,138024,1,8,0:0:0:0:
256,192,138149,1,0,0:0:0:0:
256,192,138399,1,0,0:0:0:0:
256,192,138524,1,8,0:0:0:0:
256,192,138649,1,0,0:0:0:0:
256,192,138899,1,0,0:0:0:0:
256,192,139024,1,8,0:0:0:0:
256,192,139274,1,0,0:0:0:0:
256,192,139524,1,8,0:0:0:0:
256,192,139774,1,0,0:0:0:0:
256,192,139857,1,0,0:0:0:0:
256,192,139940,1,0,0:0:0:0:
256,192,140024,1,8,0:0:0:0:
256,192,140149,1,0,0:0:0:0:
256,192,140399,1,0,0:0:0:0:
256,192,140524,1,8,0:0:0:0:
256,192,140649,1,0,0:0:0:0:
256,192,140899,1,0,0:0:0:0:
256,192,141024,1,8,0:0:0:0:
256,192,141274,1,0,0:0:0:0:
256,192,141524,1,8,0:0:0:0:
256,192,141774,1,0,0:0:0:0:
256,192,141857,1,0,0:0:0:0:
256,192,141940,1,0,0:0:0:0:
256,192,142024,1,8,0:0:0:0:
288,160,142149,1,0,0:0:0:0:
288,160,142399,1,0,0:0:0:0:
288,160,142524,1,8,0:0:0:0:
288,160,142649,1,0,0:0:0:0:
288,160,142774,1,0,0:0:0:0:
288,160,142899,1,0,0:0:0:0:
288,160,143024,1,8,0:0:0:0:
288,160,143274,1,0,0:0:0:0:
288,160,143524,1,8,0:0:0:0:
256,192,143774,1,0,0:0:0:0:
256,192,143857,1,0,0:0:0:0:
256,192,143940,1,0,0:0:0:0:
256,192,144024,1,8,0:0:0:0:
256,192,144149,1,0,0:0:0:0:
256,192,144399,1,0,0:0:0:0:
256,192,144524,1,8,0:0:0:0:
256,192,144649,1,0,0:0:0:0:
256,192,144899,1,0,0:0:0:0:
256,192,145024,1,8,0:0:0:0:
256,192,145274,1,0,0:0:0:0:
256,192,145524,1,8,0:0:0:0:
256,192,145774,1,0,0:0:0:0:
256,192,145857,1,0,0:0:0:0:
256,192,145940,1,0,0:0:0:0:
256,192,146024,1,8,0:0:0:0:
256,192,146149,1,0,0:0:0:0:
256,192,146399,1,0,0:0:0:0:
256,192,146524,1,8,0:0:0:0:
256,192,146649,1,0,0:0:0:0:
256,192,146899,1,0,0:0:0:0:
256,192,147024,1,8,0:0:0:0:
256,192,147274,1,0,0:0:0:0:
256,192,147524,1,8,0:0:0:0:
256,192,147774,1,0,0:0:0:0:
256,192,147857,1,0,0:0:0:0:
256,192,147940,1,0,0:0:0:0:
256,192,148024,1,8,0:0:0:0:
256,192,148149,1,0,0:0:0:0:
256,192,148399,1,0,0:0:0:0:
256,192,148524,1,8,0:0:0:0:
256,192,148649,1,0,0:0:0:0:
256,192,148899,1,0,0:0:0:0:
256,192,149024,1,8,0:0:0:0:
256,192,149274,1,0,0:0:0:0:
256,192,149524,1,8,0:0:0:0:
256,192,149774,1,0,0:0:0:0:
256,192,149857,1,0,0:0:0:0:
256,192,149940,1,0,0:0:0:0:
256,192,150024,1,8,0:0:0:0:
288,160,150149,1,0,0:0:0:0:
288,160,150399,1,0,0:0:0:0:
288,160,150524,1,8,0:0:0:0:
256,192,151524,5,4,0:0:0:0:
256,192,151774,1,8,0:0:0:0:
256,192,151899,1,8,0:0:0:0:
256,192,152024,1,4,0:0:0:0:
256,192,152149,1,8,0:0:0:0:
256,192,152211,1,8,0:0:0:0:
256,192,152274,1,0,0:0:0:0:
256,192,152399,1,8,0:0:0:0:
256,192,152524,5,4,0:0:0:0:
256,192,152649,1,0,0:0:0:0:
256,192,152711,1,0,0:0:0:0:
256,192,152774,1,8,0:0:0:0:
256,192,152899,1,8,0:0:0:0:
256,192,153024,1,4,0:0:0:0:
256,192,153274,1,8,0:0:0:0:
256,192,153524,1,4,0:0:0:0:
256,192,153774,1,8,0:0:0:0:
256,192,153899,1,8,0:0:0:0:
256,192,154024,1,4,0:0:0:0:
256,192,154149,1,8,0:0:0:0:
256,192,154211,1,8,0:0:0:0:
256,192,154274,1,0,0:0:0:0:
256,192,154399,1,8,0:0:0:0:
256,192,154524,1,4,0:0:0:0:
256,192,154649,1,0,0:0:0:0:
288,128,154711,1,0,0:0:0:0:
256,192,154774,1,8,0:0:0:0:
256,192,154899,1,8,0:0:0:0:
256,192,155024,1,4,0:0:0:0:
256,192,155274,1,8,0:0:0:0:
256,192,155399,1,0,0:0:0:0:
256,192,155524,1,12,0:0:0:0:
256,192,155774,1,0,0:0:0:0:
256,192,155899,1,0,0:0:0:0:
256,192,156024,1,12,0:0:0:0:
256,192,156149,1,0,0:0:0:0:
256,192,156211,1,0,0:0:0:0:
256,192,156274,1,8,0:0:0:0:
256,192,156399,1,0,0:0:0:0:
256,192,156524,1,12,0:0:0:0:
256,192,156649,1,8,0:0:0:0:
256,192,156711,1,8,0:0:0:0:
256,192,156774,1,0,0:0:0:0:
256,192,156899,1,0,0:0:0:0:
256,192,157024,1,12,0:0:0:0:
256,192,157149,1,0,0:0:0:0:
256,192,157274,1,0,0:0:0:0:
256,192,157524,1,12,0:0:0:0:
256,192,157899,1,0,0:0:0:0:
256,192,158024,1,12,0:0:0:0:
256,192,158149,1,0,0:0:0:0:
256,192,158274,1,0,0:0:0:0:
256,192,158399,1,0,0:0:0:0:
256,192,158524,1,12,0:0:0:0:
256,192,158649,1,0,0:0:0:0:
256,192,158899,1,0,0:0:0:0:
256,192,158961,1,0,0:0:0:0:
256,192,159024,1,8,0:0:0:0:
256,192,159149,1,8,0:0:0:0:
256,192,159274,1,8,0:0:0:0:
256,192,159399,1,8,0:0:0:0:
256,192,159524,1,4,0:0:0:0:
256,192,159774,1,8,0:0:0:0:
256,192,159899,1,8,0:0:0:0:
256,192,160024,1,4,0:0:0:0:
256,192,160149,1,8,0:0:0:0:
256,192,160211,1,8,0:0:0:0:
256,192,160274,1,0,0:0:0:0:
256,192,160399,1,8,0:0:0:0:
256,192,160524,1,4,0:0:0:0:
256,192,160649,1,0,0:0:0:0:
256,192,160711,1,0,0:0:0:0:
256,192,160774,1,8,0:0:0:0:
256,192,160899,1,8,0:0:0:0:
256,192,161024,1,4,0:0:0:0:
256,192,161274,1,8,0:0:0:0:
256,192,161524,1,4,0:0:0:0:
256,192,161774,1,8,0:0:0:0:
256,192,161899,1,8,0:0:0:0:
256,192,162024,1,4,0:0:0:0:
256,192,162149,1,8,0:0:0:0:
256,192,162211,1,8,0:0:0:0:
256,192,162274,1,0,0:0:0:0:
256,192,162399,1,8,0:0:0:0:
256,192,162524,1,4,0:0:0:0:
256,192,162649,1,0,0:0:0:0:
256,192,162711,1,8,0:0:0:0:
256,192,162774,1,0,0:0:0:0:
256,192,162899,1,8,0:0:0:0:
256,192,163024,1,4,0:0:0:0:
256,192,163274,1,8,0:0:0:0:
256,192,163399,1,0,0:0:0:0:
256,192,163524,1,12,0:0:0:0:
256,192,163774,1,0,0:0:0:0:
256,192,163899,1,0,0:0:0:0:
256,192,164024,1,12,0:0:0:0:
256,192,164149,1,0,0:0:0:0:
256,192,164211,1,0,0:0:0:0:
256,192,164274,1,8,0:0:0:0:
256,192,164399,1,0,0:0:0:0:
256,192,164524,1,12,0:0:0:0:
256,192,164649,1,8,0:0:0:0:
256,192,164711,1,8,0:0:0:0:
256,192,164774,1,0,0:0:0:0:
256,192,164899,1,0,0:0:0:0:
256,192,165024,1,12,0:0:0:0:
256,192,165149,1,0,0:0:0:0:
256,192,165274,1,0,0:0:0:0:
256,192,165524,1,12,0:0:0:0:
256,192,165774,1,0,0:0:0:0:
256,192,165899,1,0,0:0:0:0:
256,192,166024,1,12,0:0:0:0:
256,192,166149,1,0,0:0:0:0:
288,192,166211,1,0,0:0:0:0:
256,192,166274,1,8,0:0:0:0:
288,192,166399,1,0,0:0:0:0:
288,192,166524,1,12,0:0:0:0:
256,192,166774,1,0,0:0:0:0:
256,192,166899,1,8,0:0:0:0:
256,192,167024,1,0,0:0:0:0:
256,192,167149,1,0,0:0:0:0:
256,192,167274,1,8,0:0:0:0:
256,192,167336,1,8,0:0:0:0:
256,192,167399,1,8,0:0:0:0:
256,192,167524,1,4,0:0:0:0:
256,160,167774,1,0,0:0:0:0:
256,160,167899,1,8,0:0:0:0:
256,160,168024,1,0,0:0:0:0:
256,192,168149,1,0,0:0:0:0:
224,160,168274,1,12,0:0:0:0:
256,192,168524,1,4,0:0:0:0:
256,192,168774,1,0,0:0:0:0:
256,160,168899,1,8,0:0:0:0:
224,192,168961,1,8,0:0:0:0:
256,192,169024,1,0,0:0:0:0:
256,192,169149,1,0,0:0:0:0:
256,192,169274,1,12,0:0:0:0:
256,192,169524,1,4,0:0:0:0:
256,192,169774,1,0,0:0:0:0:
256,192,169899,1,8,0:0:0:0:
256,192,170024,1,0,0:0:0:0:
256,192,170149,1,0,0:0:0:0:
256,192,170274,1,12,0:0:0:0:
256,192,170524,1,4,0:0:0:0:
256,192,170774,1,0,0:0:0:0:
256,192,170899,1,8,0:0:0:0:
256,160,170961,1,8,0:0:0:0:
256,160,171024,1,8,0:0:0:0:
256,160,171149,1,0,0:0:0:0:
256,160,171274,1,12,0:0:0:0:
256,192,171524,1,4,0:0:0:0:
256,192,171774,1,0,0:0:0:0:
256,192,171899,1,8,0:0:0:0:
256,192,172024,1,0,0:0:0:0:
256,192,172149,1,0,0:0:0:0:
256,192,172274,1,12,0:0:0:0:
256,192,172524,1,4,0:0:0:0:
256,192,172774,1,0,0:0:0:0:
256,192,172899,1,8,0:0:0:0:
256,192,172961,1,8,0:0:0:0:
256,192,173024,1,0,0:0:0:0:
256,192,173149,1,0,0:0:0:0:
256,192,173274,1,12,0:0:0:0:
256,192,173524,1,4,0:0:0:0:
256,192,173774,1,0,0:0:0:0:
256,192,173899,1,8,0:0:0:0:
256,192,174024,1,0,0:0:0:0:
256,192,174149,1,0,0:0:0:0:
256,192,174274,1,12,0:0:0:0:
256,160,174524,1,4,0:0:0:0:
256,160,174774,1,0,0:0:0:0:
256,160,174899,1,8,0:0:0:0:
256,192,174961,1,0,0:0:0:0:
256,192,175024,1,8,0:0:0:0:
256,192,175149,1,0,0:0:0:0:
256,192,175274,1,12,0:0:0:0:
256,192,175524,1,4,0:0:0:0:
256,192,175774,1,0,0:0:0:0:
256,192,175899,1,8,0:0:0:0:
256,192,176024,1,0,0:0:0:0:
256,192,176149,1,0,0:0:0:0:
256,192,176274,1,12,0:0:0:0:
256,192,176524,1,4,0:0:0:0:
256,192,176774,1,0,0:0:0:0:
256,192,176899,1,8,0:0:0:0:
256,192,176961,1,8,0:0:0:0:
256,192,177024,1,0,0:0:0:0:
256,192,177149,1,0,0:0:0:0:
256,192,177274,1,12,0:0:0:0:
256,192,177524,1,4,0:0:0:0:
256,192,177774,1,0,0:0:0:0:
256,192,177899,1,8,0:0:0:0:
256,192,178024,1,0,0:0:0:0:
256,192,178149,1,0,0:0:0:0:
256,192,178274,1,12,0:0:0:0:
256,192,178524,1,4,0:0:0:0:
256,192,178774,1,0,0:0:0:0:
256,192,178899,1,8,0:0:0:0:
256,192,178961,1,8,0:0:0:0:
256,192,179024,1,8,0:0:0:0:
256,192,179149,1,0,0:0:0:0:
256,192,179274,1,12,0:0:0:0:
256,192,179524,1,4,0:0:0:0:
256,192,179774,1,0,0:0:0:0:
256,192,179899,1,8,0:0:0:0:
256,192,180024,1,0,0:0:0:0:
256,192,180149,1,0,0:0:0:0:
256,192,180274,1,12,0:0:0:0:
256,192,180524,1,4,0:0:0:0:
256,192,180774,1,0,0:0:0:0:
256,192,180899,1,8,0:0:0:0:
256,192,181024,1,0,0:0:0:0:
256,192,181149,1,0,0:0:0:0:
256,192,181274,1,8,0:0:0:0:
256,192,181336,1,8,0:0:0:0:
256,192,181399,1,8,0:0:0:0:
256,192,181461,1,8,0:0:0:0:
256,192,193524,5,4,0:0:0:0:
256,192,193774,1,8,0:0:0:0:
256,192,193857,1,8,0:0:0:0:
256,192,193940,1,8,0:0:0:0:
256,192,194024,1,0,0:0:0:0:
256,192,194149,1,8,0:0:0:0:
256,192,194399,1,8,0:0:0:0:
256,192,194524,1,0,0:0:0:0:
256,192,194649,1,8,0:0:0:0:
256,192,194899,1,8,0:0:0:0:
256,192,195024,1,0,0:0:0:0:
256,192,195274,1,8,0:0:0:0:
256,192,195399,1,8,0:0:0:0:
256,192,195524,1,0,0:0:0:0:
256,192,195774,1,8,0:0:0:0:
256,192,195857,1,8,0:0:0:0:
256,192,195940,1,8,0:0:0:0:
256,192,196024,1,0,0:0:0:0:
256,192,196149,1,8,0:0:0:0:
256,192,196399,1,8,0:0:0:0:
256,192,196524,1,0,0:0:0:0:
256,192,196649,1,8,0:0:0:0:
256,192,196899,1,8,0:0:0:0:
256,192,197024,1,0,0:0:0:0:
256,192,197149,1,0,0:0:0:0:
256,192,197274,1,8,0:0:0:0:
256,192,197524,1,0,0:0:0:0:
256,192,197774,1,8,0:0:0:0:
256,192,197857,1,8,0:0:0:0:
256,192,197940,1,8,0:0:0:0:
256,192,198024,1,0,0:0:0:0:
256,192,198149,1,8,0:0:0:0:
256,192,198399,1,8,0:0:0:0:
256,192,198524,1,0,0:0:0:0:
256,192,198649,1,8,0:0:0:0:
256,192,198899,1,8,0:0:0:0:
256,192,199024,1,0,0:0:0:0:
256,192,199274,1,8,0:0:0:0:
256,192,199399,1,8,0:0:0:0:
256,192,199524,1,0,0:0:0:0:
256,192,199774,1,8,0:0:0:0:
256,192,199857,1,8,0:0:0:0:
256,192,199940,1,8,0:0:0:0:
256,192,200024,1,0,0:0:0:0:
256,192,200149,1,8,0:0:0:0:
256,192,200399,1,8,0:0:0:0:
256,192,200524,1,0,0:0:0:0:
256,192,200649,1,8,0:0:0:0:
256,160,200774,1,8,0:0:0:0:
256,192,200899,1,8,0:0:0:0:
256,192,201024,1,0,0:0:0:0:
256,192,201274,1,8,0:0:0:0:
256,192,201399,1,8,0:0:0:0:
256,192,201524,1,0,0:0:0:0:
256,192,201774,1,8,0:0:0:0:
256,192,201857,1,8,0:0:0:0:
256,192,201940,1,8,0:0:0:0:
256,192,202024,1,0,0:0:0:0:
256,192,202149,1,8,0:0:0:0:
256,192,202399,1,8,0:0:0:0:
256,192,202524,1,0,0:0:0:0:
256,192,202649,1,8,0:0:0:0:
256,192,202899,1,8,0:0:0:0:
256,192,203024,1,0,0:0:0:0:
256,192,203274,1,8,0:0:0:0:
256,192,203399,1,8,0:0:0:0:
256,192,203524,1,0,0:0:0:0:
256,192,203774,1,8,0:0:0:0:
256,192,203857,1,8,0:0:0:0:
256,192,203940,1,8,0:0:0:0:
256,192,204024,1,0,0:0:0:0:
256,192,204149,1,8,0:0:0:0:
256,192,204399,1,8,0:0:0:0:
256,192,204524,1,0,0:0:0:0:
256,192,204649,1,8,0:0:0:0:
256,192,204899,1,8,0:0:0:0:
256,192,205024,1,0,0:0:0:0:
256,192,205149,1,0,0:0:0:0:
256,192,205274,1,8,0:0:0:0:
256,192,205524,1,0,0:0:0:0:
256,192,205774,1,8,0:0:0:0:
256,192,205857,1,8,0:0:0:0:
256,192,205940,1,8,0:0:0:0:
256,192,206024,1,0,0:0:0:0:
256,192,206149,1,8,0:0:0:0:
256,192,206399,1,8,0:0:0:0:
256,192,206524,1,0,0:0:0:0:
256,192,206649,1,8,0:0:0:0:
256,192,206899,1,8,0:0:0:0:
256,192,207024,1,0,0:0:0:0:
256,192,207274,1,8,0:0:0:0:
256,192,207399,1,8,0:0:0:0:
256,192,207524,1,0,0:0:0:0:
256,192,207774,1,8,0:0:0:0:
256,192,207857,1,8,0:0:0:0:
256,192,207940,1,8,0:0:0:0:
256,192,208024,1,0,0:0:0:0:
256,192,208149,1,8,0:0:0:0:
256,192,208399,1,8,0:0:0:0:
256,192,208524,1,0,0:0:0:0:
256,192,208649,1,8,0:0:0:0:
256,160,208774,1,8,0:0:0:0:
256,192,208899,1,8,0:0:0:0:
256,192,209024,1,0,0:0:0:0:
256,192,209274,1,8,0:0:0:0:
256,192,209524,1,0,0:0:0:0:
