osu file format v14

[General]
AudioFilename: audio.mp3
AudioLeadIn: 0
PreviewTime: 190859
Countdown: 1
SampleSet: Normal
StackLeniency: 0.7
Mode: 0
LetterboxInBreaks: 0
WidescreenStoryboard: 0

[Editor]
DistanceSpacing: 0.8
BeatDivisor: 4
GridSize: 16
TimelineZoom: 1

[Metadata]
Title:Puppet Theater of a Twee-Box
TitleUnicode:トゥイー・ボックスの人形劇場
Artist:sasakure.UK
ArtistUnicode:sasakure.UK
Creator:X4D
Version:Normal
Source:
Tags:
BeatmapID:1473530
BeatmapSetID:695452

[Difficulty]
HPDrainRate:6
CircleSize:3
OverallDifficulty:6
ApproachRate:5
SliderMultiplier:1.4
SliderTickRate:1

[Events]
//Background and Video events
0,0,"awda.jpg",0,0
//Break Periods
//Storyboard Layer 0 (Background)
//Storyboard Layer 1 (Fail)
//Storyboard Layer 2 (Pass)
//Storyboard Layer 3 (Foreground)
//Storyboard Sound Samples

[TimingPoints]
1687,352.941176470588,4,1,0,100,1,0
8392,352.941176470588,4,1,0,100,1,0
16509,352.941176470588,4,1,0,100,1,0
27450,352.941176470588,4,1,0,100,1,0
49332,352.941176470588,4,1,0,100,1,0

[HitObjects]
160,96,1687,6,0,P|128:160|160:224,1,140
256,288,2392,2,0,P|256:224|256:160,1,105
352,96,3098,6,0,B|384:160|384:160|352:224,1,140
256,256,3804,2,0,P|224:256|256:224,1,105
128,160,4510,5,0,0:0:0:0:
224,96,4863,1,0,0:0:0:0:
320,160,5216,1,0,0:0:0:0:
224,224,5569,1,0,0:0:0:0:
256,192,5922,12,0,8039,0:0:0:0:
160,288,8392,6,0,P|224:320|288:288,1,140
352,192,9097,2,0,P|288:192|224:192,1,105
160,96,9803,6,0,B|224:64|224:64|288:96,1,140
320,192,10509,2,0,P|320:224|288:192,1,105
224,320,11215,5,0,0:0:0:0:
160,224,11568,1,0,0:0:0:0:
224,128,11921,1,0,0:0:0:0:
288,224,12274,1,0,0:0:0:0:
224,128,12627,5,0,0:0:0:0:
320,64,12980,1,0,0:0:0:0:
416,128,13333,1,0,0:0:0:0:
320,192,13686,1,0,0:0:0:0:
320,288,14039,1,0,0:0:0:0:
256,192,14392,12,0,16156,0:0:0:0:
240,240,16509,6,0,P|208:176|272:240,1,280
256,352,17567,1,0,0:0:0:0:
256,352,17920,2,0,B|224:288|224:288|240:272|256:192|256:192|272:272|288:288|288:288|272:320,1,280
336,320,18803,2,0,P|384:256|432:304,1,140
480,256,19332,6,0,B|432:192|432:192|480:112,1,140
352,144,20038,2,0,B|400:80|400:80|352:0,1,140
256,64,20744,6,0,L|256:224,1,140
256,320,21450,1,0,0:0:0:0:
256,320,21626,1,0,0:0:0:0:
208,96,22156,6,0,P|272:64|208:128,1,280
96,112,23567,2,0,B|160:80|160:80|176:96|256:112|256:112|176:128|160:144|160:144|128:128,1,280
128,192,24450,2,0,P|192:240|144:288,1,140
192,336,24979,6,0,B|256:288|256:288|336:336,1,140
304,208,25685,2,0,B|368:256|368:256|448:208,1,140
368,128,26391,6,0,L|272:64,1,105
256,80,26744,1,0,0:0:0:0:
256,80,26920,2,0,P|224:128|256:208,1,140
272,256,27450,6,0,P|208:288|144:256,1,140
80,160,28155,2,0,P|144:160|208:160,1,105
272,64,28861,6,0,B|208:32|208:32|144:64,1,140
112,160,29567,2,0,P|112:192|144:160,1,105
272,112,30273,6,0,P|208:80|144:112,1,140
80,208,30978,2,0,P|144:208|208:208,1,105
288,112,31685,5,0,0:0:0:0:
384,176,32038,1,0,0:0:0:0:
304,96,32391,1,0,0:0:0:0:
368,192,32744,1,0,0:0:0:0:
272,144,33097,6,0,B|256:208|256:208|272:272|272:272|256:304,1,140
192,320,33714,1,0,0:0:0:0:
128,256,33979,1,0,0:0:0:0:
128,256,34155,2,0,B|112:192|112:192|128:144,1,105
208,128,34685,1,0,0:0:0:0:
208,128,34861,2,0,L|240:176,1,35
288,176,35126,2,0,P|320:160|368:256,1,175
320,256,35744,1,0,0:0:0:0:
320,256,35920,6,0,L|240:224,3,70
224,192,36626,2,0,P|208:144|256:96,2,105
272,224,37332,2,0,P|304:272|256:320,2,93.3333333333333
224,288,38038,2,0,B|176:272|176:272|128:288,2,93.3333333333333
256,160,38920,6,0,L|320:272,1,105
336,240,39273,2,0,P|368:224|400:240,1,70
400,128,39802,1,0,0:0:0:0:
320,128,40067,2,0,B|272:112|272:112|208:128,1,105
192,176,40508,2,0,P|176:224|192:304,1,105
256,256,41038,5,0,0:0:0:0:
256,256,41214,2,0,L|304:256,1,35
336,288,41479,2,0,P|368:240|336:176,1,105
368,144,41920,2,0,P|416:128|448:144,1,70
464,176,42273,6,0,L|448:240,5,35
432,224,42802,2,0,L|448:288,5,35
464,272,43332,2,0,L|448:336,5,35
432,336,43861,2,0,L|448:400,5,35
416,368,44391,2,0,P|336:336|304:256,1,175
336,240,44920,2,0,B|368:192|384:144|384:144|400:192|432:224,1,175
448,192,45449,2,0,P|480:144|448:32,1,175
432,48,45979,2,0,B|384:80|368:112|368:112|352:80|288:48,1,175
256,192,46508,12,0,48979,0:0:0:0:
272,256,49332,6,0,P|336:288|400:256,1,140
352,160,50037,2,0,P|320:224|352:288,1,140
256,208,50743,2,0,L|256:128,3,70
304,112,51449,1,0,0:0:0:0:
304,112,51626,2,0,P|368:80|432:112,1,140
400,160,52155,6,0,L|416:256,3,70
368,256,52861,2,0,P|320:288|256:256,2,105
352,208,53567,2,0,L|288:160,3,70
240,192,54273,2,0,P|192:240|160:192,1,140
240,112,54979,6,0,P|176:80|112:112,1,140
160,208,55684,2,0,P|192:144|160:80,1,140
256,160,56390,2,0,L|256:240,3,70
208,256,57096,1,0,0:0:0:0:
208,256,57273,2,0,P|144:288|80:256,1,140
112,208,57802,6,0,L|96:112,3,70
144,112,58508,2,0,P|192:80|256:112,2,105
160,160,59214,2,0,L|224:208,3,70
272,176,59920,2,0,P|320:128|352:176,1,140
272,96,60626,6,0,P|336:64|400:96,1,140
352,192,61331,2,0,P|320:128|352:64,1,140
256,144,62037,2,0,L|256:224,3,70
304,240,62743,1,0,0:0:0:0:
304,240,62920,2,0,P|368:272|432:240,1,140
400,192,63449,6,0,L|416:96,3,70
368,96,64155,2,0,P|320:64|256:96,2,105
352,144,64861,2,0,L|288:192,3,70
240,160,65567,2,0,P|192:112|160:160,1,140
240,240,66273,6,0,P|176:272|112:240,1,140
160,144,66978,2,0,P|192:208|160:272,1,140
256,192,67684,2,0,L|256:112,3,70
208,96,68390,1,0,0:0:0:0:
208,96,68567,2,0,P|144:64|80:96,1,140
112,144,69096,6,0,L|96:240,3,70
144,240,69802,2,0,P|192:272|256:240,2,105
160,192,70508,2,0,L|224:144,3,70
272,176,71214,2,0,P|320:224|352:176,1,140
