osu file format v14

[General]
AudioFilename: audio.mp3
AudioLeadIn: 0
PreviewTime: 190859
Countdown: 1
SampleSet: None
StackLeniency: 0.5
Mode: 0
LetterboxInBreaks: 0
WidescreenStoryboard: 1

[Editor]
Bookmarks: 179565
DistanceSpacing: 1.5
BeatDivisor: 4
GridSize: 16
TimelineZoom: 1

[Metadata]
Title:Puppet Theater of a Twee-Box
TitleUnicode:トゥイー・ボックスの人形劇場
Artist:sasakure.UK
ArtistUnicode:sasakure.UK
Creator:X4D
Version:Insane
Source:
Tags:
BeatmapID:1473529
BeatmapSetID:695452

[Difficulty]
HPDrainRate:7
CircleSize:4
OverallDifficulty:7
ApproachRate:9
SliderMultiplier:1.4
SliderTickRate:1

[Events]
//Background and Video events
0,0,"awda.jpg",0,0
//Break Periods
2,71942,76966
2,132999,138024
//Storyboard Layer 0 (Background)
//Storyboard Layer 1 (Fail)
//Storyboard Layer 2 (Pass)
//Storyboard Layer 3 (Foreground)
//Storyboard Sound Samples

[TimingPoints]
1687,352.941176470588,4,1,0,100,1,0
8392,352.941176470588,4,1,0,100,1,0
16509,352.941176470588,4,1,0,100,1,0
27450,352.941176470588,4,1,0,100,1,0
39449,352.941176470588,4,1,0,100,1,0
49331,-83.3333333333333,4,1,0,100,0,1
71919,-83.3333333333333,4,1,0,100,0,0
77566,-100,4,1,0,100,0,0
88507,352.941176470588,4,1,0,100,1,0
100507,352.941176470588,4,1,0,100,1,0
110390,-83.3333333333333,4,1,0,100,0,1
132977,-83.3333333333333,4,1,0,100,0,0
168271,-100,4,1,0,100,0,0
190859,-83.3333333333333,4,1,0,100,0,1
213448,-133.333333333333,4,1,0,100,0,0
216271,-100,4,1,0,100,0,0

[HitObjects]
144,128,1687,6,0,L|128:208,1,70
240,288,2039,2,0,L|256:208,1,70
288,80,2392,1,0,0:0:0:0:
144,80,2569,1,0,0:0:0:0:
144,80,2657,2,0,P|112:128|144:160,1,105
272,176,3098,5,0,0:0:0:0:
192,288,3275,1,0,0:0:0:0:
144,160,3451,1,0,0:0:0:0:
256,256,3628,1,0,0:0:0:0:
384,320,3804,2,0,P|400:272|384:240,1,70
320,272,4069,2,0,P|272:240|240:288,1,105
112,208,4510,5,0,0:0:0:0:
224,128,4686,1,0,0:0:0:0:
208,272,4863,1,0,0:0:0:0:
128,160,5039,1,0,0:0:0:0:
224,64,5216,1,0,0:0:0:0:
224,208,5392,1,0,0:0:0:0:
96,144,5569,1,0,0:0:0:0:
128,272,5745,1,0,0:0:0:0:
240,192,5922,5,0,0:0:0:0:
196,166,6010,1,0,0:0:0:0:
196,116,6098,1,0,0:0:0:0:
240,92,6186,1,0,0:0:0:0:
283,117,6275,2,0,L|288:176,3,35
288,224,6628,1,0,0:0:0:0:
318,241,6716,1,0,0:0:0:0:
352,243,6804,1,0,0:0:0:0:
385,231,6892,1,0,0:0:0:0:
409,206,6981,2,0,L|400:160,3,35
352,112,7334,5,0,0:0:0:0:
328,100,7422,1,0,0:0:0:0:
302,95,7510,1,0,0:0:0:0:
276,97,7598,1,0,0:0:0:0:
251,105,7686,2,0,L|256:160,3,35
224,208,8039,5,0,0:0:0:0:
256,64,8216,1,0,0:0:0:0:
368,144,8392,6,0,L|384:224,1,70
272,304,8744,2,0,L|256:224,1,70
224,96,9097,1,0,0:0:0:0:
368,96,9274,1,0,0:0:0:0:
368,96,9362,2,0,P|400:144|368:176,1,105
240,192,9803,5,0,0:0:0:0:
320,304,9980,1,0,0:0:0:0:
368,176,10156,1,0,0:0:0:0:
256,272,10333,1,0,0:0:0:0:
128,336,10509,2,0,P|112:288|128:256,1,70
192,288,10774,2,0,P|240:256|272:304,1,105
400,224,11215,5,0,0:0:0:0:
288,144,11391,1,0,0:0:0:0:
304,288,11568,1,0,0:0:0:0:
384,176,11744,1,0,0:0:0:0:
288,80,11921,1,0,0:0:0:0:
288,224,12097,1,0,0:0:0:0:
416,160,12274,1,0,0:0:0:0:
384,288,12450,1,0,0:0:0:0:
240,192,12627,5,0,0:0:0:0:
400,112,12803,1,0,0:0:0:0:
336,272,12980,1,0,0:0:0:0:
288,112,13156,1,0,0:0:0:0:
464,112,13333,1,0,0:0:0:0:
336,240,13509,1,0,0:0:0:0:
224,112,13686,1,0,0:0:0:0:
400,128,13862,1,0,0:0:0:0:
256,48,14039,6,0,B|224:96|288:144|224:208,1,140
112,240,14568,1,0,0:0:0:0:
112,240,14656,1,0,0:0:0:0:
112,240,14744,2,0,L|128:288,2,46.6666666666667
160,304,15097,2,0,L|176:352,2,46.6666666666667
192,272,15450,2,0,L|208:208,2,46.6666666666667
208,304,15803,2,0,L|256:320,2,46.6666666666667
176,272,16156,5,0,0:0:0:0:
288,352,16333,1,0,0:0:0:0:
176,272,16509,5,0,0:0:0:0:
176,272,16685,1,0,0:0:0:0:
224,144,16861,2,0,L|288:208,1,70
176,96,17214,1,0,0:0:0:0:
273,193,17391,1,0,0:0:0:0:
144,240,17567,2,0,L|144:160,1,70
240,64,17920,5,0,0:0:0:0:
352,144,18097,1,0,0:0:0:0:
240,64,18273,2,0,L|240:144,1,70
368,192,18626,1,0,0:0:0:0:
240,256,18803,2,0,L|240:112,1,140
301,154,19332,5,0,0:0:0:0:
368,62,19509,1,0,0:0:0:0:
368,176,19685,1,0,0:0:0:0:
301,84,19861,1,0,0:0:0:0:
409,119,20038,1,0,0:0:0:0:
301,84,20214,1,0,0:0:0:0:
368,176,20390,1,0,0:0:0:0:
368,62,20566,1,0,0:0:0:0:
301,154,20744,6,0,P|256:224|304:288,1,140
144,336,21450,1,0,0:0:0:0:
144,192,21626,1,0,0:0:0:0:
288,192,21803,1,0,0:0:0:0:
329,186,21891,1,0,0:0:0:0:
344,147,21979,1,0,0:0:0:0:
318,115,22067,1,0,0:0:0:0:
277,122,22156,6,0,L|256:208,1,70
144,256,22508,6,0,L|165:170,1,70
256,80,22861,1,0,0:0:0:0:
160,188,23038,1,0,0:0:0:0:
256,80,23214,2,0,L|256:176,1,70
368,240,23567,1,0,0:0:0:0:
368,240,23744,1,0,0:0:0:0:
448,128,23920,2,0,B|463:160|463:160|448:192,1,70
304,160,24273,1,0,0:0:0:0:
304,160,24450,2,0,P|240:128|176:160,1,140
240,272,24979,5,0,0:0:0:0:
128,176,25156,1,0,0:0:0:0:
176,304,25332,1,0,0:0:0:0:
272,208,25508,1,0,0:0:0:0:
224,80,25685,1,0,0:0:0:0:
128,176,25861,1,0,0:0:0:0:
224,272,26038,1,0,0:0:0:0:
272,144,26214,1,0,0:0:0:0:
128,128,26391,6,0,B|160:192|160:192|176:144,1,105
208,80,26744,1,0,0:0:0:0:
208,80,26920,2,0,L|208:224,1,140
352,256,27450,6,0,L|368:176,1,70
256,96,27802,2,0,L|240:176,1,70
208,304,28155,1,0,0:0:0:0:
352,304,28332,1,0,0:0:0:0:
352,304,28420,2,0,P|384:256|352:224,1,105
224,208,28861,5,0,0:0:0:0:
304,96,29038,1,0,0:0:0:0:
352,224,29214,1,0,0:0:0:0:
240,128,29391,1,0,0:0:0:0:
112,64,29567,2,0,P|96:112|112:144,1,70
176,112,29832,2,0,P|224:144|256:96,1,105
384,96,30273,6,0,L|304:80,1,70
224,192,30625,2,0,L|304:208,1,70
432,240,30978,1,0,0:0:0:0:
432,96,31155,1,0,0:0:0:0:
432,96,31243,2,0,P|384:64|352:96,1,105
336,224,31684,5,0,0:0:0:0:
224,144,31861,1,0,0:0:0:0:
352,96,32037,1,0,0:0:0:0:
256,208,32214,1,0,0:0:0:0:
384,240,32391,1,0,0:0:0:0:
320,112,32567,1,0,0:0:0:0:
448,160,32744,1,0,0:0:0:0:
320,208,32920,1,0,0:0:0:0:
192,144,33097,5,0,0:0:0:0:
192,144,33450,1,0,0:0:0:0:
400,144,33714,1,0,0:0:0:0:
288,320,33979,1,0,0:0:0:0:
288,320,34155,2,0,L|288:224,1,70
224,208,34420,6,0,L|288:96,1,105
416,64,34861,1,0,0:0:0:0:
416,64,34949,2,0,L|416:160,1,70
416,208,35214,1,0,0:0:0:0:
272,192,35391,1,0,0:0:0:0:
320,320,35567,1,0,0:0:0:0:
416,208,35744,1,0,0:0:0:0:
304,128,35920,6,0,B|272:112|272:112|240:128,1,70
192,256,36273,2,0,B|160:272|160:272|128:256,1,70
48,144,36626,2,0,B|32:192|32:192|48:256,1,105
224,144,37155,1,0,0:0:0:0:
224,144,37332,5,0,0:0:0:0:
128,304,37567,1,0,0:0:0:0:
320,304,37802,1,0,0:0:0:0:
224,144,38038,1,0,0:0:0:0:
384,48,38273,1,0,0:0:0:0:
384,240,38508,1,0,0:0:0:0:
80,112,38920,6,0,P|48:176|80:256,1,140
192,192,39449,1,0,0:0:0:0:
448,80,39802,1,0,0:0:0:0:
448,288,40067,1,0,0:0:0:0:
256,192,40332,5,0,0:0:0:0:
256,192,40508,1,0,0:0:0:0:
416,64,40773,2,0,P|432:128|400:160,1,105
128,96,41213,1,0,0:0:0:0:
128,96,41302,2,0,L|128:176,1,70
128,240,41566,1,0,0:0:0:0:
256,176,41743,1,0,0:0:0:0:
144,96,41919,1,0,0:0:0:0:
128,240,42096,1,0,0:0:0:0:
208,128,42272,5,0,0:0:0:0:
208,128,42360,2,0,L|192:192,4,35
240,192,42801,1,0,0:0:0:0:
240,192,42890,2,0,L|256:256,4,35
288,240,43331,1,0,0:0:0:0:
288,240,43419,2,0,L|272:304,4,35
320,304,43860,1,0,0:0:0:0:
320,304,43949,2,0,L|336:368,4,35
256,256,44390,5,0,0:0:0:0:
256,256,44478,2,0,L|192:272,4,35
192,224,44919,1,0,0:0:0:0:
192,224,45008,2,0,L|128:208,4,35
144,176,45449,1,0,0:0:0:0:
144,176,45537,2,0,L|80:192,4,35
80,144,45978,1,0,0:0:0:0:
80,144,46067,2,0,L|16:128,4,35
144,112,46507,5,0,0:0:0:0:
170,89,46595,1,0,0:0:0:0:
203,80,46683,1,0,0:0:0:0:
238,85,46771,1,0,0:0:0:0:
266,105,46860,2,0,L|272:144,3,35
304,208,47213,5,0,0:0:0:0:
277,230,47301,1,0,0:0:0:0:
244,239,47389,1,0,0:0:0:0:
209,234,47477,1,0,0:0:0:0:
181,214,47566,2,0,L|175:175,3,35
240,144,47919,5,0,0:0:0:0:
262,170,48007,1,0,0:0:0:0:
271,203,48095,1,0,0:0:0:0:
266,238,48183,1,0,0:0:0:0:
246,266,48272,2,0,L|207:271,3,35
144,240,48625,5,0,0:0:0:0:
288,272,48801,1,0,0:0:0:0:
144,240,48978,2,0,P|128:176|144:128,1,105
208,192,49331,6,0,L|304:144,1,83.9999974365235
448,176,49684,2,0,L|352:224,1,83.9999974365235
224,304,50037,1,0,0:0:0:0:
304,160,50213,1,0,0:0:0:0:
160,256,50390,1,0,0:0:0:0:
320,272,50566,1,0,0:0:0:0:
192,160,50743,6,0,B|224:128|224:128|256:160,1,83.9999974365235
400,240,51096,2,0,B|368:272|368:272|336:240,1,83.9999974365235
368,80,51448,1,0,0:0:0:0:
368,80,51625,2,0,B|310:137|368:195|368:195|387:156,1,167.999994873047
224,224,52154,5,0,0:0:0:0:
352,112,52331,1,0,0:0:0:0:
192,128,52507,1,0,0:0:0:0:
320,224,52684,1,0,0:0:0:0:
176,304,52860,2,0,P|144:240|192:176,2,125.999996154785
320,224,53566,1,0,0:0:0:0:
224,80,53743,1,0,0:0:0:0:
384,128,53919,1,0,0:0:0:0:
240,208,54096,1,0,0:0:0:0:
112,96,54272,6,0,L|96:192,1,83.9999974365235
144,240,54537,2,0,P|192:240|160:288,1,125.999996154785
304,176,54978,6,0,L|208:224,1,83.9999974365235
64,192,55331,2,0,L|160:144,1,83.9999974365235
288,64,55684,1,0,0:0:0:0:
208,208,55860,1,0,0:0:0:0:
352,112,56037,1,0,0:0:0:0:
192,96,56213,1,0,0:0:0:0:
320,208,56390,6,0,B|288:240|288:240|256:208,1,83.9999974365235
112,128,56743,2,0,B|144:96|144:96|176:128,1,83.9999974365235
144,288,57095,1,0,0:0:0:0:
144,288,57272,2,0,B|202:231|144:173|144:173|125:212,1,167.999994873047
288,144,57801,5,0,0:0:0:0:
160,256,57978,1,0,0:0:0:0:
320,240,58154,1,0,0:0:0:0:
192,144,58331,1,0,0:0:0:0:
336,64,58507,2,0,P|368:128|320:192,2,125.999996154785
192,144,59213,1,0,0:0:0:0:
288,288,59390,1,0,0:0:0:0:
128,240,59566,1,0,0:0:0:0:
272,160,59743,1,0,0:0:0:0:
400,272,59919,6,0,L|416:176,1,83.9999974365235
368,128,60184,2,0,P|320:128|352:80,1,125.999996154785
176,96,60625,6,0,L|160:192,1,83.9999974365235
336,176,60978,2,0,L|432:192,1,83.9999974365235
272,288,61331,2,0,L|176:272,1,83.9999974365235
224,112,61684,2,0,L|320:128,1,83.9999974365235
416,256,62037,6,0,L|400:352,1,83.9999974365235
240,304,62390,1,0,0:0:0:0:
336,176,62566,1,0,0:0:0:0:
176,240,62743,1,0,0:0:0:0:
336,304,62919,2,0,P|384:240|352:160,1,167.999994873047
224,64,63448,5,0,0:0:0:0:
144,208,63625,1,0,0:0:0:0:
304,176,63801,1,0,0:0:0:0:
144,112,63978,1,0,0:0:0:0:
304,176,64154,2,0,L|304:304,2,125.999996154785
144,112,64860,5,0,0:0:0:0:
64,256,65037,1,0,0:0:0:0:
224,240,65213,1,0,0:0:0:0:
64,176,65390,1,0,0:0:0:0:
208,96,65566,2,0,L|208:208,1,83.9999974365235
288,208,65831,2,0,L|288:64,1,125.999996154785
176,288,66272,6,0,L|160:192,1,83.9999974365235
336,208,66625,2,0,L|432:192,1,83.9999974365235
272,96,66978,2,0,L|176:112,1,83.9999974365235
224,272,67331,2,0,L|320:256,1,83.9999974365235
416,128,67684,6,0,L|400:32,1,83.9999974365235
240,80,68037,1,0,0:0:0:0:
336,208,68213,1,0,0:0:0:0:
176,144,68390,1,0,0:0:0:0:
336,80,68566,2,0,P|384:144|352:224,1,167.999994873047
224,320,69095,5,0,0:0:0:0:
144,176,69272,1,0,0:0:0:0:
304,208,69448,1,0,0:0:0:0:
144,272,69625,1,0,0:0:0:0:
304,208,69801,2,0,L|304:80,2,125.999996154785
144,272,70507,5,0,0:0:0:0:
64,128,70684,1,0,0:0:0:0:
224,144,70860,1,0,0:0:0:0:
64,208,71037,1,0,0:0:0:0:
208,288,71213,2,0,L|208:176,1,83.9999974365235
288,176,71478,2,0,L|288:320,1,125.999996154785
336,112,77566,5,0,0:0:0:0:
336,112,77742,1,0,0:0:0:0:
288,240,77918,2,0,L|224:176,1,70
336,288,78271,1,0,0:0:0:0:
239,191,78448,1,0,0:0:0:0:
368,144,78624,2,0,L|368:224,1,70
272,320,78977,5,0,0:0:0:0:
160,240,79154,1,0,0:0:0:0:
272,320,79330,2,0,L|272:240,1,70
144,192,79683,1,0,0:0:0:0:
272,128,79860,2,0,L|272:272,1,140
211,230,80389,5,0,0:0:0:0:
144,322,80566,1,0,0:0:0:0:
144,208,80742,1,0,0:0:0:0:
211,300,80918,1,0,0:0:0:0:
103,265,81095,1,0,0:0:0:0:
211,300,81271,1,0,0:0:0:0:
144,208,81447,1,0,0:0:0:0:
144,322,81623,1,0,0:0:0:0:
211,230,81801,6,0,P|256:160|208:96,1,140
368,48,82507,1,0,0:0:0:0:
368,192,82683,1,0,0:0:0:0:
224,192,82860,1,0,0:0:0:0:
183,198,82948,1,0,0:0:0:0:
168,237,83036,1,0,0:0:0:0:
194,269,83124,1,0,0:0:0:0:
235,262,83213,6,0,L|256:176,1,70
368,128,83565,6,0,L|347:214,1,70
256,304,83918,1,0,0:0:0:0:
352,196,84095,1,0,0:0:0:0:
256,304,84271,2,0,L|256:208,1,70
144,144,84624,1,0,0:0:0:0:
144,144,84801,1,0,0:0:0:0:
64,256,84977,2,0,B|49:224|49:224|64:192,1,70
208,224,85330,1,0,0:0:0:0:
208,224,85507,2,0,P|272:256|336:224,1,140
272,112,86036,5,0,0:0:0:0:
384,208,86213,1,0,0:0:0:0:
336,80,86389,1,0,0:0:0:0:
240,176,86565,1,0,0:0:0:0:
288,304,86742,1,0,0:0:0:0:
384,208,86918,1,0,0:0:0:0:
288,112,87095,1,0,0:0:0:0:
240,240,87271,1,0,0:0:0:0:
384,256,87448,6,0,B|352:192|352:192|336:240,1,105
304,304,87801,1,0,0:0:0:0:
304,304,87977,2,0,L|304:160,1,140
160,128,88507,6,0,L|144:208,1,70
256,288,88859,2,0,L|272:208,1,70
304,80,89212,1,0,0:0:0:0:
160,80,89389,1,0,0:0:0:0:
160,80,89477,2,0,P|128:128|160:160,1,105
288,176,89918,5,0,0:0:0:0:
208,288,90095,1,0,0:0:0:0:
160,160,90271,1,0,0:0:0:0:
272,256,90448,1,0,0:0:0:0:
400,320,90624,2,0,P|416:272|400:240,1,70
336,272,90889,2,0,P|288:240|256:288,1,105
128,288,91330,6,0,L|208:304,1,70
288,192,91682,2,0,L|208:176,1,70
80,144,92035,1,0,0:0:0:0:
80,288,92212,1,0,0:0:0:0:
80,288,92300,2,0,P|128:320|160:288,1,105
176,160,92741,5,0,0:0:0:0:
288,240,92918,1,0,0:0:0:0:
160,288,93094,1,0,0:0:0:0:
256,176,93271,1,0,0:0:0:0:
128,144,93448,1,0,0:0:0:0:
192,272,93624,1,0,0:0:0:0:
64,224,93801,1,0,0:0:0:0:
192,176,93977,1,0,0:0:0:0:
320,240,94154,5,0,0:0:0:0:
320,240,94507,1,0,0:0:0:0:
112,240,94771,1,0,0:0:0:0:
224,64,95036,1,0,0:0:0:0:
224,64,95212,2,0,L|224:160,1,70
288,176,95477,6,0,L|224:288,1,105
96,320,95918,1,0,0:0:0:0:
96,320,96006,2,0,L|96:224,1,70
96,176,96271,1,0,0:0:0:0:
240,192,96448,1,0,0:0:0:0:
192,64,96624,1,0,0:0:0:0:
96,176,96801,1,0,0:0:0:0:
208,256,96977,6,0,B|240:272|240:272|272:256,1,70
320,128,97330,2,0,B|352:112|352:112|384:128,1,70
464,240,97683,2,0,B|480:192|480:192|464:128,1,105
288,240,98212,1,0,0:0:0:0:
288,240,98389,5,0,0:0:0:0:
384,80,98624,1,0,0:0:0:0:
192,80,98859,1,0,0:0:0:0:
288,240,99095,1,0,0:0:0:0:
128,336,99330,1,0,0:0:0:0:
128,144,99565,1,0,0:0:0:0:
432,272,99977,6,0,P|464:208|432:128,1,140
320,192,100506,1,0,0:0:0:0:
64,304,100859,1,0,0:0:0:0:
64,96,101124,1,0,0:0:0:0:
256,192,101389,5,0,0:0:0:0:
256,192,101565,1,0,0:0:0:0:
96,320,101830,2,0,P|80:256|112:224,1,105
384,288,102270,1,0,0:0:0:0:
384,288,102359,2,0,L|384:208,1,70
384,144,102623,1,0,0:0:0:0:
256,208,102800,1,0,0:0:0:0:
368,288,102976,1,0,0:0:0:0:
384,144,103153,1,0,0:0:0:0:
304,256,103329,5,0,0:0:0:0:
304,256,103417,2,0,L|320:192,4,35
272,192,103858,1,0,0:0:0:0:
272,192,103947,2,0,L|256:128,4,35
224,144,104388,1,0,0:0:0:0:
224,144,104476,2,0,L|240:80,4,35
192,80,104917,1,0,0:0:0:0:
192,80,105006,2,0,L|176:16,4,35
256,128,105447,5,0,0:0:0:0:
256,128,105535,2,0,L|320:112,4,35
320,160,105976,1,0,0:0:0:0:
320,160,106065,2,0,L|384:176,4,35
368,208,106506,1,0,0:0:0:0:
368,208,106594,2,0,L|432:192,4,35
432,240,107035,1,0,0:0:0:0:
432,240,107124,2,0,L|496:256,4,35
368,272,107564,5,0,0:0:0:0:
342,295,107652,1,0,0:0:0:0:
309,304,107740,1,0,0:0:0:0:
274,299,107828,1,0,0:0:0:0:
246,279,107917,2,0,L|240:240,3,35
208,176,108270,5,0,0:0:0:0:
235,154,108358,1,0,0:0:0:0:
268,145,108446,1,0,0:0:0:0:
303,150,108534,1,0,0:0:0:0:
331,170,108623,2,0,L|337:209,3,35
272,240,108976,5,0,0:0:0:0:
250,214,109064,1,0,0:0:0:0:
241,181,109152,1,0,0:0:0:0:
246,146,109240,1,0,0:0:0:0:
266,118,109329,2,0,L|305:113,3,35
368,144,109682,5,0,0:0:0:0:
224,112,109858,1,0,0:0:0:0:
368,144,110035,2,0,P|384:208|368:256,1,105
304,192,110388,6,0,L|208:240,1,83.9999974365235
64,208,110741,2,0,L|160:160,1,83.9999974365235
288,80,111094,1,0,0:0:0:0:
208,224,111270,1,0,0:0:0:0:
352,128,111447,1,0,0:0:0:0:
192,112,111623,1,0,0:0:0:0:
320,224,111800,6,0,B|288:256|288:256|256:224,1,83.9999974365235
112,144,112153,2,0,B|144:112|144:112|176:144,1,83.9999974365235
144,304,112505,1,0,0:0:0:0:
144,304,112682,2,0,B|202:247|144:189|144:189|125:228,1,167.999994873047
288,160,113211,5,0,0:0:0:0:
160,272,113388,1,0,0:0:0:0:
320,256,113564,1,0,0:0:0:0:
192,160,113741,1,0,0:0:0:0:
336,80,113917,2,0,P|368:144|320:208,2,125.999996154785
192,160,114623,1,0,0:0:0:0:
288,304,114800,1,0,0:0:0:0:
128,256,114976,1,0,0:0:0:0:
272,176,115153,1,0,0:0:0:0:
400,288,115329,6,0,L|416:192,1,83.9999974365235
368,144,115594,2,0,P|320:144|352:96,1,125.999996154785
208,208,116035,6,0,L|304:160,1,83.9999974365235
448,192,116388,2,0,L|352:240,1,83.9999974365235
224,320,116741,1,0,0:0:0:0:
304,176,116917,1,0,0:0:0:0:
160,272,117094,1,0,0:0:0:0:
320,288,117270,1,0,0:0:0:0:
192,176,117447,6,0,B|224:144|224:144|256:176,1,83.9999974365235
400,256,117800,2,0,B|368:288|368:288|336:256,1,83.9999974365235
368,96,118152,1,0,0:0:0:0:
368,96,118329,2,0,B|310:153|368:211|368:211|387:172,1,167.999994873047
224,240,118858,5,0,0:0:0:0:
352,128,119035,1,0,0:0:0:0:
192,144,119211,1,0,0:0:0:0:
320,240,119388,1,0,0:0:0:0:
176,320,119564,2,0,P|144:256|192:192,2,125.999996154785
320,240,120270,1,0,0:0:0:0:
224,96,120447,1,0,0:0:0:0:
384,144,120623,1,0,0:0:0:0:
240,224,120800,1,0,0:0:0:0:
112,112,120976,6,0,L|96:208,1,83.9999974365235
144,256,121241,2,0,P|192:256|160:304,1,125.999996154785
336,288,121682,6,0,L|352:192,1,83.9999974365235
176,208,122035,2,0,L|80:192,1,83.9999974365235
240,96,122388,2,0,L|336:112,1,83.9999974365235
288,272,122741,2,0,L|192:256,1,83.9999974365235
96,128,123094,6,0,L|112:32,1,83.9999974365235
272,80,123447,1,0,0:0:0:0:
176,208,123623,1,0,0:0:0:0:
336,144,123800,1,0,0:0:0:0:
176,80,123976,2,0,P|128:144|160:224,1,167.999994873047
288,320,124505,5,0,0:0:0:0:
368,176,124682,1,0,0:0:0:0:
208,208,124858,1,0,0:0:0:0:
368,272,125035,1,0,0:0:0:0:
208,208,125211,2,0,L|208:80,2,125.999996154785
368,272,125917,5,0,0:0:0:0:
448,128,126094,1,0,0:0:0:0:
288,144,126270,1,0,0:0:0:0:
448,208,126447,1,0,0:0:0:0:
304,288,126623,2,0,L|304:176,1,83.9999974365235
224,176,126888,2,0,L|224:320,1,125.999996154785
336,96,127329,6,0,L|352:192,1,83.9999974365235
176,176,127682,2,0,L|80:192,1,83.9999974365235
240,288,128035,2,0,L|336:272,1,83.9999974365235
288,112,128388,2,0,L|192:128,1,83.9999974365235
96,256,128741,6,0,L|112:352,1,83.9999974365235
272,304,129094,1,0,0:0:0:0:
176,176,129270,1,0,0:0:0:0:
336,240,129447,1,0,0:0:0:0:
176,304,129623,2,0,P|128:240|160:160,1,167.999994873047
288,64,130152,5,0,0:0:0:0:
368,208,130329,1,0,0:0:0:0:
208,176,130505,1,0,0:0:0:0:
368,112,130682,1,0,0:0:0:0:
208,176,130858,2,0,L|208:304,2,125.999996154785
368,112,131564,5,0,0:0:0:0:
448,256,131741,1,0,0:0:0:0:
288,240,131917,1,0,0:0:0:0:
448,176,132094,1,0,0:0:0:0:
304,96,132270,2,0,L|304:208,1,83.9999974365235
224,208,132535,2,0,L|224:64,1,125.999996154785
96,96,138624,5,0,0:0:0:0:
96,96,138801,1,0,0:0:0:0:
224,96,138977,1,0,0:0:0:0:
96,96,139242,1,0,0:0:0:0:
96,96,139506,1,0,0:0:0:0:
224,96,139683,1,0,0:0:0:0:
352,240,140036,5,0,0:0:0:0:
464,176,140212,1,0,0:0:0:0:
336,144,140389,1,0,0:0:0:0:
416,240,140565,1,0,0:0:0:0:
320,320,140742,1,0,0:0:0:0:
448,304,140918,1,0,0:0:0:0:
368,208,141095,1,0,0:0:0:0:
160,160,141448,5,0,0:0:0:0:
160,160,141625,1,0,0:0:0:0:
160,288,141801,1,0,0:0:0:0:
160,160,142066,1,0,0:0:0:0:
160,160,142330,1,0,0:0:0:0:
160,288,142507,1,0,0:0:0:0:
352,144,142859,5,0,0:0:0:0:
464,208,143035,1,0,0:0:0:0:
336,240,143212,1,0,0:0:0:0:
416,144,143388,1,0,0:0:0:0:
320,64,143565,1,0,0:0:0:0:
448,80,143741,1,0,0:0:0:0:
368,176,143918,1,0,0:0:0:0:
96,80,144271,6,0,L|80:176,1,83.9999974365235
224,144,144624,2,0,L|208:240,1,83.9999974365235
352,208,144977,2,0,L|336:304,1,83.9999974365235
192,288,145330,1,0,0:0:0:0:
224,144,145506,1,0,0:0:0:0:
128,240,145683,5,0,0:0:0:0:
256,192,145859,1,0,0:0:0:0:
112,160,146036,1,0,0:0:0:0:
208,272,146212,1,0,0:0:0:0:
288,160,146389,1,0,0:0:0:0:
160,224,146565,1,0,0:0:0:0:
256,128,146742,1,0,0:0:0:0:
240,272,146918,1,0,0:0:0:0:
96,304,147095,6,0,L|80:208,1,83.9999974365235
224,240,147448,2,0,L|208:144,1,83.9999974365235
352,176,147801,2,0,L|336:80,1,83.9999974365235
192,96,148154,1,0,0:0:0:0:
224,240,148330,1,0,0:0:0:0:
128,144,148507,5,0,0:0:0:0:
256,192,148683,1,0,0:0:0:0:
112,224,148860,1,0,0:0:0:0:
208,112,149036,1,0,0:0:0:0:
288,224,149213,1,0,0:0:0:0:
160,160,149389,1,0,0:0:0:0:
256,256,149566,1,0,0:0:0:0:
448,48,149918,6,0,L|464:144,1,83.9999974365235
320,112,150271,2,0,L|336:208,1,83.9999974365235
192,176,150624,2,0,L|208:272,1,83.9999974365235
352,256,150977,1,0,0:0:0:0:
320,112,151153,1,0,0:0:0:0:
432,64,151330,6,0,L|448:160,1,83.9999974365235
304,128,151683,2,0,L|320:224,1,83.9999974365235
176,192,152036,2,0,L|192:288,1,83.9999974365235
336,272,152389,1,0,0:0:0:0:
304,128,152565,1,0,0:0:0:0:
416,80,152742,6,0,L|432:176,1,83.9999974365235
288,144,153095,2,0,L|304:240,1,83.9999974365235
400,96,153448,6,0,L|416:192,1,83.9999974365235
272,160,153801,2,0,L|288:256,1,83.9999974365235
384,112,154154,6,0,L|400:208,1,83.9999974365235
256,176,154507,2,0,L|272:272,1,83.9999974365235
368,128,154859,6,0,L|384:224,1,83.9999974365235
240,192,155212,2,0,L|256:288,1,83.9999974365235
224,208,155565,6,0,L|240:304,1,83.9999974365235
224,208,155918,6,0,L|240:304,1,83.9999974365235
224,208,156271,6,0,L|240:304,1,83.9999974365235
224,208,156624,6,0,L|240:304,1,83.9999974365235
224,208,156977,6,0,L|240:304,1,83.9999974365235
224,208,157330,6,0,L|240:304,1,83.9999974365235
224,208,157683,6,0,L|240:304,1,83.9999974365235
224,208,158036,6,0,L|240:303,1,83.9999974365235
208,128,158389,5,0,0:0:0:0:
208,128,158565,5,0,0:0:0:0:
384,128,158742,5,0,0:0:0:0:
384,128,158918,5,0,0:0:0:0:
384,304,159095,5,0,0:0:0:0:
384,304,159271,5,0,0:0:0:0:
208,304,159448,5,0,0:0:0:0:
208,304,159624,5,0,0:0:0:0:
208,128,159801,5,0,0:0:0:0:
208,128,159977,5,0,0:0:0:0:
384,128,160154,5,0,0:0:0:0:
384,128,160330,5,0,0:0:0:0:
384,304,160507,5,0,0:0:0:0:
384,304,160683,5,0,0:0:0:0:
208,304,160860,5,0,0:0:0:0:
208,304,161036,5,0,0:0:0:0:
192,144,161212,6,0,L|176:96,3,41.9999987182618
192,80,161565,6,0,L|208:32,3,41.9999987182618
240,32,161918,6,0,L|288:32,3,41.9999987182618
320,64,162271,6,0,L|336:112,3,41.9999987182618
320,144,162624,6,0,L|336:192,3,41.9999987182618
320,208,162977,6,0,L|304:256,3,41.9999987182618
272,256,163330,6,0,L|224:256,3,41.9999987182618
192,224,163683,6,0,L|176:176,3,41.9999987182618
256,192,164036,12,0,168095,0:0:0:0:
128,96,168271,6,0,L|96:192,1,70
208,256,168624,2,0,L|240:160,1,70
352,112,168977,1,0,0:0:0:0:
352,112,169065,2,0,P|368:144|352:179,1,70
288,192,169330,2,0,P|240:192|208:192,1,70
96,144,169683,6,0,L|96:240,1,70
208,304,170036,1,0,0:0:0:0:
304,208,170212,1,0,0:0:0:0:
160,208,170389,1,0,0:0:0:0:
256,112,170565,1,0,0:0:0:0:
256,112,170742,2,0,L|256:192,1,70
368,272,171095,6,0,L|400:176,1,70
288,112,171448,2,0,L|256:208,1,70
144,256,171801,1,0,0:0:0:0:
144,256,171889,2,0,P|128:224|144:189,1,70
208,176,172154,2,0,P|256:176|288:176,1,70
400,224,172507,6,0,L|400:128,1,70
288,64,172860,1,0,0:0:0:0:
192,160,173036,1,0,0:0:0:0:
336,160,173212,1,0,0:0:0:0:
336,160,173300,2,0,P|368:144|403:160,1,70
416,224,173565,2,0,P|416:272|416:304,1,70
128,288,173918,6,0,L|96:192,1,70
208,128,174271,2,0,L|240:224,1,70
352,272,174624,1,0,0:0:0:0:
352,272,174712,2,0,P|368:240|352:205,1,70
288,192,174977,2,0,P|240:192|208:192,1,70
96,240,175330,6,0,L|96:144,1,70
208,80,175683,1,0,0:0:0:0:
304,176,175859,1,0,0:0:0:0:
160,176,176036,1,0,0:0:0:0:
256,272,176212,1,0,0:0:0:0:
256,272,176389,2,0,L|256:192,1,70
368,112,176742,6,0,L|400:208,1,70
288,272,177095,2,0,L|256:176,1,70
144,128,177448,1,0,0:0:0:0:
144,128,177536,2,0,P|128:160|144:195,1,70
208,208,177801,2,0,P|256:208|288:208,1,70
400,160,178154,6,0,L|400:256,1,70
288,320,178507,1,0,0:0:0:0:
192,224,178683,1,0,0:0:0:0:
288,112,178859,1,0,0:0:0:0:
288,320,179124,1,0,0:0:0:0:
368,256,179565,6,0,L|384:176,1,70
272,96,179917,2,0,L|256:176,1,70
224,304,180270,1,0,0:0:0:0:
368,304,180447,1,0,0:0:0:0:
368,304,180535,2,0,P|400:256|368:224,1,105
240,208,180976,5,0,0:0:0:0:
320,96,181153,1,0,0:0:0:0:
368,224,181329,1,0,0:0:0:0:
256,128,181506,1,0,0:0:0:0:
128,64,181682,2,0,P|112:112|128:144,1,70
192,112,181947,2,0,P|240:144|272:96,1,105
400,176,182388,5,0,0:0:0:0:
288,256,182564,1,0,0:0:0:0:
304,112,182741,1,0,0:0:0:0:
384,224,182917,1,0,0:0:0:0:
288,320,183094,1,0,0:0:0:0:
304,112,183359,1,0,0:0:0:0:
288,320,183624,1,0,0:0:0:0:
192,224,183801,5,0,0:0:0:0:
320,192,183977,1,0,0:0:0:0:
192,144,184154,1,0,0:0:0:0:
256,272,184330,1,0,0:0:0:0:
192,144,184506,1,0,0:0:0:0:
384,224,184771,1,0,0:0:0:0:
48,288,185212,6,0,L|32:208,1,70
144,128,185564,2,0,L|160:208,1,70
192,336,185917,1,0,0:0:0:0:
48,336,186094,1,0,0:0:0:0:
48,336,186182,2,0,P|16:288|48:256,1,105
176,240,186623,5,0,0:0:0:0:
96,128,186800,1,0,0:0:0:0:
48,256,186976,1,0,0:0:0:0:
160,160,187153,1,0,0:0:0:0:
288,96,187329,2,0,P|304:144|288:176,1,70
224,144,187594,2,0,P|176:176|144:128,1,105
16,208,188035,5,0,0:0:0:0:
128,288,188211,1,0,0:0:0:0:
112,144,188388,1,0,0:0:0:0:
32,256,188564,1,0,0:0:0:0:
128,352,188741,1,0,0:0:0:0:
112,144,189006,1,0,0:0:0:0:
128,352,189271,1,0,0:0:0:0:
224,256,189448,5,0,0:0:0:0:
96,224,189624,1,0,0:0:0:0:
224,176,189801,1,0,0:0:0:0:
160,304,189977,1,0,0:0:0:0:
224,176,190153,1,0,0:0:0:0:
32,256,190418,1,0,0:0:0:0:
304,192,190859,6,0,L|208:144,1,83.9999974365235
64,176,191212,2,0,L|160:224,1,83.9999974365235
288,304,191565,1,0,0:0:0:0:
208,160,191741,1,0,0:0:0:0:
352,256,191918,1,0,0:0:0:0:
192,272,192094,1,0,0:0:0:0:
320,160,192271,6,0,B|288:128|288:128|256:160,1,83.9999974365235
112,240,192624,2,0,B|144:272|144:272|176:240,1,83.9999974365235
144,80,192976,1,0,0:0:0:0:
144,80,193153,2,0,B|202:137|144:195|144:195|125:156,1,167.999994873047
288,224,193682,5,0,0:0:0:0:
160,112,193859,1,0,0:0:0:0:
320,128,194035,1,0,0:0:0:0:
192,224,194212,1,0,0:0:0:0:
336,304,194388,2,0,P|368:240|320:176,2,125.999996154785
192,224,195094,1,0,0:0:0:0:
288,80,195271,1,0,0:0:0:0:
128,128,195447,1,0,0:0:0:0:
272,208,195624,1,0,0:0:0:0:
400,96,195800,6,0,L|416:192,1,83.9999974365235
368,240,196065,2,0,P|320:240|352:288,1,125.999996154785
208,176,196506,6,0,L|304:224,1,83.9999974365235
448,192,196859,2,0,L|352:144,1,83.9999974365235
224,64,197212,1,0,0:0:0:0:
304,208,197388,1,0,0:0:0:0:
160,112,197565,1,0,0:0:0:0:
320,96,197741,1,0,0:0:0:0:
192,208,197918,6,0,B|224:240|224:240|256:208,1,83.9999974365235
400,128,198271,2,0,B|368:96|368:96|336:128,1,83.9999974365235
368,288,198623,1,0,0:0:0:0:
368,288,198800,2,0,B|310:231|368:173|368:173|387:212,1,167.999994873047
224,144,199329,5,0,0:0:0:0:
352,256,199506,1,0,0:0:0:0:
192,240,199682,1,0,0:0:0:0:
320,144,199859,1,0,0:0:0:0:
176,64,200035,2,0,P|144:128|192:192,2,125.999996154785
320,144,200741,1,0,0:0:0:0:
224,288,200918,1,0,0:0:0:0:
384,240,201094,1,0,0:0:0:0:
240,160,201271,1,0,0:0:0:0:
112,272,201447,6,0,L|96:176,1,83.9999974365235
144,128,201712,2,0,P|192:128|160:80,1,125.999996154785
336,96,202153,6,0,L|352:192,1,83.9999974365235
176,176,202506,2,0,L|80:192,1,83.9999974365235
240,288,202859,2,0,L|336:272,1,83.9999974365235
288,112,203212,2,0,L|192:128,1,83.9999974365235
96,256,203565,6,0,L|112:352,1,83.9999974365235
272,304,203918,1,0,0:0:0:0:
176,176,204094,1,0,0:0:0:0:
336,240,204271,1,0,0:0:0:0:
176,304,204447,2,0,P|128:240|160:160,1,167.999994873047
288,64,204976,5,0,0:0:0:0:
368,208,205153,1,0,0:0:0:0:
208,176,205329,1,0,0:0:0:0:
368,112,205506,1,0,0:0:0:0:
208,176,205682,2,0,L|208:304,2,125.999996154785
368,112,206388,5,0,0:0:0:0:
448,256,206565,1,0,0:0:0:0:
288,240,206741,1,0,0:0:0:0:
448,176,206918,1,0,0:0:0:0:
304,96,207094,2,0,L|304:208,1,83.9999974365235
224,208,207359,2,0,L|224:64,1,125.999996154785
336,288,207800,6,0,L|352:192,1,83.9999974365235
176,208,208153,2,0,L|80:192,1,83.9999974365235
240,96,208506,2,0,L|336:112,1,83.9999974365235
288,272,208859,2,0,L|192:256,1,83.9999974365235
96,128,209212,6,0,L|112:32,1,83.9999974365235
272,80,209565,1,0,0:0:0:0:
176,208,209741,1,0,0:0:0:0:
336,144,209918,1,0,0:0:0:0:
176,80,210094,2,0,P|128:144|160:224,1,167.999994873047
288,320,210623,5,0,0:0:0:0:
368,176,210800,1,0,0:0:0:0:
208,208,210976,1,0,0:0:0:0:
368,272,211153,1,0,0:0:0:0:
208,208,211329,2,0,L|208:80,2,125.999996154785
368,272,212035,5,0,0:0:0:0:
448,128,212212,1,0,0:0:0:0:
288,144,212388,1,0,0:0:0:0:
448,208,212565,1,0,0:0:0:0:
304,288,212741,2,0,L|304:176,1,83.9999974365235
336,144,213006,1,0,0:0:0:0:
288,272,213271,5,0,0:0:0:0:
288,272,213448,2,0,L|288:208,1,52.5000020027161
352,176,213801,2,0,L|352:240,1,52.5000020027161
416,272,214154,2,0,L|416:208,1,52.5000020027161
384,192,214419,2,0,L|384:112,1,78.7500030040742
320,64,214859,6,0,L|320:128,1,52.5000020027161
256,160,215212,2,0,L|256:96,1,52.5000020027161
192,64,215565,2,0,L|192:128,1,52.5000020027161
160,144,215830,1,0,0:0:0:0:
