osu file format v14

[General]
AudioFilename: audio.mp3
AudioLeadIn: 0
PreviewTime: 161082
Countdown: 0
SampleSet: Soft
StackLeniency: 0.2
Mode: 0
LetterboxInBreaks: 0
WidescreenStoryboard: 0

[Editor]
DistanceSpacing: 0.4
BeatDivisor: 3
GridSize: 32
TimelineZoom: 1.8

[Metadata]
Title:Little Cry of The Abyss feat. Toki Asako
TitleUnicode:深海のリトルクライ feat. 土岐麻子
Artist:sasakure.UK
ArtistUnicode:sasakure.UK
Creator:Shurelia
Version:Three Roses
Source:
Tags:ib thzz Cah-m ancul midorijeon mary garry Shinkai no ritorukurai The Fantastic Reality of Aesop japanese pop
BeatmapID:1931061
BeatmapSetID:924508

[Difficulty]
HPDrainRate:6.5
CircleSize:5.2
OverallDifficulty:9.5
ApproachRate:7.8
SliderMultiplier:1.4
SliderTickRate:0.5

[Events]
//Background and Video events
0,0,"ib bg.jpg",0,0
//Break Periods
//Storyboard Layer 0 (Background)
//Storyboard Layer 1 (Fail)
//Storyboard Layer 2 (Pass)
//Storyboard Layer 3 (Foreground)
//Storyboard Layer 4 (Overlay)
//Storyboard Sound Samples

[TimingPoints]
243,384.615384615385,4,2,1,29,1,0
12550,-100,4,2,1,41,0,0
24858,-100,4,2,1,41,0,0
31012,-100,4,2,1,41,0,0
37550,-100,4,2,2,27,0,0
42550,-59.1715976331361,4,2,1,15,0,0
43319,-100,4,2,1,41,0,0
49473,-100,4,2,1,41,0,0
57166,-100,4,2,1,47,0,0
58704,-100,4,2,1,66,0,1
69473,-100,4,2,1,41,0,0
94473,-100,4,2,2,27,0,0
99473,-100,4,2,1,20,0,0
100243,-100,4,2,1,41,0,0
114089,-100,4,2,1,47,0,0
115627,-100,4,2,1,66,0,1
138704,-100,4,2,1,66,0,0
149473,384.615384615385,3,2,1,46,1,0
151780,384.615384615385,5,2,1,46,1,0
155626,384.615384615385,3,2,1,46,1,0
157933,789.473684210526,4,2,1,51,1,0
161082,320.855614973262,4,2,1,36,1,0
162360,321.429719391855,5,2,1,51,1,0
167181,321.429719391855,3,2,1,51,1,0
169110,321.429719391855,5,2,1,51,1,0
172324,321.429719391855,3,2,1,51,1,0
174252,-100,3,2,1,52,0,0
174257,384.615384615385,4,2,1,52,1,0
175795,-100,4,2,1,58,0,0
177333,-71.4285714285714,4,2,1,72,0,1
214257,-100,4,2,1,41,0,0
217333,-68.259385665529,4,2,1,41,0,0
218872,-100,4,2,1,41,0,0
219641,-100,4,2,2,41,0,0
220026,-100,4,2,1,41,0,0
220795,-100,4,2,2,41,0,0
221564,-100,4,2,1,41,0,0
222718,-100,4,2,2,41,0,0
223103,-100,4,2,1,41,0,0
223872,-100,4,2,3,41,0,0
224257,-100,4,2,2,41,0,0
224641,-100,4,2,1,41,0,0
225795,-100,4,2,2,41,0,0
226180,-100,4,2,1,41,0,0
226949,-100,4,2,2,41,0,0
227718,-100,4,2,1,41,0,0
228872,-100,4,2,2,41,0,0
229257,-100,4,2,1,41,0,0
230026,-100,4,2,2,41,0,0
230507,-100,4,2,1,41,0,0
231949,-100,4,2,2,41,0,0
232333,-100,4,2,1,41,0,0
233103,-100,4,2,2,41,0,0
233872,-100,4,2,1,41,0,0
235026,-100,4,2,2,41,0,0
235410,-100,4,2,1,41,0,0
236180,-100,4,2,3,41,0,0
236564,-100,4,2,2,41,0,0
236949,-100,4,2,1,41,0,0
238103,-100,4,2,2,41,0,0
238487,-100,4,2,1,41,0,0
239257,-100,4,2,2,41,0,0
240026,-100,4,2,1,41,0,0
243103,-232.558139534884,4,2,1,41,0,0
243199,-1000,4,2,1,41,0,0
249641,-1000,4,2,1,5,0,0

[Colours]
Combo1 : 255,255,85
Combo2 : 255,60,60
Combo3 : 60,35,197
Combo4 : 240,240,0
Combo5 : 255,83,83
Combo6 : 94,94,255

[HitObjects]
323,68,243,5,2,2:2:0:0:
294,87,627,1,0,0:0:0:0:
276,255,1012,5,2,2:2:0:0:
305,236,1396,1,0,0:0:0:0:
477,170,1781,5,2,2:2:0:0:
449,153,2165,1,0,0:0:0:0:
294,87,2550,53,2,2:2:0:0:
216,139,2807,1,2,2:2:0:0:
139,89,3063,1,2,2:2:0:0:
156,315,3319,5,2,2:2:0:0:
185,296,3703,1,0,0:0:0:0:
347,211,4089,5,2,2:2:0:0:
318,192,4473,1,0,0:0:0:0:
141,133,4858,53,2,2:2:0:0:
166,164,5243,1,0,0:0:0:0:
386,297,5627,5,2,2:2:0:0:
347,211,5884,1,2,2:2:0:0:
386,126,6140,1,2,2:2:0:0:
92,178,6396,5,2,2:2:0:0:
111,207,6780,1,0,0:0:0:0:
279,225,7165,53,2,2:2:0:0:
260,196,7549,1,0,0:0:0:0:
194,24,7935,5,2,2:2:0:0:
177,52,8318,1,0,0:0:0:0:
111,207,8704,5,2,2:2:0:0:
163,285,8960,1,2,2:2:0:0:
113,362,9216,1,2,2:2:0:0:
339,345,9473,53,2,2:2:0:0:
320,316,9858,1,0,0:0:0:0:
235,154,10243,5,2,2:2:0:0:
216,183,10626,1,0,0:0:0:0:
157,360,11012,5,2,2:2:0:0:
188,335,11396,1,0,0:0:0:0:
321,115,11781,53,2,2:2:0:0:
303,91,12166,1,0,0:0:0:0:
78,281,12550,5,10,2:2:0:0:
219,345,12935,5,10,2:3:0:0:
219,345,13063,1,8,2:3:0:0:
219,345,13191,1,8,2:3:0:0:
288,335,13319,1,10,2:2:0:0:
196,211,13704,53,10,2:3:0:0:
196,211,13832,1,8,2:3:0:0:
196,211,13960,1,8,2:3:0:0:
127,224,14088,1,10,2:2:0:0:
341,271,14473,5,10,2:3:0:0:
341,271,14601,1,8,2:3:0:0:
341,271,14729,1,8,2:3:0:0:
410,281,14858,1,10,2:2:0:0:
292,156,15050,5,8,2:2:0:0:
341,63,15243,53,8,2:3:0:0:
352,60,15307,1,8,2:3:0:0:
363,56,15371,1,10,2:3:0:0:
374,53,15435,1,8,2:3:0:0:
385,50,15499,1,8,2:3:0:0:
396,47,15563,1,8,2:3:0:0:
414,76,15627,1,10,2:2:0:0:
370,268,16012,5,10,2:3:0:0:
370,268,16140,1,8,2:3:0:0:
370,268,16268,1,8,2:3:0:0:
437,251,16396,1,10,2:2:0:0:
241,116,16781,5,10,2:3:0:0:
241,116,16909,1,8,2:3:0:0:
241,116,17037,1,8,2:3:0:0:
171,130,17166,1,10,2:2:0:0:
142,272,17550,53,10,2:3:0:0:
142,272,17678,1,8,2:3:0:0:
142,272,17806,1,8,2:3:0:0:
73,289,17935,1,10,2:2:0:0:
81,184,18127,5,8,2:2:0:0:
171,130,18319,1,8,2:3:0:0:
261,184,18512,1,8,2:3:0:0:
262,288,18704,5,10,2:2:0:0:
394,106,19089,53,10,2:3:0:0:
394,106,19217,1,8,2:3:0:0:
394,106,19345,1,8,2:3:0:0:
432,47,19473,1,10,2:2:0:0:
204,170,19858,5,10,2:3:0:0:
204,170,19986,1,8,2:3:0:0:
204,170,20114,1,8,2:3:0:0:
187,238,20243,1,10,2:2:0:0:
62,86,20627,5,10,2:3:0:0:
62,86,20755,1,8,2:3:0:0:
62,86,20883,1,8,2:3:0:0:
121,49,21012,1,10,2:2:0:0:
135,151,21204,53,8,2:2:0:0:
81,244,21396,5,8,2:3:0:0:
80,255,21460,1,8,2:3:0:0:
79,266,21525,1,10,2:3:0:0:
77,277,21589,1,8,2:3:0:0:
77,288,21653,1,8,2:3:0:0:
76,299,21717,1,8,2:3:0:0:
110,306,21781,1,10,2:2:0:0:
202,25,22166,5,10,2:3:0:0:
202,25,22294,1,8,2:3:0:0:
202,25,22422,1,8,2:3:0:0:
132,34,22550,1,10,2:2:0:0:
347,103,22935,5,10,2:3:0:0:
347,103,23063,1,8,2:3:0:0:
347,103,23191,1,8,2:3:0:0:
415,118,23319,1,10,2:2:0:0:
266,245,23704,37,10,2:3:0:0:
266,245,23832,1,8,2:3:0:0:
266,245,23960,1,8,2:3:0:0:
296,318,24089,1,10,2:2:0:0:
296,318,24217,1,8,2:3:0:0:
296,318,24345,1,8,2:3:0:0:
238,358,24474,5,10,2:2:0:0:
214,292,24602,1,8,2:2:0:0:
145,277,24730,1,8,2:2:0:0:
94,325,24858,1,10,2:2:0:0:
94,325,27935,5,10,2:2:0:0:
94,325,31012,53,10,2:2:0:0:
103,155,31396,5,10,2:3:0:0:
103,155,31524,1,8,2:3:0:0:
103,155,31652,1,8,2:3:0:0:
34,171,31781,1,10,2:2:0:0:
237,132,32165,5,10,2:3:0:0:
237,132,32293,1,8,2:3:0:0:
237,132,32421,1,8,2:3:0:0:
304,113,32550,1,10,2:2:0:0:
197,265,32934,53,10,2:3:0:0:
197,265,33062,1,8,2:3:0:0:
197,265,33190,1,8,2:3:0:0:
219,331,33319,1,10,2:2:0:0:
321,353,33511,5,10,2:2:0:0:
416,309,33704,5,10,2:3:0:0:
421,298,33768,1,8,2:3:0:0:
421,286,33832,1,8,2:3:0:0:
419,274,33896,1,10,2:3:0:0:
416,262,33960,1,8,2:3:0:0:
411,251,34024,1,8,2:3:0:0:
376,253,34088,1,10,2:2:0:0:
180,306,34473,53,10,2:3:0:0:
180,306,34601,1,8,2:3:0:0:
180,306,34729,1,8,2:3:0:0:
160,373,34857,1,10,2:2:0:0:
289,187,35242,5,10,2:3:0:0:
289,187,35370,1,8,2:3:0:0:
289,187,35498,1,8,2:3:0:0:
297,117,35627,1,10,2:2:0:0:
176,78,36012,5,10,2:3:0:0:
176,78,36139,1,8,2:3:0:0:
176,78,36267,1,8,2:3:0:0:
112,47,36396,53,10,2:2:0:0:
103,154,36589,1,8,2:2:0:0:
275,259,36781,5,8,2:3:0:0:
153,254,36974,1,8,2:3:0:0:
384,129,37166,5,10,2:2:0:0:
384,143,37550,1,2,2:3:0:0:
384,157,37935,1,2,2:3:0:0:
384,171,38320,1,2,2:3:0:0:
384,184,38704,1,2,2:3:0:0:
384,198,39089,1,2,2:3:0:0:
384,211,39473,1,2,2:3:0:0:
384,225,39858,1,2,2:3:0:0:
384,238,40243,1,2,2:3:0:0:
384,252,40628,1,2,2:3:0:0:
384,265,41012,1,2,2:3:0:0:
384,279,41397,1,2,2:3:0:0:
384,292,41781,1,2,2:3:0:0:
384,306,42166,1,2,2:3:0:0:
17,336,42550,6,0,B|8:303|17:292|41:274|41:274|23:279|23:279|17:260|0:248|0:248|18:253|18:253|26:246|22:235|22:235|41:229|52:218|54:202|54:202|74:198|76:177|76:177|66:171|53:168|53:168|46:160|32:157|24:161|24:161|14:158|-2:163|-2:163|-12:177|8:189|8:189|-5:214|12:220|12:220|45:206|56:186|58:177|31:171|19:182|19:182|18:188|28:201,1,393.399998799438,2|0,2:2|0:0,0:0:0:0:
47,142,43319,5,10,2:2:0:0:
213,86,43704,5,10,2:3:0:0:
213,86,43832,1,8,2:3:0:0:
213,86,43960,1,8,2:3:0:0:
203,16,44088,1,10,2:2:0:0:
236,220,44473,5,10,2:3:0:0:
236,220,44601,1,8,2:3:0:0:
236,220,44729,1,8,2:3:0:0:
249,289,44858,1,10,2:2:0:0:
91,160,45243,53,10,2:3:0:0:
91,160,45370,1,8,2:3:0:0:
91,160,45498,1,8,2:3:0:0:
38,207,45627,1,10,2:2:0:0:
78,304,45819,5,8,2:2:0:0:
180,253,46012,5,10,2:3:0:0:
190,249,46076,1,8,2:3:0:0:
201,247,46140,1,8,2:3:0:0:
212,247,46204,1,8,2:3:0:0:
223,250,46268,1,8,2:3:0:0:
233,254,46332,1,8,2:3:0:0:
227,288,46396,1,10,2:2:0:0:
443,197,46781,53,10,2:3:0:0:
443,197,46909,1,8,2:3:0:0:
443,197,47037,1,10,2:3:0:0:
484,253,47166,1,8,2:2:0:0:
309,220,47550,5,10,2:3:0:0:
309,220,47678,1,8,2:3:0:0:
309,220,47806,1,8,2:3:0:0:
273,280,47934,1,10,2:2:0:0:
369,75,48319,5,10,2:3:0:0:
369,75,48447,1,8,2:3:0:0:
369,75,48575,1,8,2:3:0:0:
354,6,48703,1,10,2:2:0:0:
256,44,48896,53,0,0:0:0:0:
191,128,49089,5,10,2:3:0:0:
186,146,49153,1,8,2:3:0:0:
182,164,49217,1,8,2:3:0:0:
177,182,49281,1,8,2:3:0:0:
173,200,49345,1,8,2:3:0:0:
166,217,49409,1,8,2:3:0:0:
199,227,49473,1,2,1:2:0:0:
256,44,51012,5,0,0:0:0:0:
40,192,52550,53,2,2:2:0:0:
256,340,54089,5,0,0:0:0:0:
400,295,54858,1,2,2:2:0:0:
472,192,55627,5,2,2:2:0:0:
472,192,56396,1,2,2:2:0:0:
472,192,57166,53,14,2:2:0:0:
486,236,57294,1,8,2:2:0:0:
472,280,57422,1,8,2:2:0:0:
399,290,57550,5,10,2:2:0:0:
413,236,57678,1,8,2:2:0:0:
400,182,57806,1,10,2:2:0:0:
322,172,57935,5,10,2:2:0:0:
334,236,58063,1,8,2:2:0:0:
320,300,58191,1,10,2:2:0:0:
237,310,58319,53,10,2:2:0:0:
239,162,58447,1,8,2:2:0:0:
187,236,58575,1,10,2:2:0:0:
101,245,58704,5,12,1:2:0:0:
182,37,59089,1,8,2:2:0:0:
116,22,59217,1,8,2:2:0:0:
77,80,59345,1,10,1:2:0:0:
123,137,59474,1,8,2:2:0:0:
123,137,59730,5,2,1:2:0:0:
192,107,59858,1,8,2:2:0:0:
260,76,59986,1,8,2:2:0:0:
328,101,60114,1,10,1:2:0:0:
343,168,60243,1,10,1:2:0:0:
274,384,60499,5,2,2:2:0:0:
246,310,60627,1,10,2:2:0:0:
471,329,60884,53,10,1:2:0:0:
421,219,61012,1,8,2:2:0:0:
417,210,61140,1,8,2:2:0:0:
412,201,61268,1,8,1:2:0:0:
384,279,61396,1,10,2:2:0:0:
306,266,61525,1,8,2:2:0:0:
293,189,61653,1,10,1:2:0:0:
358,148,61781,1,8,1:2:0:0:
149,345,62166,5,10,2:2:0:0:
128,359,62295,1,8,2:2:0:0:
105,358,62423,1,10,1:2:0:0:
87,349,62551,1,8,2:2:0:0:
87,349,62935,53,10,2:2:0:0:
49,293,63064,1,8,2:2:0:0:
62,227,63192,1,10,1:2:0:0:
120,194,63320,1,8,1:2:0:0:
120,194,63704,5,8,2:2:0:0:
166,242,63832,1,10,2:2:0:0:
145,306,63960,1,8,1:2:0:0:
49,293,64089,5,10,2:2:0:0:
5,236,64217,1,8,2:2:0:0:
55,173,64345,5,10,1:2:0:0:
52,136,64473,1,8,2:2:0:0:
111,93,64601,5,10,2:2:0:0:
125,77,64729,1,8,1:2:0:0:
193,104,64858,53,14,1:2:0:0:
494,57,65243,5,10,2:2:0:0:
466,85,65371,1,8,2:2:0:0:
425,77,65499,1,10,1:2:0:0:
398,104,65627,1,10,2:2:0:0:
398,104,65884,5,2,1:2:0:0:
395,176,66012,1,8,2:2:0:0:
463,202,66140,1,8,2:2:0:0:
504,147,66268,1,10,1:2:0:0:
466,85,66396,1,8,1:2:0:0:
344,20,66653,5,2,2:2:0:0:
307,116,66781,1,10,2:2:0:0:
305,127,66909,1,8,2:2:0:0:
303,136,67037,1,10,1:2:0:0:
360,174,67166,5,8,2:2:0:0:
400,233,67294,1,8,2:2:0:0:
397,306,67422,1,10,1:2:0:0:
244,290,67550,53,10,2:2:0:0:
262,364,67679,1,8,2:2:0:0:
317,312,67807,1,10,1:2:0:0:
238,282,67935,1,8,1:2:0:0:
232,273,68319,5,10,2:2:0:0:
185,226,68448,1,8,2:2:0:0:
120,249,68575,1,10,1:2:0:0:
110,319,68703,1,8,2:2:0:0:
111,328,68960,5,10,1:2:0:0:
13,274,69088,1,10,2:2:0:0:
12,187,69217,1,8,2:2:0:0:
35,128,69345,1,10,2:2:0:0:
99,138,69473,53,14,1:2:0:0:
99,138,69858,1,10,2:2:0:0:
143,66,70243,1,10,2:2:0:0:
218,101,70627,1,10,2:2:0:0:
286,51,71012,1,10,2:2:0:0:
353,100,71396,1,10,2:2:0:0:
419,49,71781,1,10,2:2:0:0:
475,112,72166,1,8,2:2:0:0:
486,195,72422,5,8,2:2:0:0:
486,301,72550,5,10,2:2:0:0:
420,247,72935,1,10,2:2:0:0:
358,304,73320,1,10,2:2:0:0:
291,252,73704,1,10,2:2:0:0:
230,310,73896,1,0,0:0:0:0:
230,310,74089,53,10,2:2:0:0:
160,262,74473,1,10,2:2:0:0:
77,277,74730,5,8,2:2:0:0:
102,198,74858,5,10,2:2:0:0:
160,262,75114,53,10,2:3:0:0:
253,215,75243,1,8,2:2:0:0:
282,179,75371,1,10,2:3:0:0:
257,139,75499,1,8,2:3:0:0:
230,177,75627,5,10,2:2:0:0:
160,262,76012,1,10,2:2:0:0:
230,349,76396,1,10,2:2:0:0:
301,262,76781,1,10,2:2:0:0:
170,105,77166,5,10,2:2:0:0:
262,0,77550,1,10,2:2:0:0:
379,77,77935,1,10,2:2:0:0:
287,182,78191,1,2,2:2:0:0:
287,182,78320,1,8,2:2:0:0:
457,191,78576,53,8,2:2:0:0:
379,77,78704,1,10,2:2:0:0:
379,77,79089,5,10,2:3:0:0:
335,84,79217,1,8,2:3:0:0:
290,70,79345,1,8,2:3:0:0:
246,75,79473,1,10,2:2:0:0:
246,75,79858,5,10,2:3:0:0:
243,122,79986,1,8,2:3:0:0:
219,161,80114,1,8,2:3:0:0:
247,195,80243,53,10,2:2:0:0:
293,191,80371,1,8,2:3:0:0:
332,167,80499,1,8,2:2:0:0:
373,189,80627,5,10,2:3:0:0:
369,235,80755,1,8,2:2:0:0:
346,275,80883,1,8,2:3:0:0:
377,308,81012,5,10,2:2:0:0:
423,304,81140,1,8,2:3:0:0:
463,280,81268,1,8,2:2:0:0:
488,230,81396,53,10,2:3:0:0:
485,174,81524,1,8,2:2:0:0:
457,125,81652,1,8,2:3:0:0:
401,113,81781,5,10,2:2:0:0:
401,113,84858,5,10,2:2:0:0:
401,113,87935,53,10,2:2:0:0:
294,241,88319,5,10,2:3:0:0:
294,241,88448,1,8,2:3:0:0:
294,241,88576,1,8,2:3:0:0:
360,262,88704,1,10,2:2:0:0:
174,315,89089,5,10,2:3:0:0:
174,315,89218,1,8,2:3:0:0:
174,315,89346,1,8,2:3:0:0:
233,278,89474,1,10,2:2:0:0:
35,280,89858,5,10,2:3:0:0:
35,280,89987,1,8,2:3:0:0:
35,280,90115,1,8,2:3:0:0:
100,256,90243,1,10,2:2:0:0:
31,175,90435,5,10,2:2:0:0:
51,72,90627,53,10,2:3:0:0:
62,69,90691,1,8,2:3:0:0:
73,68,90755,1,8,2:3:0:0:
84,68,90819,1,10,2:3:0:0:
95,71,90884,1,8,2:3:0:0:
106,74,90948,1,8,2:3:0:0:
121,42,91012,1,10,2:2:0:0:
322,130,91396,5,10,2:3:0:0:
322,130,91524,1,8,2:3:0:0:
322,130,91652,1,8,2:3:0:0:
372,178,91781,1,10,2:2:0:0:
145,139,92166,5,10,2:3:0:0:
145,139,92294,1,8,2:3:0:0:
145,139,92422,1,8,2:3:0:0:
95,89,92550,1,10,2:2:0:0:
220,299,92935,53,10,2:3:0:0:
220,299,93063,1,8,2:3:0:0:
220,299,93191,1,8,2:3:0:0:
263,353,93319,1,10,2:2:0:0:
319,264,93512,5,8,2:2:0:0:
348,163,93704,1,8,2:3:0:0:
376,62,93896,1,8,2:3:0:0:
68,92,94088,5,10,2:2:0:0:
68,106,94473,1,2,2:3:0:0:
68,119,94858,1,2,2:3:0:0:
68,133,95243,1,2,2:3:0:0:
68,147,95628,1,2,2:3:0:0:
68,160,96013,1,2,2:3:0:0:
68,173,96396,1,2,2:3:0:0:
68,187,96781,1,2,2:3:0:0:
68,200,97166,1,2,2:3:0:0:
68,213,97550,1,2,2:3:0:0:
68,227,97935,1,2,2:3:0:0:
68,240,98320,1,2,2:3:0:0:
68,253,98704,1,2,2:3:0:0:
68,266,99089,1,2,2:3:0:0:
169,305,99473,5,2,2:2:0:0:
194,294,99569,1,2,2:2:0:0:
221,290,99665,1,2,2:2:0:0:
247,298,99761,1,2,2:2:0:0:
271,310,99857,1,2,2:2:0:0:
297,319,99953,1,2,2:2:0:0:
323,310,100049,1,2,2:2:0:0:
348,297,100146,1,2,2:2:0:0:
347,338,100242,5,10,2:2:0:0:
439,129,100627,5,10,2:3:0:0:
439,129,100755,1,8,2:3:0:0:
439,129,100883,1,8,2:3:0:0:
395,73,101012,1,10,2:2:0:0:
467,273,101396,5,10,2:3:0:0:
467,273,101524,1,8,2:3:0:0:
467,273,101652,1,8,2:3:0:0:
500,334,101780,1,10,2:2:0:0:
303,184,102166,5,10,2:3:0:0:
303,184,102294,1,8,2:3:0:0:
303,184,102422,1,8,2:3:0:0:
355,230,102550,1,10,2:2:0:0:
264,281,102742,5,10,2:2:0:0:
173,219,102935,5,10,2:3:0:0:
161,218,102999,1,8,2:3:0:0:
149,218,103063,1,8,2:3:0:0:
137,217,103127,1,10,2:3:0:0:
125,216,103191,1,8,2:3:0:0:
113,215,103255,1,8,2:3:0:0:
108,249,103319,1,10,2:2:0:0:
214,57,103704,5,10,2:3:0:0:
214,57,103832,1,8,2:3:0:0:
214,57,103960,1,8,2:3:0:0:
241,121,104088,1,8,2:2:0:0:
21,137,104473,5,8,2:3:0:0:
21,137,104601,1,8,2:3:0:0:
21,137,104729,1,8,2:3:0:0:
43,203,104857,1,10,2:2:0:0:
173,216,105243,5,10,2:3:0:0:
173,216,105371,1,8,2:3:0:0:
173,216,105499,1,8,2:3:0:0:
152,282,105627,1,10,2:2:0:0:
246,326,105819,5,8,2:2:0:0:
314,253,106012,5,10,2:3:0:0:
331,258,106076,1,0,0:0:0:0:
349,259,106140,1,2,2:2:0:0:
367,257,106204,1,8,2:3:0:0:
384,250,106268,1,0,0:0:0:0:
400,241,106332,1,0,0:0:0:0:
365,233,106396,1,2,1:2:0:0:
199,133,106781,5,2,2:2:0:0:
201,63,106973,1,2,2:2:0:0:
130,60,107166,1,8,2:2:0:0:
127,129,107358,1,2,2:2:0:0:
127,129,107743,1,2,2:2:0:0:
28,162,107935,5,0,0:0:0:0:
44,229,108127,1,2,2:2:0:0:
28,297,108319,1,2,2:2:0:0:
453,301,108704,1,8,2:2:0:0:
453,301,109089,1,2,2:2:0:0:
322,372,109473,5,2,2:2:0:0:
322,372,109858,1,2,2:2:0:0:
252,362,110050,1,2,2:2:0:0:
255,291,110243,1,8,2:2:0:0:
324,301,110435,1,2,2:2:0:0:
324,301,110819,1,2,2:2:0:0:
123,362,111012,5,0,0:0:0:0:
123,362,111589,1,2,2:2:0:0:
173,243,111781,1,10,2:2:0:0:
111,38,112037,1,2,2:2:0:0:
229,0,112294,1,0,0:0:0:0:
344,51,112550,5,2,2:2:0:0:
344,51,113127,1,2,2:2:0:0:
244,217,113319,1,10,2:2:0:0:
244,217,113896,1,2,2:2:0:0:
354,323,114089,5,14,2:2:0:0:
321,290,114217,1,8,2:2:0:0:
312,244,114345,1,8,2:2:0:0:
440,167,114473,5,10,2:2:0:0:
436,222,114601,1,8,2:2:0:0:
388,252,114729,1,10,2:2:0:0:
262,120,114858,5,10,2:2:0:0:
332,129,114986,1,8,2:2:0:0:
374,186,115114,1,10,2:2:0:0:
236,215,115243,5,10,2:2:0:0:
332,129,115371,1,8,2:2:0:0:
388,252,115499,1,10,2:2:0:0:
290,325,115627,1,12,1:2:0:0:
40,266,116012,5,8,2:2:0:0:
25,332,116140,1,8,2:2:0:0:
83,371,116268,1,10,1:2:0:0:
140,325,116397,1,8,2:2:0:0:
140,325,116653,5,2,1:2:0:0:
199,361,116781,1,8,2:2:0:0:
266,381,116909,1,8,2:2:0:0:
335,371,117037,1,10,1:2:0:0:
403,353,117166,1,8,1:2:0:0:
485,148,117422,5,2,1:2:0:0:
497,218,117550,1,10,2:2:0:0:
342,187,117807,53,10,1:2:0:0:
292,77,117935,1,8,2:2:0:0:
287,70,118063,1,8,2:2:0:0:
282,61,118191,1,10,1:2:0:0:
211,25,118319,1,10,2:2:0:0:
149,75,118448,1,8,2:2:0:0:
177,148,118576,1,10,1:2:0:0:
254,151,118704,1,8,1:2:0:0:
297,319,119089,5,8,2:2:0:0:
318,305,119218,1,8,2:2:0:0:
341,306,119346,1,10,1:2:0:0:
359,315,119474,1,10,2:2:0:0:
359,315,119730,5,2,1:2:0:0:
423,324,119858,1,10,2:2:0:0:
483,297,119987,1,8,2:2:0:0:
510,237,120115,1,10,1:2:0:0:
326,160,120243,1,8,1:2:0:0:
326,160,120627,5,8,2:2:0:0:
275,203,120755,1,10,2:2:0:0:
291,269,120883,1,8,1:2:0:0:
397,259,121012,5,10,2:2:0:0:
449,210,121140,1,8,2:2:0:0:
395,154,121268,5,10,1:2:0:0:
392,117,121396,1,8,2:2:0:0:
328,91,121524,5,10,2:2:0:0:
314,75,121652,1,8,1:2:0:0:
244,61,121781,53,14,1:2:0:0:
10,18,122166,5,10,2:2:0:0:
38,46,122294,1,8,2:2:0:0:
79,38,122422,1,10,1:2:0:0:
106,65,122550,1,8,2:2:0:0:
106,65,122807,5,2,1:2:0:0:
66,128,122935,1,8,2:2:0:0:
106,190,123063,1,8,2:2:0:0:
177,169,123191,1,10,1:2:0:0:
177,94,123319,1,8,1:2:0:0:
6,288,123576,5,2,2:2:0:0:
164,241,123704,1,10,2:2:0:0:
175,243,123832,1,8,2:2:0:0:
184,245,123960,1,10,1:2:0:0:
253,257,124089,5,8,2:2:0:0:
303,305,124217,1,8,2:2:0:0:
296,374,124345,1,10,1:2:0:0:
391,369,124473,5,10,2:2:0:0:
462,384,124602,1,8,2:2:0:0:
442,321,124730,1,10,1:2:0:0:
376,298,124858,1,8,1:2:0:0:
493,69,125242,5,8,2:2:0:0:
446,22,125371,1,8,2:2:0:0:
381,45,125498,1,10,1:2:0:0:
371,115,125626,1,10,2:2:0:0:
371,115,125883,5,2,1:2:0:0:
317,213,126011,1,10,2:2:0:0:
230,214,126140,1,8,2:2:0:0:
178,162,126268,1,10,1:2:0:0:
246,26,126396,5,8,1:2:0:0:
99,158,126781,1,8,2:2:0:0:
105,227,126909,1,8,2:2:0:0:
75,290,127037,1,10,1:2:0:0:
29,344,127166,1,10,2:2:0:0:
36,349,127294,1,8,2:2:0:0:
44,352,127422,5,8,1:2:0:0:
52,356,127550,1,8,2:2:0:0:
121,348,127678,1,8,2:2:0:0:
170,298,127806,1,10,1:2:0:0:
143,102,127935,1,14,1:2:0:0:
329,13,128576,53,8,1:2:0:0:
411,114,128704,1,10,2:2:0:0:
407,123,128832,1,0,0:0:0:0:
402,132,128960,1,0,1:1:0:0:
399,140,129088,1,8,2:2:0:0:
395,148,129217,1,8,2:2:0:0:
330,175,129345,1,8,1:2:0:0:
276,130,129473,1,10,1:2:0:0:
488,355,129858,5,8,2:2:0:0:
468,341,129987,1,8,2:2:0:0:
445,337,130115,1,10,1:2:0:0:
381,365,130243,5,10,2:2:0:0:
373,342,130371,1,8,2:2:0:0:
364,320,130499,1,10,1:2:0:0:
295,335,130627,53,10,2:2:0:0:
290,311,130756,1,8,2:2:0:0:
284,288,130884,1,10,1:2:0:0:
218,313,131012,5,8,1:2:0:0:
488,220,131268,1,2,2:2:0:0:
218,313,131524,5,8,2:2:0:0:
157,277,131652,1,10,1:2:0:0:
102,322,131781,5,10,2:2:0:0:
79,327,131909,1,0,0:0:0:0:
56,333,132037,1,2,1:2:0:0:
42,264,132165,5,10,2:2:0:0:
64,258,132293,1,8,2:2:0:0:
86,253,132421,1,10,1:2:0:0:
82,182,132550,5,12,1:2:0:0:
49,25,132935,5,8,2:2:0:0:
87,83,133063,1,8,2:2:0:0:
149,52,133191,1,6,1:2:0:0:
186,114,133319,5,10,2:2:0:0:
179,169,133448,1,8,2:2:0:0:
254,146,133576,5,10,1:2:0:0:
259,192,133704,1,10,2:2:0:0:
325,160,133832,5,8,2:2:0:0:
341,193,133960,1,10,1:2:0:0:
401,142,134089,5,14,1:2:0:0:
368,0,134345,5,0,0:0:0:0:
306,53,134473,1,10,2:2:0:0:
283,57,134601,1,8,2:2:0:0:
259,54,134729,1,10,1:2:0:0:
235,49,134858,1,8,2:2:0:0:
214,38,134986,1,0,0:0:0:0:
138,11,135114,5,2,1:2:0:0:
104,80,135242,1,8,2:2:0:0:
51,287,135499,5,10,1:2:0:0:
143,249,135627,1,10,1:2:0:0:
283,384,135884,5,2,2:2:0:0:
220,280,136012,1,10,2:2:0:0:
216,271,136140,1,8,2:2:0:0:
212,262,136267,1,10,1:2:0:0:
143,249,136395,1,8,2:2:0:0:
140,239,136525,1,8,2:2:0:0:
170,176,136652,5,10,1:2:0:0:
239,180,136780,1,10,2:2:0:0:
288,229,136909,1,8,2:2:0:0:
283,298,137037,1,10,1:2:0:0:
211,343,137166,1,8,1:2:0:0:
434,366,137422,5,2,2:2:0:0:
391,310,137550,1,10,2:2:0:0:
431,253,137678,1,8,2:2:0:0:
440,252,137807,1,10,1:2:0:0:
449,251,137935,1,10,2:2:0:0:
458,251,138063,5,8,2:2:0:0:
484,186,138191,1,10,1:2:0:0:
438,132,138319,1,10,2:2:0:0:
377,167,138448,1,8,2:2:0:0:
383,236,138576,1,10,1:2:0:0:
244,207,138704,5,14,1:2:0:0:
94,86,138960,5,0,0:0:0:0:
151,216,139089,1,10,2:2:0:0:
152,141,139345,5,8,1:2:0:0:
0,298,139474,1,10,2:2:0:0:
222,359,139730,5,0,1:1:0:0:
410,50,140114,5,8,1:2:0:0:
410,50,140627,1,10,2:2:0:0:
490,191,140884,1,8,1:2:0:0:
485,199,140948,1,0,0:0:0:0:
481,207,141012,1,10,2:2:0:0:
121,66,141396,1,10,2:2:0:0:
308,252,141653,1,8,1:2:0:0:
251,188,141781,5,10,1:2:0:0:
214,178,141909,1,0,0:0:0:0:
176,178,142037,1,0,0:0:0:0:
140,190,142166,1,10,2:2:0:0:
111,213,142294,1,8,2:2:0:0:
88,242,142422,1,8,1:2:0:0:
71,275,142550,1,10,2:2:0:0:
71,275,142935,5,10,2:2:0:0:
149,360,143063,1,8,2:2:0:0:
256,316,143191,1,8,1:2:0:0:
259,324,143255,1,0,0:0:0:0:
262,332,143319,1,10,1:2:0:0:
169,23,143704,5,10,2:2:0:0:
256,316,144089,1,10,2:2:0:0:
190,95,144345,1,8,1:2:0:0:
193,103,144409,1,0,0:0:0:0:
196,111,144473,1,10,2:3:0:0:
232,229,144666,1,8,2:3:0:0:
169,22,144858,5,10,1:2:0:0:
56,137,145114,1,0,0:0:0:0:
100,192,145243,1,10,2:2:0:0:
59,249,145371,1,8,2:2:0:0:
49,251,145435,1,0,0:0:0:0:
39,253,145499,1,8,1:2:0:0:
115,296,145627,5,10,2:2:0:0:
205,350,145819,1,0,0:0:0:0:
205,350,145884,1,0,1:1:0:0:
263,310,146012,1,10,2:2:0:0:
325,342,146140,1,8,2:2:0:0:
486,175,146396,5,10,1:2:0:0:
486,175,146653,1,0,0:0:0:0:
423,144,146781,1,10,2:2:0:0:
382,201,146909,1,8,2:2:0:0:
384,210,146973,1,0,0:0:0:0:
386,219,147037,1,8,1:2:0:0:
312,167,147166,1,10,2:2:0:0:
245,244,147358,5,0,0:0:0:0:
243,234,147422,1,8,1:2:0:0:
241,224,147486,1,0,0:0:0:0:
239,214,147550,1,10,2:2:0:0:
169,217,147678,5,8,2:2:0:0:
159,118,147807,1,8,1:2:0:0:
98,223,147935,5,10,1:2:0:0:
98,223,148319,1,10,2:2:0:0:
187,355,148576,1,8,1:2:0:0:
53,360,148704,5,10,2:2:0:0:
44,314,148832,1,8,2:2:0:0:
36,267,148960,1,8,1:2:0:0:
28,220,149089,1,10,2:2:0:0:
20,174,149217,1,8,2:2:0:0:
13,127,149345,1,8,1:2:0:0:
153,70,149473,5,2,1:2:0:0:
187,78,149665,1,2,2:2:0:0:
221,80,149857,1,2,2:2:0:0:
256,76,150049,1,2,2:2:0:0:
290,67,150242,1,2,2:2:0:0:
322,52,150434,1,0,0:0:0:0:
439,206,150626,5,2,2:2:0:0:
404,214,150818,1,2,2:2:0:0:
370,216,151010,1,2,2:2:0:0:
335,212,151202,1,2,2:2:0:0:
301,203,151395,1,2,2:2:0:0:
269,188,151587,1,0,0:0:0:0:
81,302,151780,5,2,2:2:0:0:
116,310,151972,1,2,2:2:0:0:
150,312,152164,1,2,2:2:0:0:
185,308,152356,1,2,2:2:0:0:
219,299,152549,1,2,2:2:0:0:
251,284,152741,1,0,0:0:0:0:
404,214,152934,5,2,2:2:0:0:
396,255,153126,1,2,2:2:0:0:
402,296,153318,1,2,2:2:0:0:
422,333,153510,1,2,2:2:0:0:
251,284,153703,5,2,2:2:0:0:
212,266,153895,1,2,2:2:0:0:
172,256,154087,1,2,2:2:0:0:
130,255,154279,1,2,2:2:0:0:
88,262,154472,1,2,2:2:0:0:
49,277,154664,1,0,0:0:0:0:
98,159,154857,5,2,2:2:0:0:
81,121,155049,1,2,2:2:0:0:
71,81,155241,1,2,2:2:0:0:
70,39,155433,1,0,0:0:0:0:
197,71,155626,5,2,2:2:0:0:
214,109,155818,1,2,2:2:0:0:
224,149,156010,1,2,2:2:0:0:
225,191,156202,1,2,2:2:0:0:
213,231,156396,1,2,2:2:0:0:
183,260,156588,1,2,2:2:0:0:
59,344,156780,5,2,2:2:0:0:
59,344,156844,1,0,0:0:0:0:
59,344,156908,1,0,0:0:0:0:
86,141,157549,5,2,2:2:0:0:
59,344,157933,5,2,2:2:0:0:
210,89,158722,1,0,0:0:0:0:
429,260,159577,1,0,0:0:0:0:
296,25,161082,5,2,2:2:0:0:
365,18,161402,1,2,2:2:0:0:
433,32,161723,1,2,2:2:0:0:
492,68,162044,1,2,2:2:0:0:
376,140,162360,5,2,2:2:0:0:
288,248,162574,1,0,0:0:0:0:
288,248,162681,1,0,0:0:0:0:
150,223,162895,1,0,0:0:0:0:
150,223,163002,1,2,2:2:0:0:
222,25,163324,1,2,2:2:0:0:
76,157,163645,1,2,2:2:0:0:
63,192,163752,1,0,0:0:0:0:
60,229,163860,1,0,0:0:0:0:
68,265,163967,1,2,2:2:0:0:
215,300,164181,5,0,0:0:0:0:
215,300,164288,1,2,2:2:0:0:
330,221,164502,1,0,0:0:0:0:
330,221,164610,1,2,2:2:0:0:
269,57,164877,1,0,0:0:0:0:
169,153,165145,1,2,2:2:0:0:
178,189,165252,1,0,0:0:0:0:
178,226,165360,1,2,2:2:0:0:
159,258,165467,1,0,0:0:0:0:
251,300,165574,5,2,2:2:0:0:
251,300,165895,1,0,0:0:0:0:
338,189,166110,1,0,0:0:0:0:
338,189,166217,1,2,2:2:0:0:
105,37,166538,1,2,2:2:0:0:
291,13,166860,1,2,2:2:0:0:
212,128,167074,5,0,0:0:0:0:
212,128,167181,1,2,2:2:0:0:
419,63,167502,1,0,0:0:0:0:
337,199,167824,1,2,2:2:0:0:
177,22,168145,5,2,2:2:0:0:
109,188,168467,1,2,2:2:0:0:
290,13,168788,1,2,2:2:0:0:
466,195,169110,5,2,2:2:0:0:
327,139,169324,1,0,0:0:0:0:
327,139,169431,1,0,0:0:0:0:
362,359,169752,1,0,0:0:0:0:
207,196,170074,1,2,2:2:0:0:
336,269,170288,1,0,0:0:0:0:
336,269,170395,1,2,2:2:0:0:
221,76,170717,5,2,2:2:0:0:
81,129,170931,1,0,0:0:0:0:
81,129,171038,1,2,2:2:0:0:
65,288,171252,1,0,0:0:0:0:
65,288,171360,1,2,2:2:0:0:
167,384,171681,1,2,2:2:0:0:
244,273,171895,1,0,0:0:0:0:
259,249,172002,1,2,2:2:0:0:
262,221,172110,1,0,0:0:0:0:
248,196,172217,1,0,0:0:0:0:
212,160,172324,5,2,2:2:0:0:
72,167,172538,1,0,0:0:0:0:
72,167,172645,1,2,2:2:0:0:
146,286,172860,1,0,0:0:0:0:
146,286,172967,1,2,2:2:0:0:
276,336,173181,5,0,0:0:0:0:
312,327,173288,1,2,2:2:0:0:
341,304,173395,1,0,0:0:0:0:
357,270,173502,1,0,0:0:0:0:
357,232,173610,1,2,2:2:0:0:
304,51,173824,1,0,0:0:0:0:
304,51,173931,1,2,2:2:0:0:
439,15,174145,1,0,0:0:0:0:
486,93,174257,5,14,2:2:0:0:
486,116,174385,1,8,2:2:0:0:
485,139,174513,1,8,2:2:0:0:
485,162,174641,1,10,2:2:0:0:
485,185,174769,1,8,2:2:0:0:
486,208,174898,1,8,2:2:0:0:
485,231,175026,1,10,2:2:0:0:
485,254,175154,1,8,2:2:0:0:
484,277,175282,1,8,2:2:0:0:
485,300,175410,1,10,2:2:0:0:
484,323,175539,1,8,2:2:0:0:
485,346,175667,1,8,2:2:0:0:
415,346,175795,5,14,2:2:0:0:
392,329,175923,1,8,2:2:0:0:
362,316,176051,1,8,2:2:0:0:
325,307,176179,1,10,2:2:0:0:
283,299,176307,1,8,2:2:0:0:
236,299,176436,1,10,2:2:0:0:
171,337,176564,5,10,2:2:0:0:
97,346,176692,1,8,2:2:0:0:
37,300,176820,1,10,2:2:0:0:
17,227,176949,1,10,2:2:0:0:
52,161,177077,1,8,2:2:0:0:
119,129,177205,1,10,2:2:0:0:
253,145,177333,1,12,1:2:0:0:
253,145,177718,5,10,2:2:0:0:
322,146,177846,1,8,2:2:0:0:
385,130,177974,1,10,1:2:0:0:
438,91,178103,1,10,2:2:0:0:
368,221,178359,5,2,1:2:0:0:
422,256,178487,1,8,2:2:0:0:
479,224,178615,1,8,2:2:0:0:
424,188,178743,1,10,1:2:0:0:
458,311,178872,1,10,1:2:0:0:
458,311,179257,5,10,2:2:0:0:
392,312,179385,1,8,2:2:0:0:
332,284,179513,1,10,1:2:0:0:
266,284,179641,1,8,2:2:0:0:
254,290,179769,1,8,2:2:0:0:
243,298,179898,1,8,1:2:0:0:
180,277,180026,1,10,2:2:0:0:
180,212,180154,1,8,2:2:0:0:
243,192,180282,1,10,1:2:0:0:
281,245,180410,1,8,1:2:0:0:
243,192,180795,5,10,2:2:0:0:
281,245,180923,1,8,2:2:0:0:
243,298,181051,1,10,1:2:0:0:
180,277,181180,1,8,2:2:0:0:
243,298,181564,5,10,2:2:0:0:
180,277,181692,1,8,2:2:0:0:
180,212,181821,1,10,1:2:0:0:
243,192,181948,1,8,1:2:0:0:
180,212,182333,5,8,2:2:0:0:
192,147,182461,1,10,2:2:0:0:
254,127,182590,1,8,1:2:0:0:
267,63,182718,5,10,2:2:0:0:
280,0,182846,1,8,2:2:0:0:
344,86,182974,5,10,1:2:0:0:
358,136,183103,1,8,2:2:0:0:
409,36,183231,5,10,2:2:0:0:
419,6,183359,1,8,1:2:0:0:
474,73,183487,5,10,1:2:0:0:
474,73,183872,1,10,2:2:0:0:
478,138,184000,1,8,2:2:0:0:
420,169,184128,1,10,1:2:0:0:
415,103,184256,1,8,2:2:0:0:
474,213,184513,5,2,1:2:0:0:
413,236,184641,1,8,2:2:0:0:
358,199,184769,1,8,2:2:0:0:
351,263,184897,1,10,1:2:0:0:
405,298,185025,1,10,1:2:0:0:
204,366,185282,5,2,2:2:0:0:
266,347,185410,1,10,2:2:0:0:
64,347,185666,1,10,1:2:0:0:
0,363,185795,1,8,2:2:0:0:
143,226,186051,5,10,1:2:0:0:
101,174,186180,1,10,2:2:0:0:
140,122,186307,1,8,2:2:0:0:
100,69,186435,1,10,1:2:0:0:
144,21,186563,1,8,1:2:0:0:
144,21,186949,5,10,2:2:0:0:
187,70,187077,1,8,2:2:0:0:
252,66,187205,1,10,1:2:0:0:
294,16,187333,1,8,2:2:0:0:
305,22,187461,1,0,0:0:0:0:
317,27,187590,1,2,1:2:0:0:
372,60,187718,1,10,2:2:0:0:
352,124,187846,1,8,2:2:0:0:
287,131,187974,1,10,1:2:0:0:
404,176,188103,1,8,1:2:0:0:
404,176,188487,5,8,2:2:0:0:
343,199,188615,1,8,2:2:0:0:
358,262,188743,1,10,1:2:0:0:
420,243,188871,1,10,2:2:0:0:
431,248,188999,1,8,2:2:0:0:
442,254,189128,1,8,1:2:0:0:
452,261,189256,1,8,2:2:0:0:
463,267,189384,1,8,2:2:0:0:
415,312,189512,1,10,1:2:0:0:
475,163,189641,1,14,1:2:0:0:
475,163,190026,5,8,2:2:0:0:
432,113,190154,1,8,2:2:0:0:
366,108,190282,1,10,1:2:0:0:
327,55,190410,1,10,2:2:0:0:
316,62,190539,1,0,0:0:0:0:
306,70,190667,1,0,1:1:0:0:
296,79,190795,1,8,2:2:0:0:
287,88,190923,1,8,2:2:0:0:
307,149,191051,1,10,1:2:0:0:
276,0,191179,1,10,1:2:0:0:
276,0,191564,5,8,2:2:0:0:
222,37,191692,1,8,2:2:0:0:
158,23,191820,1,10,1:2:0:0:
97,48,191948,1,10,2:2:0:0:
19,198,192205,1,10,1:2:0:0:
74,232,192333,1,10,2:2:0:0:
232,145,192589,1,10,1:2:0:0:
167,145,192717,1,8,1:2:0:0:
167,145,192974,5,2,2:2:0:0:
114,334,193359,1,10,1:2:0:0:
48,331,193487,1,10,2:2:0:0:
275,248,193744,1,2,1:2:0:0:
218,216,193872,5,10,2:2:0:0:
216,281,194000,1,8,2:2:0:0:
270,316,194128,1,10,1:2:0:0:
330,290,194257,1,12,1:2:0:0:
330,290,194641,5,8,2:2:0:0:
270,316,194769,1,8,2:2:0:0:
216,281,194898,1,6,1:2:0:0:
218,216,195026,5,10,2:2:0:0:
163,189,195154,1,8,2:2:0:0:
249,140,195282,5,10,1:2:0:0:
220,97,195410,1,10,2:2:0:0:
325,133,195539,5,8,2:2:0:0:
325,100,195667,1,10,1:2:0:0:
393,180,195795,5,14,1:2:0:0:
393,180,196180,1,8,2:2:0:0:
417,240,196308,1,8,2:2:0:0:
482,237,196436,1,10,1:2:0:0:
509,177,196564,1,10,2:2:0:0:
507,165,196692,1,0,0:0:0:0:
506,152,196821,1,0,1:1:0:0:
504,140,196949,1,8,2:2:0:0:
502,128,197077,1,8,2:2:0:0:
436,123,197205,1,10,1:2:0:0:
379,308,197333,1,10,1:2:0:0:
251,225,197590,5,2,2:2:0:0:
336,363,197846,5,8,2:2:0:0:
312,302,197974,1,10,1:2:0:0:
301,293,198102,1,10,2:2:0:0:
288,288,198230,1,8,2:2:0:0:
222,289,198359,1,10,1:2:0:0:
173,332,198487,1,10,2:2:0:0:
110,351,198615,1,8,2:2:0:0:
45,340,198743,1,10,1:2:0:0:
4,289,198871,1,8,1:2:0:0:
98,136,199128,1,2,2:2:0:0:
54,185,199257,5,8,2:2:0:0:
115,206,199385,1,8,2:2:0:0:
166,165,199513,1,10,1:2:0:0:
157,100,199641,1,8,2:2:0:0:
157,100,199898,5,10,1:2:0:0:
166,165,200026,1,10,2:2:0:0:
115,206,200154,1,8,2:2:0:0:
54,185,200282,1,10,1:2:0:0:
33,123,200410,1,8,1:2:0:0:
33,123,200795,5,8,2:2:0:0:
51,60,200923,1,8,2:2:0:0:
114,47,201051,1,10,1:2:0:0:
223,122,201180,1,10,2:2:0:0:
235,120,201307,1,8,2:2:0:0:
248,118,201436,1,8,1:2:0:0:
261,117,201564,1,8,2:2:0:0:
274,116,201692,1,8,2:2:0:0:
313,63,201820,1,10,1:2:0:0:
183,234,201949,1,14,1:2:0:0:
183,234,202333,5,8,2:2:0:0:
125,264,202461,1,8,2:2:0:0:
60,258,202589,1,10,1:2:0:0:
133,369,202718,1,10,2:2:0:0:
145,367,202846,1,0,0:0:0:0:
157,365,202974,1,0,1:1:0:0:
170,365,203103,1,8,2:2:0:0:
183,364,203231,1,8,2:2:0:0:
207,303,203359,1,10,1:2:0:0:
392,376,203487,1,10,1:2:0:0:
392,376,203872,5,10,2:2:0:0:
332,259,204128,1,10,1:2:0:0:
307,320,204257,1,10,2:2:0:0:
457,182,204513,5,10,1:2:0:0:
477,243,204641,1,10,2:2:0:0:
448,182,204769,1,8,2:2:0:0:
393,145,204898,1,10,1:2:0:0:
405,81,205026,1,8,1:2:0:0:
239,1,205282,5,2,2:2:0:0:
300,23,205410,1,8,2:2:0:0:
49,43,205666,1,10,1:2:0:0:
110,20,205794,1,8,2:2:0:0:
35,199,206051,1,2,1:2:0:0:
18,135,206180,5,10,2:2:0:0:
82,143,206308,1,8,2:2:0:0:
107,203,206436,1,10,1:2:0:0:
71,257,206564,1,12,1:2:0:0:
71,257,206949,5,8,2:2:0:0:
107,203,207077,1,8,2:2:0:0:
172,207,207205,1,6,1:2:0:0:
215,158,207333,5,10,2:2:0:0:
204,95,207461,1,8,2:2:0:0:
283,241,207590,5,8,1:2:0:0:
274,291,207718,1,8,2:2:0:0:
361,161,207846,5,8,2:2:0:0:
368,129,207974,1,10,1:2:0:0:
425,294,208103,5,14,1:2:0:0:
425,294,208487,1,8,2:2:0:0:
396,352,208615,1,8,2:2:0:0:
330,354,208744,1,10,1:2:0:0:
274,291,208871,1,10,2:2:0:0:
198,313,209000,1,0,0:0:0:0:
120,302,209128,1,0,1:1:0:0:
74,237,209257,1,8,2:2:0:0:
67,159,209385,1,8,2:2:0:0:
93,85,209513,1,8,1:2:0:0:
164,52,209641,1,10,1:2:0:0:
164,52,209898,1,2,2:2:0:0:
323,42,210154,5,10,2:2:0:0:
323,107,210282,1,8,1:2:0:0:
260,130,210410,1,10,2:2:0:0:
369,155,210538,1,8,2:2:0:0:
422,117,210667,1,10,1:2:0:0:
378,269,210795,1,8,2:2:0:0:
333,215,210923,1,10,2:2:0:0:
265,199,211051,1,8,1:2:0:0:
220,251,211179,5,10,1:2:0:0:
206,251,211308,1,0,0:0:0:0:
192,251,211436,1,0,0:0:0:0:
178,251,211564,1,8,2:2:0:0:
165,252,211692,1,8,2:2:0:0:
86,257,211820,5,10,1:2:0:0:
81,244,211948,1,10,2:2:0:0:
76,231,212076,1,8,2:2:0:0:
10,201,212205,5,10,1:2:0:0:
64,164,212333,1,10,2:2:0:0:
85,102,212461,1,8,2:2:0:0:
45,50,212589,1,10,1:2:0:0:
19,109,212717,1,8,1:2:0:0:
19,109,213103,5,8,2:2:0:0:
45,50,213231,1,8,2:2:0:0:
109,42,213359,1,10,1:2:0:0:
154,89,213487,1,10,2:2:0:0:
219,86,213615,1,8,2:2:0:0:
260,34,213744,1,8,1:2:0:0:
325,28,213872,1,8,2:2:0:0:
374,70,214000,1,8,2:2:0:0:
438,59,214128,1,10,1:2:0:0:
304,130,214257,5,2,2:2:0:0:
219,86,214641,1,0,0:0:0:0:
163,27,214833,5,2,2:2:0:0:
163,27,215026,1,2,2:2:0:0:
82,25,215410,5,0,0:0:0:0:
36,144,215795,5,2,2:2:0:0:
126,167,216051,5,2,2:2:0:0:
4,280,216372,5,0,0:0:0:0:
49,332,216564,5,2,2:2:0:0:
218,232,216821,5,2,2:2:0:0:
79,268,217141,5,0,0:0:0:0:
259,362,217333,6,0,B|270:314|258:298|223:272|223:272|249:279|249:279|258:251|283:233|283:233|256:241|256:241|245:230|250:214|250:214|222:205|206:189|204:165|204:165|174:160|172:129|172:129|186:119|205:115|205:115|215:104|236:99|247:105|247:105|262:101|285:108|285:108|301:128|271:146|271:146|289:182|264:191|264:191|216:171|200:141|197:128|238:120|255:135|255:135|257:145|243:162,1,752.033349972255,2|2,2:2|2:2,0:0:0:0:
243,161,218872,5,2,2:2:0:0:
250,199,219257,1,2,2:2:0:0:
433,197,219641,5,2,2:2:0:0:
408,163,220026,1,2,2:2:0:0:
268,48,220410,5,2,2:2:0:0:
432,80,220795,1,2,2:2:0:0:
269,170,221180,5,10,2:2:0:0:
430,249,221564,1,2,2:2:0:0:
273,337,221949,5,2,2:2:0:0:
399,166,222333,1,2,2:2:0:0:
357,223,222525,1,0,0:0:0:0:
317,281,222718,1,2,2:2:0:0:
228,59,223103,5,2,2:2:0:0:
194,231,223295,5,4,2:3:0:0:
187,211,223391,1,4,2:3:0:0:
177,192,223487,1,6,2:3:0:0:
165,175,223583,1,4,2:3:0:0:
151,159,223679,1,4,2:3:0:0:
134,146,223775,1,4,2:3:0:0:
116,136,223871,1,6,2:3:0:0:
6,306,224257,1,10,2:2:0:0:
198,350,224641,5,6,2:3:0:0:
252,361,224769,1,4,2:3:0:0:
301,334,224898,1,4,2:3:0:0:
314,285,225026,1,2,2:2:0:0:
180,177,225410,5,2,2:2:0:0:
415,270,225796,1,2,2:2:0:0:
440,173,225987,1,0,0:0:0:0:
385,270,226180,1,2,2:2:0:0:
410,173,226371,1,0,0:0:0:0:
356,270,226564,1,2,2:2:0:0:
136,29,226949,5,2,2:2:0:0:
136,29,227045,1,0,0:0:0:0:
280,114,227333,1,10,2:2:0:0:
53,161,227718,5,2,2:2:0:0:
54,185,227814,1,2,2:2:0:0:
56,209,227910,1,2,2:2:0:0:
58,234,228006,1,2,2:2:0:0:
66,273,228102,5,2,2:2:0:0:
66,273,228199,1,2,2:2:0:0:
66,273,228295,1,2,2:2:0:0:
274,195,228487,1,2,2:2:0:0:
179,80,228872,1,2,2:2:0:0:
203,303,229257,1,2,2:2:0:0:
323,52,229641,5,2,2:2:0:0:
164,196,230026,1,2,2:2:0:0:
463,155,230410,5,10,2:2:0:0:
440,144,230506,1,2,2:2:0:0:
417,137,230602,1,2,2:2:0:0:
393,131,230698,1,2,2:2:0:0:
369,129,230794,1,2,2:2:0:0:
344,129,230890,1,2,2:2:0:0:
320,131,230986,1,2,2:2:0:0:
296,136,231083,1,2,2:2:0:0:
273,157,231180,5,2,2:2:0:0:
273,157,231276,1,2,2:2:0:0:
273,157,231372,1,2,2:2:0:0:
187,34,231564,5,2,2:2:0:0:
236,234,231949,1,2,2:2:0:0:
71,97,232333,1,2,2:2:0:0:
340,51,232718,5,2,2:2:0:0:
209,119,233103,1,2,2:2:0:0:
359,240,233487,1,10,2:2:0:0:
250,39,233872,1,2,2:2:0:0:
87,159,234257,5,2,2:2:0:0:
87,159,234353,1,2,2:2:0:0:
87,159,234449,1,2,2:2:0:0:
134,316,234641,5,2,2:2:0:0:
168,216,234833,1,0,0:0:0:0:
250,281,235026,1,2,2:2:0:0:
299,185,235410,1,2,2:2:0:0:
432,335,235603,5,4,2:3:0:0:
434,314,235699,1,4,2:3:0:0:
438,293,235795,1,6,2:3:0:0:
445,273,235891,1,4,2:3:0:0:
454,254,235987,1,4,2:3:0:0:
465,236,236083,1,4,2:3:0:0:
478,220,236179,1,6,2:3:0:0:
295,65,236564,5,10,2:2:0:0:
276,263,236949,1,6,2:3:0:0:
312,220,237077,1,4,2:3:0:0:
352,260,237205,1,4,2:3:0:0:
393,222,237333,5,2,2:2:0:0:
393,222,237430,1,2,2:2:0:0:
393,222,237526,1,2,2:2:0:0:
352,327,237718,5,2,2:2:0:0:
105,321,238103,1,2,2:2:0:0:
207,299,238295,1,0,0:0:0:0:
105,289,238487,1,2,2:2:0:0:
207,267,238679,1,0,0:0:0:0:
105,257,238872,1,2,2:2:0:0:
442,27,239257,5,2,2:2:0:0:
442,27,239353,1,0,0:0:0:0:
398,196,239641,1,10,2:2:0:0:
261,48,240026,5,2,2:2:0:0:
261,72,240122,1,2,2:2:0:0:
258,96,240218,1,2,2:2:0:0:
250,119,240314,1,2,2:2:0:0:
239,141,240410,1,2,2:2:0:0:
118,295,240795,5,2,2:2:0:0:
99,139,241035,1,0,0:0:0:0:
29,156,241180,1,2,2:2:0:0:
274,241,241420,1,0,0:0:0:0:
345,261,241564,1,2,2:2:0:0:
147,23,241949,5,2,2:2:0:0:
296,94,242333,1,2,2:2:0:0:
117,310,242718,1,2,2:2:0:0:
465,362,243103,6,0,B|481:298|464:276|417:240|417:240|452:250|452:250|464:212|498:187|498:187|462:198|462:198|447:183|454:162|454:162|416:149|394:128|391:95|391:95|350:88|347:46|347:46|367:33|393:27|393:27|406:12|435:6|450:14|450:14|470:8|501:18|501:18|522:45|482:69|482:69|507:119|473:131|473:131|408:104|386:63|382:45|437:34|460:55|460:55|463:68|437:100,1,1023.40001561585,2|0,2:2|0:0,0:0:0:0:
