osu file format v14

[General]
AudioFilename: audio.mp3
AudioLeadIn: 0
PreviewTime: 30928
Countdown: 0
SampleSet: Soft
StackLeniency: 0.6
Mode: 0
LetterboxInBreaks: 0
WidescreenStoryboard: 1

[Editor]
Bookmarks: 96774,108774,120774,122274,126774,132774,137201
DistanceSpacing: 1.1
BeatDivisor: 4
GridSize: 32
TimelineZoom: 1

[Metadata]
Title:Jack-the-Ripper
TitleUnicode:Jack-the-Ripper
Artist:sasakure.UK
ArtistUnicode:sasakure.UK
Creator:Elcheer
Version:Insane
Source:BMS
Tags:BOF2009 THE BMS OF FIGHTERS
BeatmapID:1456675
BeatmapSetID:687228

[Difficulty]
HPDrainRate:7
CircleSize:4
OverallDifficulty:7
ApproachRate:9
SliderMultiplier:1.40000000596046
SliderTickRate:1

[Events]
//Background and Video events
0,0,"maxresdefault.jpg",0,0
//Break Periods
2,50485,58688
2,76724,94674
//Storyboard Layer 0 (Background)
//Storyboard Layer 1 (Fail)
//Storyboard Layer 2 (Pass)
//Storyboard Layer 3 (Foreground)
//Storyboard Sound Samples

[Colours]
Combo1 : 0,128,255
Combo2 : 255,0,128
Combo3 : 83,83,83

[TimingPoints]
288,285.714285714286,5,2,1,35,1,0
6002,285.714285714286,3,2,1,35,1,0
8002,285.714285714286,5,2,1,35,1,0
8002,-100,5,2,1,35,0,0
12287,285.714285714286,3,2,1,35,1,0
14287,285.714285714286,3,2,1,45,1,0
14287,-200,3,2,1,45,0,0
16858,-142.857142857143,3,2,1,45,0,0
17287,285.714285714286,5,2,1,50,1,0
17287,-100,5,2,1,50,0,0
21572,285.714285714286,3,2,1,50,1,0
23286,285.714285714286,5,2,1,50,1,0
27571,285.714285714286,3,2,1,50,1,0
29285,-90.9090909090909,3,2,1,65,0,1
30999,-111.111111111111,3,2,2,50,0,0
32642,-111.111111111111,3,2,2,5,0,0
32713,-111.111111111111,3,2,2,50,0,0
34071,-111.111111111111,3,2,2,5,0,0
34142,-111.111111111111,3,2,2,50,0,0
34356,-111.111111111111,3,2,2,5,0,0
34428,-111.111111111111,3,2,2,50,0,0
41213,-111.111111111111,3,2,2,5,0,0
41285,-111.111111111111,3,2,2,50,0,0
44713,-111.111111111111,3,2,3,40,0,0
49856,-66.6666666666667,3,2,2,40,0,0
50285,285.714285714286,5,2,2,70,1,0
50285,-100,5,2,2,70,0,0
54570,285.714285714286,3,2,1,70,1,0
59288,263.157894736842,5,2,3,80,1,1
69814,-133.333333333333,5,2,1,65,0,0
74551,-133.333333333333,5,2,1,5,0,0
74616,-133.333333333333,5,2,1,65,0,0
76524,250,4,2,1,70,1,0
95274,250,3,2,1,70,1,0
96774,-90.9090909090909,3,2,4,100,0,1
107274,-90.9090909090909,3,2,4,100,0,0
108774,-90.9090909090909,3,2,4,100,0,1
119274,-90.9090909090909,3,2,4,100,0,0
122274,-100,3,2,1,55,0,0
123774,285.714285714286,3,2,1,70,1,0
123774,-200,3,2,4,60,0,0
126345,-66.6666666666667,3,2,4,60,0,0
126774,285.714285714286,5,2,4,60,1,0
126774,-100,5,2,1,60,0,0
131059,285.714285714286,3,2,1,60,1,0
132773,-100,3,2,1,60,0,0
135201,-100,3,2,1,60,0,0

[HitObjects]
119,124,29285,5,0,0:0:0:0:
185,71,29428,2,0,L|296:78,1,77.0000026776789
119,124,29713,5,0,0:0:0:0:
185,71,29856,2,0,L|296:78,1,77.0000026776789
328,129,30142,5,0,0:0:0:0:
270,190,30285,2,0,L|282:275,1,77.0000026776789
328,129,30571,5,0,0:0:0:0:
270,190,30714,2,0,L|282:275,1,77.0000026776789
373,313,30999,6,0,L|379:186,2,125.999996691227
373,313,31856,2,0,P|321:320|297:317,1,62.9999983456133
254,258,32142,2,0,P|202:251|178:254,1,62.9999983456133
120,293,32428,2,0,L|109:175,1,94.49999751842
85,167,32713,6,0,B|113:178|113:178|163:178|222:151,1,125.999996691227
270,105,33142,1,0,0:0:0:0:
360,178,33285,2,0,L|356:248,1,62.9999983456133
445,184,33571,2,0,L|441:114,1,62.9999983456133
373,75,33856,2,0,P|327:76|268:68,1,94.49999751842
244,44,34142,2,0,B|253:71|253:71|237:153,1,94.49999751842
205,157,34428,6,0,L|214:292,1,125.999996691227
270,341,34856,1,0,0:0:0:0:
354,253,34999,2,0,P|396:252|425:259,1,62.9999983456133
413,379,35285,2,0,P|391:343|382:314,1,62.9999983456133
431,255,35571,2,0,P|439:213|437:184,1,62.9999983456133
301,195,35856,2,0,P|292:236|294:265,1,62.9999983456133
377,150,36142,5,0,0:0:0:0:
256,117,36285,1,0,0:0:0:0:
256,117,36356,1,0,0:0:0:0:
256,117,36428,2,0,L|180:128,1,62.9999983456133
120,207,36713,2,0,B|156:219|156:219|196:218,1,62.9999983456133
261,198,36999,1,0,0:0:0:0:
166,135,37142,1,0,0:0:0:0:
200,251,37285,1,0,0:0:0:0:
296,171,37428,1,0,0:0:0:0:
364,253,37571,2,0,L|362:323,1,62.9999983456133
247,353,37856,6,0,L|252:212,2,125.999996691227
247,353,38713,2,0,P|283:348|313:336,1,62.9999983456133
351,216,38999,2,0,P|322:238|302:263,1,62.9999983456133
402,283,39285,2,0,P|438:278|468:266,1,62.9999983456133
508,200,39571,6,0,L|501:73,1,125.999996691227
431,30,39999,2,0,B|406:22|406:22|279:32,1,125.999996691227
244,84,40428,2,0,P|246:136|255:164,1,62.9999983456133
374,148,40713,2,0,P|327:123|299:117,1,62.9999983456133
395,224,40999,2,0,P|439:193|450:136,1,94.49999751842
448,114,41285,6,0,B|431:83|431:83|370:55|370:55|334:60,1,125.999996691227
271,131,41713,1,0,0:0:0:0:
395,224,41856,2,0,L|388:150,1,62.9999983456133
303,228,42142,2,0,L|296:302,1,62.9999983456133
395,224,42428,2,0,L|388:150,1,62.9999983456133
331,103,42713,2,0,L|251:106,1,62.9999983456133
200,152,42999,5,0,0:0:0:0:
301,241,43142,1,0,0:0:0:0:
301,241,43213,1,0,0:0:0:0:
301,241,43285,2,0,B|307:197|307:197|303:166,1,62.9999983456133
198,232,43571,2,0,B|192:276|192:276|196:307,1,62.9999983456133
260,342,43856,1,0,0:0:0:0:
350,239,43999,1,0,0:0:0:0:
279,319,44142,1,0,0:0:0:0:
369,219,44285,1,0,0:0:0:0:
263,158,44428,2,0,L|270:233,1,62.9999983456133
343,107,44713,5,0,0:0:0:0:
315,81,44999,1,0,0:0:0:0:
283,59,45285,1,0,0:0:0:0:
169,107,45571,5,0,0:0:0:0:
197,81,45856,1,0,0:0:0:0:
229,59,46142,1,0,0:0:0:0:
328,160,46428,5,0,0:0:0:0:
356,186,46713,1,0,0:0:0:0:
388,208,46999,1,0,0:0:0:0:
307,290,47285,5,0,0:0:0:0:
279,316,47570,1,0,0:0:0:0:
247,338,47856,1,0,0:0:0:0:
157,242,48142,6,0,L|166:111,2,125.999996691227
281,202,48999,6,0,L|289:76,2,125.999996691227
196,275,49856,6,0,P|159:217|241:243,1,210.000008904934
245,334,50285,5,0,0:0:0:0:
317,241,59288,6,0,L|311:97,2,140.000000596046
317,241,60077,2,0,P|273:236|236:216,1,70.000000298023
402,249,60340,2,0,L|399:327,1,70.000000298023
317,241,60603,6,0,L|323:97,2,140.000000596046
252,295,61261,1,0,0:0:0:0:
165,215,61393,2,0,P|123:215|90:221,1,70.000000298023
182,299,61656,2,0,P|224:299|257:293,1,70.000000298023
305,229,61919,6,0,P|378:228|450:233,2,140.000000596046
305,229,62709,2,0,P|300:285|303:305,1,70.000000298023
406,230,62972,2,0,P|411:174|408:154,1,70.000000298023
345,105,63235,6,0,L|197:120,1,140.000000596046
148,180,63630,1,0,0:0:0:0:
72,100,63761,2,0,P|73:46|81:21,1,70.000000298023
151,103,64024,5,0,0:0:0:0:
62,185,64156,1,0,0:0:0:0:
172,84,64288,1,0,0:0:0:0:
183,212,64419,1,0,0:0:0:0:
72,100,64551,6,0,P|83:38|140:-8,2,140.000000596046
72,100,65340,2,0,P|120:97|148:87,1,70.000000298023
217,56,65603,2,0,P|265:59|293:69,1,70.000000298023
342,127,65866,2,0,L|336:269,2,140.000000596046
413,82,66524,1,0,0:0:0:0:
327,22,66656,2,0,L|250:31,1,70.000000298023
187,77,66919,2,0,L|110:68,1,70.000000298023
36,90,67182,6,0,L|31:240,2,140.000000596046
36,90,67972,2,0,P|92:80|117:78,1,70.000000298023
169,133,68235,2,0,P|225:143|250:145,1,70.000000298023
303,85,68498,2,0,P|323:151|290:213,1,140.000000596046
221,257,68893,1,0,0:0:0:0:
156,178,69024,2,0,L|161:93,1,70.000000298023
218,46,69288,5,0,0:0:0:0:
314,128,69419,1,0,0:0:0:0:
200,28,69551,1,0,0:0:0:0:
329,140,69682,1,0,0:0:0:0:
191,171,69814,5,0,0:0:0:0:
151,167,70077,1,0,0:0:0:0:
112,164,70340,1,0,0:0:0:0:
254,87,70603,5,0,0:0:0:0:
293,83,70866,1,0,0:0:0:0:
332,80,71129,1,0,0:0:0:0:
426,195,71393,5,0,0:0:0:0:
422,234,71656,1,0,0:0:0:0:
419,273,71919,1,0,0:0:0:0:
294,331,72182,5,0,0:0:0:0:
290,292,72445,1,0,0:0:0:0:
287,253,72708,1,0,0:0:0:0:
201,159,72972,6,0,P|153:152|95:160,2,105.000004452467
312,104,73761,2,0,L|325:-8,2,105.000004452467
367,175,74419,1,0,0:0:0:0:
450,88,74551,5,0,0:0:0:0:
256,192,74616,12,0,76524,0:0:0:0:
305,194,95274,6,0,L|311:268,1,70.000000298023
196,229,95524,2,0,L|190:155,1,70.000000298023
325,194,95774,6,0,L|331:268,1,70.000000298023
176,229,96024,2,0,L|170:155,1,70.000000298023
345,194,96274,6,0,L|351:268,1,70.000000298023
156,229,96524,2,0,L|150:155,1,70.000000298023
263,237,96774,6,0,L|256:319,1,77.0000026776789
156,229,97024,2,0,L|150:146,1,77.0000026776789
204,87,97274,1,0,0:0:0:0:
119,84,97399,1,0,0:0:0:0:
226,173,97524,2,0,L|308:165,1,77.0000026776789
371,114,97774,1,0,0:0:0:0:
356,224,97899,1,0,0:0:0:0:
289,80,98024,1,0,0:0:0:0:
226,173,98149,1,0,0:0:0:0:
226,173,98211,1,0,0:0:0:0:
226,173,98274,6,0,P|230:251|288:203,1,154.000005355358
298,143,98649,1,0,0:0:0:0:
395,202,98774,2,0,L|388:280,1,77.0000026776789
305,340,99024,1,0,0:0:0:0:
421,299,99149,1,0,0:0:0:0:
311,242,99274,1,0,0:0:0:0:
416,178,99399,1,0,0:0:0:0:
298,143,99524,2,0,P|251:138|216:140,1,77.0000026776789
153,190,99774,6,0,P|150:223|158:269,2,77.0000026776789
212,130,100149,1,0,0:0:0:0:
146,75,100274,2,0,L|66:82,1,77.0000026776789
4,137,100524,2,0,P|11:192|11:225,2,77.0000026776789
