osu file format v14

[General]
AudioFilename: audio.mp3
AudioLeadIn: 0
PreviewTime: 44900
Countdown: 0
SampleSet: Soft
StackLeniency: 0.7
Mode: 0
LetterboxInBreaks: 0
WidescreenStoryboard: 1

[Editor]
Bookmarks: 31904,34085,37631,38176,40631,42131,42949,46358,46904,47858,48813,50449,52222,52631,55358,56585,57540,59176,61358,62449,75541,75813,76086,76359,77723,77995,78268,78541,86995,87404,90541,91086,93541,99268,99813,100768,101723,103359,105132,105541,108268,110450,112086,114404,131177,134041,140995,141541,142632,145359,157904,159541,161313,161722,164450,165677,166086,168268,170041,170450,173177,174404,174950,175904,178768,179313,179722,183132,183677,184768
DistanceSpacing: 0.5
BeatDivisor: 4
GridSize: 4
TimelineZoom: 1.1

[Metadata]
Title:Hisekai Harmonize feat. Kagamine Rin
TitleUnicode:否世界ハーモナイゼ feat. 鏡音リン
Artist:sasakure.UK
ArtistUnicode:sasakure.UK
Creator:Enon
Version:Harmonize
Source:
Tags:幻実アイソーポス genjitsu The Fantastic Reality of aesop non-world GimBab 404 AimNotFound 404_AimNotFound Luscent Dailycare Morinaga Down supporter plz supporter_plz zzx jieusieu Novelty Japanese
BeatmapID:2226203
BeatmapSetID:934960

[Difficulty]
HPDrainRate:6
CircleSize:4.1
OverallDifficulty:8.4
ApproachRate:9.7
SliderMultiplier:2.1
SliderTickRate:2

[Events]
//Background and Video events
0,0,"BG.jpg",0,0
//Break Periods
2,10191,16042
2,18919,24769
2,63100,71133
2,78373,79860
2,145464,152269
//Storyboard Layer 0 (Background)
//Storyboard Layer 1 (Fail)
//Storyboard Layer 2 (Pass)
//Storyboard Layer 3 (Foreground)
//Storyboard Layer 4 (Overlay)
//Storyboard Sound Samples

[TimingPoints]
173,272.727272727273,4,2,20,40,1,0
173,-133.333333333333,4,2,20,40,0,0
309,-133.333333333333,4,2,21,40,0,0
445,-133.333333333333,4,2,22,40,0,0
582,-133.333333333333,4,2,23,40,0,0
718,-133.333333333333,4,2,24,40,0,0
854,-133.333333333333,4,2,25,40,0,0
991,-133.333333333333,4,2,26,40,0,0
1127,-133.333333333333,4,2,27,40,0,0
1263,-133.333333333333,4,2,1,40,0,0
1400,-133.333333333333,4,2,28,40,0,0
1536,-133.333333333333,4,2,29,40,0,0
1673,-133.333333333333,4,2,30,40,0,0
1945,-133.333333333333,4,2,31,40,0,0
2082,-133.333333333333,4,2,1,40,0,0
2354,-133.333333333333,4,2,32,40,0,0
2491,-133.333333333333,4,2,33,40,0,0
2627,-133.333333333333,4,2,34,40,0,0
2763,-133.333333333333,4,2,35,40,0,0
2900,-133.333333333333,4,2,36,40,0,0
3036,-133.333333333333,4,2,37,40,0,0
3173,-133.333333333333,4,2,38,40,0,0
3309,-133.333333333333,4,2,39,40,0,0
3445,-133.333333333333,4,2,1,40,0,0
3582,-133.333333333333,4,2,40,40,0,0
3718,-133.333333333333,4,2,41,40,0,0
3854,-133.333333333333,4,2,42,40,0,0
4127,-133.333333333333,4,2,43,40,0,0
4263,-133.333333333333,4,2,1,40,0,0
4536,-133.333333333333,4,2,20,40,0,0
4673,-133.333333333333,4,2,21,40,0,0
4809,-133.333333333333,4,2,22,40,0,0
4945,-133.333333333333,4,2,23,40,0,0
5082,-133.333333333333,4,2,24,40,0,0
5218,-133.333333333333,4,2,25,40,0,0
5354,-133.333333333333,4,2,26,40,0,0
5491,-133.333333333333,4,2,27,40,0,0
5627,-133.333333333333,4,2,1,40,0,0
5763,-133.333333333333,4,2,28,40,0,0
5900,-133.333333333333,4,2,29,40,0,0
6036,-133.333333333333,4,2,30,40,0,0
6309,-133.333333333333,4,2,31,40,0,0
6445,-133.333333333333,4,2,1,40,0,0
6718,-133.333333333333,4,2,44,40,0,0
6854,-133.333333333333,4,2,45,40,0,0
6991,-133.333333333333,4,2,46,40,0,0
7127,-133.333333333333,4,2,47,40,0,0
7263,-133.333333333333,4,2,48,40,0,0
7400,-133.333333333333,4,2,49,40,0,0
7536,-133.333333333333,4,2,50,40,0,0
16536,-133.333333333333,4,2,20,50,0,0
16673,-133.333333333333,4,2,21,55,0,0
16809,-133.333333333333,4,2,22,55,0,0
16945,-133.333333333333,4,2,23,55,0,0
17082,-133.333333333333,4,2,24,55,0,0
17218,-133.333333333333,4,2,25,55,0,0
17354,-133.333333333333,4,2,26,55,0,0
17491,-133.333333333333,4,2,27,55,0,0
17696,-133.333333333333,4,2,1,5,0,0
17764,-117.647058823529,4,2,28,55,0,0
17969,-117.647058823529,4,2,1,5,0,0
18037,-105.263157894737,4,2,29,55,0,0
18242,-105.263157894737,4,2,1,5,0,0
18310,-222.222222222221,4,2,30,55,0,0
18445,-222.222222222221,4,2,1,55,0,0
18651,-222.222222222221,4,2,1,5,0,0
18719,-133.333333333333,4,2,2,55,0,0
25263,-133.333333333333,4,2,20,55,0,0
25400,-133.333333333333,4,2,21,55,0,0
25536,-133.333333333333,4,2,22,55,0,0
25673,-133.333333333333,4,2,23,55,0,0
25809,-133.333333333333,4,2,24,55,0,0
25945,-133.333333333333,4,2,25,55,0,0
26082,-133.333333333333,4,2,26,55,0,0
26218,-133.333333333333,4,2,27,55,0,0
26423,-133.333333333333,4,2,1,5,0,0
26492,-117.647058823529,4,2,28,55,0,0
26696,-117.647058823529,4,2,1,5,0,0
26764,-105.263157894737,4,2,29,55,0,0
26969,-105.263157894737,4,2,1,5,0,0
27037,-222.222222222222,4,2,30,55,0,0
27173,-222.222222222222,4,2,1,55,0,0
27378,-222.222222222222,4,2,1,5,0,0
27446,-117.647058823529,4,2,5,55,0,0
29082,-117.647058823529,4,2,10,39,0,0
29218,-117.647058823529,4,2,5,55,0,0
31263,-117.647058823529,4,2,11,39,0,0
31400,-117.647058823529,4,2,5,55,0,0
34809,-117.647058823529,4,2,10,39,0,0
34945,-117.647058823529,4,2,5,55,0,0
35354,-117.647058823529,4,2,12,39,0,0
35491,-117.647058823529,4,2,7,20,0,0
35627,-117.647058823529,4,2,6,30,0,0
35763,-117.647058823529,4,2,7,30,0,0
35900,-117.647058823529,4,2,6,40,0,0
36036,-117.647058823529,4,2,7,40,0,0
36173,-117.647058823529,4,2,5,55,0,0
37809,-117.647058823529,4,2,10,39,0,0
37945,-117.647058823529,4,2,5,55,0,0
39309,-117.647058823529,4,1,11,39,0,0
39377,-117.647058823529,4,2,5,55,0,0
40127,-117.647058823529,4,2,14,39,0,0
40195,-117.647058823529,4,2,5,55,0,0
43536,-117.647058823529,4,2,10,39,0,0
43673,-117.647058823529,4,2,5,55,0,0
44082,-117.647058823529,4,1,11,39,0,0
44218,-117.647058823529,4,2,5,55,0,0
44354,-117.647058823529,4,2,20,80,0,0
44423,-117.647058823529,4,2,21,80,0,0
44491,-117.647058823529,4,2,22,80,0,0
44559,-117.647058823529,4,2,23,80,0,0
44627,-117.647058823529,4,2,24,80,0,0
44695,-117.647058823529,4,2,25,80,0,0
44763,-117.647058823529,4,2,26,80,0,0
44832,-117.647058823529,4,2,27,80,0,0
44900,-100,4,2,1,80,0,1
45036,-100,4,2,13,69,0,1
45104,-100,4,2,1,80,0,1
45991,-100,4,2,15,69,0,1
46059,-100,4,2,1,80,0,1
47627,-100,4,2,15,69,0,1
47695,-100,4,2,1,80,0,1
48718,-100,4,3,20,80,0,1
48854,-100,4,3,21,80,0,1
48991,-100,4,3,22,80,0,1
49127,-100,4,3,23,80,0,1
49195,-100,4,2,1,80,0,1
49400,-100,4,2,13,69,0,1
49536,-100,4,2,1,80,0,1
49809,-100,4,2,15,69,0,1
49945,-100,4,2,1,80,0,1
52536,-100,4,2,15,69,0,1
52673,-100,4,2,1,80,0,1
53763,-100,4,2,13,69,0,1
53832,-100,4,2,1,80,0,1
54718,-100,4,2,15,69,0,1
54786,-100,4,2,1,80,0,1
56354,-100,4,2,15,69,0,1
56423,-100,4,2,1,80,0,1
57445,-100,4,3,20,80,0,1
57582,-100,4,3,21,80,0,1
57718,-100,4,3,22,80,0,1
57854,-100,4,3,23,80,0,1
57923,-100,4,2,1,80,0,1
58536,-100,4,2,16,69,0,1
58673,-100,4,2,1,80,0,1
59627,-100,4,2,16,69,0,1
59763,-100,4,2,1,80,0,1
60173,-100,4,2,1,50,0,1
60991,-100,4,2,1,70,0,1
61809,-100,4,2,1,90,0,1
62218,-100,4,2,2,80,0,1
62901,272.727272727273,4,2,1,80,1,0
71628,-133.333333333333,4,2,20,65,0,0
71764,-133.333333333333,4,2,21,65,0,0
71901,-133.333333333333,4,2,22,65,0,0
72037,-133.333333333333,4,2,23,65,0,0
72173,-133.333333333333,4,2,24,65,0,0
72310,-133.333333333333,4,2,25,65,0,0
72446,-133.333333333333,4,2,26,65,0,0
72582,-133.333333333333,4,2,27,65,0,0
72719,-133.333333333333,4,2,17,49,0,0
72787,-133.333333333333,4,2,1,5,0,0
72855,-117.647058823529,4,2,28,65,0,0
72991,-117.647058823529,4,2,17,49,0,0
73060,-117.647058823529,4,2,1,5,0,0
73128,-105.263157894737,4,2,29,65,0,0
73264,-105.263157894737,4,2,17,49,0,0
73333,-105.263157894737,4,2,1,5,0,0
73401,-222.222222222221,4,2,30,65,0,0
73537,-222.222222222221,4,2,17,49,0,0
73673,-222.222222222221,4,2,1,65,0,0
73742,-222.222222222221,4,2,1,5,0,0
73810,-133.333333333333,4,2,31,65,0,0
73946,-133.333333333333,4,2,32,65,0,0
74082,-133.333333333333,4,2,33,65,0,0
74219,-133.333333333333,4,2,34,65,0,0
74355,-133.333333333333,4,2,35,65,0,0
74491,-133.333333333333,4,2,36,65,0,0
74628,-133.333333333333,4,2,37,65,0,0
74764,-133.333333333333,4,2,38,65,0,0
74901,-133.333333333333,4,2,17,49,0,0
74969,-133.333333333333,4,2,1,5,0,0
75037,-117.647058823529,4,2,39,65,0,0
75173,-117.647058823529,4,2,17,49,0,0
75241,-117.647058823529,4,2,1,5,0,0
75310,-105.263157894737,4,2,40,65,0,0
75446,-105.263157894737,4,2,17,49,0,0
75514,-105.263157894737,4,2,1,5,0,0
75582,-222.222222222221,4,2,41,65,0,0
75719,-222.222222222221,4,2,17,49,0,0
75855,-222.222222222221,4,2,1,65,0,0
75923,-222.222222222221,4,2,1,5,0,0
75991,-133.333333333333,4,2,20,65,0,0
76128,-133.333333333333,4,2,21,65,0,0
76264,-133.333333333333,4,2,22,65,0,0
76401,-133.333333333333,4,2,23,65,0,0
76537,-133.333333333333,4,2,24,65,0,0
76673,-133.333333333333,4,2,25,65,0,0
76810,-133.333333333333,4,2,26,65,0,0
76946,-399.999999999997,4,2,27,65,0,0
77082,-399.999999999997,4,2,17,49,0,0
77151,-399.999999999997,4,2,28,65,0,0
77219,-133.333333333333,4,2,28,65,0,0
77355,-133.333333333333,4,2,2,65,0,0
77491,-133.333333333333,4,2,29,65,0,0
77628,-133.333333333333,4,2,2,65,0,0
77764,-133.333333333333,4,2,30,65,0,0
77901,-133.333333333333,4,2,2,65,0,0
80355,-117.647058823529,4,2,5,55,0,0
84173,-117.647058823529,4,2,11,39,0,0
84310,-117.647058823529,4,2,5,50,0,0
84582,-117.647058823529,4,2,14,39,0,0
84651,-117.647058823529,4,2,5,55,0,0
87719,-117.647058823529,4,2,10,39,0,0
87855,-117.647058823529,4,2,5,55,0,0
88264,-117.647058823529,4,2,12,39,0,0
88401,-117.647058823529,4,2,7,20,0,0
88537,-117.647058823529,4,2,6,30,0,0
88673,-117.647058823529,4,2,7,30,0,0
88810,-117.647058823529,4,2,6,40,0,0
88946,-117.647058823529,4,2,7,40,0,0
89082,-117.647058823529,4,2,5,55,0,0
90719,-117.647058823529,4,2,10,39,0,0
90855,-117.647058823529,4,2,5,55,0,0
96446,-117.647058823529,4,2,10,39,0,0
96582,-117.647058823529,4,2,5,55,0,0
96991,-117.647058823529,4,1,11,39,0,0
97128,-117.647058823529,4,2,5,55,0,0
97264,-117.647058823529,4,2,20,80,0,0
97332,-117.647058823529,4,2,21,80,0,0
97401,-117.647058823529,4,2,22,80,0,0
97469,-117.647058823529,4,2,23,80,0,0
97537,-117.647058823529,4,2,24,80,0,0
97605,-117.647058823529,4,2,25,80,0,0
97673,-117.647058823529,4,2,26,80,0,0
97741,-117.647058823529,4,2,27,80,0,0
97810,-100,4,2,1,80,0,1
97946,-100,4,2,13,69,0,1
98014,-100,4,2,1,80,0,1
98901,-100,4,2,15,69,0,1
98969,-100,4,2,1,80,0,1
100537,-100,4,2,15,69,0,1
100605,-100,4,2,1,80,0,1
101628,-100,4,3,20,80,0,1
101764,-100,4,3,21,80,0,1
101901,-100,4,3,22,80,0,1
102037,-100,4,3,23,80,0,1
102105,-100,4,2,1,80,0,1
102310,-100,4,2,13,69,0,1
102446,-100,4,2,1,80,0,1
102719,-100,4,2,15,69,0,1
102855,-100,4,2,1,80,0,1
105446,-100,4,2,15,69,0,1
105582,-100,4,2,1,80,0,1
106264,-100,4,2,1,100,0,1
106810,-100,4,2,1,80,0,1
107628,-100,4,2,15,69,0,1
107696,-100,4,2,1,80,0,1
109264,-100,4,2,15,69,0,1
109332,-100,4,2,1,80,0,1
110355,-100,4,3,20,80,0,1
110491,-100,4,3,21,80,0,1
110628,-100,4,3,22,80,0,1
110764,-100,4,3,23,80,0,1
110832,-100,4,2,1,80,0,1
111582,-100,4,2,18,69,0,1
111719,-100,4,2,1,80,0,1
113082,-100,4,2,1,50,0,1
113901,-100,4,2,1,70,0,1
114719,-100,4,2,1,90,0,1
115128,-100,4,2,2,80,0,1
115673,-117.647058823529,4,2,1,80,0,0
115810,272.727272727273,4,2,1,55,1,0
115946,-100,4,2,42,55,0,0
116082,-100,4,2,43,55,0,0
116219,-100,4,2,44,55,0,0
116355,-100,4,2,45,55,0,0
116491,-100,4,2,46,55,0,0
116628,-100,4,2,47,55,0,0
116764,-100,4,2,48,55,0,0
116900,-100,4,2,49,55,0,0
117037,-100,4,2,50,55,0,0
117173,-100,4,2,51,55,0,0
117310,-100,4,2,52,55,0,0
117582,-100,4,2,53,55,0,0
117855,-100,4,2,54,55,0,0
117923,-100,4,2,55,55,0,0
117991,-100,4,2,56,55,0,0
118128,-100,4,2,57,55,0,0
118264,-100,4,2,58,55,0,0
118400,-100,4,2,59,55,0,0
118537,-100,4,2,60,55,0,0
118673,-100,4,2,61,55,0,0
118810,-100,4,2,62,55,0,0
118946,-100,4,2,63,55,0,0
119014,-100,4,2,64,55,0,0
119082,-100,4,2,65,55,0,0
119219,-100,4,2,66,55,0,0
119355,-100,4,2,67,55,0,0
119423,-100,4,2,68,55,0,0
119491,-100,4,2,69,55,0,0
119764,-100,4,2,70,55,0,0
119900,-100,4,2,71,55,0,0
120037,-400,4,2,72,55,0,0
120173,-400,4,2,1,55,0,0
120446,-100,4,2,73,55,0,0
120582,-100,4,2,74,55,0,0
120719,-100,4,2,75,55,0,0
120855,-100,4,2,76,55,0,0
120991,-100,4,2,77,55,0,0
121128,-400,4,2,78,55,0,0
121264,-400,4,2,1,55,0,0
121537,-100,4,2,79,55,0,0
121673,-100,4,2,80,55,0,0
121741,-100,4,2,81,55,0,0
121810,-100,4,2,82,55,0,0
121946,-100,4,2,83,55,0,0
122082,-100,4,2,84,55,0,0
122219,-100,4,2,85,55,0,0
122355,-100,4,2,86,55,0,0
122491,-100,4,2,87,55,0,0
122628,-100,4,2,88,55,0,0
122764,-100,4,2,89,55,0,0
122900,-100,4,2,90,55,0,0
123037,-100,4,2,91,55,0,0
123173,-100,4,2,92,55,0,0
123310,-100,4,2,90,55,0,0
123446,-100,4,2,91,55,0,0
123582,-100,4,2,92,55,0,0
123719,-100,4,2,90,55,0,0
123855,-100,4,2,91,55,0,0
123991,-100,4,2,93,55,0,0
124082,-100,4,2,94,55,0,0
124173,-100,4,2,95,55,0,0
124264,-100,4,2,96,55,0,0
124355,-100,4,2,97,55,0,0
124446,-100,4,2,98,55,0,0
124537,-117.647058823529,4,2,1,55,0,0
124673,-117.647058823529,4,2,2,55,0,0
128355,-117.647058823529,4,2,19,39,0,0
128423,-117.647058823529,4,2,2,55,0,0
128764,-117.647058823529,4,2,1,55,0,0
129037,-117.647058823529,4,2,2,55,0,0
129855,-117.647058823529,4,2,1,55,0,0
130128,-117.647058823529,4,2,2,55,0,0
131083,-117.647058823529,4,2,1,65,0,0
131219,-117.647058823529,4,2,13,49,0,0
131355,-117.647058823529,4,2,2,65,0,0
135310,-117.647058823529,4,2,1,65,0,0
135582,-117.647058823529,4,2,2,65,0,0
136400,-117.647058823529,4,2,1,65,0,0
136673,-117.647058823529,4,2,2,65,0,0
137628,-117.647058823529,4,2,1,65,0,0
137764,-117.647058823529,4,2,2,65,0,0
138173,-117.647058823529,4,2,17,49,0,0
138310,-117.647058823529,4,2,2,65,0,0
138719,-117.647058823529,4,2,17,49,0,0
138787,-117.647058823529,4,2,2,65,0,0
139673,-117.647058823529,4,2,1,70,0,0
139810,-117.647058823529,4,2,13,59,0,0
139946,-117.647058823529,4,2,2,70,0,0
141991,-117.647058823529,4,2,1,70,0,0
142128,-117.647058823529,4,2,2,70,0,0
142537,-117.647058823529,4,2,17,59,0,0
142673,-117.647058823529,4,2,2,70,0,0
143082,-117.647058823529,4,2,1,90,0,0
143219,-117.647058823529,4,2,2,90,0,0
144173,-117.647058823529,4,2,8,100,0,0
145264,-117.647058823529,4,2,1,80,0,0
153310,-117.647058823529,4,2,1,5,0,0
153446,-117.647058823529,4,2,30,80,0,0
153514,-117.647058823529,4,2,31,80,0,0
153582,-117.647058823529,4,2,32,80,0,0
153650,-117.647058823529,4,2,33,80,0,0
153719,-117.647058823529,4,2,34,80,0,0
153787,-117.647058823529,4,2,35,80,0,0
153855,-117.647058823529,4,2,36,80,0,0
153923,-117.647058823529,4,2,37,80,0,0
153991,-100,4,2,1,80,0,1
154128,-100,4,2,13,69,0,1
154196,-100,4,2,1,80,0,1
155082,-100,4,2,15,69,0,1
155150,-100,4,2,1,80,0,1
156719,-100,4,2,15,80,0,1
156787,-100,4,2,1,80,0,1
157810,-100,4,3,30,80,0,1
157946,-100,4,3,31,80,0,1
158082,-100,4,3,32,80,0,1
158219,-100,4,3,33,80,0,1
158287,-100,4,2,1,80,0,1
158491,-100,4,2,13,69,0,1
158628,-100,4,2,1,80,0,1
158900,-100,4,2,15,69,0,1
159037,-100,4,2,1,80,0,1
161628,-100,4,2,15,69,0,1
161764,-100,4,2,1,80,0,1
162173,-100,4,3,40,80,0,1
162310,-100,4,2,1,80,0,1
162446,-100,4,3,41,80,0,1
162582,-100,4,2,1,80,0,1
162719,-100,4,3,42,80,0,1
162855,-100,4,2,13,69,0,1
162991,-100,4,2,1,80,0,1
163128,-100,4,3,43,80,0,1
163264,-100,4,2,15,69,0,1
163332,-100,4,2,1,80,0,1
163537,-100,4,3,44,80,0,1
163673,-100,4,2,1,80,0,1
163946,-100,4,3,45,80,0,1
164082,-100,4,2,1,80,0,1
164355,-100,4,3,46,80,0,1
164491,-100,4,2,1,80,0,1
164628,-100,4,3,47,80,0,1
164764,-100,4,2,1,80,0,1
164900,-100,4,3,48,80,0,1
165037,-100,4,2,1,80,0,1
165310,-100,4,3,49,80,0,1
165446,-100,4,2,15,69,0,1
165514,-100,4,2,1,80,0,1
165719,-100,4,3,50,80,0,1
165855,-100,4,2,1,80,0,1
166128,-100,4,3,51,80,0,1
166264,-100,4,2,1,80,0,1
166537,-100,4,3,30,80,0,1
166673,-100,4,3,31,80,0,1
166810,-100,4,3,32,80,0,1
166946,-100,4,3,33,80,0,1
167014,-100,4,2,1,80,0,1
167219,-100,4,2,13,69,0,1
167355,-100,4,2,1,80,0,1
167628,-100,4,2,15,69,0,1
167764,-100,4,2,1,80,0,1
170355,-100,4,2,16,69,0,1
170491,-100,4,2,1,80,0,1
171378,-100,4,2,1,80,0,0
171446,-100,4,2,1,80,0,1
171582,-100,4,2,13,69,0,1
171719,-100,4,2,1,80,0,1
172128,-100,4,1,10,69,0,1
172196,-100,4,2,1,80,0,1
173082,-100,4,2,16,69,0,1
173150,-100,4,2,1,80,0,1
175264,-100,4,3,52,80,0,1
175400,-100,4,3,31,80,0,1
175537,-100,4,3,53,80,0,1
175673,-100,4,3,33,80,0,1
175810,-100,4,3,54,80,0,1
175946,-100,4,2,13,69,0,1
176082,-100,4,2,1,80,0,1
176219,-100,4,3,55,80,0,1
176355,-100,4,2,1,80,0,1
176491,-100,4,2,13,69,0,1
176560,-100,4,2,1,80,0,1
176628,-100,4,3,56,80,0,1
176764,-100,4,2,1,80,0,1
176900,-100,4,2,15,69,0,1
176969,-100,4,2,1,80,0,1
177037,-100,4,3,57,80,0,1
177173,-100,4,2,1,80,0,1
177446,-100,4,3,58,80,0,1
177582,-100,4,2,1,80,0,1
177719,-100,4,3,59,80,0,1
177855,-100,4,2,1,80,0,1
177991,-100,4,3,60,80,0,1
178128,-100,4,2,1,80,0,1
178400,-100,4,3,61,80,0,1
178537,-100,4,2,1,80,0,1
178810,-100,4,3,62,80,0,1
178946,-100,4,2,1,80,0,1
179219,-100,4,3,63,80,0,1
179355,-100,4,2,1,80,0,1
180310,-100,4,2,13,69,0,1
180446,-100,4,2,1,80,0,1
180855,-100,4,1,10,69,0,1
180923,-100,4,2,1,80,0,1
181946,-100,4,2,13,69,0,1
182014,-100,4,2,1,80,0,1
183991,-100,4,3,30,80,0,1
184128,-100,4,3,31,80,0,1
184264,-100,4,3,32,80,0,1
184400,-100,4,3,33,80,0,1
184537,-100,4,2,1,80,0,1
185082,-100,4,2,15,69,0,1
185150,-100,4,2,1,80,0,1
186719,-100,4,2,1,50,0,1
187537,-100,4,2,1,65,0,1
188355,-100,4,2,1,70,0,1
189173,-100,4,2,1,80,0,1
189991,-100,4,2,1,50,0,1
190810,-100,4,2,1,65,0,1
191628,-100,4,2,1,80,0,1
192446,-100,4,2,1,100,0,1
193264,-285.714285714284,4,2,66,66,0,0
194628,-285.714285714284,4,2,67,66,0,0
194764,-285.714285714284,4,2,68,66,0,0
194900,-285.714285714284,4,2,69,66,0,0
195037,-285.714285714284,4,2,70,66,0,0
195173,-285.714285714284,4,2,71,66,0,0
195310,-285.714285714284,4,2,72,66,0,0
195446,-285.714285714284,4,2,73,66,0,0
195582,-285.714285714284,4,2,74,66,0,0
195719,-285.714285714284,4,2,75,66,0,0
195855,-285.714285714284,4,2,76,66,0,0
195991,-285.714285714284,4,2,77,66,0,0
196128,-285.714285714284,4,2,78,66,0,0
196264,272.727272727273,4,2,1,55,1,0
196264,-133.333333333333,4,2,20,65,0,0
196400,-133.333333333333,4,2,21,65,0,0
196536,-133.333333333333,4,2,22,65,0,0
196673,-133.333333333333,4,2,23,65,0,0
196809,-133.333333333333,4,2,24,65,0,0
196945,-133.333333333333,4,2,25,65,0,0
197082,-133.333333333333,4,2,26,65,0,0
197218,-133.333333333333,4,2,27,65,0,0
197354,-133.333333333333,4,2,17,49,0,0
197423,-133.333333333333,4,2,1,5,0,0
197491,-117.647058823529,4,2,28,65,0,0
197627,-117.647058823529,4,2,17,49,0,0
197695,-117.647058823529,4,2,1,5,0,0
197764,-105.263157894737,4,2,29,65,0,0
197900,-105.263157894737,4,2,17,49,0,0
197968,-105.263157894737,4,2,1,5,0,0
198036,-222.222222222221,4,2,30,65,0,0
198173,-222.222222222221,4,2,17,49,0,0
198309,-222.222222222221,4,2,1,65,0,0
198378,-222.222222222221,4,2,1,5,0,0
198446,-133.333333333333,4,2,31,65,0,0
198582,-133.333333333333,4,2,32,65,0,0
198718,-133.333333333333,4,2,33,65,0,0
198854,-133.333333333333,4,2,34,65,0,0
198991,-133.333333333333,4,2,35,65,0,0
199127,-133.333333333333,4,2,36,65,0,0
199264,-133.333333333333,4,2,37,65,0,0
199400,-133.333333333333,4,2,38,65,0,0
199536,-133.333333333333,4,2,17,49,0,0
199604,-133.333333333333,4,2,1,5,0,0
199673,-117.647058823529,4,2,39,65,0,0
199809,-117.647058823529,4,2,17,49,0,0
199877,-117.647058823529,4,2,1,5,0,0
199945,-105.263157894737,4,2,40,65,0,0
200082,-105.263157894737,4,2,17,49,0,0
200150,-105.263157894737,4,2,1,5,0,0
200218,-222.222222222221,4,2,41,65,0,0
200354,-222.222222222221,4,2,17,49,0,0
200491,-222.222222222221,4,2,1,65,0,0
200559,-222.222222222221,4,2,1,5,0,0
200627,-133.333333333333,4,2,20,65,0,0
200764,-133.333333333333,4,2,21,65,0,0
200900,-133.333333333333,4,2,22,65,0,0
201036,-133.333333333333,4,2,23,65,0,0
201173,-133.333333333333,4,2,24,65,0,0
201309,-133.333333333333,4,2,25,65,0,0
201445,-133.333333333333,4,2,26,65,0,0
201582,-133.333333333333,4,2,27,65,0,0
201718,-133.333333333333,4,2,17,49,0,0
201786,-133.333333333333,4,2,1,5,0,0
201854,-117.647058823529,4,2,28,65,0,0
201991,-117.647058823529,4,2,17,49,0,0
202059,-117.647058823529,4,2,1,5,0,0
202127,-105.263157894737,4,2,29,65,0,0
202264,-105.263157894737,4,2,17,49,0,0
202332,-105.263157894737,4,2,1,5,0,0
202400,-222.222222222221,4,2,30,65,0,0
202536,-222.222222222221,4,2,17,49,0,0
202673,-222.222222222221,4,2,30,65,0,0
202741,-222.222222222221,4,2,1,5,0,0
202809,-133.333333333333,4,2,31,65,0,0
202945,-133.333333333333,4,2,32,65,0,0
203082,-133.333333333333,4,2,33,65,0,0
203218,-133.333333333333,4,2,34,65,0,0
203354,-133.333333333333,4,2,35,65,0,0
203491,-133.333333333333,4,2,36,65,0,0
203627,-133.333333333333,4,2,37,65,0,0
203764,-133.333333333333,4,2,38,65,0,0
203900,-133.333333333333,4,2,17,49,0,0
203968,-133.333333333333,4,2,1,5,0,0
204036,-117.647058823529,4,2,39,65,0,0
204173,-117.647058823529,4,2,17,49,0,0
204241,-117.647058823529,4,2,1,5,0,0
204309,-105.263157894737,4,2,40,65,0,0
204445,-105.263157894737,4,2,17,49,0,0
204514,-105.263157894737,4,2,1,5,0,0
204582,-222.222222222223,4,2,41,65,0,0
204718,-222.222222222223,4,2,17,49,0,0
204854,-222.222222222223,4,2,1,65,0,0
204923,-222.222222222223,4,2,1,5,0,0
204991,-133.333333333333,4,2,20,65,0,0
205127,-133.333333333333,4,2,21,65,0,0
205264,-133.333333333333,4,2,22,65,0,0
205400,-133.333333333333,4,2,23,65,0,0
205536,-133.333333333333,4,2,24,65,0,0
205673,-133.333333333333,4,2,25,65,0,0
205809,-133.333333333333,4,2,26,65,0,0
205945,-133.333333333333,4,2,27,65,0,0
206082,-133.333333333333,4,2,17,49,0,0
206150,-133.333333333333,4,2,1,5,0,0
206218,-117.647058823529,4,2,28,65,0,0
206354,-117.647058823529,4,2,17,49,0,0
206423,-117.647058823529,4,2,1,5,0,0
206491,-105.263157894737,4,2,29,65,0,0
206627,-105.263157894737,4,2,17,49,0,0
206695,-105.263157894737,4,2,1,5,0,0
206764,-222.222222222221,4,2,30,65,0,0
206900,-222.222222222221,4,2,17,49,0,0
207036,-222.222222222221,4,2,30,65,0,0
207104,-222.222222222221,4,2,1,5,0,0
207173,-133.333333333333,4,2,31,65,0,0
207309,-133.333333333333,4,2,32,65,0,0
207445,-133.333333333333,4,2,33,65,0,0
207582,-133.333333333333,4,2,34,65,0,0
207718,-133.333333333333,4,2,35,65,0,0
207854,-133.333333333333,4,2,36,65,0,0
207991,-133.333333333333,4,2,37,65,0,0
208127,-133.333333333333,4,2,38,65,0,0
208264,-133.333333333333,4,2,17,49,0,0
208332,-133.333333333333,4,2,1,5,0,0
208400,-117.647058823529,4,2,39,65,0,0
208536,-117.647058823529,4,2,17,49,0,0
208604,-117.647058823529,4,2,1,5,0,0
208673,-105.263157894737,4,2,40,65,0,0
208809,-105.263157894737,4,2,17,49,0,0
208877,-105.263157894737,4,2,1,5,0,0
208945,-222.222222222221,4,2,41,65,0,0
209082,-222.222222222221,4,2,17,49,0,0
209218,-222.222222222221,4,2,1,65,0,0
209286,-222.222222222221,4,2,1,5,0,0
209354,-133.333333333333,4,2,20,65,0,0
209491,-133.333333333333,4,2,21,65,0,0
209627,-133.333333333333,4,2,22,65,0,0
209764,-133.333333333333,4,2,23,65,0,0
209900,-133.333333333333,4,2,24,65,0,0
210036,-133.333333333333,4,2,25,65,0,0
210173,-133.333333333333,4,2,26,65,0,0
210309,-133.333333333333,4,2,27,65,0,0
210445,-133.333333333333,4,2,17,49,0,0
210514,-133.333333333333,4,2,1,5,0,0
210582,-117.647058823529,4,2,28,65,0,0
210718,-117.647058823529,4,2,17,49,0,0
210786,-117.647058823529,4,2,1,5,0,0
210854,-105.263157894737,4,2,29,65,0,0
210991,-105.263157894737,4,2,17,49,0,0
211059,-105.263157894737,4,2,1,5,0,0
211127,-222.222222222221,4,2,30,65,0,0
211264,-222.222222222221,4,2,17,49,0,0
211400,-222.222222222221,4,2,30,65,0,0
211468,-222.222222222221,4,2,1,5,0,0
211536,-133.333333333333,4,2,51,40,0,0
211673,-133.333333333333,4,2,52,40,0,0
211809,-133.333333333333,4,2,53,40,0,0
211945,-133.333333333333,4,2,54,40,0,0
212082,-133.333333333333,4,2,55,40,0,0
212218,-133.333333333333,4,2,56,40,0,0
212354,-133.333333333333,4,2,57,40,0,0
212491,-133.333333333333,4,2,58,40,0,0
212627,-133.333333333333,4,2,1,40,0,0
212764,-133.333333333333,4,2,59,40,0,0
212900,-133.333333333333,4,2,60,40,0,0
213036,-133.333333333333,4,2,61,40,0,0
213309,-133.333333333333,4,2,62,40,0,0
213445,-133.333333333333,4,2,1,40,0,0
213719,-133.333333333333,4,2,1,5,0,0

[Colours]
Combo1 : 43,183,213
Combo2 : 242,200,51
Combo3 : 247,91,211
Combo4 : 228,90,37
Combo5 : 185,227,153

[HitObjects]
40,66,173,5,2,0:1:0:0:
112,98,310,1,2,0:1:0:0:
181,60,446,2,0,L|266:58,1,78.7500030040742,2|2,0:1|0:1,0:1:0:0:
331,90,719,2,0,L|416:88,2,78.7500030040742,2|2|2,0:1|0:1|0:1,0:1:0:0:
260,58,1128,6,0,P|294:113|241:208,1,157.500006008148,2|2,0:1|0:1,0:1:0:0:
127,274,1673,2,0,L|42:272,1,78.7500030040742,2|0,0:1|0:1,0:1:0:0:
126,258,1946,2,0,B|193:258|195:317|277:315,1,157.500006008148,2|0,0:1|0:1,0:1:0:0:
335,358,2355,5,2,0:1:0:0:
393,305,2492,1,2,0:1:0:0:
470,320,2628,2,0,P|492:272|479:227,1,78.7500030040742,2|2,0:1|0:1,0:1:0:0:
456,175,2901,2,0,P|455:136|475:102,2,78.7500030040742,2|2|2,0:1|0:1|0:1,0:1:0:0:
489,248,3310,6,0,P|438:211|347:225,1,157.500006008148,2|2,0:1|0:1,0:1:0:0:
262,92,3855,2,0,L|347:90,1,78.7500030040742,2|0,0:1|0:1,0:1:0:0:
263,76,4128,2,0,B|196:76|194:135|112:133,1,157.500006008148,2|0,0:1|0:1,0:1:0:0:
42,118,4537,5,2,0:1:0:0:
66,192,4673,1,2,0:1:0:0:
5,243,4810,2,0,L|12:331,1,78.7500030040742,2|2,0:1|0:1,0:1:0:0:
86,345,5083,2,0,L|79:266,2,78.7500030040742,2|2|2,0:1|0:1|0:1,0:1:0:0:
162,363,5492,6,0,P|226:365|265:263,1,157.500006008148,2|2,0:1|0:1,0:1:0:0:
214,145,6037,2,0,L|129:143,1,78.7500030040742,2|0,0:1|0:1,0:1:0:0:
213,129,6310,2,0,B|280:129|282:188|364:186,1,157.500006008148,2|0,0:1|0:1,0:1:0:0:
424,225,6719,6,0,L|506:216,2,78.7500030040742,2|2|2,0:1|0:1|0:1,0:1:0:0:
356,185,7128,2,0,L|309:121,2,78.7500030040742,2|2|2,0:1|0:1|0:1,0:1:0:0:
356,264,7537,1,2,0:1:0:0:
256,192,7604,12,0,9991,0:0:0:0:
34,77,16537,5,2,0:0:0:0:
94,26,16673,1,2,0:0:0:0:
164,61,16809,1,2,0:0:0:0:
156,139,16946,1,2,0:0:0:0:
17,209,17083,5,2,0:0:0:0:
1,285,17219,1,2,0:0:0:0:
58,338,17355,1,2,0:0:0:0:
231,282,17492,6,0,B|203:281|203:281|196:286|196:286|191:280|191:280|106:275,1,118.125004506111,2|0,0:0|0:0,0:0:0:0:
274,214,17764,6,0,B|319:211|319:211|331:216|331:216|346:208|346:208|412:205,1,133.875002553463,2|0,0:0|0:0,0:0:0:0:
194,130,18037,6,0,B|140:127|140:127|126:132|126:132|108:123|108:123|30:119,1,149.624996004582,2|0,0:0|0:0,0:0:0:0:
308,58,18310,6,0,B|320:53|320:53|320:60|320:60|328:53|328:53|329:60|329:60|337:52|337:52|337:59|337:59|345:51|345:51|346:58|346:58|354:51|354:51|354:58|354:58|362:50|362:50|362:57|362:57|371:53,1,118.124996395111,2|0,0:0|0:0,0:0:0:0:
425,6,18719,5,0,0:0:0:0:
478,77,25264,5,2,0:0:0:0:
418,26,25401,1,2,0:0:0:0:
348,61,25537,1,2,0:0:0:0:
356,139,25673,1,2,0:0:0:0:
495,209,25810,5,2,0:0:0:0:
511,285,25945,1,2,0:0:0:0:
454,338,26083,1,2,0:0:0:0:
281,282,26219,6,0,B|309:281|309:281|316:286|316:286|321:280|321:280|406:275,1,118.125004506111,2|0,0:0|0:0,0:0:0:0:
238,214,26492,6,0,B|193:211|193:211|181:216|181:216|166:208|166:208|100:205,1,133.875002553463,2|0,0:0|0:0,0:0:0:0:
318,130,26764,6,0,B|372:127|372:127|386:132|386:132|404:123|404:123|482:119,1,149.624996004582,2|0,0:0|0:0,0:0:0:0:
204,58,27037,6,0,B|192:53|192:53|192:60|192:60|184:53|184:53|183:60|183:60|175:52|175:52|175:59|175:59|167:51|167:51|166:58|166:58|158:51|158:51|158:58|158:58|150:50|150:50|150:57|150:57|141:53,1,118.124996395111,2|0,0:0|0:0,0:0:0:0:
87,6,27446,5,2,0:0:0:0:
87,6,27719,2,0,P|135:81|57:146,1,178.500003404617
1,112,28128,1,0,0:0:0:0:
11,102,28264,2,0,L|22:221,1,89.2500017023087,4|0,0:0|0:0,0:0:0:0:
160,340,28537,6,0,L|168:251,1,89.2500017023087,0|0,0:0|0:0,0:0:0:0:
229,185,28810,1,2,0:0:0:0:
142,53,28946,2,0,B|218:52|218:52|226:61|226:61|326:61,1,178.500003404617
377,126,29355,2,0,L|471:126,1,89.2500017023087,4|0,0:0|0:0,0:0:0:0:
506,9,29628,5,2,0:0:0:0:
416,9,29764,2,0,P|401:72|418:104,1,89.2500017023087
471,157,30037,1,0,0:0:0:0:
429,283,30173,2,0,L|277:269,1,133.875002553463
285,279,30446,2,0,L|178:269,1,89.2500017023087,4|2,0:0|0:0,0:0:0:0:
77,357,30719,6,0,P|6:311|47:209,1,178.500003404617,0|2,0:0|0:0,0:0:0:0:
219,113,31128,2,0,B|176:128|105:97|105:97|136:114|143:145,1,178.500003404617,0|8,0:0|0:0,0:0:0:0:
296,139,31537,2,0,P|320:100|300:49,1,89.2500017023087,12|8,0:0|0:0,0:0:0:0:
231,193,31810,5,2,0:0:0:0:
306,219,31946,1,0,0:0:0:0:
257,283,32083,1,0,0:0:0:0:
332,309,32219,1,0,0:0:0:0:
124,318,32492,5,0,0:0:0:0:
199,344,32628,1,4,0:0:0:0:
264,299,32764,1,0,0:0:0:0:
339,325,32901,2,0,L|449:325,1,89.2500017023087
231,193,33310,5,0,0:0:0:0:
306,219,33446,1,4,0:0:0:0:
354,156,33583,1,0,0:0:0:0:
308,90,33719,1,4,0:0:0:0:
232,112,33855,1,0,0:0:0:0:
373,37,33992,6,0,P|480:34|436:145,1,267.750005106926,2|0,0:0|0:0,0:0:0:0:
377,198,34537,2,0,P|270:195|314:306,1,267.750005106926,0|2,0:0|0:0,0:0:0:0:
386,339,35082,2,0,P|315:328|121:378,1,267.750005106926,0|8,0:0|0:0,0:0:0:0:
95,300,35628,1,12,0:0:0:0:
95,300,35764,1,8,0:0:0:0:
21,333,35901,1,12,0:0:0:0:
21,333,36037,1,8,0:0:0:0:
29,252,36173,5,2,0:0:0:0:
37,171,36310,2,0,P|8:109|105:33,1,178.500003404617
126,91,36719,2,0,L|137:208,1,89.2500017023087
216,299,36992,2,0,L|208:211,1,89.2500017023087,4|0,0:0|0:0,0:0:0:0:
257,43,37264,5,0,0:0:0:0:
333,16,37401,1,0,0:0:0:0:
407,44,37537,1,2,0:0:0:0:
485,29,37673,2,0,L|468:199,1,133.875002553463
441,188,37946,1,0,0:0:0:0:
501,241,38083,2,0,L|509:329,1,89.2500017023087,4|0,0:0|0:0,0:0:0:0:
441,372,38355,5,2,0:0:0:0:
285,331,38628,1,0,0:0:0:0:
207,352,38764,2,0,P|180:334|178:270,1,89.2500017023087
206,207,39037,1,0,0:0:0:0:
0,199,39173,2,0,L|168:220,1,133.875002553463,4|0,0:0|0:0,0:0:0:0:
195,165,39446,6,0,L|295:177,1,89.2500017023087
346,126,39719,2,0,P|361:66|345:36,1,89.2500017023087,2|0,0:0|0:0,0:0:0:0:
233,32,39992,2,0,L|392:23,1,133.875002553463,12|0,0:0|0:0,0:0:0:0:
379,12,40264,2,0,L|506:4,1,89.2500017023087,12|8,0:0|0:0,0:0:0:0:
360,204,40537,5,2,0:0:0:0:
313,268,40673,1,0,0:0:0:0:
388,296,40810,1,0,0:0:0:0:
341,360,40946,1,0,0:0:0:0:
443,205,41219,5,0,0:0:0:0:
363,192,41355,1,6,0:0:0:0:
317,258,41492,1,0,0:0:0:0:
237,245,41628,1,0,0:0:0:0:
174,295,41764,2,0,P|198:231|180:178,1,89.2500017023087,0|6,0:0|0:0,0:0:0:0:
10,103,42037,5,0,0:0:0:0:
76,146,42173,1,0,0:0:0:0:
37,216,42310,1,0,0:0:0:0:
112,241,42446,1,0,0:0:0:0:
82,316,42583,1,0,0:0:0:0:
0,365,42719,6,0,B|-41:222|48:254|8:91,1,267.750005106926,2|0,0:0|0:0,0:0:0:0:
189,2,43264,2,0,B|148:145|237:113|197:276,1,267.750005106926,0|2,0:0|0:0,0:0:0:0:
80,380,43810,2,0,P|126:309|306:331,1,267.750005106926
412,333,44355,5,12,0:1:0:0:
422,322,44423,1,8,0:1:0:0:
418,307,44492,1,8,0:1:0:0:
428,296,44560,1,8,0:1:0:0:
426,281,44628,1,8,0:1:0:0:
434,268,44696,1,8,0:1:0:0:
432,253,44764,1,8,0:1:0:0:
442,241,44833,1,8,0:1:0:0:
500,188,44900,6,0,L|336:201,1,157.5,6|0,0:3|0:0,0:0:0:0:
279,156,45173,2,0,L|174:141,1,105,12|2,0:0|0:0,0:0:0:0:
114,78,45446,1,4,0:0:0:0:
332,19,45582,1,10,0:0:0:0:
274,237,45719,1,6,0:0:0:0:
42,383,45855,6,0,L|79:197,1,157.5,8|0,0:0|0:0,0:0:0:0:
17,175,46128,2,0,L|0:54,1,105,2|12,0:0|0:0,0:0:0:0:
53,9,46401,1,2,0:0:0:0:
53,9,46469,1,0,0:0:0:0:
53,9,46537,1,6,0:0:0:0:
187,178,46673,5,2,0:0:0:0:
148,246,46810,1,12,0:0:0:0:
180,318,46946,1,0,0:0:0:0:
274,155,47083,5,6,0:0:0:0:
248,74,47219,1,2,0:0:0:0:
312,16,47355,1,12,0:0:0:0:
512,132,47491,2,0,L|356:154,1,157.5,2|0,0:0|0:0,0:0:0:0:
311,222,47764,2,0,L|197:208,1,105,2|6,0:0|0:0,0:0:0:0:
153,143,48037,1,8,0:0:0:0:
153,143,48105,1,0,0:0:0:0:
153,143,48173,5,4,0:0:0:0:
231,289,48310,1,2,0:0:0:0:
84,346,48445,1,12,0:0:0:0:
0,110,48583,1,2,0:0:0:0:
236,26,48719,1,6,0:0:0:0:
320,262,48855,5,0,0:0:0:0:
380,317,48992,1,12,0:0:0:0:
462,308,49128,2,0,L|454:379,1,52.5
474,298,49264,6,0,B|382:306|382:306|341:293|341:293|261:300,1,210,6|12,0:0|0:0,0:0:0:0:
112,163,49673,2,0,B|186:156|186:156|227:168|227:168|319:160,1,210,2|2,0:0|0:0,0:0:0:0:
381,109,50083,1,4,0:0:0:0:
381,109,50151,1,0,0:0:0:0:
381,109,50219,2,0,P|390:55|365:11,1,105,8|4,0:0|0:0,0:0:0:0:
291,42,50492,1,2,0:0:0:0:
401,189,50628,1,12,0:0:0:0:
401,189,50696,1,0,0:0:0:0:
401,189,50764,2,0,L|513:172,1,105,2|6,0:0|0:0,0:0:0:0:
358,260,51037,5,2,0:0:0:0:
197,185,51173,1,12,0:0:0:0:
117,355,51310,1,0,0:0:0:0:
35,325,51446,5,6,0:0:0:0:
255,289,51583,1,2,0:0:0:0:
219,69,51719,1,12,0:0:0:0:
0,105,51855,1,2,0:0:0:0:
80,141,51992,2,0,L|68:251,1,105,6|8,0:0|0:0,0:0:0:0:
7,311,52264,1,6,0:0:0:0:
7,311,52333,1,0,0:0:0:0:
7,311,52401,6,0,P|89:293|202:359,1,210,8|2,0:0|0:0,0:0:0:0:
301,174,52810,2,0,L|181:186,1,105,12|0,0:0|0:0,0:0:0:0:
356,334,53083,2,0,L|476:322,1,105,6|2,0:0|0:0,0:0:0:0:
436,244,53355,1,6,0:0:0:0:
512,45,53492,1,8,0:0:0:0:
512,45,53560,1,0,0:0:0:0:
512,45,53628,6,0,B|449:44|449:44|425:53|425:53|321:52,1,157.5,6|0,0:3|0:0,0:0:0:0:
292,90,53901,2,0,L|186:80,1,105,12|2,0:0|0:0,0:0:0:0:
122,23,54173,1,4,0:0:0:0:
366,124,54310,1,10,0:0:0:0:
156,284,54446,1,6,0:0:0:0:
0,39,54582,6,0,P|56:91|52:167,1,157.5,8|0,0:0|0:0,0:0:0:0:
14,238,54855,2,0,P|8:289|37:336,1,105,2|12,0:0|0:0,0:0:0:0:
114,368,55128,1,2,0:0:0:0:
114,368,55196,1,0,0:0:0:0:
114,368,55264,1,6,0:0:0:0:
234,187,55401,5,2,0:0:0:0:
259,109,55537,1,12,0:0:0:0:
221,38,55673,1,0,0:0:0:0:
231,269,55810,5,6,0:0:0:0:
282,337,55946,1,2,0:0:0:0:
363,344,56083,1,12,0:0:0:0:
464,207,56219,2,0,L|307:223,1,157.5,2|0,0:0|0:0,0:0:0:0:
234,187,56492,2,0,L|129:176,1,105,2|6,0:0|0:0,0:0:0:0:
59,223,56764,1,8,0:0:0:0:
59,223,56833,1,0,0:0:0:0:
59,223,56901,5,4,0:0:0:0:
25,134,57037,1,2,0:0:0:0:
88,75,57173,1,12,0:0:0:0:
305,156,57310,1,2,0:0:0:0:
223,375,57446,1,4,0:0:0:0:
4,292,57583,5,2,0:0:0:0:
59,223,57718,1,12,0:0:0:0:
25,134,57854,2,0,L|10:76,1,52.5,2|0,0:0|0:0,0:0:0:0:
13,148,57992,6,0,P|80:124|128:153,1,105,6|0,0:0|0:0,0:0:0:0:
171,194,58264,1,12,0:0:0:0:
367,31,58401,2,0,P|284:104|181:113,1,210,0|8,0:0|0:0,0:0:0:0:
137,46,58810,1,6,0:0:0:0:
258,204,58946,6,0,L|242:316,1,105,8|4,0:0|0:0,0:0:0:0:
405,127,59219,2,0,L|389:15,1,105,2|12,0:0|0:0,0:0:0:0:
340,180,59492,2,0,P|431:167|463:302,1,210,0|8,0:0|0:0,0:0:0:0:
512,334,59901,1,6,0:0:0:0:
428,320,60037,1,8,0:0:0:0:
125,302,60173,5,6,0:3:0:0:
69,239,60310,1,8,0:0:0:0:
149,223,60446,1,8,0:0:0:0:
124,312,60583,5,6,0:1:0:0:
9,235,60719,1,0,0:0:0:0:
129,176,60855,1,8,0:0:0:0:
128,323,60992,5,6,0:3:0:0:
26,157,61128,1,8,0:0:0:0:
214,154,61264,1,0,0:0:0:0:
131,333,61401,5,12,0:1:0:0:
100,62,61537,1,0,0:0:0:0:
341,169,61673,1,8,0:0:0:0:
135,343,61810,5,14,0:3:0:0:
237,33,61946,1,0,0:0:0:0:
445,270,62083,1,8,0:0:0:0:
401,341,62219,5,14,0:1:0:0:
435,192,62492,1,2,0:0:0:0:
469,43,62764,1,2,0:0:0:0:
469,43,62900,5,6,0:3:0:0:
50,31,71628,5,10,0:0:0:0:
66,107,71764,1,2,0:0:0:0:
24,173,71901,1,6,0:0:0:0:
33,251,72037,1,2,0:0:0:0:
170,343,72173,5,6,0:0:0:0:
176,264,72310,1,2,0:0:0:0:
110,222,72446,1,6,0:0:0:0:
363,313,72582,6,0,B|324:311|324:311|311:317|311:317|295:312|295:312|233:309,1,118.125004506111,2|0,0:0|0:0,0:0:0:0:
382,235,72855,6,0,B|428:228|428:228|443:234|443:234|463:226|463:226|512:219,1,133.875002553463,2|0,0:0|0:0,0:0:0:0:
305,169,73128,6,0,B|258:164|258:164|243:170|243:170|223:163|223:163|149:156,1,149.624996004582,2|0,0:0|0:0,0:0:0:0:
413,120,73401,6,0,P|455:97|452:31,1,118.124996395111,2|0,0:0|0:0,0:0:0:0:
377,10,73810,5,6,0:0:0:0:
354,85,73946,1,2,0:0:0:0:
400,148,74082,1,6,0:0:0:0:
378,223,74219,1,2,0:0:0:0:
496,347,74355,5,6,0:0:0:0:
506,268,74491,1,2,0:0:0:0:
455,208,74628,1,6,0:0:0:0:
286,338,74764,6,0,B|325:336|325:336|337:342|337:342|354:337|354:337|416:334,1,118.125004506111,2|0,0:0|0:0,0:0:0:0:
267,260,75037,6,0,B|219:253|219:253|204:258|204:258|184:251|184:251|135:244,1,133.875002553463,2|0,0:0|0:0,0:0:0:0:
344,194,75310,6,0,B|387:188|387:188|401:195|401:195|420:188|420:188|489:181,1,149.624996004582,2|0,0:0|0:0,0:0:0:0:
236,145,75582,6,0,P|194:122|197:56,1,118.124996395111,2|0,0:0|0:0,0:0:0:0:
265,18,75991,5,6,0:0:0:0:
189,39,76128,1,2,0:0:0:0:
116,9,76264,1,6,0:0:0:0:
43,41,76401,1,2,0:0:0:0:
5,211,76537,5,6,0:0:0:0:
77,181,76673,1,2,0:0:0:0:
93,103,76810,1,6,0:0:0:0:
83,343,76946,6,0,L|75:301,1,39.375,2|0,0:0|0:0,0:0:0:0:
47,288,77219,5,2,0:0:0:0:
78,290,77287,1,0,0:0:0:0:
108,282,77355,1,4,0:0:0:0:
135,268,77423,1,0,0:0:0:0:
162,253,77491,1,2,0:0:0:0:
188,237,77560,1,0,0:0:0:0:
219,231,77628,1,4,0:0:0:0:
249,233,77696,1,0,0:0:0:0:
275,248,77764,1,2,0:0:0:0:
296,271,77832,1,0,0:0:0:0:
307,299,77901,1,4,0:0:0:0:
299,329,77969,1,0,0:0:0:0:
277,351,78037,2,0,L|230:345,1,39.3750015020371
169,369,78173,5,0,0:0:0:0:
169,369,80355,5,2,0:0:0:0:
178,354,80491,2,0,L|77:364,1,89.2500017023087
17,309,80764,1,0,0:0:0:0:
231,202,80901,2,0,B|247:245|247:245|232:285,1,89.2500017023087
16,197,81173,2,0,B|-9:129|-9:129|13:67,1,133.875002553463,4|0,0:0|0:0,0:0:0:0:
0,56,81446,6,0,L|110:43,1,89.2500017023087
168,4,81719,1,2,0:0:0:0:
291,120,81855,2,0,L|409:134,1,89.2500017023087,0|4,0:0|0:0,0:0:0:0:
442,66,82128,1,0,0:0:0:0:
214,97,82264,2,0,P|161:85|138:197,1,178.500003404617,4|2,0:0|0:0,0:0:0:0:
0,328,82673,6,0,L|88:318,1,89.2500017023087
165,365,82946,1,0,0:0:0:0:
317,192,83082,2,0,B|328:149|328:149|303:92,1,89.2500017023087
179,282,83355,2,0,L|267:272,1,89.2500017023087,4|2,0:0|0:0,0:0:0:0:
284,282,83560,1,0,0:0:0:0:
284,282,83628,1,0,0:0:0:0:
367,250,83764,1,0,0:0:0:0:
450,283,83901,1,2,0:0:0:0:
489,362,84037,6,0,P|476:261|507:184,1,178.500003404617,0|8,0:0|0:0,0:0:0:0:
424,145,84446,2,0,P|411:92|497:96,1,133.875002553463,12|0,0:0|0:0,0:0:0:0:
496,57,84719,5,2,0:0:0:0:
411,28,84855,1,0,0:0:0:0:
332,72,84991,1,0,0:0:0:0:
250,35,85128,1,0,0:0:0:0:
211,187,85401,5,0,0:0:0:0:
166,108,85537,1,4,0:0:0:0:
226,41,85673,1,0,0:0:0:0:
308,78,85810,1,0,0:0:0:0:
300,168,85946,1,0,0:0:0:0:
210,345,86219,5,0,0:0:0:0:
257,269,86355,1,4,0:0:0:0:
195,203,86491,1,0,0:0:0:0:
115,243,86628,1,4,0:0:0:0:
32,209,86764,1,0,0:0:0:0:
0,43,86901,6,0,P|114:16|152:161,1,267.750005106926,2|0,0:0|0:0,0:0:0:0:
177,222,87446,2,0,P|221:107|342:130,1,267.750005106926,0|2,0:0|0:0,0:0:0:0:
407,68,87991,2,0,P|346:160|401:301,1,267.750005106926,0|8,0:0|0:0,0:0:0:0:
481,270,88537,1,12,0:0:0:0:
481,270,88673,1,8,0:0:0:0:
464,358,88810,1,12,0:0:0:0:
464,358,88946,1,8,0:0:0:0:
375,341,89082,5,2,0:0:0:0:
286,324,89219,2,0,P|225:360|112:339,1,178.500003404617
34,364,89628,1,0,0:0:0:0:
70,282,89764,2,0,L|55:179,1,89.2500017023087,0|4,0:0|0:0,0:0:0:0:
4,121,90037,1,0,0:0:0:0:
272,10,90173,5,0,0:0:0:0:
189,45,90310,2,0,L|170:175,1,89.2500017023087,0|2,0:0|0:0,0:0:0:0:
147,218,90582,2,0,P|200:161|296:158,1,178.500003404617
366,213,90991,2,0,L|454:200,1,89.2500017023087,4|0,0:0|0:0,0:0:0:0:
272,227,91264,5,2,0:0:0:0:
286,240,91401,2,0,L|272:336,1,89.2500017023087
350,373,91673,1,0,0:0:0:0:
482,270,91810,2,0,B|494:226|494:226|462:164,1,89.2500017023087
502,102,92082,1,4,0:0:0:0:
277,145,92219,6,0,B|435:116,1,133.875002553463,2|0,0:0|0:0,0:0:0:0:
423,102,92491,1,0,0:0:0:0:
202,32,92628,2,0,P|190:68|231:143,1,89.2500017023087,2|0,0:0|0:0,0:0:0:0:
140,235,92901,2,0,P|177:227|221:154,1,89.2500017023087,12|8,0:0|0:0,0:0:0:0:
72,363,93173,2,0,P|59:321|72:279,1,89.2500017023087,12|8,0:0|0:0,0:0:0:0:
15,35,93446,5,2,0:0:0:0:
101,57,93582,1,0,0:0:0:0:
181,19,93719,1,0,0:0:0:0:
265,47,93855,1,0,0:0:0:0:
348,14,93991,1,0,0:0:0:0:
356,12,94128,1,0,0:0:0:0:
360,11,94264,1,6,0:0:0:0:
368,9,94401,1,0,0:0:0:0:
331,151,94537,5,0,0:0:0:0:
413,187,94673,1,0,0:0:0:0:
477,124,94810,1,6,0:0:0:0:
450,40,94946,1,0,0:0:0:0:
344,227,95082,5,0,0:0:0:0:
312,280,95219,1,0,0:0:0:0:
346,311,95355,1,0,0:0:0:0:
334,340,95491,1,0,0:0:0:0:
346,354,95628,6,0,B|206:356|228:308|65:308,1,267.750005106926,2|0,0:0|0:0,0:0:0:0:
231,155,96173,2,0,B|371:153|349:201|512:201,1,267.750005106926,0|2,0:0|0:0,0:0:0:0:
177,86,96719,2,0,P|135:57|11:200,1,267.750005106926
53,347,97264,5,12,0:1:0:0:
51,329,97332,1,8,0:1:0:0:
60,313,97401,1,8,0:1:0:0:
58,295,97469,1,8,0:1:0:0:
68,281,97537,1,8,0:1:0:0:
65,263,97605,1,8,0:1:0:0:
75,248,97673,1,8,0:1:0:0:
73,229,97741,1,8,0:1:0:0:
1,173,97810,6,0,L|165:199,1,157.5,6|0,0:3|0:0,0:0:0:0:
225,244,98082,2,0,L|328:227,1,105,12|2,0:0|0:0,0:0:0:0:
397,274,98355,1,4,0:0:0:0:
480,73,98491,1,10,0:0:0:0:
265,101,98628,1,6,0:0:0:0:
476,367,98764,6,0,L|497:199,1,157.5,8|0,0:0|0:0,0:0:0:0:
430,160,99037,2,0,L|413:25,1,105,2|12,0:0|0:0,0:0:0:0:
486,7,99310,1,2,0:0:0:0:
486,7,99378,1,0,0:0:0:0:
486,7,99446,1,6,0:0:0:0:
371,227,99582,5,2,0:0:0:0:
307,282,99719,1,12,0:0:0:0:
329,363,99855,1,0,0:0:0:0:
430,160,99991,5,6,0:0:0:0:
452,79,100128,1,2,0:0:0:0:
388,24,100264,1,12,0:0:0:0:
167,10,100401,6,0,L|189:173,1,157.5,2|0,0:0|0:0,0:0:0:0:
251,216,100673,2,0,L|235:330,1,105,2|6,0:0|0:0,0:0:0:0:
309,363,100946,1,8,0:0:0:0:
309,363,101014,1,0,0:0:0:0:
309,363,101082,5,4,0:0:0:0:
380,319,101219,1,2,0:0:0:0:
329,62,101355,1,12,0:0:0:0:
72,113,101491,1,2,0:0:0:0:
123,370,101628,5,6,0:0:0:0:
172,302,101764,1,0,0:0:0:0:
135,226,101901,1,12,0:0:0:0:
188,161,102037,2,0,L|249:157,1,52.5
174,147,102173,6,0,P|95:92|115:-16,1,210,6|12,0:0|0:0,0:0:0:0:
267,190,102582,2,0,P|346:244|326:353,1,210,2|2,0:0|0:0,0:0:0:0:
252,368,102991,1,4,0:0:0:0:
252,368,103060,1,0,0:0:0:0:
252,368,103128,2,0,L|144:354,1,105,8|4,0:0|0:0,0:0:0:0:
86,296,103401,1,2,0:0:0:0:
266,162,103537,2,0,L|370:175,1,105,12|2,0:0|0:0,0:0:0:0:
370,175,103741,1,0,0:0:0:0:
370,175,103810,1,6,0:0:0:0:
415,104,103946,5,2,0:0:0:0:
328,271,104082,1,12,0:0:0:0:
495,357,104219,1,0,0:0:0:0:
507,274,104355,5,6,0:0:0:0:
453,27,104491,1,2,0:0:0:0:
206,81,104628,1,12,0:0:0:0:
260,328,104764,1,2,0:0:0:0:
180,356,104901,2,0,L|56:341,1,105,6|8,0:0|0:0,0:0:0:0:
1,381,105173,1,6,0:0:0:0:
1,381,105241,1,0,0:0:0:0:
1,381,105310,6,0,P|70:327|32:191,1,210,8|2,0:0|0:0,0:0:0:0:
0,32,105719,2,0,L|11:146,1,105,12|0,0:0|0:0,0:0:0:0:
198,279,105991,2,0,L|187:165,1,105,6|2,0:0|0:0,0:0:0:0:
196,161,106196,1,0,0:0:0:0:
204,147,106264,1,8,0:0:0:0:
213,134,106332,1,0,0:0:0:0:
222,121,106401,1,8,0:0:0:0:
222,121,106810,6,0,L|75:139,1,105,12|2,0:3|0:0,0:0:0:0:
284,187,107082,1,4,0:0:0:0:
350,135,107219,2,0,L|362:30,1,105,10|6,0:0|0:0,0:0:0:0:
507,248,107491,2,0,P|441:212|333:226,1,157.5,8|0,0:0|0:0,0:0:0:0:
284,187,107764,2,0,P|239:213|187:218,1,105,2|12,0:0|0:0,0:0:0:0:
111,245,108037,1,2,0:0:0:0:
111,245,108105,1,0,0:0:0:0:
111,245,108173,1,6,0:0:0:0:
68,43,108310,5,2,0:0:0:0:
14,106,108446,1,12,0:0:0:0:
43,185,108582,1,0,0:0:0:0:
29,363,108719,5,6,0:0:0:0:
104,329,108855,1,2,0:0:0:0:
111,245,108991,1,12,0:0:0:0:
159,24,109128,6,0,L|173:206,1,157.5,2|0,0:0|0:0,0:0:0:0:
235,225,109401,2,0,L|223:370,1,105,2|6,0:0|0:0,0:0:0:0:
296,376,109673,1,8,0:0:0:0:
296,376,109741,1,0,0:0:0:0:
296,376,109810,1,4,0:0:0:0:
365,329,109946,1,2,0:0:0:0:
444,356,110082,5,12,0:0:0:0:
501,69,110219,1,2,0:0:0:0:
214,12,110355,1,4,0:0:0:0:
157,299,110491,1,2,0:0:0:0:
231,260,110628,1,12,0:0:0:0:
309,288,110764,2,0,L|299:345,1,52.5,2|0,0:0|0:0,0:0:0:0:
307,271,110901,6,0,P|375:275|433:232,1,105,6|0,0:0|0:0,0:0:0:0:
477,304,111173,1,12,0:0:0:0:
245,101,111310,1,0,0:0:0:0:
299,37,111446,2,0,B|410:14|395:96|512:66,1,210,6|6,0:0|0:0,0:0:0:0:
334,220,111855,6,0,L|321:106,1,105,8|4,0:0|0:0,0:0:0:0:
501,220,112128,2,0,L|514:334,1,105,2|12,0:0|0:0,0:0:0:0:
442,370,112401,1,0,0:0:0:0:
442,370,112469,1,0,0:0:0:0:
442,370,112537,1,6,0:0:0:0:
364,338,112673,1,8,0:0:0:0:
284,365,112810,1,6,0:0:0:0:
204,338,112946,1,8,0:0:0:0:
282,55,113082,5,6,0:3:0:0:
360,25,113219,1,8,0:0:0:0:
346,107,113355,1,8,0:0:0:0:
273,49,113491,5,6,0:1:0:0:
429,57,113628,1,0,0:0:0:0:
340,188,113764,1,8,0:0:0:0:
267,43,113901,5,6,0:3:0:0:
474,152,114037,1,8,0:0:0:0:
268,274,114173,1,0,0:0:0:0:
262,39,114310,5,12,0:1:0:0:
431,262,114446,1,0,0:0:0:0:
145,289,114582,1,8,0:0:0:0:
255,33,114719,5,14,0:3:0:0:
324,359,114855,1,0,0:0:0:0:
1,244,114991,1,8,0:0:0:0:
23,162,115128,5,14,0:1:0:0:
256,192,115401,1,2,0:0:0:0:
489,222,115673,1,6,0:3:0:0:
511,140,115946,5,2,0:0:0:0:
392,52,116082,1,2,0:0:0:0:
340,120,116219,1,2,0:0:0:0:
256,104,116355,1,2,0:0:0:0:
192,232,116491,1,2,0:0:0:0:
84,140,116628,1,2,0:0:0:0:
44,284,116764,1,2,0:0:0:0:
112,216,116900,5,2,0:0:0:0:
108,224,117037,1,2,0:0:0:0:
104,232,117173,1,2,0:0:0:0:
140,304,117310,5,2,0:0:0:0:
412,184,117582,1,2,0:0:0:0:
128,132,117855,5,2,0:0:0:0:
126,122,117923,1,2,0:0:0:0:
125,113,117991,1,2,0:0:0:0:
40,136,118128,1,2,0:0:0:0:
212,164,118264,1,2,0:0:0:0:
80,208,118400,5,2,0:0:0:0:
204,80,118537,1,2,0:0:0:0:
312,164,118673,1,2,0:0:0:0:
404,104,118810,1,2,0:0:0:0:
477,149,118946,1,2,0:0:0:0:
487,147,119014,1,2,0:0:0:0:
496,144,119082,5,2,0:0:0:0:
504,224,119219,1,2,0:0:0:0:
432,256,119355,1,2,0:0:0:0:
423,253,119423,1,2,0:0:0:0:
413,251,119492,1,2,0:0:0:0:
432,256,119764,5,2,0:0:0:0:
328,380,119900,1,2,0:0:0:0:
244,176,120037,6,0,L|236:232,1,52.5,2|0,0:0|0:0,0:0:0:0:
260,304,120446,5,2,0:0:0:0:
128,228,120582,1,2,0:0:0:0:
60,276,120719,5,2,0:0:0:0:
320,220,120855,1,2,0:0:0:0:
132,144,120991,1,2,0:0:0:0:
200,48,121128,6,0,L|206:100,1,52.5,2|0,0:0|0:0,0:0:0:0:
284,68,121537,5,2,0:0:0:0:
120,104,121673,1,2,0:0:0:0:
118,96,121741,1,2,0:0:0:0:
115,89,121810,1,2,0:0:0:0:
124,8,121946,1,2,0:0:0:0:
36,124,122082,1,2,0:0:0:0:
140,220,122219,1,2,0:0:0:0:
76,316,122355,5,2,0:0:0:0:
160,332,122491,1,2,0:0:0:0:
244,348,122628,1,2,0:0:0:0:
328,157,122764,5,2,0:0:0:0:
344,241,122900,1,2,0:0:0:0:
360,325,123037,1,2,0:0:0:0:
52,224,123173,5,2,0:0:0:0:
136,240,123309,1,2,0:0:0:0:
220,256,123446,1,2,0:0:0:0:
396,60,123582,5,2,0:0:0:0:
412,144,123718,1,2,0:0:0:0:
428,228,123855,1,2,0:0:0:0:
64,128,123991,5,2,0:0:0:0:
98,135,124082,5,2,0:0:0:0:
131,140,124173,5,2,0:0:0:0:
165,148,124264,5,2,0:0:0:0:
200,154,124355,5,2,0:0:0:0:
232,160,124446,5,2,0:0:0:0:
256,192,124537,5,6,0:3:0:0:
328,157,124673,1,2,0:0:0:0:
400,192,124810,1,12,0:0:0:0:
470,153,124946,1,2,0:0:0:0:
256,192,125082,5,4,0:0:0:0:
184,157,125219,1,2,0:0:0:0:
112,192,125355,1,4,0:0:0:0:
42,153,125491,1,8,0:0:0:0:
42,153,125560,1,0,0:0:0:0:
42,153,125628,6,0,P|26:101|39:64,1,89.2500017023087,4|2,0:0|0:0,0:0:0:0:
100,20,125900,1,12,0:0:0:0:
181,235,126037,2,0,B|197:278|197:278|179:317,1,89.2500017023087,2|4,0:0|0:0,0:0:0:0:
124,377,126310,1,2,0:0:0:0:
151,207,126446,2,0,P|193:227|245:220,1,89.2500017023087,12|2,0:0|0:0,0:0:0:0:
243,220,126650,1,0,0:0:0:0:
250,215,126719,6,0,L|362:199,1,89.2500017023087,6|0,0:0|0:0,0:0:0:0:
408,242,126991,1,12,0:0:0:0:
512,69,127128,6,0,L|400:85,1,89.2500017023087,2|4,0:0|0:0,0:0:0:0:
352,43,127400,1,2,0:0:0:0:
309,111,127537,1,4,0:0:0:0:
492,238,127673,1,8,0:0:0:0:
492,238,127741,1,0,0:0:0:0:
492,238,127810,6,0,L|483:331,1,89.2500017023087,4|2,0:0|0:0,0:0:0:0:
414,368,128082,1,12,0:0:0:0:
269,290,128219,2,0,P|205:273|119:313,1,133.875002553463,2|0,0:0|0:0,0:0:0:0:
117,281,128491,1,0,0:0:0:0:
48,323,128628,1,8,0:0:0:0:
0,111,128764,6,0,P|-7:46|90:33,1,178.500003404617,6|2,0:1|0:0,0:0:0:0:
92,109,129173,2,0,L|219:99,1,89.2500017023087,12|2,0:0|0:0,0:0:0:0:
234,162,129446,1,6,0:0:0:0:
434,36,129582,1,8,0:0:0:0:
359,6,129719,1,4,0:0:0:0:
403,162,129855,6,0,B|418:237|342:246|366:340,1,178.500003404617,6|2,0:1|0:0,0:0:0:0:
433,370,130264,2,0,P|480:345|491:303,1,89.2500017023087,12|2,0:0|0:0,0:0:0:0:
499,302,130469,1,0,0:0:0:0:
499,302,130537,1,6,0:0:0:0:
288,358,130673,1,8,0:0:0:0:
227,305,130810,1,6,0:0:0:0:
268,236,130946,1,8,0:0:0:0:
181,83,131082,6,0,P|129:23|34:37,1,178.500003404617,6|12,0:3|0:0,0:0:0:0:
0,105,131491,1,2,0:0:0:0:
73,137,131628,1,4,0:0:0:0:
21,198,131764,1,2,0:0:0:0:
81,251,131900,2,0,L|63:362,1,89.2500017023087,4|8,0:0|0:0,0:0:0:0:
220,154,132173,5,4,0:0:0:0:
200,75,132310,1,2,0:0:0:0:
266,30,132446,1,12,0:0:0:0:
341,58,132582,2,0,L|472:49,1,89.2500017023087,2|4,0:0|0:0,0:0:0:0:
292,175,132855,2,0,L|161:184,1,89.2500017023087,2|12,0:0|0:0,0:0:0:0:
136,134,133128,1,2,0:0:0:0:
366,143,133264,6,0,P|307:220|349:323,1,178.500003404617,6|12,0:0|0:0,0:0:0:0:
367,360,133673,1,2,0:0:0:0:
441,327,133810,1,4,0:0:0:0:
399,258,133946,1,2,0:0:0:0:
472,224,134082,2,0,L|487:135,1,89.2500017023087,4|8,0:0|0:0,0:0:0:0:
362,25,134355,5,4,0:0:0:0:
291,64,134491,1,2,0:0:0:0:
218,30,134628,1,12,0:0:0:0:
147,67,134764,1,2,0:0:0:0:
0,33,134900,2,0,L|23:205,1,133.875002553463,6|0,0:0|0:0,0:0:0:0:
36,180,135173,1,8,0:0:0:0:
0,356,135310,6,0,P|40:322|179:341,1,178.500003404617,6|2,0:1|0:0,0:0:0:0:
334,234,135719,1,12,0:0:0:0:
407,265,135855,1,2,0:0:0:0:
480,232,135991,1,6,0:0:0:0:
308,151,136128,2,0,L|286:42,1,89.2500017023087,8|0,0:0|0:0,0:0:0:0:
111,13,136400,6,0,P|31:40|20:125,1,178.500003404617,6|2,0:1|0:0,0:0:0:0:
5,203,136810,1,12,0:0:0:0:
80,176,136946,1,2,0:0:0:0:
83,172,137014,1,0,0:0:0:0:
86,168,137082,1,6,0:0:0:0:
146,220,137219,1,8,0:0:0:0:
224,201,137355,2,0,L|336:180,1,89.2500017023087,6|8,0:0|0:0,0:0:0:0:
327,190,137560,1,0,0:0:0:0:
327,190,137628,5,6,0:3:0:0:
393,233,137764,1,2,0:0:0:0:
375,311,137900,1,12,0:0:0:0:
437,360,138037,2,0,P|478:346|477:217,1,178.500003404617,2|2,0:0|0:0,0:0:0:0:
436,167,138446,1,4,0:0:0:0:
512,32,138582,6,0,L|368:28,1,133.875002553463,8|0,0:0|0:0,0:0:0:0:
366,40,138855,2,0,L|239:36,1,89.2500017023087,2|12,0:0|0:0,0:0:0:0:
121,13,139128,1,2,0:0:0:0:
177,70,139264,1,12,0:0:0:0:
155,147,139400,2,0,L|146:243,1,89.2500017023087,10|0,0:0|0:0,0:0:0:0:
12,352,139673,6,0,L|192:326,1,178.500003404617,6|2,0:1|0:0,0:0:0:0:
262,361,140082,1,12,0:0:0:0:
297,289,140219,1,2,0:0:0:0:
263,19,140355,5,4,0:0:0:0:
222,88,140491,1,2,0:0:0:0:
277,145,140628,1,4,0:0:0:0:
247,219,140764,1,8,0:0:0:0:
424,346,140900,5,4,0:0:0:0:
485,294,141037,2,0,P|502:251|483:202,1,89.2500017023087,2|12,0:0|0:0,0:0:0:0:
461,136,141310,1,2,0:0:0:0:
263,19,141446,5,4,0:0:0:0:
202,71,141582,2,0,P|185:114|204:163,1,89.2500017023087,2|12,0:0|0:0,0:0:0:0:
247,219,141855,1,2,0:0:0:0:
15,345,141991,5,6,0:3:0:0:
83,303,142128,1,2,0:0:0:0:
150,345,142264,1,12,0:0:0:0:
219,303,142400,2,0,L|417:285,1,178.500003404617,2|2,0:0|0:0,0:0:0:0:
463,332,142810,1,4,0:0:0:0:
508,128,142946,1,2,0:0:0:0:
471,56,143082,5,4,0:1:0:0:
212,217,143219,1,2,0:0:0:0:
451,37,143355,5,12,0:0:0:0:
291,224,143491,1,2,0:0:0:0:
431,16,143628,5,12,0:0:0:0:
371,183,143764,1,10,0:0:0:0:
391,8,143900,5,12,0:0:0:0:
408,107,144037,1,8,0:0:0:0:
425,206,144173,5,8,0:0:0:0:
436,212,144446,1,8,0:0:0:0:
447,218,144719,1,8,0:0:0:0:
458,224,144991,1,8,0:0:0:0:
469,230,145264,5,0,0:0:0:0:
256,192,152764,12,0,153310,0:0:0:0:
383,60,153446,5,8,0:1:0:0:
372,79,153514,1,8,0:1:0:0:
378,100,153582,1,8,0:1:0:0:
372,121,153650,1,8,0:1:0:0:
380,141,153719,1,8,0:1:0:0:
370,160,153787,1,8,0:1:0:0:
378,180,153855,1,8,0:1:0:0:
371,201,153923,1,8,0:1:0:0:
448,233,153991,6,0,L|291:252,1,157.5,6|0,0:3|0:0,0:0:0:0:
230,308,154264,2,0,L|125:295,1,105,12|2,0:0|0:0,0:0:0:0:
58,345,154537,1,4,0:0:0:0:
245,176,154673,1,10,0:0:0:0:
6,99,154810,1,6,0:0:0:0:
131,368,154946,6,0,L|108:201,1,157.5,8|0,0:0|0:0,0:0:0:0:
166,151,155219,2,0,L|182:30,1,105,2|12,0:0|0:0,0:0:0:0:
107,4,155491,1,2,0:0:0:0:
107,4,155560,1,0,0:0:0:0:
107,4,155628,1,6,0:0:0:0:
245,176,155764,5,2,0:0:0:0:
325,200,155900,1,12,0:0:0:0:
384,141,156037,1,0,0:0:0:0:
189,235,156173,5,6,0:0:0:0:
109,211,156310,1,2,0:0:0:0:
50,270,156446,1,12,0:0:0:0:
304,356,156582,6,0,L|326:189,1,157.5,2|0,0:0|0:0,0:0:0:0:
265,154,156855,2,0,L|245:3,1,105,2|6,0:0|0:0,0:0:0:0:
321,2,157128,1,8,0:0:0:0:
321,2,157196,1,0,0:0:0:0:
321,2,157264,5,4,0:0:0:0:
400,30,157400,1,2,0:0:0:0:
480,5,157537,1,12,0:0:0:0:
511,263,157673,1,2,0:0:0:0:
253,294,157810,1,6,0:0:0:0:
222,36,157946,5,0,0:0:0:0:
139,18,158082,1,12,0:0:0:0:
67,61,158219,2,0,L|2:57,1,52.5
80,52,158355,6,0,B|70:144|70:144|60:171|60:171|52:263,1,210,6|12,0:0|0:0,0:0:0:0:
271,371,158764,2,0,B|280:278|280:278|290:251|290:251|298:159,1,210,2|2,0:0|0:0,0:0:0:0:
355,103,159173,1,6,0:0:0:0:
355,103,159241,1,0,0:0:0:0:
355,103,159310,2,0,P|395:71|444:83,1,105,8|4,0:0|0:0,0:0:0:0:
506,141,159582,1,2,0:0:0:0:
269,84,159719,1,12,0:0:0:0:
269,84,159787,1,0,0:0:0:0:
269,84,159855,2,0,L|133:78,1,105,2|6,0:0|0:0,0:0:0:0:
105,18,160128,5,2,0:0:0:0:
298,163,160264,1,12,0:0:0:0:
75,257,160400,1,0,0:0:0:0:
21,328,160537,5,6,0:0:0:0:
0,51,160673,1,2,0:0:0:0:
277,30,160810,1,12,0:0:0:0:
298,307,160946,1,2,0:0:0:0:
365,357,161082,2,0,L|477:332,1,105,6|8,0:0|0:0,0:0:0:0:
494,254,161355,1,6,0:0:0:0:
494,254,161423,1,0,0:0:0:0:
494,254,161491,6,0,P|508:183|395:132,1,210,8|2,0:0|0:0,0:0:0:0:
212,36,161900,2,0,L|334:23,1,105,12|0,0:0|0:0,0:0:0:0:
423,211,162173,2,0,L|301:224,1,105,6|2,0:0|0:0,0:0:0:0:
256,164,162446,1,6,0:0:0:0:
60,336,162582,1,8,0:0:0:0:
60,336,162650,1,0,0:0:0:0:
60,336,162719,6,0,P|117:278|64:159,1,210,6|12,0:0|0:0,0:0:0:0:
3,127,163128,2,0,P|80:138|145:85,1,157.5,2|0,0:0|0:0,0:0:0:0:
213,83,163400,2,0,P|269:59|316:76,1,105,10|6,0:0|0:0,0:0:0:0:
370,13,163673,1,8,0:0:0:0:
318,222,163810,1,4,0:0:0:0:
318,222,163878,1,0,0:0:0:0:
318,222,163946,1,2,0:0:0:0:
473,372,164082,1,12,0:0:0:0:
434,297,164219,2,0,L|446:186,1,105,2|6,0:0|0:0,0:0:0:0:
264,0,164491,5,0,0:0:0:0:
245,81,164628,1,12,0:0:0:0:
308,135,164764,1,0,0:0:0:0:
434,297,164900,5,6,0:0:0:0:
453,216,165037,1,2,0:0:0:0:
390,162,165173,1,12,0:0:0:0:
193,364,165310,2,0,P|138:329|151:231,1,157.5,2|0,0:0|0:0,0:0:0:0:
196,182,165582,2,0,P|206:131|184:84,1,105,2|6,0:0|0:0,0:0:0:0:
124,26,165855,1,8,0:0:0:0:
124,26,165923,1,0,0:0:0:0:
124,26,165991,5,4,0:0:0:0:
86,100,166128,1,2,0:0:0:0:
3,84,166264,1,12,0:0:0:0:
69,353,166400,1,2,0:0:0:0:
338,287,166537,1,6,0:0:0:0:
272,18,166673,5,0,0:0:0:0:
241,96,166810,1,12,0:0:0:0:
283,168,166946,2,0,L|273:238,1,52.5,0|0,0:0|0:0,0:0:0:0:
276,156,167082,6,0,P|388:160|493:97,1,210,6|12,0:0|0:0,0:0:0:0:
338,287,167491,2,0,P|226:283|121:346,1,210,2|2,0:0|0:0,0:0:0:0:
72,375,167900,1,4,0:0:0:0:
72,375,167969,1,0,0:0:0:0:
72,375,168037,2,0,P|96:319|50:254,1,105,8|4,0:0|0:0,0:0:0:0:
22,220,168310,1,2,0:0:0:0:
169,33,168446,1,12,0:0:0:0:
169,33,168514,1,0,0:0:0:0:
169,33,168582,2,0,L|158:157,1,105,2|6,0:0|0:0,0:0:0:0:
107,203,168855,5,0,0:0:0:0:
313,163,168991,1,12,0:0:0:0:
359,366,169128,1,0,0:0:0:0:
439,351,169264,5,6,0:0:0:0:
504,91,169400,1,2,0:0:0:0:
244,26,169537,1,12,0:0:0:0:
179,286,169673,1,2,0:0:0:0:
126,351,169810,2,0,L|4:367,1,105,6|8,0:0|0:0,0:0:0:0:
150,207,170082,1,6,0:0:0:0:
150,207,170150,1,0,0:0:0:0:
150,207,170219,2,0,L|376:227,1,210,8|8,0:0|0:0,0:0:0:0:
469,358,170628,5,6,0:0:0:0:
501,280,170764,1,8,0:0:0:0:
443,217,170900,1,6,0:0:0:0:
333,84,171037,5,8,0:0:0:0:
301,162,171173,1,6,0:0:0:0:
359,225,171310,1,8,0:0:0:0:
412,56,171446,6,0,B|313:56|311:21|206:21,1,210,6|12,0:3|0:0,0:0:0:0:
141,75,171855,1,2,0:0:0:0:
0,23,171991,2,0,L|24:198,1,157.5,4|0,0:0|0:0,0:0:0:0:
91,221,172264,2,0,L|76:326,1,105,6|8,0:0|0:0,0:0:0:0:
6,371,172537,1,4,0:0:0:0:
143,155,172673,1,2,0:0:0:0:
261,381,172810,1,12,0:0:0:0:
512,361,172946,6,0,L|488:186,1,157.5,2|0,0:0|0:0,0:0:0:0:
421,163,173219,2,0,L|436:58,1,105,2|12,0:0|0:0,0:0:0:0:
506,13,173491,1,0,0:0:0:0:
506,13,173560,1,0,0:0:0:0:
506,13,173628,1,6,0:0:0:0:
419,243,173764,5,2,0:0:0:0:
421,327,173900,1,12,0:0:0:0:
349,371,174037,1,2,0:0:0:0:
101,258,174173,5,4,0:0:0:0:
177,222,174310,1,2,0:0:0:0:
256,252,174446,1,6,0:0:0:0:
272,336,174582,1,8,0:0:0:0:
23,227,174719,5,4,0:0:0:0:
6,144,174855,1,2,0:0:0:0:
74,94,174991,1,12,0:0:0:0:
30,22,175128,1,2,0:0:0:0:
306,128,175264,5,6,0:0:0:0:
228,89,175400,1,0,0:0:0:0:
160,139,175537,1,12,0:0:0:0:
177,222,175673,1,0,0:0:0:0:
402,327,175810,6,0,B|299:320|303:368|178:355,1,210,6|12,0:0|0:0,0:0:0:0:
133,299,176219,1,2,0:0:0:0:
474,353,176355,2,0,P|416:290|433:212,1,157.5,4|0,0:0|0:0,0:0:0:0:
462,203,176628,1,4,0:0:0:0:
236,9,176764,2,0,B|261:179,1,157.5,8|0,0:0|0:0,0:0:0:0:
318,222,177037,2,0,B|295:375,1,105,2|12,0:0|0:0,0:0:0:0:
236,378,177310,1,2,0:0:0:0:
236,378,177378,1,0,0:0:0:0:
236,378,177446,1,6,0:0:0:0:
161,138,177582,5,2,0:0:0:0:
84,104,177719,1,12,0:0:0:0:
21,160,177855,2,0,L|-1:46,1,105,0|6,0:0|0:0,0:0:0:0:
176,225,178128,2,0,L|154:339,1,105,2|12,0:0|0:0,0:0:0:0:
83,371,178400,1,2,0:0:0:0:
245,169,178537,5,4,0:0:0:0:
228,86,178673,1,2,0:0:0:0:
283,22,178810,1,4,0:0:0:0:
317,210,178946,5,8,0:0:0:0:
317,210,179014,1,0,0:0:0:0:
317,210,179082,1,4,0:0:0:0:
161,138,179219,1,2,0:0:0:0:
89,294,179355,1,12,0:0:0:0:
245,366,179491,1,2,0:0:0:0:
245,366,179560,1,0,0:0:0:0:
245,366,179628,5,6,0:0:0:0:
316,322,179764,1,8,0:0:0:0:
390,362,179900,1,6,0:0:0:0:
461,319,180037,2,0,L|533:304,1,52.5,8|0,0:0|0:0,0:0:0:0:
446,309,180173,6,0,B|473:189|406:221|432:96,1,210,6|12,0:3|0:0,0:0:0:0:
486,40,180582,1,2,0:0:0:0:
215,0,180719,2,0,L|242:199,1,157.5,4|0,0:0|0:0,0:0:0:0:
293,211,180991,2,0,L|274:350,1,105,6|8,0:0|0:0,0:0:0:0:
211,365,181264,1,4,0:0:0:0:
211,365,181332,1,0,0:0:0:0:
211,365,181400,1,2,0:0:0:0:
61,160,181537,1,12,0:0:0:0:
314,132,181673,1,2,0:0:0:0:
53,353,181810,6,0,P|0:300|14:226,1,157.5,6|0,0:0|0:0,0:0:0:0:
18,197,182082,1,12,0:0:0:0:
15,168,182150,1,0,0:0:0:0:
11,138,182219,1,0,0:0:0:0:
7,108,182287,1,0,0:0:0:0:
3,79,182355,1,6,0:0:0:0:
256,10,182491,5,2,0:0:0:0:
256,10,182560,1,0,0:0:0:0:
256,10,182628,1,12,0:0:0:0:
215,70,182764,1,2,0:0:0:0:
215,70,182832,1,0,0:0:0:0:
215,70,182900,1,4,0:0:0:0:
252,133,183037,1,2,0:0:0:0:
220,199,183173,2,0,L|234:314,1,105,6|8,0:0|0:0,0:0:0:0:
180,355,183446,5,4,0:0:0:0:
338,244,183582,1,2,0:0:0:0:
488,363,183719,1,12,0:0:0:0:
445,303,183855,1,2,0:0:0:0:
445,303,183923,1,0,0:0:0:0:
445,303,183991,5,6,0:0:0:0:
504,60,184128,1,0,0:0:0:0:
261,1,184264,1,12,0:0:0:0:
202,244,184400,1,0,0:0:0:0:
16,359,184537,5,6,0:0:0:0:
16,359,184673,2,0,L|153:343,1,105,2|12,0:0|0:0,0:0:0:0:
268,192,184946,2,0,L|445:212,1,157.5,2|0,0:0|0:0,0:0:0:0:
480,160,185219,2,0,P|508:114|491:60,1,105,2|4,0:0|0:0,0:0:0:0:
444,0,185491,5,8,0:0:0:0:
378,52,185628,1,4,0:0:0:0:
302,16,185764,1,2,0:0:0:0:
68,0,185900,5,12,0:0:0:0:
134,52,186037,1,2,0:0:0:0:
210,16,186173,1,6,0:0:0:0:
256,87,186310,1,8,0:0:0:0:
199,148,186446,2,0,P|154:134|74:134,1,105,12|8,0:0|0:0,0:0:0:0:
397,258,186719,5,6,0:3:0:0:
471,219,186855,1,8,0:0:0:0:
399,174,186991,1,8,0:0:0:0:
401,276,187128,5,6,0:1:0:0:
478,172,187264,1,0,0:0:0:0:
348,157,187400,1,8,0:0:0:0:
405,289,187537,5,6,0:3:0:0:
442,98,187673,1,8,0:0:0:0:
256,160,187810,1,0,0:0:0:0:
409,301,187946,5,14,0:1:0:0:
341,36,188082,1,0,0:0:0:0:
142,225,188219,1,8,0:0:0:0:
260,279,188355,5,14,0:3:0:0:
195,28,188491,1,8,0:0:0:0:
8,204,188628,1,8,0:0:0:0:
258,286,188764,5,6,0:1:0:0:
297,73,188900,1,8,0:0:0:0:
93,140,189037,1,2,0:0:0:0:
255,293,189173,5,4,0:3:0:0:
341,171,189310,1,8,0:0:0:0:
194,153,189446,1,8,0:0:0:0:
254,301,189582,5,6,0:1:0:0:
330,257,189719,1,8,0:0:0:0:
256,211,189855,1,8,0:0:0:0:
338,348,189991,5,6,0:3:0:0:
256,92,190128,1,8,0:0:0:0:
174,348,190264,1,2,0:0:0:0:
174,36,190400,5,12,0:1:0:0:
256,292,190537,1,8,0:0:0:0:
338,36,190673,1,8,0:0:0:0:
408,348,190810,5,6,0:3:0:0:
256,92,190946,1,8,0:0:0:0:
103,348,191082,1,0,0:0:0:0:
408,36,191219,5,14,0:1:0:0:
256,292,191355,1,8,0:0:0:0:
103,36,191491,1,8,0:0:0:0:
481,348,191628,5,12,0:3:0:0:
256,92,191764,1,2,0:0:0:0:
30,348,191900,1,0,0:0:0:0:
481,36,192037,5,14,0:1:0:0:
256,292,192173,1,0,0:0:0:0:
30,36,192310,1,8,0:0:0:0:
491,269,192446,5,6,0:3:0:0:
14,192,192582,1,8,0:0:0:0:
491,114,192719,1,8,0:0:0:0:
30,36,192855,5,14,0:1:0:0:
508,192,192991,1,8,0:0:0:0:
30,348,193128,1,8,0:0:0:0:
86,282,193264,6,0,B|282:249|229:394|439:350,1,367.49998878479,2|2,0:1|0:1,0:0:0:0:
457,340,194764,5,2,0:1:0:0:
489,292,194900,5,2,0:1:0:0:
497,219,195037,5,2,0:1:0:0:
467,144,195173,5,2,0:1:0:0:
393,103,195310,5,2,0:1:0:0:
305,113,195446,5,2,0:1:0:0:
245,188,195582,5,2,0:1:0:0:
167,256,195719,5,2,0:1:0:0:
61,223,195855,5,2,0:1:0:0:
11,116,195991,5,2,0:1:0:0:
98,11,196128,5,2,0:1:0:0:
340,203,196264,5,10,0:0:0:0:
393,261,196400,1,2,0:0:0:0:
375,337,196536,1,6,0:0:0:0:
299,358,196673,1,2,0:0:0:0:
307,127,196809,5,6,0:0:0:0:
325,51,196945,1,2,0:0:0:0:
401,30,197082,1,6,0:0:0:0:
470,200,197218,6,0,B|469:172|469:172|474:165|474:165|468:160|468:160|463:75,1,118.125004506111,2|0,0:0|0:0,0:0:0:0:
402,243,197491,6,0,B|399:288|399:288|404:300|404:300|396:315|396:315|393:381,1,133.875002553463,2|0,0:0|0:0,0:0:0:0:
318,163,197764,6,0,B|315:109|315:109|320:95|320:95|311:77|311:77|307:-1,1,149.624996004582,2|0,0:0|0:0,0:0:0:0:
246,277,198036,6,0,B|241:289|241:289|248:289|248:289|241:297|241:297|248:298|248:298|240:306|240:306|247:306|247:306|239:314|239:314|246:315|246:315|239:323|239:323|246:323|246:323|238:331|238:331|245:331|245:331|241:340,1,118.124996395111,2|0,0:0|0:0,0:0:0:0:
172,181,198445,5,6,0:0:0:0:
119,123,198582,1,2,0:0:0:0:
137,47,198718,1,6,0:0:0:0:
213,26,198854,1,2,0:0:0:0:
205,257,198991,5,6,0:0:0:0:
187,333,199127,1,2,0:0:0:0:
111,354,199264,1,6,0:0:0:0:
51,166,199400,6,0,B|52:194|52:194|47:201|47:201|53:206|53:206|58:291,1,118.125004506111,2|0,0:0|0:0,0:0:0:0:
119,123,199673,6,0,B|122:78|122:78|117:66|117:66|125:51|125:51|128:-15,1,133.875002553463,2|0,0:0|0:0,0:0:0:0:
203,203,199945,6,0,B|206:257|206:257|201:271|201:271|210:289|210:289|214:367,1,149.624996004582,2|0,0:0|0:0,0:0:0:0:
275,89,200218,6,0,B|280:77|280:77|273:77|273:77|280:69|280:69|273:68|273:68|281:60|281:60|274:60|274:60|282:52|282:52|275:51|275:51|282:43|282:43|275:43|275:43|283:35|283:35|276:35|276:35|280:26,1,118.124996395111,2|0,0:0|0:0,0:0:0:0:
501,192,200627,5,6,0:0:0:0:
435,235,200764,1,2,0:0:0:0:
367,192,200900,1,6,0:0:0:0:
304,239,201036,1,2,0:0:0:0:
158,153,201173,5,6,0:0:0:0:
226,110,201309,1,2,0:0:0:0:
289,157,201445,1,6,0:0:0:0:
188,330,201582,6,0,B|148:326|148:326|120:339|120:339|58:332,1,118.125004506111,2|0,0:0|0:0,0:0:0:0:
235,265,201854,6,0,B|274:261|274:261|302:274|302:274|364:267,1,133.875002553463,2|0,0:0|0:0,0:0:0:0:
158,201,202127,6,0,B|107:205|107:205|70:188|70:188|-10:197,1,149.624996004582,2|0,0:0|0:0,0:0:0:0:
252,129,202400,6,0,B|265:127|265:127|268:118|268:118|278:126|278:126|282:117|282:117|291:125|291:125|295:116|295:116|304:124|304:124|308:115|308:115|318:123|318:123|322:115|322:115|334:112,1,118.124996395111,2|0,0:0|0:0,0:0:0:0:
420,23,202809,5,6,0:0:0:0:
467,85,202945,1,2,0:0:0:0:
405,132,203082,1,6,0:0:0:0:
453,194,203218,1,2,0:0:0:0:
365,368,203354,5,6,0:0:0:0:
336,296,203491,1,2,0:0:0:0:
385,234,203627,1,6,0:0:0:0:
170,364,203764,6,0,L|288:376,1,118.125004506111,2|0,0:0|0:0,0:0:0:0:
146,291,204036,6,0,B|84:267|73:314|-4:282,1,133.875002553463,2|0,0:0|0:0,0:0:0:0:
238,240,204309,6,0,B|299:216|310:263|388:231,1,149.624996004582,2|0,0:0|0:0,0:0:0:0:
167,155,204582,6,0,P|103:134|92:73,1,118.124996395111,2|0,0:0|0:0,0:0:0:0:
340,181,204991,5,10,0:0:0:0:
393,123,205127,1,2,0:0:0:0:
375,47,205264,1,6,0:0:0:0:
299,26,205400,1,2,0:0:0:0:
307,257,205536,5,6,0:0:0:0:
325,333,205673,1,2,0:0:0:0:
401,354,205809,1,6,0:0:0:0:
461,166,205945,6,0,B|460:194|460:194|465:201|465:201|459:206|459:206|454:291,1,118.125004506111,2|0,0:0|0:0,0:0:0:0:
393,123,206218,6,0,B|390:78|390:78|395:66|395:66|387:51|387:51|384:-15,1,133.875002553463,2|0,0:0|0:0,0:0:0:0:
309,203,206491,6,0,B|306:257|306:257|311:271|311:271|302:289|302:289|298:367,1,149.624996004582,2|0,0:0|0:0,0:0:0:0:
237,89,206764,6,0,B|232:77|232:77|239:77|239:77|232:69|232:69|239:68|239:68|231:60|231:60|238:60|238:60|230:52|230:52|237:51|237:51|230:43|230:43|237:43|237:43|229:35|229:35|236:35|236:35|232:26,1,118.124996395111,2|0,0:0|0:0,0:0:0:0:
172,203,207173,5,6,0:0:0:0:
119,261,207309,1,2,0:0:0:0:
137,337,207445,1,6,0:0:0:0:
213,358,207582,1,2,0:0:0:0:
205,127,207718,5,6,0:0:0:0:
187,51,207854,1,2,0:0:0:0:
111,30,207991,1,6,0:0:0:0:
41,192,208127,6,0,B|42:164|42:164|37:157|37:157|43:152|43:152|48:67,1,118.125004506111,2|0,0:0|0:0,0:0:0:0:
109,235,208400,6,0,B|112:280|112:280|107:292|107:292|115:307|115:307|118:373,1,133.875002553463,2|0,0:0|0:0,0:0:0:0:
193,155,208673,6,0,B|196:101|196:101|191:87|191:87|200:69|200:69|204:-9,1,149.624996004582,2|0,0:0|0:0,0:0:0:0:
265,269,208945,6,0,B|270:281|270:281|263:281|263:281|270:289|270:289|263:290|263:290|271:298|271:298|264:298|264:298|272:306|272:306|265:307|265:307|272:315|272:315|265:315|265:315|273:323|273:323|266:323|266:323|270:332,1,118.124996395111,2|0,0:0|0:0,0:0:0:0:
501,192,209354,5,6,0:0:0:0:
435,149,209491,1,2,0:0:0:0:
367,192,209627,1,6,0:0:0:0:
304,145,209764,1,2,0:0:0:0:
158,231,209900,5,6,0:0:0:0:
226,274,210036,1,2,0:0:0:0:
289,227,210173,1,6,0:0:0:0:
188,54,210309,6,0,B|148:57|148:57|120:44|120:44|58:51,1,118.125004506111,2|0,0:0|0:0,0:0:0:0:
235,119,210582,6,0,B|274:122|274:122|302:109|302:109|364:116,1,133.875002553463,2|0,0:0|0:0,0:0:0:0:
158,183,210854,6,0,B|107:178|107:178|70:195|70:195|-10:186,1,149.624996004582,2|0,0:0|0:0,0:0:0:0:
252,255,211127,6,0,B|265:256|265:256|268:265|268:265|278:257|278:257|282:266|282:266|291:258|291:258|295:267|295:267|304:259|304:259|308:268|308:268|318:260|318:260|322:268|322:268|334:271,1,118.124996395111,2|0,0:0|0:0,0:0:0:0:
391,319,211536,6,0,P|442:318|474:279,1,78.7500030040742,2|2,0:1|0:1,0:1:0:0:
503,234,211809,2,0,P|476:190|426:182,1,78.7500030040742,2|2,0:1|0:1,0:1:0:0:
374,180,212082,2,0,P|349:224|367:271,2,78.7500030040742,2|2|2,0:1|0:1|0:1,0:1:0:0:
417,113,212491,2,0,P|343:153|248:137,1,157.500006008148,2|2,0:1|0:1,0:1:0:0:
177,21,213036,2,0,L|277:16,1,78.7500030040742,2|0,0:1|0:1,0:1:0:0:
163,12,213309,2,0,P|62:23|36:170,1,236.250009012223,2|0,0:1|0:1,0:1:0:0:
