osu file format v14

[General]
AudioFilename: audio.mp3
AudioLeadIn: 0
PreviewTime: 44900
Countdown: 0
SampleSet: Soft
StackLeniency: 0.7
Mode: 0
LetterboxInBreaks: 0
WidescreenStoryboard: 1

[Editor]
Bookmarks: 2995,12814,30268,47723,56450,62995,65723,83177,100632,115905,118495,127359,133905,148086,156814,174268,189541,192814,199086,216541
DistanceSpacing: 1.1
BeatDivisor: 4
GridSize: 16
TimelineZoom: 2.2

[Metadata]
Title:Hisekai Harmonize feat. Kagamine Rin
TitleUnicode:否世界ハーモナイゼ feat. 鏡音リン
Artist:sasakure.UK
ArtistUnicode:sasakure.UK
Creator:Enon
Version:Hard
Source:
Tags:幻実アイソーポス genjitsu The Fantastic Reality of aesop non-world GimBab 404 AimNotFound 404_AimNotFound Luscent Dailycare Morinaga Down supporter plz supporter_plz zzx jieusieu Novelty Japanese
BeatmapID:2087890
BeatmapSetID:934960

[Difficulty]
HPDrainRate:4
CircleSize:4
OverallDifficulty:6
ApproachRate:8
SliderMultiplier:1.4
SliderTickRate:1

[Events]
//Background and Video events
0,0,"BG.jpg",0,0
//Break Periods
2,10192,15787
2,18919,24514
2,62964,70878
2,78237,79605
2,115873,123787
2,145264,152696
//Storyboard Layer 0 (Background)
//Storyboard Layer 1 (Fail)
//Storyboard Layer 2 (Pass)
//Storyboard Layer 3 (Foreground)
//Storyboard Layer 4 (Overlay)
//Storyboard Sound Samples

[TimingPoints]
173,272.727272727273,4,2,0,60,1,0
173,-100,4,2,0,60,0,0
44900,-100,4,2,0,70,0,1
62901,272.727272727273,4,2,0,60,1,0
62901,-100,4,2,0,60,0,0
97810,-100,4,2,0,70,0,1
115673,-100,4,2,0,70,0,0
115810,272.727272727273,4,2,0,60,1,0
124537,-100,4,2,0,60,0,0
131083,-100,4,2,0,65,0,0
153991,-100,4,2,0,70,0,1
171378,-100,4,2,0,70,0,0
171446,-100,4,2,0,80,0,1
193264,-100,4,2,0,65,0,0
196264,272.727272727273,4,2,0,60,1,0

[Colours]
Combo1 : 43,183,213
Combo2 : 242,200,51
Combo3 : 247,91,211
Combo4 : 228,90,37
Combo5 : 185,227,153

[HitObjects]
478,154,173,6,0,P|488:186|473:217,1,70
444,288,446,2,0,P|410:281|391:252,1,70,2|0,0:0|0:0,0:0:0:0:
343,193,719,2,0,P|365:167|399:165,2,70,2|0|0,0:0|0:0|0:0,0:0:0:0:
281,146,1128,2,0,P|302:199|240:271,1,140,2|2,0:0|0:0,0:0:0:0:
142,363,1673,2,0,P|125:320|150:278,1,70,2|0,0:0|0:0,0:0:0:0:
176,236,1946,2,0,P|120:250|20:238,1,140,2|0,0:0|0:0,0:0:0:0:
52,167,2355,6,0,P|20:140|15:101,1,70,0|0,0:0|0:0,0:0:0:0:
11,36,2628,2,0,P|49:22|86:37,1,70,2|0,0:0|0:0,0:0:0:0:
143,65,2901,2,0,P|135:105|104:129,2,70,2|0|0,0:0|0:0|0:0,0:0:0:0:
211,28,3310,2,0,P|275:50|367:30,1,140,2|2,0:0|0:0,0:0:0:0:
474,125,3855,2,0,P|409:135|400:145,1,70,2|0,0:0|0:0,0:0:0:0:
331,130,4128,2,0,P|364:233|340:267,1,140,2|0,0:0|0:0,0:0:0:0:
418,295,4537,6,0,P|397:326|359:345,1,70,0|0,0:0|0:0,0:0:0:0:
301,378,4810,2,0,P|283:344|286:302,1,70,2|0,0:0|0:0,0:0:0:0:
287,235,5083,2,0,P|324:236|359:260,2,70,2|0|0,0:0|0:0|0:0,0:0:0:0:
217,269,5492,2,0,P|148:285|68:272,1,140,2|2,0:0|0:0,0:0:0:0:
9,139,6037,2,0,P|57:131|83:146,1,70,2|0,0:0|0:0,0:0:0:0:
139,182,6310,2,0,P|110:151|123:46,1,140,2|0,0:0|0:0,0:0:0:0:
183,26,6719,6,0,L|262:17,2,70,2|0|0,0:0|0:0|0:0,0:0:0:0:
113,58,7128,2,0,L|34:49,2,70,2|0|0,0:0|0:0|0:0,0:0:0:0:
176,102,7537,1,2,0:0:0:0:
256,192,7605,12,4,9992,0:0:0:0:
213,51,16537,6,0,P|259:59|281:87,1,70,2|0,0:0|0:0,0:0:0:0:
336,120,16810,2,0,P|307:156|271:161,1,70,8|0,0:0|0:0,0:0:0:0:
215,192,17083,2,0,P|198:148|212:115,2,70,8|0|0,0:0|0:0|0:0,0:0:0:0:
276,239,17492,2,0,L|105:228,1,140,8|8,0:0|0:0,0:0:0:0:
253,329,18037,2,0,L|339:323,1,70,8|0,0:0|0:0,0:0:0:0:
388,366,18310,2,0,P|360:320|407:239,1,140,8|0,0:0|0:0,0:0:0:0:
456,203,18719,5,6,0:0:0:0:
213,332,25264,6,0,P|259:324|281:296,1,70,2|0,0:0|0:0,0:0:0:0:
336,263,25537,2,0,P|307:227|271:222,1,70,8|0,0:0|0:0,0:0:0:0:
215,191,25810,2,0,P|198:235|212:268,2,70,8|0|0,0:0|0:0|0:0,0:0:0:0:
276,145,26219,2,0,L|105:156,1,140,8|8,0:0|0:0,0:0:0:0:
253,55,26764,2,0,L|339:60,1,70,8|0,0:0|0:0,0:0:0:0:
388,18,27037,2,0,P|360:64|407:145,1,140,8|0,0:0|0:0,0:0:0:0:
456,181,27446,5,6,0:0:0:0:
456,181,27719,2,0,P|474:226|457:330,1,140,0|0,0:0|1:0,0:0:0:0:
400,359,28128,1,0,0:0:0:0:
400,359,28264,2,0,L|323:353,1,70,0|0,1:0|0:0,0:0:0:0:
257,380,28537,2,0,P|285:342|263:249,1,140,2|0,0:0|1:0,0:0:0:0:
237,185,28946,2,0,P|216:120|249:60,1,140,0|0,0:0|0:0,0:0:0:0:
316,22,29355,1,0,1:0:0:0:
316,22,29628,6,0,P|225:45|167:38,1,140,0|0,1:0|0:0,0:0:0:0:
104,23,30037,1,2,0:0:0:0:
104,23,30173,2,0,L|112:111,1,70,0|0,0:0|0:0,0:0:0:0:
34,77,30446,2,0,L|42:165,1,70,2|0,0:0|0:0,0:0:0:0:
3,214,30719,2,0,P|58:188|157:216,1,140,0|0,1:0|1:0,0:0:0:0:
202,235,31128,2,0,P|269:248|333:220,1,140,2|2,0:0|0:0,0:0:0:0:
394,173,31537,2,0,L|411:89,1,70,0|0,1:0|0:0,0:0:0:0:
444,36,31810,6,0,P|477:26|511:32,2,70,0|0|0,1:0|0:0|0:0,0:0:0:0:
375,71,32219,2,0,P|341:80|307:74,1,70,0|0,1:0|0:0,0:0:0:0:
230,68,32492,2,0,P|220:34|226:0,2,70,0|0|0,0:0|1:0|0:0,0:0:0:0:
259,139,32901,2,0,L|242:281,1,140,0|0,1:0|0:0,0:0:0:0:
285,342,33310,1,0,0:0:0:0:
208,350,33446,2,0,P|173:366|136:353,1,70,0|0,1:0|0:0,0:0:0:0:
111,288,33719,2,0,P|77:281|46:296,1,70,0|0,1:0|0:0,0:0:0:0:
13,366,33992,6,0,P|28:314|8:146,1,210,2|2,1:0|0:0,0:0:0:0:
2,84,34537,2,0,P|54:99|222:79,1,210,2|0,1:0|0:0,0:0:0:0:
284,73,35083,2,0,P|269:125|289:293,1,210,2|0,1:0|0:0,0:0:0:0:
252,348,35628,2,0,P|309:306|393:317,1,140,0|0,1:0|1:0,0:0:0:0:
435,357,36037,1,0,0:0:0:0:
490,304,36173,5,6,0:0:0:0:
490,304,36310,2,0,P|504:244|482:152,1,140,0|0,0:0|0:0,0:0:0:0:
504,91,36719,2,0,L|427:98,1,70,0|0,0:0|0:0,0:0:0:0:
362,126,36992,2,0,L|285:133,1,70,2|0,0:0|0:0,0:0:0:0:
233,181,37264,2,0,P|257:137|225:39,1,140,0|0,0:0|1:0,0:0:0:0:
164,29,37673,2,0,L|94:22,1,70,0|0,0:0|0:0,0:0:0:0:
17,10,37946,1,2,0:0:0:0:
17,9,38083,2,0,P|3:41|8:75,1,70,2|0,0:0|0:0,0:0:0:0:
50,140,38355,5,0,1:0:0:0:
50,140,38628,2,0,L|37:231,1,70,0|2,0:0|0:0,0:0:0:0:
2,277,38901,2,0,P|46:254|133:290,1,140,0|2,0:0|0:0,0:0:0:0:
186,331,39310,2,0,P|247:360|310:336,1,140,0|0,0:0|0:0,0:0:0:0:
388,338,39719,2,0,L|380:254,1,70,0|0,1:0|0:0,0:0:0:0:
412,197,39992,2,0,B|419:161|419:161|402:132,1,70,0|0,1:0|0:0,0:0:0:0:
326,142,40264,2,0,B|319:178|319:178|335:206,1,70,0|0,1:0|0:0,0:0:0:0:
381,268,40537,6,0,P|423:240|457:242,2,70,4|0|0,1:0|0:0|1:0,0:0:0:0:
304,278,40946,2,0,L|223:278,1,70,0|0,0:0|0:0,0:0:0:0:
168,318,41219,2,0,P|196:360|194:394,2,70,0|0|0,0:0|1:0|0:0,0:0:0:0:
114,262,41628,2,0,P|97:225|173:154,1,140,0|0,1:0|0:0,0:0:0:0:
224,130,42037,1,0,0:0:0:0:
290,169,42173,2,0,L|374:164,1,70,0|0,1:0|0:0,0:0:0:0:
362,87,42446,2,0,L|278:92,1,70,0|0,1:0|0:0,0:0:0:0:
226,50,42719,6,0,P|262:92|235:241,1,210,2|2,1:0|0:0,0:0:0:0:
221,308,43264,2,0,P|166:318|51:220,1,210,2|2,1:0|0:0,0:0:0:0:
0,174,43810,2,0,P|18:121|160:70,1,210,2|2,1:0|0:0,0:0:0:0:
226,50,44355,2,0,L|248:2,6,35,2|2|2|2|2|2|2,0:0|0:0|0:0|0:0|0:0|0:0|0:0,0:0:0:0:
205,124,44900,6,0,P|235:178|217:262,1,140,6|8,0:0|0:0,0:0:0:0:
180,317,45310,1,0,0:0:0:0:
241,362,45446,2,0,P|293:370|326:356,2,70,2|8|8,0:0|0:0|0:0,0:0:0:0:
180,317,45855,2,0,L|20:300,2,140,0|0|0,1:0|0:0|0:0,0:0:0:0:
315,243,46673,1,0,0:0:0:0:
357,178,46810,2,0,P|369:134|356:101,1,70,8|0,0:0|0:0,0:0:0:0:
332,40,47083,6,0,L|409:34,2,70,4|0|8,0:0|0:0|0:0,0:0:0:0:
255,29,47492,2,0,L|260:98,1,70,2|0,0:0|0:0,0:0:0:0:
185,114,47764,2,0,L|179:44,1,70,2|0,0:0|0:0,0:0:0:0:
103,59,48037,2,0,L|114:200,1,140,8|8,0:0|0:0,0:0:0:0:
75,265,48446,2,0,P|63:308|79:335,1,70,8|8,0:0|0:0,0:0:0:0:
140,367,48719,2,0,P|183:355|198:328,1,70,8|8,0:0|0:0,0:0:0:0:
196,260,48992,2,0,P|164:228|133:228,1,70,8|0,1:0|0:0,0:0:0:0:
75,265,49264,6,0,P|24:239|33:147,1,140,6|8,0:0|0:0,0:0:0:0:
8,86,49673,2,0,P|56:54|131:108,1,140,0|0,0:0|1:0,0:0:0:0:
196,117,50083,1,0,0:0:0:0:
184,41,50219,2,0,L|331:41,2,140,0|0|0,1:0|0:0|0:0,0:0:0:0:
222,190,51037,1,0,0:0:0:0:
287,229,51173,2,0,P|290:275|272:298,1,70,8|0,0:0|0:0,0:0:0:0:
229,354,51446,5,4,1:0:0:0:
229,354,51583,1,0,0:0:0:0:
303,370,51719,2,0,L|387:363,1,70,8|0,0:0|0:0,0:0:0:0:
448,379,51992,1,2,0:0:0:0:
488,313,52128,2,0,P|500:273|488:229,1,70,0|0,0:0|0:0,0:0:0:0:
505,168,52401,6,0,P|467:205|376:195,1,140,0|2,1:0|0:0,0:0:0:0:
307,194,52810,2,0,P|285:145|291:116,1,70,8|2,0:0|0:0,0:0:0:0:
326,64,53083,1,0,1:0:0:0:
326,64,53219,1,0,0:0:0:0:
263,19,53354,1,0,1:0:0:0:
263,19,53492,1,8,1:0:0:0:
208,115,53628,6,0,P|132:119|97:189,1,140,6|8,0:0|0:0,0:0:0:0:
136,234,54037,1,0,0:0:0:0:
74,279,54173,2,0,L|-10:272,2,70,2|0|8,0:0|1:0|0:0,0:0:0:0:
142,316,54583,2,0,L|281:304,2,140,2|0|0,0:0|1:0|0:0,0:0:0:0:
98,167,55401,1,0,0:0:0:0:
42,114,55537,2,0,P|38:63|57:35,1,70,8|0,0:0|0:0,0:0:0:0:
116,17,55810,6,0,L|207:4,2,70,6|0|8,0:0|0:0|0:0,0:0:0:0:
45,47,56219,2,0,P|34:80|42:114,1,70,2|0,0:0|0:0,0:0:0:0:
98,167,56492,2,0,P|105:200|94:233,1,70,2|0,0:0|0:0,0:0:0:0:
32,278,56764,2,0,P|98:272|134:348,1,140,2|0,0:0|0:0,0:0:0:0:
212,315,57173,2,0,L|199:400,1,70,8|8,0:0|0:0,0:0:0:0:
278,379,57446,2,0,L|358:347,1,70,8|8,0:0|0:0,0:0:0:0:
301,290,57719,2,0,L|233:236,1,70,8|0,0:0|0:0,0:0:0:0:
225,171,57992,6,0,P|196:154|137:160,2,70,4|0|8,1:0|0:0|0:0,0:0:0:0:
302,171,58401,2,0,P|346:183|437:137,1,140,0|8,0:0|0:0,0:0:0:0:
489,98,58810,1,0,0:0:0:0:
449,32,58946,2,0,B|403:25|403:25|362:38|362:38|291:27,2,140,8|0|0,0:0|0:0|0:0,0:0:0:0:
501,176,59764,1,8,0:0:0:0:
503,253,59901,2,0,P|497:308|481:324,1,70,0|8,0:0|0:0,0:0:0:0:
422,356,60173,6,0,L|329:350,2,70,6|0|8,0:0|0:0|0:0,0:0:0:0:
392,283,60583,2,0,L|299:277,2,70,4|0|8,0:0|0:0|0:0,0:0:0:0:
371,208,60992,6,0,L|464:202,2,70,6|0|8,0:0|0:0|0:0,0:0:0:0:
401,135,61400,2,0,L|494:129,2,70,4|0|0,0:0|0:0|0:0,0:0:0:0:
339,89,61810,6,0,P|345:55|333:-4,2,70,6|0|8,0:0|0:0|0:0,0:0:0:0:
309,160,62219,2,0,L|163:143,1,140,8|8,1:0|1:0,0:0:0:0:
85,15,62764,1,8,1:0:0:0:
149,57,71628,6,0,L|51:68,1,70,6|0,0:0|0:0,0:0:0:0:
68,141,71901,2,0,L|166:130,1,70,8|2,0:0|0:0,0:0:0:0:
208,163,72173,1,0,1:0:0:0:
208,163,72310,2,0,P|213:200|179:244,1,70,0|0,0:0|0:0,0:0:0:0:
135,273,72583,6,0,P|200:270|258:347,1,140,8|8,0:0|1:0,0:0:0:0:
310,369,72992,1,0,0:0:0:0:
383,346,73128,2,0,L|401:185,1,140,8|8,0:0|1:0,0:0:0:0:
398,206,73810,6,0,L|300:195,1,70,6|0,0:0|0:0,0:0:0:0:
317,122,74083,2,0,L|415:133,1,70,8|2,0:0|0:0,0:0:0:0:
459,106,74355,1,0,1:0:0:0:
459,106,74492,2,0,P|478:74|466:32,1,70,0|0,0:0|0:0,0:0:0:0:
408,1,74764,6,0,P|360:32|262:21,1,140,8|8,0:0|0:0,0:0:0:0:
229,88,75173,1,0,0:0:0:0:
177,30,75310,2,0,P|108:24|48:58,1,140,8|8,0:0|0:0,0:0:0:0:
48,58,75992,6,0,L|35:146,1,70,6|0,0:0|0:0,0:0:0:0:
114,121,76264,2,0,L|101:209,1,70,8|2,0:0|0:0,0:0:0:0:
38,232,76537,1,0,1:0:0:0:
38,232,76673,2,0,L|51:320,1,70,0|0,0:0|0:0,0:0:0:0:
98,359,76946,6,0,P|146:317|244:335,1,140,10|0,0:0|1:0,0:0:0:0:
287,282,77355,2,0,P|320:301|363:294,1,70,0|0,1:0|0:0,0:0:0:0:
427,289,77628,2,0,P|426:250|399:217,1,70,0|0,1:0|0:0,0:0:0:0:
363,165,77901,2,0,P|330:184|314:224,1,70,0|0,1:0|1:0,0:0:0:0:
315,211,80355,5,4,1:0:0:0:
315,211,80492,2,0,P|262:199|206:256,1,140,0|0,0:0|0:0,0:0:0:0:
159,316,80901,2,0,L|74:326,1,70
20,358,81173,2,0,P|11:320|28:282,1,70,0|0,1:0|0:0,0:0:0:0:
1,216,81446,6,0,B|69:206|69:206|72:201|72:201|165:189,1,140,0|0,0:0|1:0,0:0:0:0:
180,128,81855,2,0,B|248:138|248:138|251:143|251:143|344:155,1,140,0|0,0:0|0:0,0:0:0:0:
374,202,82264,1,0,1:0:0:0:
374,202,82537,6,0,P|359:155|426:66,1,140,0|0,1:0|0:0,0:0:0:0:
357,13,82946,1,2,0:0:0:0:
357,13,83083,2,0,L|269:25,1,70,2|0,0:0|0:0,0:0:0:0:
263,95,83355,2,0,L|175:107,1,70,0|0,1:0|0:0,0:0:0:0:
126,65,83628,2,0,P|85:91|115:179,1,140,2|0,0:0|1:0,0:0:0:0:
176,181,84037,2,0,P|198:242|149:287,1,140,0|0,0:0|0:0,0:0:0:0:
170,361,84446,2,0,L|258:373,1,70,0|0,1:0|0:0,0:0:0:0:
308,336,84719,6,0,L|377:326,2,70,0|0|0,1:0|0:0|0:0,0:0:0:0:
241,296,85128,2,0,P|229:250|250:213,1,70,0|0,1:0|0:0,0:0:0:0:
267,159,85401,2,0,L|197:149,2,70,0|0|0,0:0|1:0|0:0,0:0:0:0:
332,199,85810,2,0,L|489:183,1,140,0|0,1:0|0:0,0:0:0:0:
508,252,86219,1,0,0:0:0:0:
432,267,86355,2,0,L|420:345,1,70,0|0,1:0|0:0,0:0:0:0:
345,350,86628,2,0,L|355:280,1,70,0|0,1:0|0:0,0:0:0:0:
280,260,86901,6,0,P|250:302|86:290,1,210,2|2,1:0|0:0,0:0:0:0:
30,327,87446,2,0,P|8:280|101:143,1,210,2|2,1:0|0:0,0:0:0:0:
96,76,87992,2,0,P|147:80|218:229,1,210,2|2,1:0|0:0,0:0:0:0:
282,254,88537,2,0,P|310:193|307:119,1,140,0|0,1:0|1:0,0:0:0:0:
291,46,88946,1,0,0:0:0:0:
362,15,89083,5,4,1:0:0:0:
362,15,89219,2,0,P|398:67|479:49,1,140,2|2,0:0|0:0,0:0:0:0:
510,124,89628,2,0,L|500:201,1,70,2|0,0:0|0:0,0:0:0:0:
425,176,89901,2,0,L|415:253,1,70,0|0,1:0|0:0,0:0:0:0:
448,315,90173,2,0,P|403:285|310:280,1,140,2|0,0:0|1:0,0:0:0:0:
248,311,90583,2,0,L|160:298,1,70,0|0,0:0|0:0,0:0:0:0:
110,336,90855,1,0,0:0:0:0:
110,336,90992,2,0,L|22:323,1,70,0|0,1:0|0:0,0:0:0:0:
6,257,91264,5,0,1:0:0:0:
47,192,91401,2,0,P|50:157|21:118,2,70,0|0|0,0:0|0:0|0:0,0:0:0:0:
84,259,91810,2,0,P|120:252|161:278,1,70,0|0,0:0|0:0,0:0:0:0:
197,326,92083,1,0,1:0:0:0:
197,326,92219,2,0,L|213:159,1,140,2|0,0:0|0:0,0:0:0:0:
278,150,92628,2,0,L|271:73,1,70,0|0,1:0|0:0,0:0:0:0:
314,15,92901,2,0,P|353:38|387:29,1,70,0|0,1:0|0:0,0:0:0:0:
436,81,93173,2,0,P|475:58|509:67,1,70,0|0,0:0|0:0,0:0:0:0:
490,138,93446,6,0,P|517:164|521:200,2,70,0|0|0,1:0|0:0|1:0,0:0:0:0:
446,201,93855,2,0,P|440:237|409:259,1,70,0|2,0:0|0:0,0:0:0:0:
344,225,94128,2,0,L|252:211,2,70,2|0|2,0:0|1:0|0:0,0:0:0:0:
353,301,94537,2,0,L|343:378,1,70,2|2,0:0|0:0,0:0:0:0:
267,381,94810,2,0,L|276:311,1,70,0|2,1:0|0:0,0:0:0:0:
206,278,95083,2,0,L|196:347,1,70,0|2,1:0|0:0,0:0:0:0:
121,359,95355,2,0,L|130:289,1,70,2|2,0:0|0:0,0:0:0:0:
53,276,95628,6,0,P|56:228|0:68,1,210,6|2,1:0|0:0,0:0:0:0:
47,11,96173,2,0,P|87:37|193:68,1,140,2|0,1:0|0:0,0:0:0:0:
250,76,96583,1,2,0:0:0:0:
250,76,96719,2,0,P|206:97|96:225,1,210,2|2,1:0|0:0,0:0:0:0:
53,276,97264,2,0,L|6:281,6,35,2|2|2|2|2|2|2,0:0|0:0|0:0|0:0|0:0|0:0|0:0,0:0:0:0:
129,289,97810,6,0,P|179:303|249:383,1,140,6|8,0:0|0:0,0:0:0:0:
305,321,98219,1,0,0:0:0:0:
372,356,98355,2,0,L|467:348,2,70,2|8|8,0:0|0:0|0:0,0:0:0:0:
305,321,98764,2,0,L|327:154,2,140,0|0|0,1:0|0:0|0:0,0:0:0:0:
185,222,99583,1,0,0:0:0:0:
246,176,99719,2,0,L|238:100,1,70,8|0,0:0|0:0,0:0:0:0:
243,29,99992,6,0,P|205:33|174:66,2,70,0|0|8,1:0|0:0|0:0,0:0:0:0:
317,8,100401,2,0,P|321:42|306:73,1,70,0|0,1:0|0:0,0:0:0:0:
290,148,100673,2,0,P|258:134|238:106,1,70,2|0,0:0|0:0,0:0:0:0:
181,52,100946,2,0,L|33:66,1,140,8|8,0:0|1:0,0:0:0:0:
0,130,101355,2,0,B|29:149|29:149|83:137,1,70,8|8,0:0|0:0,0:0:0:0:
140,145,101628,2,0,B|141:110|141:110|104:69,1,70,8|0,0:0|0:0,0:0:0:0:
83,15,101901,2,0,B|52:30|52:30|35:83,1,70,8|0,1:0|0:0,0:0:0:0:
0,130,102173,6,0,P|44:176|32:264,1,140,4|8,1:0|0:0,0:0:0:0:
8,319,102583,2,0,L|166:343,1,140,2|0,0:0|0:0,0:0:0:0:
210,296,102992,1,0,0:0:0:0:
144,255,103128,2,0,L|302:279,1,140,8|0,0:0|0:0,0:0:0:0:
347,317,103537,1,8,0:0:0:0:
347,317,103673,2,0,P|361:286|356:250,1,70,0|0,0:0|1:0,0:0:0:0:
295,203,103946,1,0,0:0:0:0:
353,151,104083,2,0,L|343:57,1,70,8|0,0:0|0:0,0:0:0:0:
400,27,104355,5,8,1:0:0:0:
400,27,104492,1,8,0:0:0:0:
468,61,104628,2,0,P|472:95|458:126,1,70,8|8,0:0|1:0,0:0:0:0:
420,194,104901,1,0,1:0:0:0:
486,232,105037,2,0,L|493:301,1,70,0|0,0:0|0:0,0:0:0:0:
451,366,105310,6,0,P|409:336|320:350,1,140,8|0,0:0|0:0,0:0:0:0:
254,377,105719,2,0,P|237:344|252:295,1,70,8|0,0:0|0:0,0:0:0:0:
306,270,105992,2,0,L|314:213,7,35,0|0|0|0|8|0|8|0,1:0|0:0|0:0|0:0|0:0|0:0|0:0|0:0,0:0:0:0:
241,55,106810,6,0,L|160:65,1,70,4|2,1:0|0:0,0:0:0:0:
97,86,107083,2,0,P|94:42|118:8,2,70,0|0|0,0:0|1:0|0:0,0:0:0:0:
153,139,107492,2,0,L|-9:124,2,140,8|2|0,0:0|0:0|0:0,0:0:0:0:
285,218,108310,1,0,0:0:0:0:
361,210,108446,2,0,P|375:247|360:289,1,70,8|0,0:0|0:0,0:0:0:0:
311,327,108719,6,0,L|215:343,2,70,0|0|8,1:0|1:0|0:0,0:0:0:0:
368,275,109128,2,0,P|374:241|361:210,1,70,2|0,0:0|0:0,0:0:0:0:
314,148,109401,2,0,P|308:113|321:82,1,70,8|0,0:0|0:0,0:0:0:0:
311,6,109673,2,0,P|260:51|187:46,1,140,8|0,0:0|0:0,0:0:0:0:
114,53,110083,2,0,L|131:132,1,70,8|8,0:0|0:0,0:0:0:0:
173,186,110355,2,0,L|224:139,1,70,8|8,0:0|0:0,0:0:0:0:
259,69,110628,2,0,L|192:47,1,70,8|0,1:0|1:0,0:0:0:0:
114,53,110901,6,0,L|47:31,2,70,4|0|8,1:0|0:0|0:0,0:0:0:0:
133,127,111310,2,0,P|145:159|140:193,1,70,2|2,0:0|0:0,0:0:0:0:
111,265,111583,2,0,P|150:267|184:302,1,70,0|0,0:0|1:0,0:0:0:0:
210,352,111855,2,0,B|255:332|255:332|280:296|280:296|354:269,2,140,8|0|0,0:0|1:0|0:0,0:0:0:0:
58,322,112673,1,8,0:0:0:0:
36,247,112810,2,0,L|30:172,1,70,2|8,0:0|0:0,0:0:0:0:
78,116,113083,6,0,P|43:101|0:106,2,70,6|0|8,0:0|0:0|0:0,0:0:0:0:
142,73,113492,2,0,P|137:35|111:0,2,70,4|0|8,1:0|0:0|0:0,0:0:0:0:
211,106,113901,6,0,P|241:83|258:43,2,70,6|8|0,0:0|0:0|0:0,0:0:0:0:
216,182,114310,2,0,P|251:197|294:192,2,70,4|0|0,1:0|0:0|0:0,0:0:0:0:
153,226,114719,6,0,P|157:263|183:298,2,70,6|0|0,0:0|0:0|1:0,0:0:0:0:
83,193,115128,2,0,P|46:225|49:319,1,140,12|8,1:0|1:0,0:0:0:0:
187,366,115673,1,14,0:0:0:0:
187,366,124537,6,0,P|158:350|114:358,1,70,6|0,0:0|0:0,0:0:0:0:
46,369,124810,2,0,P|45:335|16:301,1,70,8|0,0:0|1:0,0:0:0:0:
75,248,125083,1,0,0:0:0:0:
75,248,125219,2,0,L|87:161,1,70,0|2,1:0|0:0,0:0:0:0:
38,116,125492,2,0,P|99:143|155:84,1,140,8|0,0:0|1:0,0:0:0:0:
176,28,125901,1,8,0:0:0:0:
176,28,126037,2,0,L|256:12,1,70,0|0,1:0|0:0,0:0:0:0:
302,65,126310,2,0,L|382:49,1,70,0|8,1:0|0:0,0:0:0:0:
436,91,126583,1,2,0:0:0:0:
508,65,126719,5,4,1:0:0:0:
508,65,126855,2,0,P|514:102|490:142,1,70,0|8,1:0|0:0,0:0:0:0:
435,171,127128,1,0,1:0:0:0:
435,171,127264,2,0,P|405:194|359:193,1,70,0|0,0:0|1:0,0:0:0:0:
307,161,127537,2,0,P|271:147|249:106,1,70,0|8,0:0|0:0,0:0:0:0:
179,144,127810,2,0,L|158:296,1,140,2|8,0:0|0:0,0:0:0:0:
88,311,128219,2,0,L|75:214,1,70,0|0,1:0|0:0,0:0:0:0:
20,190,128492,1,0,1:0:0:0:
63,126,128628,1,8,0:0:0:0:
2,78,128764,6,0,P|49:92|114:30,1,140,4|0,1:0|1:0,0:0:0:0:
188,20,129173,2,0,L|197:104,1,70,8|0,0:0|1:0,0:0:0:0:
247,147,129446,1,2,0:0:0:0:
247,147,129583,2,0,P|284:150|316:174,1,70,8|0,0:0|0:0,0:0:0:0:
308,244,129855,2,0,P|261:258|196:196,1,140,4|0,1:0|1:0,0:0:0:0:
122,186,130264,2,0,L|113:270,1,70,8|0,0:0|1:0,0:0:0:0:
176,302,130537,1,4,0:0:0:0:
124,358,130673,2,0,L|50:372,2,70,8|0|8,0:0|1:0|0:0,0:0:0:0:
176,302,131083,6,0,P|245:293|294:366,1,140,4|8,1:0|0:0,0:0:0:0:
362,368,131492,1,0,1:0:0:0:
362,368,131628,2,0,L|373:287,1,70,0|0,0:0|0:0,0:0:0:0:
445,320,131901,2,0,L|456:239,1,70,2|8,0:0|0:0,0:0:0:0:
383,220,132173,1,0,0:0:0:0:
383,220,132310,2,0,L|372:139,1,70,0|8,1:0|0:0,0:0:0:0:
450,154,132583,2,0,L|439:73,1,70,0|0,1:0|0:0,0:0:0:0:
401,18,132855,2,0,P|365:46|324:45,1,70,0|8,1:0|0:0,0:0:0:0:
276,89,133128,1,0,1:0:0:0:
225,31,133264,6,0,P|162:20|101:79,1,140,4|8,1:0|0:0,0:0:0:0:
38,102,133673,2,0,L|26:21,2,70,0|0|0,1:0|0:0|1:0,0:0:0:0:
104,143,134083,2,0,L|93:212,1,70,8|8,0:0|0:0,0:0:0:0:
43,270,134355,2,0,B|92:257|92:257|134:276|134:276|196:257,1,140,0|8,0:0|0:0,0:0:0:0:
233,212,134764,2,0,P|272:213|302:236,1,70,0|2,1:0|0:0,0:0:0:0:
335,296,135037,1,0,0:0:0:0:
408,275,135173,1,8,0:0:0:0:
458,334,135310,6,0,L|450:165,1,140,4|0,1:0|1:0,0:0:0:0:
508,141,135719,2,0,P|476:120|421:124,1,70,8|0,0:0|1:0,0:0:0:0:
395,57,135992,1,0,1:0:0:0:
395,57,136128,2,0,L|315:68,1,70,8|0,0:0|0:0,0:0:0:0:
272,10,136401,6,0,L|264:179,1,140,4|0,1:0|1:0,0:0:0:0:
322,203,136810,2,0,P|290:224|235:220,1,70,8|0,0:0|0:0,0:0:0:0:
209,287,137083,1,0,1:0:0:0:
141,249,137219,2,0,P|128:282|138:322,2,70,8|0|8,0:0|1:0|0:0,0:0:0:0:
190,189,137628,6,0,L|25:205,1,140,4|8,1:0|0:0,0:0:0:0:
15,133,138037,2,0,L|24:55,1,70,0|0,1:0|0:0,0:0:0:0:
99,53,138310,2,0,L|90:122,1,70,2|2,0:0|0:0,0:0:0:0:
168,118,138583,2,0,L|176:48,1,70,8|0,0:0|0:0,0:0:0:0:
252,46,138855,2,0,L|243:115,1,70,0|8,1:0|0:0,0:0:0:0:
321,109,139128,2,0,L|329:39,1,70,0|8,1:0|0:0,0:0:0:0:
406,33,139401,1,8,1:0:0:0:
406,33,139673,6,0,P|473:46|500:120,1,140,4|0,1:0|1:0,0:0:0:0:
447,162,140083,2,0,L|436:236,1,70,8|0,0:0|1:0,0:0:0:0:
362,249,140355,1,2,0:0:0:0:
362,249,140492,1,0,1:0:0:0:
288,270,140628,2,0,L|277:344,1,70,2|8,0:0|0:0,0:0:0:0:
205,366,140901,6,0,P|169:346|119:355,1,70,2|0,0:0|1:0,0:0:0:0:
73,308,141173,2,0,P|93:272|84:222,1,70,8|0,0:0|1:0,0:0:0:0:
131,175,141446,2,0,P|167:195|217:186,1,70,2|0,0:0|1:0,0:0:0:0:
264,233,141719,2,0,P|244:269|253:319,1,70,8|0,0:0|1:0,0:0:0:0:
170,272,141992,5,4,1:0:0:0:
170,272,142128,1,0,1:0:0:0:
194,194,142264,2,0,L|185:98,1,70,8|0,0:0|1:0,0:0:0:0:
228,58,142537,5,0,0:0:0:0:
228,58,142673,1,0,1:0:0:0:
281,113,142809,2,0,L|290:209,1,70,2|0,0:0|1:0,0:0:0:0:
336,243,143083,6,0,P|374:244|410:270,1,70,6|0,0:0|1:0,0:0:0:0:
454,204,143355,2,0,P|435:170|440:126,1,70,8|0,0:0|1:0,0:0:0:0:
380,85,143628,1,8,0:0:0:0:
380,85,143764,1,0,1:0:0:0:
429,25,143901,1,8,0:0:0:0:
429,25,144037,1,0,1:0:0:0:
429,25,153446,6,0,L|369:15,6,35,2|2|2|2|2|2|2,0:0|0:0|0:0|0:0|0:0|0:0|0:0,0:0:0:0:
505,13,153991,6,0,P|525:45|468:141,1,140,6|8,0:0|0:0,0:0:0:0:
416,164,154401,1,0,0:0:0:0:
463,224,154537,2,0,L|476:326,2,70,2|8|8,0:0|0:0|0:0,0:0:0:0:
416,164,154946,2,0,L|430:12,2,140,0|0|0,1:0|1:0|0:0,0:0:0:0:
270,215,155764,1,0,0:0:0:0:
346,228,155901,2,0,P|361:258|344:312,1,70,8|0,0:0|0:0,0:0:0:0:
324,362,156173,6,0,L|419:376,2,70,0|0|8,1:0|0:0|0:0,0:0:0:0:
250,336,156583,2,0,L|163:349,1,70,0|0,1:0|0:0,0:0:0:0:
143,277,156855,2,0,L|212:266,1,70,0|0,0:0|1:0,0:0:0:0:
270,215,157128,2,0,P|296:165|265:81,1,140,8|8,0:0|1:0,0:0:0:0:
234,21,157537,2,0,P|202:16|166:52,1,70,8|8,0:0|0:0,0:0:0:0:
132,102,157810,2,0,P|146:134|177:148,1,70,8|2,0:0|0:0,0:0:0:0:
254,149,158083,2,0,P|275:121|272:87,1,70,8|0,0:0|0:0,0:0:0:0:
234,21,158355,6,0,P|172:45|90:3,1,140,4|8,1:0|0:0,0:0:0:0:
56,80,158764,2,0,P|14:110|32:205,1,140,0|0,1:0|0:0,0:0:0:0:
83,233,159173,1,0,0:0:0:0:
139,179,159310,2,0,L|288:172,2,140,8|0|0,0:0|0:0|1:0,0:0:0:0:
12,266,160128,1,0,0:0:0:0:
30,340,160264,2,0,P|63:360|115:349,1,70,8|0,0:0|0:0,0:0:0:0:
156,314,160537,5,0,1:0:0:0:
156,314,160673,1,8,0:0:0:0:
228,341,160810,2,0,L|240:257,1,70,8|8,1:0|0:0,0:0:0:0:
212,198,161083,1,0,1:0:0:0:
255,134,161219,2,0,P|289:134|318:153,1,70,0|0,0:0|0:0,0:0:0:0:
361,217,161492,6,0,P|420:239|495:184,1,140,8|0,0:0|0:0,0:0:0:0:
510,131,161901,2,0,L|501:49,1,70,8|0,0:0|0:0,0:0:0:0:
449,6,162173,1,0,1:0:0:0:
449,6,162310,1,0,0:0:0:0:
384,47,162446,1,0,1:0:0:0:
384,47,162583,1,8,0:0:0:0:
431,148,162719,6,0,L|411:307,1,140,4|8,1:0|0:0,0:0:0:0:
366,348,163128,2,0,P|322:311|234:331,1,140,0|8,1:0|0:0,0:0:0:0:
185,271,163537,1,2,0:0:0:0:
185,271,163673,2,0,P|156:290|100:275,2,70,8|0|0,0:0|0:0|1:0,0:0:0:0:
253,233,164083,1,8,0:0:0:0:
188,191,164219,2,0,L|202:40,1,140,0|0,0:0|0:0,0:0:0:0:
132,16,164628,2,0,L|34:26,1,70,8|0,0:0|0:0,0:0:0:0:
74,99,164901,6,0,L|4:91,2,70,0|0|8,1:0|1:0|0:0,0:0:0:0:
130,151,165310,2,0,P|151:113|141:72,1,70,0|0,1:0|0:0,0:0:0:0:
210,40,165583,2,0,P|239:57|254:88,1,70,0|0,1:0|1:0,0:0:0:0:
330,102,165855,2,0,P|346:159|280:230,1,140,8|8,0:0|0:0,0:0:0:0:
273,293,166264,2,0,L|184:302,1,70,8|8,1:0|0:0,0:0:0:0:
156,238,166537,2,0,L|184:174,1,70,8|2,1:0|0:0,0:0:0:0:
262,165,166810,2,0,L|302:221,1,70,8|0,0:0|0:0,0:0:0:0:
368,262,167083,6,0,P|349:288|361:342,2,70,4|0|8,1:0|0:0|0:0,0:0:0:0:
426,312,167492,2,0,L|414:165,1,140,0|0,1:0|0:0,0:0:0:0:
459,109,167901,1,0,0:0:0:0:
410,49,168037,2,0,B|369:79|369:79|259:55,2,140,8|0|0,0:0|1:0|0:0,0:0:0:0:
491,179,168855,1,0,0:0:0:0:
448,243,168992,2,0,P|446:278|470:313,1,70,8|0,0:0|0:0,0:0:0:0:
425,374,169264,5,8,1:0:0:0:
425,374,169401,1,8,0:0:0:0:
355,342,169537,2,0,L|262:355,1,70,8|8,1:0|1:0,0:0:0:0:
224,303,169810,1,0,1:0:0:0:
159,344,169946,2,0,P|146:296|165:260,1,70,0|0,0:0|0:0,0:0:0:0:
211,228,170219,6,0,P|216:161|184:82,1,140,8|0,0:0|0:0,0:0:0:0:
126,52,170628,1,8,1:0:0:0:
195,20,170764,2,0,L|289:13,2,70,8|0|8,0:0|1:0|0:0,0:0:0:0:
126,52,171173,2,0,L|56:46,1,70,0|8,1:0|0:0,0:0:0:0:
7,107,171446,5,4,1:0:0:0:
7,107,171719,2,0,P|45:161|41:236,1,140,8|2,0:0|0:0,0:0:0:0:
5,300,172128,2,0,L|17:375,1,70,0|2,0:0|0:0,0:0:0:0:
92,382,172401,1,0,1:0:0:0:
92,382,172537,2,0,L|80:312,1,70,0|0,0:0|1:0,0:0:0:0:
141,264,172810,1,8,0:0:0:0:
197,316,172946,2,0,P|264:330|331:273,1,140,0|0,1:0|0:0,0:0:0:0:
397,304,173355,2,0,P|397:224|435:153,1,140,8|0,0:0|1:0,0:0:0:0:
493,142,173764,5,0,1:0:0:0:
467,69,173901,1,8,0:0:0:0:
397,100,174037,2,0,L|232:86,1,140,0|0,1:0|1:0,0:0:0:0:
199,36,174446,2,0,P|155:34|122:66,1,70,0|8,1:0|0:0,0:0:0:0:
64,79,174719,6,0,L|52:-10,2,70,2|0|8,0:0|0:0|0:0,0:0:0:0:
125,125,175128,2,0,P|159:120|189:136,2,70,8|0|8,1:0|1:0|0:0,0:0:0:0:
52,152,175537,2,0,L|40:230,1,70,8|8,1:0|0:0,0:0:0:0:
89,281,175810,5,4,1:0:0:0:
89,281,176083,2,0,P|149:272|210:344,1,140,8|2,0:0|0:0,0:0:0:0:
271,281,176492,2,0,L|364:270,1,70,0|0,0:0|0:0,0:0:0:0:
411,302,176764,2,0,B|423:253|423:253|399:215|399:215|416:147,1,140,8|0,0:0|1:0,0:0:0:0:
343,132,177173,1,8,0:0:0:0:
343,132,177310,2,0,L|321:218,1,70,0|0,1:0|0:0,0:0:0:0:
248,210,177583,2,0,L|226:296,1,70,0|8,0:0|0:0,0:0:0:0:
173,328,177855,6,0,P|116:337|55:263,1,140,2|0,0:0|1:0,0:0:0:0:
94,216,178264,1,8,0:0:0:0:
26,177,178401,1,0,1:0:0:0:
26,177,178537,2,0,L|17:94,1,70,2|0,0:0|1:0,0:0:0:0:
58,41,178810,1,8,0:0:0:0:
125,76,178946,2,0,P|182:67|243:141,1,140,8|0,0:0|0:0,0:0:0:0:
276,186,179355,1,8,0:0:0:0:
276,186,179492,2,0,L|424:171,1,140,0|8,1:0|0:0,0:0:0:0:
490,190,179901,2,0,P|508:158|493:108,1,70,0|8,1:0|0:0,0:0:0:0:
454,67,180173,5,4,1:0:0:0:
454,67,180446,2,0,P|416:76|330:-5,1,140,8|2,0:0|0:0,0:0:0:0:
274,69,180855,2,0,L|261:154,1,70,0|0,0:0|0:0,0:0:0:0:
195,175,181128,2,0,P|160:216|186:312,1,140,8|0,0:0|1:0,0:0:0:0:
119,354,181537,1,8,0:0:0:0:
119,354,181673,2,0,L|31:344,1,70,0|2,1:0|0:0,0:0:0:0:
7,281,181946,1,0,0:0:0:0:
66,232,182083,2,0,L|50:71,1,140,8|0,0:0|1:0,0:0:0:0:
90,25,182492,5,0,0:0:0:0:
90,25,182628,2,0,L|181:38,1,70,8|0,0:0|0:0,0:0:0:0:
216,86,182901,2,0,L|159:158,1,70,0|0,0:0|1:0,0:0:0:0:
100,164,183173,2,0,L|65:78,1,70,2|8,0:0|0:0,0:0:0:0:
90,25,183446,6,0,L|181:38,1,70,2|0,0:0|0:0,0:0:0:0:
216,86,183719,1,8,0:0:0:0:
216,86,183855,2,0,L|159:158,1,70,0|0,0:0|1:0,0:0:0:0:
100,164,184128,1,0,0:0:0:0:
100,164,184264,2,0,L|65:78,1,70,8|0,0:0|0:0,0:0:0:0:
6,136,184537,5,4,1:0:0:0:
7,212,184673,2,0,L|33:276,1,70,0|8,1:0|0:0,0:0:0:0:
39,354,184946,2,0,L|103:327,1,70,0|0,1:0|0:0,0:0:0:0:
181,322,185219,2,0,L|154:257,1,70,0|0,1:0|0:0,0:0:0:0:
109,194,185492,2,0,L|173:167,1,70,8|2,0:0|0:0,0:0:0:0:
237,122,185764,2,0,L|263:186,1,70,0|8,1:0|0:0,0:0:0:0:
309,250,186037,2,0,L|244:276,1,70,0|0,1:0|1:0,0:0:0:0:
181,322,186310,2,0,P|261:326|316:377,1,140,8|0,0:0|0:0,0:0:0:0:
383,354,186719,6,0,P|415:367|458:358,2,70,4|0|8,1:0|1:0|0:0,0:0:0:0:
425,289,187128,2,0,P|455:272|476:234,2,70,4|2|8,1:0|0:0|0:0,0:0:0:0:
402,215,187537,6,0,P|409:181|392:140,2,70,6|8|2,1:0|0:0|0:0,0:0:0:0:
330,184,187946,2,0,P|308:156|267:143,2,70,12|2|8,0:0|0:0|0:0,0:0:0:0:
285,247,188355,6,0,P|263:274|222:287,2,70,4|0|8,1:0|1:0|0:0,0:0:0:0:
217,209,188764,2,0,P|182:210|145:187,2,70,6|8|0,0:0|0:0|1:0,0:0:0:0:
203,132,189173,6,0,P|179:106|173:62,2,70,4|0|8,1:0|0:0|0:0,0:0:0:0:
253,72,189583,2,0,P|257:37|287:5,2,70,4|8|0,1:0|0:0|1:0,0:0:0:0:
330,67,189992,6,0,L|409:57,2,70,4|8|0,1:0|0:0|1:0,0:0:0:0:
320,143,190401,2,0,L|393:173,2,70,12|2|8,0:0|0:0|0:0,0:0:0:0:
274,204,190810,6,0,L|322:267,2,70,4|0|2,1:0|1:0|0:0,0:0:0:0:
203,233,191219,2,0,L|212:312,2,70,4|2|8,1:0|0:0|0:0,0:0:0:0:
127,223,191628,6,0,L|96:296,2,70,4|0|2,1:0|1:0|0:0,0:0:0:0:
66,175,192037,2,0,L|2:223,2,70,4|2|8,1:0|0:0|0:0,0:0:0:0:
91,101,192446,6,0,L|81:22,2,70,4|0|8,1:0|1:0|0:0,0:0:0:0:
142,159,192855,2,0,L|215:189,2,70,12|8|8,1:0|1:0|0:0,0:0:0:0:
256,192,193264,12,6,196264,0:0:0:0:
