osu file format v14

[General]
AudioFilename: audio.mp3
AudioLeadIn: 0
PreviewTime: 54951
Countdown: 1
SampleSet: None
StackLeniency: 0.7
Mode: 0
LetterboxInBreaks: 0
WidescreenStoryboard: 0

[Editor]
Bookmarks: 30800,55721,60644,65567,70490,100336,120028,133257,152949,172641,192333,206872,226795,231718,236641,241564,246487,251410,256333,261257,263718,280951
DistanceSpacing: 0.5
BeatDivisor: 4
GridSize: 4
TimelineZoom: 1

[Metadata]
Title:HeavenZ-ArmZ
TitleUnicode:HeavenZ-ArmZ
Artist:sasakure.UK
ArtistUnicode:sasakure.UK
Creator:- Matha -
Version:Promised Land
Source:セブンスドラゴン2020
Tags:Hatsune Miku seventh dragon sega psp op rpg vocaloid noffy
BeatmapID:1887368
BeatmapSetID:904124

[Difficulty]
HPDrainRate:5.5
CircleSize:4.2
OverallDifficulty:8.2
ApproachRate:9
SliderMultiplier:1.7
SliderTickRate:1

[Events]
//Background and Video events
0,0,"BG.jpg",0,0
//Break Periods
//Storyboard Layer 0 (Background)
//Storyboard Layer 1 (Fail)
//Storyboard Layer 2 (Pass)
//Storyboard Layer 3 (Foreground)
//Storyboard Sound Samples

[TimingPoints]
339,307.692307692308,4,2,1,50,1,0
10185,-100,4,2,1,5,0,0
13262,307.692307692308,7,2,1,30,1,0
13262,-166.666666666667,7,2,1,30,0,0
15185,-166.666666666667,7,2,1,5,0,0
15262,-166.666666666667,7,2,1,30,0,0
15338,-166.666666666667,7,2,1,5,0,0
15415,-166.666666666667,7,2,1,30,0,0
16954,-166.666666666667,7,2,1,15,0,0
17031,-166.666666666667,7,2,1,5,0,0
17108,-166.666666666667,7,2,1,20,0,0
17185,-166.666666666667,7,2,1,5,0,0
17262,-166.666666666667,7,2,1,25,0,0
17338,-166.666666666667,7,2,1,5,0,0
17415,-166.666666666667,7,2,1,30,0,0
17492,-166.666666666667,7,2,1,5,0,0
17569,-166.666666666667,7,2,1,30,0,0
21877,-142.857142857143,7,2,1,35,0,0
23415,-142.857142857143,7,2,1,20,0,0
23492,-142.857142857143,7,2,1,5,0,0
23569,-142.857142857143,7,2,1,25,0,0
23646,-142.857142857143,7,2,1,5,0,0
23723,-142.857142857143,7,2,1,30,0,0
23800,-142.857142857143,7,2,1,5,0,0
23877,-142.857142857143,7,2,1,35,0,0
23954,-142.857142857143,7,2,1,5,0,0
24031,-142.857142857143,7,2,1,35,0,0
30799,307.692307692308,4,2,1,50,1,0
48029,307.692307692308,3,2,1,55,1,0
50798,307.692307692308,4,2,1,55,1,0
72952,307.692307692308,7,2,1,70,1,0
90490,307.692307692308,4,2,1,30,1,0
120029,307.692307692308,3,2,1,50,1,0
120952,307.692307692308,7,2,1,50,1,0
123105,307.692307692308,3,2,1,50,1,0
124028,307.692307692308,7,2,1,50,1,0
126181,307.692307692308,3,2,1,50,1,0
127104,307.692307692308,7,2,1,50,1,0
129257,307.692307692308,3,2,1,50,1,0
132026,307.692307692308,4,2,1,60,1,0
133257,307.692307692308,4,2,1,50,1,0
263721,307.692307692308,7,2,1,50,1,0

[Colours]
Combo1 : 170,255,191
Combo2 : 128,255,255
Combo3 : 129,207,254
Combo4 : 29,206,226
Combo5 : 80,136,239
Combo6 : 255,170,170
Combo7 : 255,255,170
Combo8 : 170,255,255

[HitObjects]
256,192,492,12,0,10185,0:0:0:0:
89,324,13262,102,0,L|155:318,1,50.9999984436036,10|0,0:0|1:0,0:0:0:0:
156,339,13569,2,0,L|164:235,1,101.999996887207,0|0,1:0|0:0,0:0:0:0:
169,245,14338,1,0,0:0:0:0:
100,192,14800,1,0,0:0:0:0:
243,194,15108,2,0,L|281:190,1,25.4999992218018,0|0,1:0|0:0,0:0:0:0:
280,186,15262,2,0,L|305:188,1,25.4999992218018,0|0,1:0|0:0,0:0:0:0:
337,198,15415,37,2,0:0:0:0:
346,192,15723,2,0,L|340:82,1,101.999996887207,0|0,1:0|0:0,0:0:0:0:
347,96,16492,1,2,0:0:0:0:
292,31,16954,70,0,L|256:25,1,25.4999992218018,0|0,1:0|0:0,0:0:0:0:
205,83,17108,2,0,L|200:108,1,25.4999992218018,0|0,1:0|0:0,0:0:0:0:
277,8,17262,38,0,L|241:14,1,25.4999992218018,0|0,1:0|0:0,0:0:0:0:
194,122,17415,2,0,L|198:147,1,25.4999992218018,0|0,1:0|1:0,0:0:0:0:
214,223,17569,69,2,0:0:0:0:
216,233,17877,2,0,L|105:218,1,101.999996887207,0|0,1:0|0:0,0:0:0:0:
120,227,18646,1,0,0:0:0:0:
53,178,19108,1,0,0:0:0:0:
116,325,19415,1,0,0:0:0:0:
110,332,19723,38,0,L|178:342,1,50.9999984436036,2|0,0:0|0:0,0:0:0:0:
180,358,20031,2,0,L|173:249,1,101.999996887207,0|0,1:0|0:0,0:0:0:0:
179,264,20800,1,0,1:0:0:0:
213,186,21262,1,0,0:0:0:0:
279,352,21569,1,0,0:0:0:0:
283,362,21877,86,0,B|321:344|321:344|421:370,1,118.999996368408,2|0,0:0|1:0,0:0:0:0:
470,384,22338,1,0,1:0:0:0:
512,254,22492,2,0,L|378:274,1,118.999996368408,8|0,0:0|0:0,0:0:0:0:
381,275,22954,1,2,0:0:0:0:
368,277,23415,22,0,L|377:233,1,29.7499990921021,0|0,1:0|0:0,0:0:0:0:
425,172,23569,2,0,L|418:127,1,29.7499990921021,0|0,1:0|0:0,0:0:0:0:
416,123,23723,86,0,L|411:152,1,29.7499990921021,0|0,1:0|0:0,0:0:0:0:
377,289,23877,2,0,L|382:318,1,29.7499990921021,0|0,1:0|0:0,0:0:0:0:
432,384,24031,21,2,0:0:0:0:
443,376,24338,2,0,B|502:383,1,59.4999981842042,0|0,1:0|0:0,0:0:0:0:
309,351,24646,1,8,0:0:0:0:
302,342,25108,2,0,L|161:360,1,118.999996368408,2|0,0:0|0:0,0:0:0:0:
171,360,25569,1,0,0:0:0:0:
219,258,25877,1,0,0:0:0:0:
226,265,26185,86,0,B|226:225|226:225|240:197|240:197|237:144,1,118.999996368408,2|0,0:0|0:0,0:0:0:0:
235,133,26646,1,0,1:0:0:0:
325,247,26800,2,0,L|362:254,2,29.7499990921021,8|8|2,0:0|0:0|0:0,0:0:0:0:
310,244,27262,2,0,L|445:233,1,118.999996368408,2|0,0:0|0:0,0:0:0:0:
440,233,27723,1,0,1:0:0:0:
377,161,27877,1,0,1:0:0:0:
378,318,28031,1,2,0:0:0:0:
454,233,28185,1,0,1:0:0:0:
292,239,28338,21,2,0:0:0:0:
299,229,28646,2,0,L|233:226,1,59.4999981842042,0|0,1:0|0:0,0:0:0:0:
155,223,28954,1,8,0:0:0:0:
164,229,29415,86,0,B|182:216|205:185|164:125|104:156|104:156|80:99|13:109|-18:164|3:196|23:232|75:217|52:253|69:292|69:292|106:242|150:240,1,505.749984565735,6|0,0:0|0:0,0:0:0:0:
