osu file format v14

[General]
AudioFilename: audio.mp3
AudioLeadIn: 0
PreviewTime: 17302
Countdown: 1
SampleSet: Soft
StackLeniency: 1
Mode: 0
LetterboxInBreaks: 0
WidescreenStoryboard: 1

[Editor]
DistanceSpacing: 1
BeatDivisor: 4
GridSize: 4
TimelineZoom: 2.2

[Metadata]
Title:Hashira to JAPARI Man no Uta ANOTHER
TitleUnicode:柱とジャパリまんの歌ANOTHER
Artist:sasakure.UK
ArtistUnicode:sasakure.UK
Creator:VINXIS
Version:Normal
Source:けものフレンズ
Tags:Kemono Friends toki
BeatmapID:1267088
BeatmapSetID:584051

[Difficulty]
HPDrainRate:4
CircleSize:3
OverallDifficulty:5
ApproachRate:5
SliderMultiplier:1.25
SliderTickRate:1

[Events]
//Background and Video events
0,0,"KEMONO FRENDS.png",0,0
//Break Periods
//Storyboard Layer 0 (Background)
//Storyboard Layer 1 (Fail)
//Storyboard Layer 2 (Pass)
//Storyboard Layer 3 (Foreground)
//Storyboard Sound Samples

[TimingPoints]
1386,500,4,2,1,40,1,0
25386,-90.9090909090909,4,2,1,40,0,0
33386,-100,4,2,1,40,0,0

[Colours]
Combo1 : 210,225,240
Combo2 : 223,159,159
Combo3 : 159,223,223
Combo4 : 227,200,172

[HitObjects]
291,84,1386,6,0,L|307:222,1,125,2|0,0:0|0:0,0:0:0:0:
244,317,2386,1,0,0:0:0:0:
142,243,2886,2,0,L|148:153,1,83.3333333333333,0|0,0:0|0:0,0:0:0:0:
157,119,3386,2,0,P|215:114|284:94,2,125,2|0|0,0:0|0:0|0:0,0:0:0:0:
36,84,4886,1,0,0:0:0:0:
70,204,5386,6,0,L|64:339,1,125,2|0,0:0|0:0,0:0:0:0:
189,335,6386,2,0,L|194:210,1,125,0|0,0:0|0:0,0:0:0:0:
207,85,7386,2,0,P|262:73|427:166,2,250,2|2|2,0:1|0:1|1:1,0:0:0:0:
132,185,9886,6,0,L|120:281,1,83.3333333333333,2|0,1:2|0:0,0:0:0:0:
121,309,10386,2,0,L|215:329,1,83.3333333333333,2|0,1:2|0:0,0:0:0:0:
218,287,10886,2,0,L|228:204,1,83.3333333333333,2|2,1:2|1:2,0:0:0:0:
231,162,11386,5,2,1:1:0:0:
317,252,11886,1,0,1:0:0:0:
410,168,12386,2,0,L|428:40,1,125,0|2,1:0|0:0,0:0:0:0:
302,56,13386,5,2,1:1:0:0:
179,32,13886,2,0,L|79:37,1,83.3333333333333,2|0,1:2|0:0,0:0:0:0:
73,71,14386,2,0,L|78:171,1,83.3333333333333,2|0,1:2|0:0,0:0:0:0:
104,187,14886,2,0,L|187:189,1,83.3333333333333,2|2,1:2|1:2,0:0:0:0:
223,168,15386,6,0,P|278:176|372:346,2,250,2|2|6,0:0|0:0|0:0,0:0:0:0:
131,253,17886,5,0,0:0:0:0:
44,162,18386,2,0,L|64:29,1,125,8|4,0:0|0:3,0:0:0:0:
184,66,19386,6,0,P|236:68|283:59,1,83.3333333333333,2|2,0:0|0:0,0:0:0:0:
300,39,19886,2,0,P|352:37|399:46,1,83.3333333333333,0|0,0:0|0:0,0:0:0:0:
413,69,20386,2,0,P|415:121|406:168,1,83.3333333333333,10|0,0:0|0:0,0:0:0:0:
386,185,20886,2,0,P|384:237|393:284,1,83.3333333333333,4|4,0:3|0:3,0:0:0:0:
413,301,21386,5,2,0:0:0:0:
289,319,21886,1,0,0:0:0:0:
208,223,22386,2,0,L|226:89,1,125,8|4,0:0|0:3,0:0:0:0:
100,113,23386,5,2,0:0:0:0:
22,210,23886,1,0,0:0:0:0:
103,306,24386,2,0,L|226:343,1,125,8|0,0:0|0:0,0:0:0:0:
359,326,25386,6,0,L|499:282,1,137.500004196167,2|8,0:1|0:0,0:0:0:0:
366,223,26386,1,4,0:3:0:0:
457,120,26886,1,8,0:0:0:0:
325,79,27386,6,0,P|279:71|234:73,1,91.6666694641114,2|2,0:0|0:0,0:0:0:0:
203,106,27886,2,0,P|157:113|112:111,1,91.6666694641114,8|0,0:0|0:0,0:0:0:0:
68,124,28386,2,0,P|60:169|62:214,1,91.6666694641114,2|2,0:0|0:0,0:0:0:0:
95,246,28886,2,0,P|102:291|100:336,1,91.6666694641114,4|4,0:3|0:3,0:0:0:0:
63,363,29386,5,2,0:1:0:0:
200,372,29886,1,8,0:0:0:0:
320,305,30386,2,0,P|377:297|466:310,1,137.500004196167,4|8,0:3|0:0,0:0:0:0:
479,171,31386,6,0,L|491:33,1,137.500004196167,2|8,0:1|0:0,0:0:0:0:
357,70,32386,2,0,L|342:224,1,137.500004196167,2|2,0:0|1:2,0:0:0:0:
260,298,33386,6,0,P|205:301|128:295,1,125,2|2,1:1|1:2,0:0:0:0:
51,203,34386,1,2,1:2:0:0:
156,140,34886,2,0,L|171:46,1,83.3333333333333,2|2,1:2|1:2,0:0:0:0:
194,24,35386,6,0,P|256:21|328:43,1,125,2|2,1:1|1:2,0:0:0:0:
342,159,36386,1,2,1:2:0:0:
456,209,36886,2,0,L|439:308,1,83.3333333333333,2|2,1:2|1:2,0:0:0:0:
431,331,37386,6,0,P|386:318|305:319,1,125,2|2,1:1|1:2,0:0:0:0:
227,222,38386,2,0,P|289:224|349:209,1,125,2|2,1:2|0:0,0:0:0:0:
451,136,39386,5,6,0:0:0:0:
