osu file format v14

[General]
AudioFilename: audio.mp3
AudioLeadIn: 0
PreviewTime: 17302
Countdown: 1
SampleSet: Soft
StackLeniency: 1
Mode: 0
LetterboxInBreaks: 0
WidescreenStoryboard: 0

[Editor]
DistanceSpacing: 1.2
BeatDivisor: 6
GridSize: 4
TimelineZoom: 2.2

[Metadata]
Title:Hashira to JAPARI Man no Uta ANOTHER
TitleUnicode:柱とジャパリまんの歌ANOTHER
Artist:sasakure.UK
ArtistUnicode:sasakure.UK
Creator:VINXIS
Version:Bun
Source:けものフレンズ
Tags:Kemono Friends toki
BeatmapID:1235730
BeatmapSetID:584051

[Difficulty]
HPDrainRate:5
CircleSize:4
OverallDifficulty:7
ApproachRate:8
SliderMultiplier:1.5
SliderTickRate:1

[Events]
//Background and Video events
0,0,"KEMONO FRENDS.png",0,0
//Break Periods
//Storyboard Layer 0 (Background)
//Storyboard Layer 1 (Fail)
//Storyboard Layer 2 (Pass)
//Storyboard Layer 3 (Foreground)
//Storyboard Sound Samples

[TimingPoints]
1386,500,4,2,1,40,1,0
9386,-90.9090909090909,4,2,1,40,0,0
17386,-76.9230769230769,4,2,1,40,0,0
33386,-90.9090909090909,4,2,1,40,0,0

[Colours]
Combo1 : 210,225,240
Combo2 : 223,159,159
Combo3 : 159,223,223
Combo4 : 227,200,172

[HitObjects]
261,55,1386,5,2,0:0:0:0:
261,55,1886,2,0,L|269:169,1,100
268,154,2386,2,0,L|276:268,1,100
275,253,2886,2,0,L|283:367,1,100
472,255,3386,5,2,0:0:0:0:
472,255,3886,2,0,P|423:258|374:246,1,100
374,246,4386,2,0,P|325:242|276:254,1,100
276,254,4886,2,0,P|227:257|178:245,1,100
33,341,5386,5,2,0:0:0:0:
33,341,5886,2,0,L|27:220,1,100
28,241,6386,2,0,L|22:120,1,100
23,141,6886,2,0,L|17:20,1,100
18,41,7386,6,0,P|50:79|158:115,2,150,2|2|2,0:1|0:0|0:1,0:0:0:0:
275,130,8886,2,0,P|280:116|284:108,10,12.5
275,130,9386,6,0,P|319:135|390:124,1,110.000003356934,2|0,1:1|0:0,0:0:0:0:
383,125,9886,2,0,L|497:146,1,110.000003356934,2|0,1:2|0:0,0:0:0:0:
491,144,10386,2,0,L|377:165,1,110.000003356934,2|0,1:2|0:0,0:0:0:0:
382,163,10886,2,0,P|331:133|326:127,2,55.0000016784668,2|0|2,1:2|1:0|1:2,0:0:0:0:
173,104,11386,6,0,P|170:157|177:213,1,110.000003356934,2|0,1:1|0:0,0:0:0:0:
177,213,11886,2,0,P|180:267|173:322,1,110.000003356934,0|0,1:0|0:0,0:0:0:0:
172,322,12386,2,0,P|243:307|290:312,1,110.000003356934,0|0,1:0|0:0,0:0:0:0:
279,309,12886,2,0,L|291:197,1,110.000003356934,2|2,0:0|0:0,0:0:0:0:
499,260,13386,5,2,1:1:0:0:
499,260,13886,2,0,P|455:251|401:259,1,110.000003356934,2|0,1:2|0:0,0:0:0:0:
391,262,14386,2,0,P|348:227|297:207,1,110.000003356934,2|0,1:2|0:0,0:0:0:0:
297,207,14886,2,0,P|281:184|262:164,2,55.0000016784668,2|0|2,1:2|1:0|1:2,0:0:0:0:
297,207,15386,6,2,P|233:246|160:240,1,110.000003356934
119,231,15886,2,0,L|65:217,2,55.0000016784668
199,248,16386,2,2,P|203:173|159:108,1,110.000003356934
149,52,16886,2,0,L|130:67,10,13.7500004196167
149,52,17386,6,0,P|251:69|387:49,1,194.999991073609,6|0,0:0|0:0,0:0:0:0:
497,26,18219,1,0,0:0:0:0:
497,26,18386,2,0,L|509:163,1,129.999994049073,8|0,0:0|0:0,0:0:0:0:
508,155,18886,2,0,P|457:154|391:201,1,129.999994049073,4|4,0:3|0:3,0:0:0:0:
351,265,19386,6,0,P|300:279|282:281,1,64.9999970245363,2|0,0:0|0:0,0:0:0:0:
214,337,19719,2,0,P|163:323|145:321,1,64.9999970245363,2|0,0:0|0:0,0:0:0:0:
70,276,20052,2,0,P|67:240|68:206,1,64.9999970245363,2|0,0:0|0:0,0:0:0:0:
118,131,20386,2,0,L|190:136,2,64.9999970245363,10|0|0,0:0|0:0|0:0,0:0:0:0:
172,235,20886,2,0,L|311:226,1,129.999994049073,4|4,0:3|0:3,0:0:0:0:
377,122,21386,6,0,L|169:135,1,194.999991073609,2|0,0:0|0:0,0:0:0:0:
97,113,22052,1,0,0:0:0:0:
11,128,22219,1,0,0:0:0:0:
48,208,22386,2,0,P|121:213|181:241,1,129.999994049073,8|0,0:0|0:0,0:0:0:0:
191,32,22886,2,0,P|251:57|316:60,1,129.999994049073,4|4,0:3|0:3,0:0:0:0:
402,145,23386,6,0,L|194:158,1,194.999991073609,2|0,0:0|0:0,0:0:0:0:
85,305,24219,1,0,0:0:0:0:
129,224,24386,2,0,P|129:191|125:159,2,64.9999970245363,8|0|0,0:0|0:0|0:0,0:0:0:0:
85,305,24886,2,0,P|84:337|88:369,2,64.9999970245363
180,298,25386,6,0,P|223:308|313:285,1,129.999994049073,2|4,0:1|0:3,0:0:0:0:
345,211,25886,1,8,0:0:0:0:
456,344,26219,1,0,0:0:0:0:
486,262,26386,2,0,L|491:122,1,129.999994049073,4|0,0:3|0:0,0:0:0:0:
490,132,26886,2,0,P|421:140|368:186,1,129.999994049073,8|0,0:0|0:0,0:0:0:0:
351,265,27386,6,0,P|300:279|282:281,1,64.9999970245363,2|0,0:0|0:0,0:0:0:0:
214,337,27719,2,0,P|163:323|145:321,1,64.9999970245363,2|8,0:0|0:0,0:0:0:0:
70,276,28052,2,0,P|67:240|68:206,1,64.9999970245363,2|0,0:0|0:0,0:0:0:0:
118,131,28386,2,0,L|190:136,2,64.9999970245363,2|0|2,0:0|0:0|0:0,0:0:0:0:
180,234,28886,2,0,L|319:243,1,129.999994049073,4|4,0:3|0:3,0:0:0:0:
408,350,29386,6,0,L|200:336,1,194.999991073609,2|8,0:1|0:0,0:0:0:0:
39,182,30219,1,0,0:0:0:0:
17,91,30386,2,0,P|47:57|135:31,1,129.999994049073,4|0,0:3|0:0,0:0:0:0:
125,30,30886,2,0,P|166:33|250:90,1,129.999994049073,8|0,0:0|0:0,0:0:0:0:
344,315,31386,6,0,L|367:166,1,129.999994049073,2|0,0:1|0:0,0:0:0:0:
240,77,31886,2,0,P|177:92|134:139,1,129.999994049073,8|0,0:0|0:0,0:0:0:0:
168,315,32385,1,2,0:0:0:0:
157,250,32551,1,0,1:0:0:0:
147,186,32718,1,0,1:0:0:0:
137,122,32886,2,0,L|126:48,2,64.9999970245363,2|0|0,1:2|1:0|1:0,0:0:0:0:
238,177,33386,6,0,P|280:189|352:179,1,110.000003356934,2|0,1:1|0:0,0:0:0:0:
345,181,33886,2,0,L|367:292,1,110.000003356934,2|0,1:2|0:0,0:0:0:0:
366,289,34386,2,0,L|387:181,1,110.000003356934,2|0,1:2|0:0,0:0:0:0:
387,181,34886,2,0,P|423:194|438:208,2,55.0000016784668,2|0|2,1:2|1:0|1:2,0:0:0:0:
253,196,35386,6,0,P|239:255|239:309,1,110.000003356934,2|0,1:1|0:0,0:0:0:0:
238,304,35886,2,0,L|353:289,1,110.000003356934,2|0,1:2|0:0,0:0:0:0:
347,289,36386,2,0,L|463:275,1,110.000003356934,2|0,1:2|0:0,0:0:0:0:
456,275,36886,2,0,P|461:305|463:338,2,55.0000016784668,2|0|2,1:2|1:0|1:2,0:0:0:0:
275,230,37386,6,0,P|256:166|253:112,1,110.000003356934,2|0,1:1|1:0,0:0:0:0:
252,123,37886,2,0,L|314:110,2,55.0000016784668,2|0|0,1:2|1:0|1:0,0:0:0:0:
252,123,38386,2,0,L|128:98,1,110.000003356934,2|0,1:2|0:0,0:0:0:0:
144,101,38886,2,0,P|183:63|234:42,1,110.000003356934,2|0,0:0|0:0,0:0:0:0:
394,29,39386,5,6,0:0:0:0:
