osu file format v14

[General]
AudioFilename: audio.mp3
AudioLeadIn: 0
PreviewTime: 17239
Countdown: 0
SampleSet: Normal
StackLeniency: 0.7
Mode: 1
LetterboxInBreaks: 0
SkinPreference:FuhKuSkinV7
WidescreenStoryboard: 0

[Editor]
DistanceSpacing: 1.2
BeatDivisor: 12
GridSize: 4
TimelineZoom: 1

[Metadata]
Title:Hashira to JAPARI Man no Uta ANOTHER
TitleUnicode:柱とジャパリまんの歌ANOTHER
Artist:sasakure.UK
ArtistUnicode:sasakure.UK
Creator:]FuhKuWa[
Version:Desu
Source:
Tags:
BeatmapID:1272727
BeatmapSetID:602559

[Difficulty]
HPDrainRate:5
CircleSize:2
OverallDifficulty:5
ApproachRate:6
SliderMultiplier:1.4
SliderTickRate:1

[Events]
//Background and Video events
0,0,"Ni7d1rZ.jpg",0,0
//Break Periods
//Storyboard Layer 0 (Background)
//Storyboard Layer 1 (Fail)
//Storyboard Layer 2 (Pass)
//Storyboard Layer 3 (Foreground)
//Storyboard Sound Samples

[TimingPoints]
0,492.570396519169,4,1,0,100,1,0
17239,-100,4,1,0,100,0,1
23643,-100,4,1,0,100,0,0
25613,476.909625625944,4,1,0,100,1,0
28951,492.570396519169,4,1,0,100,1,0

[HitObjects]
252,192,985,5,8,0:0:0:0:
264,184,1231,1,0,0:0:0:0:
256,188,1477,5,8,0:0:0:0:
256,188,1970,1,8,0:0:0:0:
256,188,2462,1,0,0:0:0:0:
256,188,2955,1,0,0:0:0:0:
268,200,3201,1,6,0:0:0:0:
256,188,3447,1,0,0:0:0:0:
256,188,3940,1,0,0:0:0:0:
256,188,4433,1,0,0:0:0:0:
252,192,4740,1,8,0:0:0:0:
256,188,4925,1,0,0:0:0:0:
256,188,5110,1,0,0:0:0:0:
256,188,5418,1,0,0:0:0:0:
256,188,5910,5,8,0:0:0:0:
264,192,6239,1,6,0:0:0:0:
256,188,6403,1,0,0:0:0:0:
256,188,6649,1,12,0:0:0:0:
256,188,6895,1,8,0:0:0:0:
256,192,7142,1,0,0:0:0:0:
256,188,7388,1,2,0:0:0:0:
256,188,7881,1,2,0:0:0:0:
256,188,8373,1,2,0:0:0:0:
176,188,8866,2,2,L|264:200,1,81.6666666666667
256,188,9358,1,2,0:0:0:0:
256,188,9851,1,0,0:0:0:0:
256,188,10343,1,8,0:0:0:0:
256,188,10836,1,0,0:0:0:0:
260,184,11041,1,8,0:0:0:0:
260,188,11205,1,8,0:0:0:0:
260,188,11370,1,8,0:0:0:0:
260,188,11821,1,0,0:0:0:0:
252,192,12109,1,2,0:0:0:0:
260,188,12314,1,0,0:0:0:0:
260,188,12622,1,8,0:0:0:0:
260,188,12806,1,0,0:0:0:0:
260,188,12991,1,8,0:0:0:0:
260,188,13135,1,0,0:0:0:0:
260,188,13299,1,8,0:0:0:0:
260,188,13791,1,8,0:0:0:0:
260,188,13956,1,0,0:0:0:0:
260,188,14120,1,2,0:0:0:0:
260,188,14284,1,0,0:0:0:0:
260,188,14777,5,0,0:0:0:0:
260,188,14941,1,8,0:0:0:0:
256,184,15105,1,0,0:0:0:0:
260,188,15269,1,8,0:0:0:0:
260,188,15762,1,2,0:0:0:0:
260,188,16254,1,6,0:0:0:0:
256,192,16377,12,0,16747,0:0:0:0:
260,188,17239,5,4,0:0:0:0:
260,188,17732,1,12,0:0:0:0:
260,188,18225,1,0,0:0:0:0:
256,188,18471,1,6,0:0:0:0:
256,188,18717,1,0,0:0:0:0:
256,188,18963,1,2,0:0:0:0:
256,188,19210,1,12,0:0:0:0:
256,188,19456,1,0,0:0:0:0:
256,192,19702,12,0,20626,0:0:0:0:
256,188,20934,5,8,0:0:0:0:
256,188,21180,1,0,0:0:0:0:
256,188,21426,1,14,0:0:0:0:
200,196,21673,2,8,L|344:200,1,140
256,188,22658,1,0,0:0:0:0:
256,188,22904,1,2,0:0:0:0:
256,188,23150,2,2,L|336:200,1,81.6666666666667
256,188,23643,1,4,0:0:0:0:
256,188,24135,1,0,0:0:0:0:
256,188,24259,1,8,0:0:0:0:
256,188,24423,1,2,0:0:0:0:
256,188,24628,1,0,0:0:0:0:
256,188,24792,1,2,0:0:0:0:
256,188,24956,1,2,0:0:0:0:
256,188,25121,1,0,0:0:0:0:
256,188,25613,5,0,0:0:0:0:
256,188,25930,1,8,0:0:0:0:
256,188,26129,1,4,0:0:0:0:
256,188,26447,1,2,0:0:0:0:
256,188,26606,1,0,0:0:0:0:
244,176,26924,1,8,0:0:0:0:
244,192,27202,1,6,0:0:0:0:
256,188,27520,1,2,0:0:0:0:
256,188,27639,1,8,0:0:0:0:
256,188,27759,1,8,0:0:0:0:
256,188,27878,1,4,0:0:0:0:
256,188,27997,1,4,0:0:0:0:
256,188,28116,1,4,0:0:0:0:
256,192,28315,12,0,28951,0:0:0:0:
256,188,29443,5,4,0:0:0:0:
256,188,29936,1,8,0:0:0:0:
256,188,30428,1,0,0:0:0:0:
256,188,30921,1,0,0:0:0:0:
256,188,31454,1,8,0:0:0:0:
220,188,31742,1,0,0:0:0:0:
256,188,31906,1,6,0:0:0:0:
256,188,32398,1,8,0:0:0:0:
256,188,32645,1,0,0:0:0:0:
256,188,32891,1,2,0:0:0:0:
272,196,33096,1,8,0:0:0:0:
264,188,33219,1,0,0:0:0:0:
256,188,33384,1,0,0:0:0:0:
256,188,33876,5,0,0:0:0:0:
256,188,34369,1,8,0:0:0:0:
256,188,34861,1,0,0:0:0:0:
256,188,35026,1,2,0:0:0:0:
256,188,35190,1,4,0:0:0:0:
256,188,35354,1,12,0:0:0:0:
256,188,35846,1,0,0:0:0:0:
256,188,36011,1,2,0:0:0:0:
256,188,36175,1,6,0:0:0:0:
256,188,36339,1,4,0:0:0:0:
256,188,36832,1,8,0:0:0:0:
256,188,36996,1,0,0:0:0:0:
256,188,37160,1,2,0:0:0:0:
256,188,37324,1,4,0:0:0:0:
256,188,37817,5,4,0:0:0:0:
256,188,38309,1,12,0:0:0:0:
248,192,38802,1,8,0:0:0:0:
256,188,38966,1,0,0:0:0:0:
256,188,39130,1,8,0:0:0:0:
256,192,39294,12,0,42250,0:0:0:0:
