osu file format v14

[General]
AudioFilename: audio.mp3
AudioLeadIn: 0
PreviewTime: 70166
Countdown: 0
SampleSet: Normal
StackLeniency: 0.7
Mode: 1
LetterboxInBreaks: 0
EpilepsyWarning: 1
WidescreenStoryboard: 0

[Editor]
Bookmarks: 127540,148197,148530,151863,192155
DistanceSpacing: 1.8
BeatDivisor: 3
GridSize: 32
TimelineZoom: 2.478

[Metadata]
Title:Good bye, Mr. Jack
TitleUnicode:Good bye, Mr. Jack
Artist:sasakure.UK
ArtistUnicode:sasakure.UK
Creator:meiqth
Version:Sayonara.
Source:
Tags:LostPirika ロストピリカ sasakuration TJ.hangneil electronic Mr.Jack the ripper instrumental
BeatmapID:4288009
BeatmapSetID:2052950

[Difficulty]
HPDrainRate:7
CircleSize:5
OverallDifficulty:7
ApproachRate:5
SliderMultiplier:1.4
SliderTickRate:1

[Events]
//Background and Video events
Video,-100,"output.mp4"
0,0,"big.png",0,0
//Break Periods
2,106397,115663
2,165063,174330
//Storyboard Layer 0 (Background)
//Storyboard Layer 1 (Fail)
//Storyboard Layer 2 (Pass)
//Storyboard Layer 3 (Foreground)
//Storyboard Layer 4 (Overlay)
//Storyboard Sound Samples

[TimingPoints]
-8801,333.333333333333,4,1,0,5,1,0
-8801,-10,4,1,0,5,0,0
282,-400,4,1,0,35,0,0
448,-133.333333333333,4,1,0,35,0,0
1782,-133.333333333333,4,1,0,70,0,0
12532,-105.263157894737,4,1,0,70,0,0
21969,-117.647058823529,4,1,0,55,0,0
44448,-133.333333333333,4,1,0,65,0,0
55153,-117.647058823529,4,1,0,65,0,0
65865,-95.2380952380952,4,1,0,80,0,1
69754,-10,4,1,0,75,0,0
69864,333.333333333333,4,1,0,75,1,8
70198,333.333333333333,4,1,0,75,1,1
70198,-83.3333333333333,4,1,0,75,0,1
79364,-83.3333333333333,4,1,0,70,0,0
79530,-87.08589,4,1,0,70,0,0
79696,-87.34268,4,1,0,70,0,0
79780,-87.473206,4,1,0,70,0,0
79863,-87.60255,4,1,0,70,0,0
79946,-87.73229,4,1,0,70,0,0
80030,-87.86398,4,1,0,70,0,0
80113,-87.99449,4,1,0,70,0,0
80196,-88.12539,4,1,0,70,0,0
80280,-88.25826,4,1,0,70,0,0
80363,-88.389946,4,1,0,70,0,0
80446,-88.522026,4,1,0,70,0,0
80530,-88.6561,4,1,0,70,0,0
80613,-88.78897,4,1,0,70,0,0
80696,-88.92224,4,1,0,70,0,0
80863,-89.19162,4,1,0,70,0,0
81030,-89.46262,4,1,0,70,0,0
81113,-89.59793,4,1,0,70,0,0
81197,-89.73528,4,1,0,70,0,0
81280,-89.871414,4,1,0,70,0,0
81364,-90.009605,4,1,0,70,0,0
81447,-90.146576,4,1,0,70,0,0
81530,-90.283966,4,1,0,70,0,0
81614,-90.42343,4,1,0,70,0,0
81697,-90.56166,4,1,0,70,0,0
81780,-90.70031,4,1,0,70,0,0
81864,-90.84107,4,1,0,70,0,0
81947,-90.98058,4,1,0,70,0,0
82030,-91.12052,4,1,0,70,0,0
82196,-91.401695,4,1,0,70,0,0
82363,-91.686325,4,1,0,70,0,0
82446,-91.82844,4,1,0,70,0,0
82530,-91.972725,4,1,0,70,0,0
82613,-92.11574,4,1,0,70,0,0
82696,-92.25919,4,1,0,70,0,0
82780,-92.40484,4,1,0,70,0,0
82863,-92.549194,4,1,0,70,0,0
82947,-92.695755,4,1,0,70,0,0
83030,-92.84103,4,1,0,70,0,0
83113,-92.98675,4,1,0,70,0,0
83197,-93.1347,4,1,0,70,0,0
83280,-93.28135,4,1,0,70,0,0
83363,-93.428474,4,1,0,70,0,0
83530,-93.72587,4,1,0,70,0,0
83696,-94.02339,4,1,0,70,0,0
83779,-94.17285,4,1,0,70,0,0
83863,-94.32461,4,1,0,70,0,0
83946,-94.47503,4,1,0,70,0,0
84030,-94.62775,4,1,0,70,0,0
84113,-94.77915,4,1,0,70,0,0
84196,-94.93103,4,1,0,70,0,0
84280,-95.08523,4,1,0,70,0,0
84363,-75.28083,4,1,0,70,0,0
84419,-77.71339,4,1,0,70,0,0
84474,-80.17897,4,1,0,70,0,0
84530,-82.76979,4,1,0,70,0,0
84585,-86.5800865800866,4,1,0,70,0,0
84696,-90.95207,4,1,0,70,0,0
84752,-93.891,4,1,0,70,0,0
84808,-96.92489,4,1,0,70,0,0
84864,333.333333333333,4,1,0,55,1,0
84864,-105.263157894737,4,1,0,55,0,0
95489,-100,4,1,0,60,0,0
106567,-133.333333333333,4,1,0,34,0,0
116859,-117.647058823529,4,1,0,46,0,0
127447,-111.111111111111,4,1,0,65,0,0
138152,-105.263157894737,4,1,0,65,0,0
148863,-74.0740740740741,4,1,0,75,0,1
151863,-74.0740740740741,4,1,0,75,0,0
151975,-86.9565217391304,4,1,0,75,0,0
153197,-80,4,1,0,75,0,1
155092,-71.4285714285714,4,1,0,75,0,1
158280,-68.9655172413793,4,1,0,75,0,1
164197,-35.7142857142857,4,1,0,75,0,0
166073,-133.333333333333,4,1,0,55,0,0
175360,-133.333333333333,4,1,0,75,0,0
175530,-83.3333333333333,4,1,0,75,0,1
186197,-76.9230769230769,4,1,0,75,0,1
195363,-76.9230769230769,4,1,0,75,0,0
195509,-87.08589,4,1,0,70,0,0
195675,-87.34268,4,1,0,70,0,0
195759,-87.473206,4,1,0,70,0,0
195842,-87.60255,4,1,0,70,0,0
195925,-87.73229,4,1,0,70,0,0
196009,-87.86398,4,1,0,70,0,0
196092,-87.99449,4,1,0,70,0,0
196175,-88.12539,4,1,0,70,0,0
196259,-88.25826,4,1,0,70,0,0
196342,-88.389946,4,1,0,70,0,0
196425,-88.522026,4,1,0,70,0,0
196509,-88.6561,4,1,0,70,0,0
196592,-88.78897,4,1,0,70,0,0
196675,-88.92224,4,1,0,70,0,0
196842,-89.19162,4,1,0,70,0,0
197009,-89.46262,4,1,0,70,0,0
197092,-89.59793,4,1,0,70,0,0
197176,-89.73528,4,1,0,70,0,0
197259,-89.871414,4,1,0,70,0,0
197343,-90.009605,4,1,0,70,0,0
197426,-90.146576,4,1,0,70,0,0
197509,-90.283966,4,1,0,70,0,0
197593,-90.42343,4,1,0,70,0,0
197676,-90.56166,4,1,0,70,0,0
197759,-90.70031,4,1,0,70,0,0
197843,-90.84107,4,1,0,70,0,0
197926,-90.98058,4,1,0,70,0,0
198009,-91.12052,4,1,0,70,0,0
198175,-91.401695,4,1,0,70,0,0
198342,-91.686325,4,1,0,70,0,0
198425,-91.82844,4,1,0,70,0,0
198509,-91.972725,4,1,0,70,0,0
198592,-92.11574,4,1,0,70,0,0
198675,-92.25919,4,1,0,70,0,0
198759,-92.40484,4,1,0,70,0,0
198842,-92.549194,4,1,0,70,0,0
198926,-92.695755,4,1,0,70,0,0
199009,-92.84103,4,1,0,70,0,0
199092,-92.98675,4,1,0,70,0,0
199176,-93.1347,4,1,0,70,0,0
199259,-93.28135,4,1,0,70,0,0
199342,-93.428474,4,1,0,70,0,0
199509,-93.72587,4,1,0,70,0,0
199675,-94.02339,4,1,0,70,0,0
199758,-94.17285,4,1,0,70,0,0
199842,-94.32461,4,1,0,70,0,0
199925,-94.47503,4,1,0,70,0,0
200009,-94.62775,4,1,0,70,0,0
200092,-94.77915,4,1,0,70,0,0
200175,-94.93103,4,1,0,70,0,0
200259,-95.08523,4,1,0,70,0,0
200342,-75.28083,4,1,0,70,0,0
200398,-77.71339,4,1,0,70,0,0
200453,-80.17897,4,1,0,70,0,0
200509,-82.76979,4,1,0,70,0,0
200564,-86.5800865800866,4,1,0,70,0,0
200620,-88.15519,4,1,0,70,0,0
200675,-90.95207,4,1,0,70,0,0
200731,-93.891,4,1,0,70,0,0
200787,-96.92489,4,1,0,70,0,0
200863,333.333333333333,4,1,0,70,1,0
211446,-81.3008130081301,4,1,0,75,0,0
221446,-50,4,1,0,75,0,0

[HitObjects]
256,192,365,8,0,1698,0:0:0:0:
256,192,1865,5,4,0:0:0:0:
256,192,2365,1,0,0:0:0:0:
256,192,2865,1,0,0:0:0:0:
256,192,3032,1,0,0:0:0:0:
256,192,3115,1,0,0:0:0:0:
256,192,3198,1,0,0:0:0:0:
256,192,3698,1,0,0:0:0:0:
256,192,4198,1,0,0:0:0:0:
256,192,4532,1,0,0:0:0:0:
256,192,5032,1,0,0:0:0:0:
256,192,5532,1,0,0:0:0:0:
256,192,5698,1,0,0:0:0:0:
256,192,5782,1,0,0:0:0:0:
256,192,5865,1,8,0:0:0:0:
256,192,6365,1,8,0:0:0:0:
256,192,6865,1,8,0:0:0:0:
256,192,7198,1,0,0:0:0:0:
256,192,7698,1,0,0:0:0:0:
256,192,8198,1,0,0:0:0:0:
256,192,8365,1,0,0:0:0:0:
256,192,8448,1,0,0:0:0:0:
256,192,8532,1,0,0:0:0:0:
256,192,9032,1,0,0:0:0:0:
256,192,9532,1,0,0:0:0:0:
256,192,9865,1,0,0:0:0:0:
256,192,10365,1,0,0:0:0:0:
256,192,10865,1,0,0:0:0:0:
256,192,11032,1,0,0:0:0:0:
256,192,11115,1,0,0:0:0:0:
256,192,11198,1,8,0:0:0:0:
256,192,11698,1,8,0:0:0:0:
256,192,12198,1,8,0:0:0:0:
256,192,12365,1,8,0:0:0:0:
256,192,12532,1,4,0:0:0:0:
256,192,12698,1,8,0:0:0:0:
256,192,12865,1,0,0:0:0:0:
256,192,12948,1,8,0:0:0:0:
256,192,13115,1,8,0:0:0:0:
256,192,13198,1,0,0:0:0:0:
256,192,13365,1,8,0:0:0:0:
256,192,13448,1,8,0:0:0:0:
256,192,13698,1,8,0:0:0:0:
256,192,13865,1,0,0:0:0:0:
256,192,13948,1,0,0:0:0:0:
256,192,14032,1,8,0:0:0:0:
256,192,14115,1,8,0:0:0:0:
256,192,14198,1,8,0:0:0:0:
256,192,14282,1,0,0:0:0:0:
256,192,14365,1,8,0:0:0:0:
256,192,14448,1,8,0:0:0:0:
256,192,14532,1,0,0:0:0:0:
256,192,14698,1,8,0:0:0:0:
256,192,14782,1,0,0:0:0:0:
256,192,14948,1,0,0:0:0:0:
256,192,15032,1,8,0:0:0:0:
256,192,15198,1,0,0:0:0:0:
256,192,15365,1,8,0:0:0:0:
256,192,15532,1,8,0:0:0:0:
256,192,15615,1,0,0:0:0:0:
256,192,15782,1,0,0:0:0:0:
256,192,15865,1,8,0:0:0:0:
256,192,16032,1,8,0:0:0:0:
256,192,16115,1,0,0:0:0:0:
256,192,16365,1,8,0:0:0:0:
256,192,16532,1,0,0:0:0:0:
256,192,16698,1,8,0:0:0:0:
256,192,16865,1,0,0:0:0:0:
256,192,16948,1,8,0:0:0:0:
256,192,17115,1,8,0:0:0:0:
256,192,17198,1,0,0:0:0:0:
256,192,17282,1,0,0:0:0:0:
256,192,17365,1,8,0:0:0:0:
256,192,17448,1,0,0:0:0:0:
256,192,17615,1,0,0:0:0:0:
256,192,17698,1,8,0:0:0:0:
256,192,17865,1,0,0:0:0:0:
256,192,18032,1,8,0:0:0:0:
256,192,18198,1,0,0:0:0:0:
256,192,18282,1,8,0:0:0:0:
256,192,18448,1,8,0:0:0:0:
256,192,18532,1,0,0:0:0:0:
256,192,18698,1,8,0:0:0:0:
256,192,18782,1,8,0:0:0:0:
256,192,19032,1,8,0:0:0:0:
256,192,19198,1,0,0:0:0:0:
256,192,19282,1,8,0:0:0:0:
256,192,19365,1,0,0:0:0:0:
256,192,19448,1,8,0:0:0:0:
256,192,19532,1,8,0:0:0:0:
256,192,19615,1,8,0:0:0:0:
256,192,19698,1,0,0:0:0:0:
256,192,19782,1,0,0:0:0:0:
256,192,19865,1,8,0:0:0:0:
256,192,20032,1,8,0:0:0:0:
256,192,20115,1,0,0:0:0:0:
256,192,20282,1,0,0:0:0:0:
256,192,20365,1,8,0:0:0:0:
256,192,20532,1,0,0:0:0:0:
256,192,20698,1,8,0:0:0:0:
256,192,20865,1,8,0:0:0:0:
256,192,20948,1,0,0:0:0:0:
256,192,21032,1,8,0:0:0:0:
256,192,21198,1,0,0:0:0:0:
256,192,21365,1,8,0:0:0:0:
256,192,21448,1,0,0:0:0:0:
256,192,21532,1,8,0:0:0:0:
256,192,21615,1,8,0:0:0:0:
256,192,21698,1,0,0:0:0:0:
256,192,21865,1,12,0:0:0:0:
256,192,23198,1,4,0:0:0:0:
256,192,23532,1,0,0:0:0:0:
256,192,23698,1,8,0:0:0:0:
256,192,23865,1,0,0:0:0:0:
256,192,24032,1,8,0:0:0:0:
256,192,24365,1,8,0:0:0:0:
256,192,24532,1,0,0:0:0:0:
256,192,24865,1,0,0:0:0:0:
256,192,24990,1,8,0:0:0:0:
256,192,25032,1,8,0:0:0:0:
256,192,25198,1,8,0:0:0:0:
256,192,25365,1,0,0:0:0:0:
256,192,25698,1,0,0:0:0:0:
256,192,25865,1,8,0:0:0:0:
256,192,26032,1,0,0:0:0:0:
256,192,26198,1,8,0:0:0:0:
256,192,26365,1,8,0:0:0:0:
256,192,26532,1,0,0:0:0:0:
256,192,26698,1,8,0:0:0:0:
256,192,26865,1,8,0:0:0:0:
256,192,27032,1,0,0:0:0:0:
256,192,27365,1,0,0:0:0:0:
256,192,27448,1,8,0:0:0:0:
256,192,27532,1,0,0:0:0:0:
256,192,27615,1,0,0:0:0:0:
256,192,27698,1,8,0:0:0:0:
256,192,27782,1,8,0:0:0:0:
256,192,27865,1,8,0:0:0:0:
256,192,28032,1,0,0:0:0:0:
256,192,28198,1,8,0:0:0:0:
256,192,28365,1,8,0:0:0:0:
256,192,28698,1,8,0:0:0:0:
256,192,28865,1,0,0:0:0:0:
256,192,29032,1,8,0:0:0:0:
256,192,29198,1,0,0:0:0:0:
256,192,29365,1,8,0:0:0:0:
256,192,29532,1,8,0:0:0:0:
256,192,29698,1,0,0:0:0:0:
256,192,30032,1,0,0:0:0:0:
256,192,30198,1,0,0:0:0:0:
256,192,30365,1,8,0:0:0:0:
256,192,30532,1,0,0:0:0:0:
256,192,30698,1,8,0:0:0:0:
256,192,31032,1,8,0:0:0:0:
256,192,31115,1,8,0:0:0:0:
256,192,31198,1,0,0:0:0:0:
256,192,31365,1,0,0:0:0:0:
256,192,31532,1,8,0:0:0:0:
256,192,31698,1,8,0:0:0:0:
256,192,31865,1,0,0:0:0:0:
256,192,31990,1,8,0:0:0:0:
256,192,32032,1,8,0:0:0:0:
256,192,32198,1,0,0:0:0:0:
256,192,32365,1,8,0:0:0:0:
256,192,32698,1,8,0:0:0:0:
256,192,32782,1,8,0:0:0:0:
256,192,32865,1,0,0:0:0:0:
256,192,32948,1,8,0:0:0:0:
256,192,33032,1,0,0:0:0:0:
256,192,33115,1,0,0:0:0:0:
256,192,33198,1,0,0:0:0:0:
256,192,33365,1,8,0:0:0:0:
256,192,33532,1,8,0:0:0:0:
256,192,33698,1,0,0:0:0:0:
256,192,33865,1,8,0:0:0:0:
256,192,34198,1,0,0:0:0:0:
256,192,34365,1,8,0:0:0:0:
256,192,34532,1,0,0:0:0:0:
256,192,34698,1,8,0:0:0:0:
256,192,35032,1,8,0:0:0:0:
256,192,35198,1,0,0:0:0:0:
256,192,35532,1,0,0:0:0:0:
256,192,35657,1,8,0:0:0:0:
256,192,35698,1,8,0:0:0:0:
256,192,35865,1,0,0:0:0:0:
256,192,36032,1,8,0:0:0:0:
256,192,36365,1,8,0:0:0:0:
256,192,36532,1,0,0:0:0:0:
256,192,36698,1,0,0:0:0:0:
256,192,36865,1,8,0:0:0:0:
256,192,37032,1,8,0:0:0:0:
256,192,37198,1,0,0:0:0:0:
256,192,37365,1,8,0:0:0:0:
256,192,37532,1,0,0:0:0:0:
256,192,37698,1,8,0:0:0:0:
256,192,38032,1,8,0:0:0:0:
256,192,38115,1,0,0:0:0:0:
256,192,38198,1,8,0:0:0:0:
256,192,38282,1,8,0:0:0:0:
256,192,38365,1,8,0:0:0:0:
256,192,38448,1,0,0:0:0:0:
256,192,38532,1,8,0:0:0:0:
256,192,38698,1,0,0:0:0:0:
256,192,38865,1,8,0:0:0:0:
256,192,39032,1,8,0:0:0:0:
256,192,39198,1,0,0:0:0:0:
256,192,39365,1,8,0:0:0:0:
256,192,39532,1,0,0:0:0:0:
256,192,39698,1,8,0:0:0:0:
256,192,39865,1,8,0:0:0:0:
256,192,40032,1,0,0:0:0:0:
256,192,40198,1,0,0:0:0:0:
256,192,40365,1,8,0:0:0:0:
256,192,40698,1,8,0:0:0:0:
256,192,40865,1,8,0:0:0:0:
256,192,41032,1,8,0:0:0:0:
256,192,41198,1,0,0:0:0:0:
256,192,41365,1,8,0:0:0:0:
256,192,41698,1,8,0:0:0:0:
256,192,41782,1,8,0:0:0:0:
256,192,41865,1,0,0:0:0:0:
256,192,42032,1,0,0:0:0:0:
256,192,42198,1,8,0:0:0:0:
256,192,42365,1,8,0:0:0:0:
256,192,42532,1,0,0:0:0:0:
256,192,42657,1,8,0:0:0:0:
256,192,42698,1,8,0:0:0:0:
256,192,42865,1,0,0:0:0:0:
256,192,43032,1,8,0:0:0:0:
256,192,43115,1,8,0:0:0:0:
256,192,43198,1,0,0:0:0:0:
256,192,44032,1,8,0:0:0:0:
256,192,44532,1,4,0:0:0:0:
256,192,44698,1,8,0:0:0:0:
256,192,44865,1,8,0:0:0:0:
256,192,45032,1,0,0:0:0:0:
256,192,45198,1,8,0:0:0:0:
256,192,45365,1,0,0:0:0:0:
256,192,45448,1,8,0:0:0:0:
256,192,45615,1,0,0:0:0:0:
256,192,45782,1,8,0:0:0:0:
256,192,45865,1,0,0:0:0:0:
256,192,45948,1,8,0:0:0:0:
256,192,46032,1,8,0:0:0:0:
256,192,46198,1,0,0:0:0:0:
256,192,46282,1,8,0:0:0:0:
256,192,46365,1,0,0:0:0:0:
256,192,46532,1,8,0:0:0:0:
256,192,46698,1,8,0:0:0:0:
256,192,46865,1,8,0:0:0:0:
256,192,46948,1,0,0:0:0:0:
256,192,47115,1,0,0:0:0:0:
256,192,47198,1,8,0:0:0:0:
256,192,47282,1,8,0:0:0:0:
256,192,47365,1,0,0:0:0:0:
256,192,47532,1,8,0:0:0:0:
256,192,47698,1,0,0:0:0:0:
256,192,47865,1,8,0:0:0:0:
256,192,48032,1,0,0:0:0:0:
256,192,48115,1,8,0:0:0:0:
256,192,48282,1,0,0:0:0:0:
256,192,48448,1,8,0:0:0:0:
256,192,48615,1,8,0:0:0:0:
256,192,48698,1,8,0:0:0:0:
256,192,48865,1,0,0:0:0:0:
256,192,48948,1,0,0:0:0:0:
256,192,49032,1,8,0:0:0:0:
256,192,49198,1,8,0:0:0:0:
256,192,49365,1,0,0:0:0:0:
256,192,49532,1,8,0:0:0:0:
256,192,49615,1,8,0:0:0:0:
256,192,49782,1,8,0:0:0:0:
256,192,49865,1,0,0:0:0:0:
256,192,49948,1,0,0:0:0:0:
256,192,50032,1,8,0:0:0:0:
256,192,50198,1,0,0:0:0:0:
256,192,50365,1,0,0:0:0:0:
256,192,50532,1,8,0:0:0:0:
256,192,50698,1,8,0:0:0:0:
256,192,50782,1,0,0:0:0:0:
256,192,50948,1,8,0:0:0:0:
256,192,51115,1,0,0:0:0:0:
256,192,51198,1,0,0:0:0:0:
256,192,51282,1,8,0:0:0:0:
256,192,51365,1,8,0:0:0:0:
256,192,51532,1,0,0:0:0:0:
256,192,51615,1,8,0:0:0:0:
256,192,51698,1,0,0:0:0:0:
256,192,51865,1,8,0:0:0:0:
256,192,52032,1,8,0:0:0:0:
256,192,52198,1,8,0:0:0:0:
256,192,52282,1,0,0:0:0:0:
256,192,52448,1,0,0:0:0:0:
256,192,52532,1,8,0:0:0:0:
256,192,52615,1,0,0:0:0:0:
256,192,52698,1,0,0:0:0:0:
256,192,52865,1,8,0:0:0:0:
256,192,53032,1,0,0:0:0:0:
256,192,53198,1,8,0:0:0:0:
256,192,53365,1,0,0:0:0:0:
256,192,53448,1,0,0:0:0:0:
256,192,53615,1,8,0:0:0:0:
256,192,53782,1,0,0:0:0:0:
256,192,53865,1,8,0:0:0:0:
256,192,53948,1,8,0:0:0:0:
256,192,54032,1,0,0:0:0:0:
256,192,54198,1,8,0:0:0:0:
256,192,54282,1,0,0:0:0:0:
256,192,54365,1,8,0:0:0:0:
256,192,54532,1,8,0:0:0:0:
256,192,54698,1,8,0:0:0:0:
256,192,54865,1,8,0:0:0:0:
256,192,54948,1,0,0:0:0:0:
256,192,55115,1,0,0:0:0:0:
256,192,55198,1,8,0:0:0:0:
256,192,55282,1,8,0:0:0:0:
256,192,55365,1,0,0:0:0:0:
256,192,55448,1,0,0:0:0:0:
256,192,55532,1,8,0:0:0:0:
256,192,55698,1,0,0:0:0:0:
256,192,55865,1,8,0:0:0:0:
256,192,56032,1,0,0:0:0:0:
256,192,56115,1,8,0:0:0:0:
256,192,56198,1,8,0:0:0:0:
256,192,56282,1,0,0:0:0:0:
256,192,56448,1,8,0:0:0:0:
256,192,56532,1,0,0:0:0:0:
256,192,56615,1,8,0:0:0:0:
256,192,56698,1,8,0:0:0:0:
256,192,56865,1,0,0:0:0:0:
256,192,56948,1,8,0:0:0:0:
256,192,57032,1,0,0:0:0:0:
256,192,57198,1,8,0:0:0:0:
256,192,57365,1,8,0:0:0:0:
256,192,57532,1,8,0:0:0:0:
256,192,57615,1,8,0:0:0:0:
256,192,57698,1,0,0:0:0:0:
256,192,57782,1,8,0:0:0:0:
256,192,57865,1,0,0:0:0:0:
256,192,57948,1,0,0:0:0:0:
256,192,58032,1,8,0:0:0:0:
256,192,58198,1,8,0:0:0:0:
256,192,58365,1,0,0:0:0:0:
256,192,58448,1,0,0:0:0:0:
256,192,58532,1,8,0:0:0:0:
256,192,58698,1,0,0:0:0:0:
256,192,58782,1,8,0:0:0:0:
256,192,58865,1,8,0:0:0:0:
256,192,58948,1,0,0:0:0:0:
256,192,59115,1,8,0:0:0:0:
256,192,59282,1,8,0:0:0:0:
256,192,59365,1,8,0:0:0:0:
256,192,59532,1,0,0:0:0:0:
256,192,59615,1,0,0:0:0:0:
256,192,59698,1,8,0:0:0:0:
256,192,59865,1,8,0:0:0:0:
256,192,60032,1,0,0:0:0:0:
256,192,60198,1,8,0:0:0:0:
256,192,60282,1,8,0:0:0:0:
256,192,60365,1,0,0:0:0:0:
256,192,60448,1,8,0:0:0:0:
256,192,60532,1,0,0:0:0:0:
256,192,60615,1,0,0:0:0:0:
256,192,60698,1,8,0:0:0:0:
256,192,60865,1,0,0:0:0:0:
256,192,61032,1,8,0:0:0:0:
256,192,61115,1,0,0:0:0:0:
256,192,61198,1,8,0:0:0:0:
256,192,61365,1,8,0:0:0:0:
256,192,61448,1,0,0:0:0:0:
256,192,61532,1,0,0:0:0:0:
256,192,61615,1,8,0:0:0:0:
256,192,61782,1,0,0:0:0:0:
256,192,61865,1,8,0:0:0:0:
256,192,61948,1,8,0:0:0:0:
256,192,62032,1,0,0:0:0:0:
256,192,62198,1,0,0:0:0:0:
256,192,62282,1,8,0:0:0:0:
256,192,62365,1,0,0:0:0:0:
256,192,62532,1,8,0:0:0:0:
256,192,62615,1,0,0:0:0:0:
256,192,62698,1,8,0:0:0:0:
256,192,62865,1,8,0:0:0:0:
256,192,62948,1,0,0:0:0:0:
256,192,63032,1,0,0:0:0:0:
256,192,63115,1,8,0:0:0:0:
256,192,63198,1,8,0:0:0:0:
256,192,63282,1,0,0:0:0:0:
256,192,63365,1,8,0:0:0:0:
256,192,63532,1,8,0:0:0:0:
256,192,63698,1,0,0:0:0:0:
256,192,63782,1,8,0:0:0:0:
256,192,63865,1,0,0:0:0:0:
256,192,64032,1,0,0:0:0:0:
256,192,64115,1,0,0:0:0:0:
256,192,64198,1,8,0:0:0:0:
256,192,64282,1,0,0:0:0:0:
256,192,64448,1,0,0:0:0:0:
256,192,64532,1,8,0:0:0:0:
256,192,64615,1,8,0:0:0:0:
256,192,64698,1,0,0:0:0:0:
256,192,64782,1,0,0:0:0:0:
256,192,64865,1,8,0:0:0:0:
256,192,64948,1,0,0:0:0:0:
256,192,65032,1,8,0:0:0:0:
256,192,65115,1,8,0:0:0:0:
256,192,65198,1,0,0:0:0:0:
256,192,65282,1,8,0:0:0:0:
256,192,65365,1,0,0:0:0:0:
256,192,65448,1,8,0:0:0:0:
256,192,65532,1,0,0:0:0:0:
256,192,65615,1,0,0:0:0:0:
256,192,65698,1,8,0:0:0:0:
256,192,65782,1,0,0:0:0:0:
256,192,65865,1,12,0:0:0:0:
256,192,66032,1,0,0:0:0:0:
256,192,66115,1,0,0:0:0:0:
256,192,66198,1,8,0:0:0:0:
256,192,66365,1,4,0:0:0:0:
256,192,66532,1,8,0:0:0:0:
256,192,66615,1,8,0:0:0:0:
256,192,66698,1,8,0:0:0:0:
256,192,66865,1,0,0:0:0:0:
256,192,67032,1,12,0:0:0:0:
256,192,67198,1,0,0:0:0:0:
256,192,67365,1,0,0:0:0:0:
256,192,67490,1,8,0:0:0:0:
256,192,67532,1,8,0:0:0:0:
256,192,67698,1,4,0:0:0:0:
256,192,67865,1,0,0:0:0:0:
256,192,68032,1,8,0:0:0:0:
256,192,68115,1,8,0:0:0:0:
256,192,68198,1,4,0:0:0:0:
256,192,70198,1,12,0:0:0:0:
256,192,70448,1,0,0:0:0:0:
256,192,70531,1,8,0:0:0:0:
256,192,70698,1,0,0:0:0:0:
256,192,70864,1,8,0:0:0:0:
256,192,71031,1,8,0:0:0:0:
256,192,71198,1,0,0:0:0:0:
256,192,71364,1,8,0:0:0:0:
256,192,71698,1,8,0:0:0:0:
256,192,71864,1,0,0:0:0:0:
256,192,72031,1,8,0:0:0:0:
256,192,72114,1,8,0:0:0:0:
256,192,72198,1,8,0:0:0:0:
256,192,72364,1,0,0:0:0:0:
256,192,72531,1,8,0:0:0:0:
256,192,72698,1,8,0:0:0:0:
256,192,73031,1,8,0:0:0:0:
256,192,73198,1,0,0:0:0:0:
256,192,73364,1,8,0:0:0:0:
256,192,73448,1,0,0:0:0:0:
256,192,73531,1,8,0:0:0:0:
256,192,73698,1,8,0:0:0:0:
256,192,73864,1,0,0:0:0:0:
256,192,74031,1,8,0:0:0:0:
256,192,74364,1,8,0:0:0:0:
256,192,74531,1,0,0:0:0:0:
256,192,74614,1,0,0:0:0:0:
256,192,74698,1,8,0:0:0:0:
256,192,74781,1,0,0:0:0:0:
256,192,74864,1,8,0:0:0:0:
256,192,74948,1,8,0:0:0:0:
256,192,75031,1,0,0:0:0:0:
256,192,75198,1,8,0:0:0:0:
256,192,75364,1,8,0:0:0:0:
256,192,75531,1,4,0:0:0:0:
256,192,75781,1,8,0:0:0:0:
256,192,75864,1,0,0:0:0:0:
256,192,76031,1,8,0:0:0:0:
256,192,76198,1,0,0:0:0:0:
256,192,76364,1,8,0:0:0:0:
256,192,76531,1,8,0:0:0:0:
256,192,76656,1,0,0:0:0:0:
256,192,76698,1,0,0:0:0:0:
256,192,77031,1,8,0:0:0:0:
256,192,77198,1,0,0:0:0:0:
256,192,77364,1,8,0:0:0:0:
256,192,77447,1,8,0:0:0:0:
256,192,77531,1,8,0:0:0:0:
256,192,77697,1,0,0:0:0:0:
256,192,77781,1,8,0:0:0:0:
256,192,77947,1,8,0:0:0:0:
256,192,78031,1,4,0:0:0:0:
256,192,78364,1,0,0:0:0:0:
256,192,78447,1,8,0:0:0:0:
256,192,78531,1,0,0:0:0:0:
256,192,78614,1,0,0:0:0:0:
256,192,78697,1,12,0:0:0:0:
256,192,79031,1,8,0:0:0:0:
256,192,79114,1,0,0:0:0:0:
256,192,79197,1,8,0:0:0:0:
256,192,79364,1,4,0:0:0:0:
256,192,79697,1,8,0:0:0:0:
256,192,79781,1,0,0:0:0:0:
256,192,79864,1,8,0:0:0:0:
256,192,79947,1,8,0:0:0:0:
256,192,80031,1,0,0:0:0:0:
256,192,80114,1,0,0:0:0:0:
256,192,80197,1,8,0:0:0:0:
256,192,80281,1,8,0:0:0:0:
256,192,80364,1,0,0:0:0:0:
256,192,80447,1,8,0:0:0:0:
256,192,80531,1,0,0:0:0:0:
256,192,80614,1,8,0:0:0:0:
256,192,80697,1,4,0:0:0:0:
256,192,81031,1,0,0:0:0:0:
256,192,81114,1,8,0:0:0:0:
256,192,81197,1,0,0:0:0:0:
256,192,81281,1,0,0:0:0:0:
256,192,81364,1,8,0:0:0:0:
256,192,81447,1,8,0:0:0:0:
256,192,81531,1,0,0:0:0:0:
256,192,81614,1,8,0:0:0:0:
256,192,81697,1,0,0:0:0:0:
256,192,81781,1,0,0:0:0:0:
256,192,81864,1,8,0:0:0:0:
256,192,81947,1,8,0:0:0:0:
256,192,82031,1,4,0:0:0:0:
256,192,82364,1,0,0:0:0:0:
256,192,82447,1,0,0:0:0:0:
256,192,82531,1,8,0:0:0:0:
256,192,82614,1,8,0:0:0:0:
256,192,82697,1,0,0:0:0:0:
256,192,82781,1,8,0:0:0:0:
256,192,82864,1,0,0:0:0:0:
256,192,82947,1,0,0:0:0:0:
256,192,83031,1,8,0:0:0:0:
256,192,83114,1,0,0:0:0:0:
256,192,83197,1,8,0:0:0:0:
256,192,83281,1,8,0:0:0:0:
256,192,83364,1,4,0:0:0:0:
256,192,83697,1,0,0:0:0:0:
256,192,83781,1,0,0:0:0:0:
256,192,83864,1,0,0:0:0:0:
256,192,83947,1,0,0:0:0:0:
256,192,84031,1,8,0:0:0:0:
256,192,84114,1,0,0:0:0:0:
256,192,84197,1,8,0:0:0:0:
256,192,84281,1,0,0:0:0:0:
256,192,84364,1,8,0:0:0:0:
256,192,84531,1,0,0:0:0:0:
256,192,84614,1,8,0:0:0:0:
256,192,84697,1,0,0:0:0:0:
256,192,84864,1,8,0:0:0:0:
256,192,85030,1,8,0:0:0:0:
256,192,85197,1,0,0:0:0:0:
256,192,85280,1,8,0:0:0:0:
256,192,85447,1,8,0:0:0:0:
256,192,85530,1,0,0:0:0:0:
256,192,85697,1,8,0:0:0:0:
256,192,85780,1,8,0:0:0:0:
256,192,85947,1,0,0:0:0:0:
256,192,86030,1,8,0:0:0:0:
256,192,86197,1,0,0:0:0:0:
256,192,86280,1,8,0:0:0:0:
256,192,86364,1,0,0:0:0:0:
256,192,86447,1,8,0:0:0:0:
256,192,86530,1,0,0:0:0:0:
256,192,86614,1,0,0:0:0:0:
256,192,86697,1,8,0:0:0:0:
256,192,86780,1,8,0:0:0:0:
256,192,86864,1,0,0:0:0:0:
256,192,87030,1,8,0:0:0:0:
256,192,87114,1,0,0:0:0:0:
256,192,87280,1,0,0:0:0:0:
256,192,87364,1,8,0:0:0:0:
256,192,87530,1,0,0:0:0:0:
256,192,87697,1,8,0:0:0:0:
256,192,87864,1,8,0:0:0:0:
256,192,87947,1,0,0:0:0:0:
256,192,88114,1,0,0:0:0:0:
256,192,88197,1,8,0:0:0:0:
256,192,88364,1,8,0:0:0:0:
256,192,88447,1,0,0:0:0:0:
256,192,88614,1,0,0:0:0:0:
256,192,88697,1,8,0:0:0:0:
256,192,88780,1,8,0:0:0:0:
256,192,88864,1,0,0:0:0:0:
256,192,89030,1,8,0:0:0:0:
256,192,89197,1,0,0:0:0:0:
256,192,89280,1,8,0:0:0:0:
256,192,89447,1,8,0:0:0:0:
256,192,89530,1,8,0:0:0:0:
256,192,89614,1,0,0:0:0:0:
256,192,89697,1,8,0:0:0:0:
256,192,89780,1,0,0:0:0:0:
256,192,89947,1,0,0:0:0:0:
256,192,90030,1,8,0:0:0:0:
256,192,90197,1,0,0:0:0:0:
256,192,90364,1,8,0:0:0:0:
256,192,90530,1,0,0:0:0:0:
256,192,90614,1,8,0:0:0:0:
256,192,90780,1,8,0:0:0:0:
256,192,90864,1,0,0:0:0:0:
256,192,91030,1,8,0:0:0:0:
256,192,91114,1,8,0:0:0:0:
256,192,91280,1,0,0:0:0:0:
256,192,91364,1,8,0:0:0:0:
256,192,91530,1,0,0:0:0:0:
256,192,91614,1,0,0:0:0:0:
256,192,91697,1,8,0:0:0:0:
256,192,91780,1,8,0:0:0:0:
256,192,91864,1,0,0:0:0:0:
256,192,91947,1,8,0:0:0:0:
256,192,92030,1,0,0:0:0:0:
256,192,92113,1,0,0:0:0:0:
256,192,92197,1,8,0:0:0:0:
256,192,92363,1,8,0:0:0:0:
256,192,92447,1,0,0:0:0:0:
256,192,92613,1,0,0:0:0:0:
256,192,92697,1,8,0:0:0:0:
256,192,92863,1,0,0:0:0:0:
256,192,93030,1,8,0:0:0:0:
256,192,93197,1,8,0:0:0:0:
256,192,93280,1,0,0:0:0:0:
256,192,93363,1,8,0:0:0:0:
256,192,93530,1,0,0:0:0:0:
256,192,93697,1,8,0:0:0:0:
256,192,93780,1,0,0:0:0:0:
256,192,93863,1,8,0:0:0:0:
256,192,93947,1,8,0:0:0:0:
256,192,94030,1,0,0:0:0:0:
256,192,94197,1,8,0:0:0:0:
256,192,94363,1,0,0:0:0:0:
256,192,94530,1,8,0:0:0:0:
256,192,94613,1,8,0:0:0:0:
256,192,94780,1,0,0:0:0:0:
256,192,94863,1,8,0:0:0:0:
256,192,94947,1,8,0:0:0:0:
256,192,95030,1,0,0:0:0:0:
256,192,95113,1,8,0:0:0:0:
256,192,95197,1,0,0:0:0:0:
256,192,95280,1,0,0:0:0:0:
256,192,95363,1,8,0:0:0:0:
256,192,95530,1,4,0:0:0:0:
256,192,95697,1,8,0:0:0:0:
256,192,95863,1,0,0:0:0:0:
256,192,95947,1,0,0:0:0:0:
256,192,96113,1,8,0:0:0:0:
256,192,96197,1,0,0:0:0:0:
256,192,96363,1,0,0:0:0:0:
256,192,96447,1,8,0:0:0:0:
256,192,96530,1,8,0:0:0:0:
256,192,96613,1,0,0:0:0:0:
256,192,96697,1,8,0:0:0:0:
256,192,96863,1,0,0:0:0:0:
256,192,96947,1,0,0:0:0:0:
256,192,97030,1,8,0:0:0:0:
256,192,97113,1,0,0:0:0:0:
256,192,97197,1,8,0:0:0:0:
256,192,97280,1,8,0:0:0:0:
256,192,97363,1,8,0:0:0:0:
256,192,97447,1,0,0:0:0:0:
256,192,97530,1,8,0:0:0:0:
256,192,97697,1,8,0:0:0:0:
256,192,97780,1,0,0:0:0:0:
256,192,97863,1,8,0:0:0:0:
256,192,97947,1,8,0:0:0:0:
256,192,98030,1,0,0:0:0:0:
256,192,98197,1,0,0:0:0:0:
256,192,98363,1,8,0:0:0:0:
256,192,98530,1,8,0:0:0:0:
256,192,98613,1,0,0:0:0:0:
256,192,98780,1,0,0:0:0:0:
256,192,98863,1,8,0:0:0:0:
256,192,99030,1,0,0:0:0:0:
256,192,99113,1,0,0:0:0:0:
256,192,99197,1,8,0:0:0:0:
256,192,99280,1,0,0:0:0:0:
256,192,99363,1,8,0:0:0:0:
256,192,99447,1,8,0:0:0:0:
256,192,99530,1,0,0:0:0:0:
256,192,99697,1,8,0:0:0:0:
256,192,99863,1,0,0:0:0:0:
256,192,99947,1,8,0:0:0:0:
256,192,100113,1,8,0:0:0:0:
256,192,100197,1,0,0:0:0:0:
256,192,100280,1,8,0:0:0:0:
256,192,100363,1,8,0:0:0:0:
256,192,100447,1,0,0:0:0:0:
256,192,100530,1,8,0:0:0:0:
256,192,100613,1,0,0:0:0:0:
256,192,100697,1,8,0:0:0:0:
256,192,100863,1,0,0:0:0:0:
256,192,101030,1,8,0:0:0:0:
256,192,101197,1,0,0:0:0:0:
256,192,101280,1,8,0:0:0:0:
256,192,101447,1,8,0:0:0:0:
256,192,101530,1,0,0:0:0:0:
256,192,101697,1,0,0:0:0:0:
256,192,101780,1,8,0:0:0:0:
256,192,101863,1,8,0:0:0:0:
256,192,101947,1,0,0:0:0:0:
256,192,102030,1,8,0:0:0:0:
256,192,102197,1,0,0:0:0:0:
256,192,102280,1,0,0:0:0:0:
256,192,102363,1,8,0:0:0:0:
256,192,102447,1,8,0:0:0:0:
256,192,102530,1,0,0:0:0:0:
256,192,102613,1,8,0:0:0:0:
256,192,102697,1,0,0:0:0:0:
256,192,102780,1,0,0:0:0:0:
256,192,102863,1,8,0:0:0:0:
256,192,103030,1,8,0:0:0:0:
256,192,103113,1,0,0:0:0:0:
256,192,103197,1,0,0:0:0:0:
256,192,103280,1,8,0:0:0:0:
256,192,103363,1,8,0:0:0:0:
256,192,103530,1,0,0:0:0:0:
256,192,103697,1,8,0:0:0:0:
256,192,103863,1,8,0:0:0:0:
256,192,103947,1,0,0:0:0:0:
256,192,104030,1,8,0:0:0:0:
256,192,104197,1,0,0:0:0:0:
256,192,104363,1,8,0:0:0:0:
256,192,104447,1,0,0:0:0:0:
256,192,104530,1,8,0:0:0:0:
256,192,104613,1,8,0:0:0:0:
256,192,104697,1,0,0:0:0:0:
256,192,104863,1,8,0:0:0:0:
256,192,105030,1,0,0:0:0:0:
256,192,105197,1,8,0:0:0:0:
256,192,105280,1,8,0:0:0:0:
256,192,105447,1,0,0:0:0:0:
256,192,105530,1,8,0:0:0:0:
256,192,105613,1,8,0:0:0:0:
256,192,105697,1,0,0:0:0:0:
256,192,105780,1,8,0:0:0:0:
256,192,105863,1,0,0:0:0:0:
256,192,105947,1,0,0:0:0:0:
256,192,106030,1,8,0:0:0:0:
256,192,106197,1,4,0:0:0:0:
256,192,116863,5,8,0:0:0:0:
256,192,117030,1,8,0:0:0:0:
256,192,117197,1,8,0:0:0:0:
256,192,117280,1,8,0:0:0:0:
256,192,117363,1,0,0:0:0:0:
256,192,117530,1,0,0:0:0:0:
256,192,117697,1,8,0:0:0:0:
256,192,118030,1,0,0:0:0:0:
256,192,118197,1,8,0:0:0:0:
256,192,118530,1,0,0:0:0:0:
256,192,118697,1,8,0:0:0:0:
256,192,119030,1,0,0:0:0:0:
256,192,119155,1,8,0:0:0:0:
256,192,119197,1,8,0:0:0:0:
256,192,119363,1,8,0:0:0:0:
256,192,119697,1,8,0:0:0:0:
256,192,119863,1,0,0:0:0:0:
256,192,120030,1,8,0:0:0:0:
256,192,120197,1,8,0:0:0:0:
256,192,120363,1,0,0:0:0:0:
256,192,120530,1,8,0:0:0:0:
256,192,120655,1,0,0:0:0:0:
256,192,120697,1,0,0:0:0:0:
256,192,121030,1,0,0:0:0:0:
256,192,121197,1,8,0:0:0:0:
256,192,121363,1,0,0:0:0:0:
256,192,121697,1,0,0:0:0:0:
256,192,121863,1,8,0:0:0:0:
256,192,122030,1,0,0:0:0:0:
256,192,122197,1,8,0:0:0:0:
256,192,122363,1,8,0:0:0:0:
256,192,122530,1,8,0:0:0:0:
256,192,122613,1,8,0:0:0:0:
256,192,122697,1,0,0:0:0:0:
256,192,122863,1,0,0:0:0:0:
256,192,123030,1,8,0:0:0:0:
256,192,123363,1,0,0:0:0:0:
256,192,123530,1,8,0:0:0:0:
256,192,123863,1,0,0:0:0:0:
256,192,124030,1,8,0:0:0:0:
256,192,124363,1,0,0:0:0:0:
256,192,124530,1,8,0:0:0:0:
256,192,124697,1,8,0:0:0:0:
256,192,124863,1,8,0:0:0:0:
256,192,125197,1,8,0:0:0:0:
256,192,125363,1,0,0:0:0:0:
256,192,125697,1,0,0:0:0:0:
256,192,125863,1,8,0:0:0:0:
256,192,126030,1,0,0:0:0:0:
256,192,126197,1,0,0:0:0:0:
256,192,126280,1,8,0:0:0:0:
256,192,126363,1,8,0:0:0:0:
256,192,126530,1,8,0:0:0:0:
256,192,126697,1,0,0:0:0:0:
256,192,127030,1,0,0:0:0:0:
256,192,127197,1,0,0:0:0:0:
256,192,127530,1,12,0:0:0:0:
256,192,127697,1,8,0:0:0:0:
256,192,127780,1,8,0:0:0:0:
256,192,127863,1,0,0:0:0:0:
256,192,128030,1,8,0:0:0:0:
256,192,128197,1,0,0:0:0:0:
256,192,128363,1,8,0:0:0:0:
256,192,128447,1,0,0:0:0:0:
256,192,128530,1,0,0:0:0:0:
256,192,128613,1,8,0:0:0:0:
256,192,128780,1,0,0:0:0:0:
256,192,128863,1,8,0:0:0:0:
256,192,128947,1,0,0:0:0:0:
256,192,129030,1,0,0:0:0:0:
256,192,129197,1,8,0:0:0:0:
256,192,129280,1,0,0:0:0:0:
256,192,129363,1,8,0:0:0:0:
256,192,129530,1,0,0:0:0:0:
256,192,129697,1,0,0:0:0:0:
256,192,129863,1,0,0:0:0:0:
256,192,129947,1,0,0:0:0:0:
256,192,130030,1,8,0:0:0:0:
256,192,130113,1,0,0:0:0:0:
256,192,130197,1,8,0:0:0:0:
256,192,130280,1,8,0:0:0:0:
256,192,130363,1,0,0:0:0:0:
256,192,130530,1,0,0:0:0:0:
256,192,130697,1,8,0:0:0:0:
256,192,130780,1,8,0:0:0:0:
256,192,130863,1,0,0:0:0:0:
256,192,131030,1,8,0:0:0:0:
256,192,131113,1,8,0:0:0:0:
256,192,131197,1,0,0:0:0:0:
256,192,131280,1,8,0:0:0:0:
256,192,131447,1,0,0:0:0:0:
256,192,131530,1,8,0:0:0:0:
256,192,131613,1,8,0:0:0:0:
256,192,131697,1,0,0:0:0:0:
256,192,131863,1,8,0:0:0:0:
256,192,131947,1,8,0:0:0:0:
256,192,132030,1,0,0:0:0:0:
256,192,132197,1,0,0:0:0:0:
256,192,132363,1,8,0:0:0:0:
256,192,132530,1,0,0:0:0:0:
256,192,132613,1,0,0:0:0:0:
256,192,132697,1,8,0:0:0:0:
256,192,132780,1,0,0:0:0:0:
256,192,132863,1,8,0:0:0:0:
256,192,132947,1,8,0:0:0:0:
256,192,133030,1,0,0:0:0:0:
256,192,133197,1,8,0:0:0:0:
256,192,133363,1,0,0:0:0:0:
256,192,133447,1,8,0:0:0:0:
256,192,133530,1,0,0:0:0:0:
256,192,133697,1,0,0:0:0:0:
256,192,133780,1,8,0:0:0:0:
256,192,133863,1,8,0:0:0:0:
256,192,133947,1,0,0:0:0:0:
256,192,134113,1,8,0:0:0:0:
256,192,134197,1,0,0:0:0:0:
256,192,134280,1,0,0:0:0:0:
256,192,134363,1,8,0:0:0:0:
256,192,134530,1,8,0:0:0:0:
256,192,134613,1,0,0:0:0:0:
256,192,134697,1,8,0:0:0:0:
256,192,134863,1,0,0:0:0:0:
256,192,134947,1,8,0:0:0:0:
256,192,135030,1,0,0:0:0:0:
256,192,135197,1,0,0:0:0:0:
256,192,135280,1,8,0:0:0:0:
256,192,135363,1,8,0:0:0:0:
256,192,135447,1,0,0:0:0:0:
256,192,135530,1,8,0:0:0:0:
256,192,135613,1,0,0:0:0:0:
256,192,135697,1,0,0:0:0:0:
256,192,135863,1,0,0:0:0:0:
256,192,136030,1,8,0:0:0:0:
256,192,136113,1,0,0:0:0:0:
256,192,136197,1,8,0:0:0:0:
256,192,136363,1,8,0:0:0:0:
256,192,136447,1,8,0:0:0:0:
256,192,136530,1,0,0:0:0:0:
256,192,136613,1,8,0:0:0:0:
256,192,136780,1,8,0:0:0:0:
256,192,136863,1,0,0:0:0:0:
256,192,136947,1,0,0:0:0:0:
256,192,137030,1,8,0:0:0:0:
256,192,137197,1,0,0:0:0:0:
256,192,137280,1,8,0:0:0:0:
256,192,137363,1,0,0:0:0:0:
256,192,137530,1,8,0:0:0:0:
256,192,137613,1,0,0:0:0:0:
256,192,137697,1,8,0:0:0:0:
256,192,137780,1,0,0:0:0:0:
256,192,137863,1,8,0:0:0:0:
256,192,137947,1,8,0:0:0:0:
256,192,138113,1,0,0:0:0:0:
256,192,138197,1,12,0:0:0:0:
256,192,138363,1,8,0:0:0:0:
256,192,138447,1,8,0:0:0:0:
256,192,138530,1,0,0:0:0:0:
256,192,138697,1,8,0:0:0:0:
256,192,138780,1,8,0:0:0:0:
256,192,138863,1,0,0:0:0:0:
256,192,138947,1,8,0:0:0:0:
256,192,139030,1,0,0:0:0:0:
256,192,139113,1,0,0:0:0:0:
256,192,139197,1,0,0:0:0:0:
256,192,139280,1,8,0:0:0:0:
256,192,139447,1,0,0:0:0:0:
256,192,139530,1,8,0:0:0:0:
256,192,139613,1,0,0:0:0:0:
256,192,139697,1,0,0:0:0:0:
256,192,139863,1,8,0:0:0:0:
256,192,139947,1,0,0:0:0:0:
256,192,140030,1,8,0:0:0:0:
256,192,140113,1,8,0:0:0:0:
256,192,140197,1,0,0:0:0:0:
256,192,140363,1,0,0:0:0:0:
256,192,140530,1,0,0:0:0:0:
256,192,140613,1,0,0:0:0:0:
256,192,140697,1,8,0:0:0:0:
256,192,140780,1,0,0:0:0:0:
256,192,140863,1,8,0:0:0:0:
256,192,140947,1,8,0:0:0:0:
256,192,141030,1,0,0:0:0:0:
256,192,141197,1,0,0:0:0:0:
256,192,141280,1,8,0:0:0:0:
256,192,141363,1,8,0:0:0:0:
256,192,141447,1,8,0:0:0:0:
256,192,141530,1,0,0:0:0:0:
256,192,141697,1,8,0:0:0:0:
256,192,141780,1,8,0:0:0:0:
256,192,141863,1,0,0:0:0:0:
256,192,141947,1,8,0:0:0:0:
256,192,142113,1,0,0:0:0:0:
256,192,142197,1,8,0:0:0:0:
256,192,142280,1,0,0:0:0:0:
256,192,142363,1,8,0:0:0:0:
256,192,142447,1,8,0:0:0:0:
256,192,142530,1,0,0:0:0:0:
256,192,142613,1,8,0:0:0:0:
256,192,142697,1,0,0:0:0:0:
256,192,142863,1,8,0:0:0:0:
256,192,142947,1,0,0:0:0:0:
256,192,143030,1,8,0:0:0:0:
256,192,143113,1,8,0:0:0:0:
256,192,143197,1,0,0:0:0:0:
256,192,143280,1,0,0:0:0:0:
256,192,143363,1,8,0:0:0:0:
256,192,143530,1,0,0:0:0:0:
256,192,143613,1,8,0:0:0:0:
256,192,143697,1,0,0:0:0:0:
256,192,143863,1,8,0:0:0:0:
256,192,144030,1,0,0:0:0:0:
256,192,144113,1,0,0:0:0:0:
256,192,144197,1,8,0:0:0:0:
256,192,144280,1,0,0:0:0:0:
256,192,144363,1,0,0:0:0:0:
256,192,144447,1,8,0:0:0:0:
256,192,144530,1,8,0:0:0:0:
256,192,144613,1,0,0:0:0:0:
256,192,144780,1,8,0:0:0:0:
256,192,144863,1,0,0:0:0:0:
256,192,144947,1,0,0:0:0:0:
256,192,145030,1,8,0:0:0:0:
256,192,145197,1,8,0:0:0:0:
256,192,145280,1,0,0:0:0:0:
256,192,145363,1,8,0:0:0:0:
256,192,145447,1,8,0:0:0:0:
256,192,145530,1,0,0:0:0:0:
256,192,145613,1,8,0:0:0:0:
256,192,145697,1,0,0:0:0:0:
256,192,145863,1,0,0:0:0:0:
256,192,145947,1,8,0:0:0:0:
256,192,146030,1,8,0:0:0:0:
256,192,146113,1,0,0:0:0:0:
256,192,146197,1,0,0:0:0:0:
256,192,146280,1,8,0:0:0:0:
256,192,146363,1,0,0:0:0:0:
256,192,146530,1,0,0:0:0:0:
256,192,146697,1,8,0:0:0:0:
256,192,146780,1,0,0:0:0:0:
256,192,146863,1,8,0:0:0:0:
256,192,146947,1,0,0:0:0:0:
256,192,147030,1,8,0:0:0:0:
256,192,147113,1,8,0:0:0:0:
256,192,147197,1,0,0:0:0:0:
256,192,147280,1,8,0:0:0:0:
256,192,147363,1,0,0:0:0:0:
256,192,147530,1,0,0:0:0:0:
256,192,147613,1,0,0:0:0:0:
256,192,147697,1,8,0:0:0:0:
256,192,147780,1,8,0:0:0:0:
256,192,147863,1,0,0:0:0:0:
256,192,147947,1,8,0:0:0:0:
256,192,148030,1,0,0:0:0:0:
256,192,148113,1,0,0:0:0:0:
256,192,148197,1,8,0:0:0:0:
256,192,148252,1,0,0:0:0:0:
256,192,148308,1,0,0:0:0:0:
256,192,148363,1,8,0:0:0:0:
256,192,148447,1,8,0:0:0:0:
256,192,148530,1,0,0:0:0:0:
256,192,148586,1,0,0:0:0:0:
256,192,148641,1,0,0:0:0:0:
256,192,148697,1,8,0:0:0:0:
256,192,148780,1,8,0:0:0:0:
256,192,148863,1,4,0:0:0:0:
256,192,149113,1,4,0:0:0:0:
256,192,149363,1,12,0:0:0:0:
256,192,149697,1,12,0:0:0:0:
256,192,149947,1,4,0:0:0:0:
256,192,150197,1,12,0:0:0:0:
256,192,150697,1,4,0:0:0:0:
256,192,151030,1,12,0:0:0:0:
256,192,151280,1,12,0:0:0:0:
256,192,151530,1,4,0:0:0:0:
256,192,151863,1,12,0:0:0:0:
256,192,152086,1,8,0:0:0:0:
256,192,152197,1,0,0:0:0:0:
256,192,152419,1,0,0:0:0:0:
256,192,152530,1,8,0:0:0:0:
256,192,152641,1,0,0:0:0:0:
256,192,152752,1,0,0:0:0:0:
256,192,152863,1,8,0:0:0:0:
256,192,152975,1,8,0:0:0:0:
256,192,153086,1,0,0:0:0:0:
256,192,153197,1,12,0:0:0:0:
256,192,153697,1,4,0:0:0:0:
256,192,154197,1,12,0:0:0:0:
256,192,154697,1,12,0:0:0:0:
256,192,155197,1,12,0:0:0:0:
256,192,155447,1,12,0:0:0:0:
256,192,155697,1,12,0:0:0:0:
256,192,156030,1,12,0:0:0:0:
256,192,156363,1,12,0:0:0:0:
256,192,156697,1,12,0:0:0:0:
256,192,156863,1,12,0:0:0:0:
256,192,157197,1,12,0:0:0:0:
256,192,157447,1,12,0:0:0:0:
256,192,157697,1,12,0:0:0:0:
256,192,158030,1,12,0:0:0:0:
256,192,158363,1,12,0:0:0:0:
256,192,158697,1,12,0:0:0:0:
256,192,158863,1,12,0:0:0:0:
256,192,159197,1,12,0:0:0:0:
256,192,159363,1,12,0:0:0:0:
256,192,159697,1,12,0:0:0:0:
256,192,159863,1,12,0:0:0:0:
256,192,160113,1,12,0:0:0:0:
256,192,160363,1,12,0:0:0:0:
256,192,160697,1,12,0:0:0:0:
256,192,160947,1,12,0:0:0:0:
256,192,161197,1,12,0:0:0:0:
256,192,161530,1,12,0:0:0:0:
256,192,161697,1,12,0:0:0:0:
256,192,162030,1,12,0:0:0:0:
256,192,162197,1,12,0:0:0:0:
256,192,162447,1,12,0:0:0:0:
256,192,162697,1,12,0:0:0:0:
256,192,163030,1,12,0:0:0:0:
256,192,163363,1,12,0:0:0:0:
256,192,163697,1,12,0:0:0:0:
256,192,164030,1,12,0:0:0:0:
256,192,164863,1,4,0:0:0:0:
256,192,175530,5,12,0:0:0:0:
256,192,175780,1,0,0:0:0:0:
256,192,175863,1,8,0:0:0:0:
256,192,175947,1,8,0:0:0:0:
256,192,176030,1,0,0:0:0:0:
256,192,176197,1,8,0:0:0:0:
256,192,176363,1,8,0:0:0:0:
256,192,176530,1,0,0:0:0:0:
256,192,176697,1,8,0:0:0:0:
256,192,177030,1,8,0:0:0:0:
256,192,177113,1,8,0:0:0:0:
256,192,177197,1,0,0:0:0:0:
256,192,177280,1,0,0:0:0:0:
256,192,177363,1,8,0:0:0:0:
256,192,177447,1,8,0:0:0:0:
256,192,177530,1,8,0:0:0:0:
256,192,177613,1,8,0:0:0:0:
256,192,177697,1,0,0:0:0:0:
256,192,177863,1,8,0:0:0:0:
256,192,178030,1,8,0:0:0:0:
256,192,178363,1,8,0:0:0:0:
256,192,178530,1,0,0:0:0:0:
256,192,178697,1,8,0:0:0:0:
256,192,178780,1,0,0:0:0:0:
256,192,178863,1,8,0:0:0:0:
256,192,178947,1,8,0:0:0:0:
256,192,179030,1,0,0:0:0:0:
256,192,179197,1,0,0:0:0:0:
256,192,179363,1,8,0:0:0:0:
256,192,179697,1,8,0:0:0:0:
256,192,179863,1,0,0:0:0:0:
256,192,179988,1,8,0:0:0:0:
256,192,180030,1,8,0:0:0:0:
256,192,180197,1,8,0:0:0:0:
256,192,180363,1,0,0:0:0:0:
256,192,180447,1,0,0:0:0:0:
256,192,180530,1,8,0:0:0:0:
256,192,180697,1,8,0:0:0:0:
256,192,180863,1,4,0:0:0:0:
256,192,181113,1,8,0:0:0:0:
256,192,181197,1,0,0:0:0:0:
256,192,181280,1,0,0:0:0:0:
256,192,181363,1,8,0:0:0:0:
256,192,181530,1,0,0:0:0:0:
256,192,181697,1,8,0:0:0:0:
256,192,181863,1,8,0:0:0:0:
256,192,182030,1,0,0:0:0:0:
256,192,182363,1,8,0:0:0:0:
256,192,182447,1,0,0:0:0:0:
256,192,182530,1,8,0:0:0:0:
256,192,182613,1,8,0:0:0:0:
256,192,182697,1,0,0:0:0:0:
256,192,182780,1,0,0:0:0:0:
256,192,182863,1,8,0:0:0:0:
256,192,183030,1,0,0:0:0:0:
256,192,183113,1,8,0:0:0:0:
256,192,183197,1,0,0:0:0:0:
256,192,183363,1,8,0:0:0:0:
256,192,183697,1,8,0:0:0:0:
256,192,183863,1,0,0:0:0:0:
256,192,184030,1,8,0:0:0:0:
256,192,184113,1,0,0:0:0:0:
256,192,184197,1,8,0:0:0:0:
256,192,184363,1,8,0:0:0:0:
256,192,184530,1,0,0:0:0:0:
256,192,184697,1,8,0:0:0:0:
256,192,185030,1,8,0:0:0:0:
256,192,185197,1,0,0:0:0:0:
256,192,185322,1,8,0:0:0:0:
256,192,185363,1,8,0:0:0:0:
256,192,185530,1,8,0:0:0:0:
256,192,185697,1,0,0:0:0:0:
256,192,185780,1,0,0:0:0:0:
256,192,185863,1,8,0:0:0:0:
256,192,186030,1,8,0:0:0:0:
256,192,186197,1,4,0:0:0:0:
256,192,186280,1,8,0:0:0:0:
256,192,186447,1,8,0:0:0:0:
256,191,186697,1,8,0:0:0:0:
256,191,186780,1,0,0:0:0:0:
256,192,186947,1,8,0:0:0:0:
256,192,187197,1,8,0:0:0:0:
256,192,187280,1,0,0:0:0:0:
256,192,187447,1,8,0:0:0:0:
256,192,187613,1,8,0:0:0:0:
256,192,187780,1,0,0:0:0:0:
256,191,187863,1,8,0:0:0:0:
256,191,187947,1,0,0:0:0:0:
256,192,188030,1,0,0:0:0:0:
256,191,188113,1,8,0:0:0:0:
256,191,188197,1,8,0:0:0:0:
256,191,188280,1,0,0:0:0:0:
256,191,188363,1,0,0:0:0:0:
256,192,188447,1,0,0:0:0:0:
256,192,188530,1,8,0:0:0:0:
256,192,188655,1,0,0:0:0:0:
256,192,188780,1,8,0:0:0:0:
256,192,188947,1,8,0:0:0:0:
256,192,189030,1,8,0:0:0:0:
256,192,189113,1,0,0:0:0:0:
256,192,189197,1,8,0:0:0:0:
256,192,189280,1,8,0:0:0:0:
256,192,189363,1,8,0:0:0:0:
256,192,189530,1,0,0:0:0:0:
256,192,189697,1,8,0:0:0:0:
256,192,189863,1,0,0:0:0:0:
256,192,189947,1,8,0:0:0:0:
256,192,190030,1,0,0:0:0:0:
256,192,190113,1,0,0:0:0:0:
256,192,190197,1,8,0:0:0:0:
256,192,190280,1,8,0:0:0:0:
256,192,190363,1,8,0:0:0:0:
256,192,190447,1,0,0:0:0:0:
256,192,190530,1,8,0:0:0:0:
256,192,190613,1,0,0:0:0:0:
256,192,190697,1,8,0:0:0:0:
256,192,190780,1,8,0:0:0:0:
256,192,190863,1,0,0:0:0:0:
256,192,190947,1,0,0:0:0:0:
256,192,191030,1,8,0:0:0:0:
256,192,191113,1,0,0:0:0:0:
256,192,191197,1,8,0:0:0:0:
256,192,191280,1,0,0:0:0:0:
256,192,191363,1,8,0:0:0:0:
256,192,191530,1,0,0:0:0:0:
256,192,191697,1,8,0:0:0:0:
256,192,191905,1,8,0:0:0:0:
256,192,192155,1,8,0:0:0:0:
256,192,192447,1,8,0:0:0:0:
256,192,192697,1,8,0:0:0:0:
256,192,192780,1,8,0:0:0:0:
256,192,192863,1,0,0:0:0:0:
256,192,192947,1,8,0:0:0:0:
256,192,193030,1,0,0:0:0:0:
256,192,193113,1,0,0:0:0:0:
256,192,193197,1,0,0:0:0:0:
256,192,193280,1,8,0:0:0:0:
256,192,193363,1,0,0:0:0:0:
256,192,193447,1,0,0:0:0:0:
256,192,193530,1,8,0:0:0:0:
256,192,193613,1,8,0:0:0:0:
256,192,193697,1,8,0:0:0:0:
256,192,193780,1,0,0:0:0:0:
256,192,193863,1,8,0:0:0:0:
256,192,193947,1,8,0:0:0:0:
256,192,194030,1,4,0:0:0:0:
256,192,194363,1,8,0:0:0:0:
256,192,194447,1,0,0:0:0:0:
256,192,194530,1,8,0:0:0:0:
256,192,194697,1,4,0:0:0:0:
256,192,195030,1,8,0:0:0:0:
256,192,195113,1,8,0:0:0:0:
256,192,195197,1,0,0:0:0:0:
256,192,195363,1,12,0:0:0:0:
256,192,195697,1,8,0:0:0:0:
256,192,195780,1,0,0:0:0:0:
256,192,195863,1,8,0:0:0:0:
256,192,195947,1,8,0:0:0:0:
256,192,196030,1,0,0:0:0:0:
256,192,196113,1,0,0:0:0:0:
256,192,196197,1,8,0:0:0:0:
256,192,196280,1,8,0:0:0:0:
256,192,196363,1,0,0:0:0:0:
256,192,196447,1,8,0:0:0:0:
256,192,196530,1,0,0:0:0:0:
256,192,196613,1,8,0:0:0:0:
256,192,196697,1,4,0:0:0:0:
256,192,197030,1,0,0:0:0:0:
256,192,197113,1,8,0:0:0:0:
256,192,197197,1,0,0:0:0:0:
256,192,197280,1,0,0:0:0:0:
256,192,197363,1,8,0:0:0:0:
256,192,197447,1,8,0:0:0:0:
256,192,197530,1,0,0:0:0:0:
256,192,197613,1,8,0:0:0:0:
256,192,197697,1,0,0:0:0:0:
256,192,197780,1,0,0:0:0:0:
256,192,197863,1,8,0:0:0:0:
256,192,197947,1,8,0:0:0:0:
256,192,198030,1,4,0:0:0:0:
256,192,198363,1,0,0:0:0:0:
256,192,198447,1,0,0:0:0:0:
256,192,198530,1,8,0:0:0:0:
256,192,198613,1,8,0:0:0:0:
256,192,198697,1,0,0:0:0:0:
256,192,198780,1,8,0:0:0:0:
256,192,198863,1,0,0:0:0:0:
256,192,198947,1,0,0:0:0:0:
256,192,199030,1,8,0:0:0:0:
256,192,199113,1,0,0:0:0:0:
256,192,199197,1,8,0:0:0:0:
256,192,199280,1,8,0:0:0:0:
256,192,199363,1,4,0:0:0:0:
256,192,199697,1,0,0:0:0:0:
256,192,199780,1,0,0:0:0:0:
256,192,199863,1,0,0:0:0:0:
256,192,199947,1,0,0:0:0:0:
256,192,200030,1,8,0:0:0:0:
256,192,200113,1,0,0:0:0:0:
256,192,200197,1,8,0:0:0:0:
256,192,200280,1,0,0:0:0:0:
256,192,200363,1,8,0:0:0:0:
256,192,200530,1,8,0:0:0:0:
256,192,200613,1,8,0:0:0:0:
256,192,200697,1,0,0:0:0:0:
256,192,200863,1,8,0:0:0:0:
256,192,201029,1,8,0:0:0:0:
256,192,201196,1,0,0:0:0:0:
256,192,201279,1,8,0:0:0:0:
256,192,201446,1,8,0:0:0:0:
256,192,201529,1,0,0:0:0:0:
256,192,201696,1,8,0:0:0:0:
256,192,201779,1,8,0:0:0:0:
256,192,201946,1,0,0:0:0:0:
256,192,202029,1,8,0:0:0:0:
256,192,202113,1,8,0:0:0:0:
256,192,202196,1,0,0:0:0:0:
256,192,202279,1,0,0:0:0:0:
256,192,202363,1,8,0:0:0:0:
256,192,202446,1,8,0:0:0:0:
256,192,202529,1,8,0:0:0:0:
256,192,202613,1,0,0:0:0:0:
256,192,202696,1,8,0:0:0:0:
256,192,202779,1,8,0:0:0:0:
256,192,202863,1,0,0:0:0:0:
256,192,203029,1,8,0:0:0:0:
256,192,203113,1,0,0:0:0:0:
256,192,203279,1,0,0:0:0:0:
256,192,203363,1,8,0:0:0:0:
256,192,203529,1,0,0:0:0:0:
256,192,203696,1,8,0:0:0:0:
256,192,203863,1,8,0:0:0:0:
256,192,203946,1,0,0:0:0:0:
256,192,204113,1,0,0:0:0:0:
256,192,204196,1,8,0:0:0:0:
256,192,204363,1,8,0:0:0:0:
256,192,204446,1,0,0:0:0:0:
256,192,204613,1,0,0:0:0:0:
256,192,204696,1,8,0:0:0:0:
256,192,204779,1,8,0:0:0:0:
256,192,204863,1,0,0:0:0:0:
256,192,205029,1,8,0:0:0:0:
256,192,205196,1,0,0:0:0:0:
256,192,205279,1,8,0:0:0:0:
256,192,205446,1,8,0:0:0:0:
256,192,205529,1,0,0:0:0:0:
256,192,205613,1,0,0:0:0:0:
256,192,205696,1,8,0:0:0:0:
256,192,205779,1,0,0:0:0:0:
256,192,205946,1,0,0:0:0:0:
256,192,206029,1,8,0:0:0:0:
256,192,206196,1,4,0:0:0:0:
256,192,206363,1,8,0:0:0:0:
256,192,206529,1,0,0:0:0:0:
256,192,206613,1,8,0:0:0:0:
256,192,206779,1,8,0:0:0:0:
256,192,206863,1,0,0:0:0:0:
256,192,207029,1,8,0:0:0:0:
256,192,207113,1,8,0:0:0:0:
256,192,207279,1,0,0:0:0:0:
256,192,207363,1,8,0:0:0:0:
256,192,207446,1,8,0:0:0:0:
256,192,207529,1,0,0:0:0:0:
256,192,207613,1,8,0:0:0:0:
256,192,207696,1,0,0:0:0:0:
256,192,207779,1,8,0:0:0:0:
256,192,207863,1,8,0:0:0:0:
256,192,207946,1,8,0:0:0:0:
256,192,208029,1,0,0:0:0:0:
256,192,208113,1,0,0:0:0:0:
256,192,208196,1,8,0:0:0:0:
256,192,208363,1,8,0:0:0:0:
256,192,208446,1,0,0:0:0:0:
256,192,208613,1,0,0:0:0:0:
256,192,208696,1,8,0:0:0:0:
256,192,208863,1,0,0:0:0:0:
256,192,209029,1,8,0:0:0:0:
256,192,209196,1,8,0:0:0:0:
256,192,209279,1,0,0:0:0:0:
256,192,209363,1,8,0:0:0:0:
256,192,209529,1,0,0:0:0:0:
256,192,209696,1,8,0:0:0:0:
256,192,209779,1,0,0:0:0:0:
256,192,209863,1,8,0:0:0:0:
256,192,209946,1,8,0:0:0:0:
256,192,210029,1,0,0:0:0:0:
256,192,210196,1,8,0:0:0:0:
256,192,210363,1,0,0:0:0:0:
256,192,210529,1,8,0:0:0:0:
256,192,210613,1,0,0:0:0:0:
256,192,210779,1,0,0:0:0:0:
256,192,210863,1,8,0:0:0:0:
256,192,210946,1,0,0:0:0:0:
256,192,211029,1,0,0:0:0:0:
256,192,211113,1,8,0:0:0:0:
256,192,211196,1,8,0:0:0:0:
256,192,211279,1,0,0:0:0:0:
256,192,211363,1,8,0:0:0:0:
256,192,211529,1,4,0:0:0:0:
256,192,211696,1,8,0:0:0:0:
256,192,211779,1,0,0:0:0:0:
256,192,211863,1,0,0:0:0:0:
256,192,211946,1,0,0:0:0:0:
256,192,212029,1,12,0:0:0:0:
256,192,212196,1,0,0:0:0:0:
256,192,212279,1,8,0:0:0:0:
256,192,212363,1,4,0:0:0:0:
256,192,212529,1,8,0:0:0:0:
256,192,212613,1,0,0:0:0:0:
256,192,212696,1,8,0:0:0:0:
256,192,212863,1,4,0:0:0:0:
256,192,213029,1,8,0:0:0:0:
256,192,213113,1,0,0:0:0:0:
256,192,213279,1,0,0:0:0:0:
256,192,213363,1,12,0:0:0:0:
256,192,213529,1,0,0:0:0:0:
256,192,213696,1,12,0:0:0:0:
256,192,213863,1,0,0:0:0:0:
256,192,213946,1,0,0:0:0:0:
256,192,214029,1,8,0:0:0:0:
256,192,214196,1,4,0:0:0:0:
256,192,214363,1,8,0:0:0:0:
256,192,214446,1,8,0:0:0:0:
256,192,214529,1,0,0:0:0:0:
256,192,214613,1,0,0:0:0:0:
256,192,214696,1,12,0:0:0:0:
256,192,214863,1,8,0:0:0:0:
256,192,215029,1,4,0:0:0:0:
256,192,215196,1,0,0:0:0:0:
256,192,215279,1,0,0:0:0:0:
256,192,215362,1,8,0:0:0:0:
256,192,215529,1,4,0:0:0:0:
256,192,215696,1,8,0:0:0:0:
256,192,215779,1,8,0:0:0:0:
256,192,215946,1,8,0:0:0:0:
256,192,216029,1,4,0:0:0:0:
256,192,216196,1,8,0:0:0:0:
256,192,216362,1,12,0:0:0:0:
256,192,216529,1,0,0:0:0:0:
256,192,216612,1,0,0:0:0:0:
256,192,216696,1,8,0:0:0:0:
256,192,216862,1,4,0:0:0:0:
256,192,217029,1,8,0:0:0:0:
256,192,217112,1,8,0:0:0:0:
256,192,217196,1,0,0:0:0:0:
256,192,217362,1,12,0:0:0:0:
256,192,217529,1,0,0:0:0:0:
256,192,217612,1,8,0:0:0:0:
256,192,217696,1,4,0:0:0:0:
256,192,217862,1,8,0:0:0:0:
256,192,217946,1,8,0:0:0:0:
256,192,218029,1,0,0:0:0:0:
256,192,218112,1,8,0:0:0:0:
256,192,218196,1,4,0:0:0:0:
256,192,218362,1,8,0:0:0:0:
256,192,218446,1,8,0:0:0:0:
256,192,218529,1,0,0:0:0:0:
256,192,218696,1,12,0:0:0:0:
256,192,218862,1,0,0:0:0:0:
256,192,219029,1,12,0:0:0:0:
256,192,219196,1,0,0:0:0:0:
256,192,219279,1,8,0:0:0:0:
256,192,219362,1,0,0:0:0:0:
256,192,219529,1,4,0:0:0:0:
256,192,219696,1,8,0:0:0:0:
256,192,219779,1,0,0:0:0:0:
256,192,219946,1,0,0:0:0:0:
256,192,220029,1,12,0:0:0:0:
256,192,220196,1,8,0:0:0:0:
256,192,220279,1,8,0:0:0:0:
256,192,220362,1,4,0:0:0:0:
256,192,220529,1,0,0:0:0:0:
256,192,220612,1,8,0:0:0:0:
256,192,220696,1,0,0:0:0:0:
256,192,220779,1,8,0:0:0:0:
256,192,220862,1,4,0:0:0:0:
256,192,221029,1,8,0:0:0:0:
256,192,221112,1,8,0:0:0:0:
256,192,221196,1,8,0:0:0:0:
256,192,221362,1,0,0:0:0:0:
256,192,221529,1,12,0:0:0:0:
256,192,221779,1,12,0:0:0:0:
256,192,222029,1,12,0:0:0:0:
