osu file format v14

[General]
AudioFilename: audio.mp3
AudioLeadIn: 0
PreviewTime: 70145
Countdown: 0
SampleSet: Soft
StackLeniency: 0.2
Mode: 0
LetterboxInBreaks: 0
WidescreenStoryboard: 0

[Editor]
Bookmarks: 1811,12478,23145,44478,55145,65811,70145,77978,84811,95478,106145,116811,127478,138144,148811,164811,175478,186145,193978,200811,211478,221978
DistanceSpacing: 1
BeatDivisor: 4
GridSize: 8
TimelineZoom: 1.8

[Metadata]
Title:Good Bye, Mr. Jack
TitleUnicode:Good Bye, Mr. Jack
Artist:sasakure.UK
ArtistUnicode:sasakure.UK
Creator:DeviousPanda
Version:Extra
Source:
Tags:
BeatmapID:1509453
BeatmapSetID:714235

[Difficulty]
HPDrainRate:6
CircleSize:4.3
OverallDifficulty:8
ApproachRate:9.2
SliderMultiplier:2.8
SliderTickRate:1

[Events]
//Background and Video events
0,0,"goodbye.jpg",0,0
//Break Periods
2,106344,116241
//Storyboard Layer 0 (Background)
//Storyboard Layer 1 (Fail)
//Storyboard Layer 2 (Pass)
//Storyboard Layer 3 (Foreground)
//Storyboard Sound Samples

[TimingPoints]
478,333.333333333333,4,2,1,40,1,0
1811,-200,4,2,1,40,0,0
12477,-133.333333333333,4,2,1,40,0,0
23144,-200,4,2,1,40,0,0
55144,-133.333333333333,4,2,1,40,0,0
65477,-200,4,2,1,40,0,0
65811,-133.333333333333,4,2,1,40,0,0
69644,-200,4,2,1,40,0,0
70145,333.333333333333,4,2,1,40,1,0
70145,-111.111111111111,4,2,1,60,0,1
75145,-200,4,2,1,60,0,1
75478,-111.111111111111,4,2,1,60,0,1
77978,-133.333333333333,4,2,1,40,0,0
116811,-200,4,2,1,40,0,0
127478,-133.333333333333,4,2,1,40,0,0
138144,-111.111111111111,4,2,1,40,0,0
141811,-200,4,2,1,40,0,0
142144,-111.111111111111,4,2,1,40,0,0
148144,-200,4,2,1,40,0,0
148478,-133.333333333333,4,2,1,40,0,0
164311,-200,4,2,1,40,0,0
164811,-200,4,2,1,30,0,0
175478,-111.111111111111,4,2,1,60,0,1
186144,-111.111111111111,4,2,1,70,0,1
193978,-133.333333333333,4,2,1,40,0,0
211478,-133.333333333333,4,2,1,60,0,1
221978,-133.333333333333,4,2,1,80,0,0

[Colours]
Combo1 : 0,0,108
Combo2 : 128,255,255
Combo3 : 0,128,128
Combo4 : 66,66,255

[HitObjects]
99,79,1811,6,0,P|192:33|287:70,1,210,2|2,0:0|0:0,0:0:0:0:
410,62,2477,2,0,P|348:92|284:67,1,140,2|2,0:0|0:0,0:0:0:0:
285,68,2977,1,2,0:0:0:0:
82,184,3144,6,0,B|175:134|175:134|286:187,1,210,2|2,0:0|0:0,0:0:0:0:
394,180,3811,2,0,B|336:210|336:210|268:178,1,140,2|2,0:0|0:0,0:0:0:0:
269,178,4311,1,2,0:0:0:0:
47,295,4477,6,0,L|264:286,1,210,2|2,0:0|0:0,0:0:0:0:
396,292,5144,2,0,L|255:286,1,140,2|2,0:0|0:0,0:0:0:0:
256,286,5644,1,2,0:0:0:0:
228,165,5811,6,0,P|202:96|239:47,1,140,2|2,0:0|0:0,0:0:0:0:
313,243,6311,6,0,B|338:177|338:177|303:105,1,140,2|2,0:0|0:0,0:0:0:0:
231,319,6811,6,0,L|228:233,1,70,2|2,0:0|0:0,0:0:0:0:
407,17,7144,6,0,P|453:110|416:205,1,210,2|2,0:0|0:0,0:0:0:0:
424,328,7810,2,0,P|394:266|419:202,1,140,2|2,0:0|0:0,0:0:0:0:
418,203,8310,1,2,0:0:0:0:
281,31,8477,6,0,B|331:124|331:124|278:235,1,210,2|2,0:0|0:0,0:0:0:0:
285,343,9144,2,0,B|255:285|255:285|287:217,1,140,2|2,0:0|0:0,0:0:0:0:
287,218,9644,1,2,0:0:0:0:
154,14,9810,6,0,L|163:231,1,210,2|2,0:0|0:0,0:0:0:0:
157,363,10477,2,0,L|163:222,1,140,2|2,0:0|0:0,0:0:0:0:
163,223,10977,1,2,0:0:0:0:
0,149,11144,6,0,P|57:122|137:143,1,140,2|2,0:0|0:0,0:0:0:0:
163,223,11644,6,0,B|226:253|226:253|295:223,1,140,2|2,0:0|0:0,0:0:0:0:
352,95,12144,6,0,L|352:173,1,70,2|2,0:0|0:0,0:0:0:0:
159,58,12477,5,14,0:0:0:0:
352,95,12644,1,2,0:0:0:0:
159,58,12811,1,2,0:0:0:0:
159,58,12894,2,0,P|213:56|258:89,1,105.000004005432,2|0,0:0|0:0,0:0:0:0:
352,95,13144,2,0,P|298:104|249:79,1,105.000004005432,2|0,0:0|0:0,0:0:0:0:
310,16,13394,5,2,0:0:0:0:
310,16,13477,1,10,0:0:0:0:
181,148,13644,1,2,0:0:0:0:
398,284,13811,5,14,0:0:0:0:
352,95,13977,1,2,0:0:0:0:
398,284,14144,1,2,0:0:0:0:
398,284,14227,2,0,P|374:232|385:185,1,105.000004005432,2|0,0:0|0:0,0:0:0:0:
352,95,14477,2,0,P|385:141|383:189,1,105.000004005432,2|0,0:0|0:0,0:0:0:0:
295,166,14727,5,2,0:0:0:0:
295,166,14811,1,10,0:0:0:0:
465,229,14977,1,2,0:0:0:0:
279,282,15144,5,14,0:0:0:0:
465,229,15311,1,2,0:0:0:0:
279,282,15477,1,2,0:0:0:0:
279,282,15561,2,0,P|342:289|383:259,1,105.000004005432,2|0,0:0|0:0,0:0:0:0:
465,229,15811,2,0,P|402:239|371:279,1,105.000004005432,2|0,0:0|0:0,0:0:0:0:
462,327,16061,5,2,0:0:0:0:
462,327,16144,1,10,0:0:0:0:
315,198,16311,1,2,0:0:0:0:
370,375,16477,5,14,0:0:0:0:
398,133,16644,1,2,0:0:0:0:
370,375,16811,1,2,0:0:0:0:
370,375,16894,1,2,0:0:0:0:
134,224,17144,6,0,L|249:210,1,105.000004005432,10|0,0:0|0:0,0:0:0:0:
95,302,17394,2,0,L|210:288,1,105.000004005432,10|0,0:0|0:0,0:0:0:0:
50,372,17644,1,10,0:0:0:0:
40,115,17811,5,14,0:0:0:0:
95,302,17977,1,2,0:0:0:0:
40,115,18144,1,2,0:0:0:0:
40,115,18227,2,0,P|36:178|63:215,1,105.000004005432,2|0,0:0|0:0,0:0:0:0:
95,302,18477,2,0,P|86:239|53:208,1,105.000004005432,2|0,0:0|0:0,0:0:0:0:
8,287,18727,5,2,0:0:0:0:
8,287,18811,1,10,0:0:0:0:
121,147,18977,1,2,0:0:0:0:
195,327,19144,5,14,0:0:0:0:
8,287,19311,1,2,0:0:0:0:
195,327,19477,1,2,0:0:0:0:
195,327,19561,2,0,P|128:336|90:305,1,105.000004005432,2|0,0:0|0:0,0:0:0:0:
8,287,19811,2,0,P|74:292|105:331,1,105.000004005432,2|0,0:0|0:0,0:0:0:0:
28,372,20061,5,2,0:0:0:0:
28,372,20144,1,10,0:0:0:0:
152,243,20311,1,2,0:0:0:0:
0,101,20477,6,0,L|12:211,1,105.000004005432,10|0,0:0|0:0,0:0:0:0:
22,281,20811,1,2,0:0:0:0:
75,51,20977,6,0,L|87:161,1,105.000004005432,10|0,0:0|0:0,0:0:0:0:
97,230,21311,1,2,0:0:0:0:
150,1,21477,6,0,L|162:111,1,105.000004005432,10|0,0:0|0:0,0:0:0:0:
0,101,21811,5,14,0:0:0:0:
225,140,21977,1,2,0:0:0:0:
0,101,22144,1,2,0:0:0:0:
0,101,22227,1,2,0:0:0:0:
97,230,22477,5,2,0:0:0:0:
97,230,22727,1,2,0:0:0:0:
97,230,22977,1,2,0:0:0:0:
150,1,23144,5,14,0:0:0:0:
150,1,23477,5,2,0:0:0:0:
192,68,23644,2,0,P|259:92|323:74,1,140,2|6,0:0|0:0,0:0:0:0:
386,3,24144,5,2,0:0:0:0:
323,73,24311,1,2,0:0:0:0:
476,42,24477,1,6,0:0:0:0:
476,42,24977,5,2,0:0:0:0:
502,123,25143,1,2,0:0:0:0:
481,207,25310,1,6,0:0:0:0:
417,265,25477,1,2,0:0:0:0:
332,280,25643,1,2,0:0:0:0:
268,156,25811,6,0,P|308:205|312:233,1,70,6|0,0:0|0:0,0:0:0:0:
332,280,26144,1,2,0:0:0:0:
332,280,26311,1,2,0:0:0:0:
216,235,26477,1,2,0:0:0:0:
396,209,26644,1,6,0:0:0:0:
250,324,26811,1,2,0:0:0:0:
341,128,26977,1,2,0:0:0:0:
380,345,27144,6,0,P|331:359|303:352,1,70,6|2,0:0|0:0,0:0:0:0:
250,324,27394,1,2,0:0:0:0:
243,309,27477,1,2,0:0:0:0:
244,292,27561,1,2,0:0:0:0:
261,269,27644,5,2,0:0:0:0:
275,227,27727,1,2,0:0:0:0:
264,185,27811,1,2,0:0:0:0:
152,236,27977,5,6,0:0:0:0:
275,227,28144,1,2,0:0:0:0:
398,217,28311,1,2,0:0:0:0:
239,51,28477,6,0,P|228:90|237:128,1,70,6|2,0:0|0:0,0:0:0:0:
264,185,28811,1,2,0:0:0:0:
444,86,28977,2,0,B|399:94|399:94|344:85|344:85|281:93,1,140,2|6,0:0|0:0,0:0:0:0:
232,118,29477,1,2,0:0:0:0:
398,217,29644,1,2,0:0:0:0:
444,86,29811,6,0,L|448:15,1,70,6|2,0:0|0:0,0:0:0:0:
398,217,30144,2,0,L|402:288,1,70,2|2,0:0|0:0,0:0:0:0:
503,181,30477,5,2,0:0:0:0:
301,122,30644,1,6,0:0:0:0:
301,122,30977,5,2,0:0:0:0:
301,122,31061,1,2,0:0:0:0:
301,122,31144,1,6,0:0:0:0:
454,69,31311,1,2,0:0:0:0:
240,65,31477,5,2,0:0:0:0:
501,127,31644,1,2,0:0:0:0:
374,258,31811,5,2,0:0:0:0:
369,172,31977,1,6,0:0:0:0:
366,86,32144,1,2,0:0:0:0:
362,0,32311,1,2,0:0:0:0:
503,203,32477,6,0,P|465:212|427:204,1,70,6|2,0:0|0:0,0:0:0:0:
369,172,32727,1,2,0:0:0:0:
352,164,32810,1,2,0:0:0:0:
335,166,32894,1,2,0:0:0:0:
312,183,32977,5,2,0:0:0:0:
270,197,33060,1,2,0:0:0:0:
228,187,33144,1,2,0:0:0:0:
259,78,33311,6,0,L|265:125,1,35,6|0,0:0|0:0,0:0:0:0:
285,275,33477,1,2,0:0:0:0:
285,275,33644,1,2,0:0:0:0:
248,1,33811,5,14,0:0:0:0:
248,1,34144,5,2,0:0:0:0:
188,54,34311,2,0,P|166:121|193:193,1,140,2|6,0:0|0:0,0:0:0:0:
227,313,34811,6,0,P|236:278|221:233,1,70,2|2,0:0|0:0,0:0:0:0:
186,184,35144,2,0,P|166:119|188:54,1,140,6|2,0:0|0:0,0:0:0:0:
186,184,35644,5,2,0:0:0:0:
256,134,35810,1,2,0:0:0:0:
342,130,35977,1,6,0:0:0:0:
417,174,36144,2,0,L|414:252,1,70,2|2,0:0|0:0,0:0:0:0:
342,130,36477,6,0,L|339:52,1,70,6|2,0:0|0:0,0:0:0:0:
417,174,36811,1,2,0:0:0:0:
417,174,36977,1,2,0:0:0:0:
256,184,37144,1,2,0:0:0:0:
409,84,37311,1,6,0:0:0:0:
351,251,37477,1,2,0:0:0:0:
274,99,37644,1,2,0:0:0:0:
490,110,37811,6,0,P|498:149|479:196,1,70,6|2,0:0|0:0,0:0:0:0:
445,233,38061,1,2,0:0:0:0:
438,248,38144,1,2,0:0:0:0:
439,265,38228,1,2,0:0:0:0:
456,288,38311,5,2,0:0:0:0:
470,330,38394,1,2,0:0:0:0:
459,372,38477,2,0,B|421:379,1,35,2|0,0:0|0:0,0:0:0:0:
325,303,38644,6,0,B|363:310,1,35,6|0,0:0|0:0,0:0:0:0:
308,229,38811,2,0,B|346:236,1,35,2|0,0:0|0:0,0:0:0:0:
291,155,38977,2,0,B|329:162,1,35,2|0,0:0|0:0,0:0:0:0:
239,333,39144,6,0,P|231:302|249:256,1,70,6|2,0:0|0:0,0:0:0:0:
308,229,39477,1,2,0:0:0:0:
450,351,39644,2,0,B|405:343|405:343|350:352|350:352|287:344,1,140,2|6,0:0|0:0,0:0:0:0:
239,333,40144,1,2,0:0:0:0:
389,143,40311,1,2,0:0:0:0:
474,258,40477,6,0,L|395:264,1,70,6|2,0:0|0:0,0:0:0:0:
238,223,40811,2,0,L|317:229,1,70,2|2,0:0|0:0,0:0:0:0:
328,348,41144,5,2,0:0:0:0:
389,143,41311,1,6,0:0:0:0:
389,143,41644,5,2,0:0:0:0:
389,143,41727,1,2,0:0:0:0:
389,143,41811,2,0,P|403:191|397:222,1,70,6|2,0:0|0:0,0:0:0:0:
238,223,42144,5,2,0:0:0:0:
238,223,42311,1,2,0:0:0:0:
389,143,42477,1,2,0:0:0:0:
327,300,42644,1,6,0:0:0:0:
293,125,42811,1,2,0:0:0:0:
438,271,42977,1,2,0:0:0:0:
438,271,43061,1,2,0:0:0:0:
438,271,43144,5,14,0:0:0:0:
438,271,44477,5,6,0:0:0:0:
438,271,44561,1,0,0:0:0:0:
438,271,44644,2,0,P|390:278|360:264,1,70,2|2,0:0|0:0,0:0:0:0:
236,281,44977,1,2,0:0:0:0:
236,281,45144,2,0,P|298:259|396:286,1,140,2|2,0:0|0:0,0:0:0:0:
457,148,45644,5,2,0:0:0:0:
457,148,45727,1,2,0:0:0:0:
457,148,45811,2,0,B|386:170|386:170|305:139,1,140,6|2,0:0|0:0,0:0:0:0:
258,145,46311,1,2,0:0:0:0:
258,145,46477,2,0,B|293:134|293:134|334:149,1,70,2|2,0:0|0:0,0:0:0:0:
293,228,46811,5,2,0:0:0:0:
293,228,46894,2,0,L|297:313,1,70,2|2,0:0|0:0,0:0:0:0:
406,195,47144,5,6,0:0:0:0:
406,195,47227,1,2,0:0:0:0:
406,195,47311,2,0,P|422:156|414:110,1,70,2|2,0:0|0:0,0:0:0:0:
404,0,47644,1,2,0:0:0:0:
404,0,47811,2,0,P|392:76|429:137,1,140,2|2,0:0|0:0,0:0:0:0:
296,297,48311,5,2,0:0:0:0:
296,297,48394,1,2,0:0:0:0:
296,297,48478,2,0,B|273:226|273:226|304:144,1,140,6|2,0:0|0:0,0:0:0:0:
299,98,48978,1,2,0:0:0:0:
299,98,49144,2,0,B|310:133|310:133|295:174,1,70,2|2,0:0|0:0,0:0:0:0:
222,136,49477,5,2,0:0:0:0:
222,136,49561,2,0,L|132:142,1,70,2|2,0:0|0:0,0:0:0:0:
219,257,49811,6,0,P|286:284|371:262,1,140,6|2,0:0|0:0,0:0:0:0:
402,205,50311,1,2,0:0:0:0:
402,205,50477,2,0,L|392:133,1,70,2|2,0:0|0:0,0:0:0:0:
351,273,50727,2,0,L|341:345,1,70,2|2,0:0|0:0,0:0:0:0:
289,189,50977,1,2,0:0:0:0:
289,189,51061,1,2,0:0:0:0:
289,189,51144,6,0,B|264:125|264:125|302:55,1,140,6|2,0:0|0:0,0:0:0:0:
377,179,51644,1,2,0:0:0:0:
377,179,51811,2,0,B|387:214|387:214|375:245,1,70,2|2,0:0|0:0,0:0:0:0:
219,197,52144,5,2,0:0:0:0:
219,197,52227,2,0,L|290:188,1,70,2|2,0:0|0:0,0:0:0:0:
136,260,52477,6,0,P|110:191|159:113,1,140,6|2,0:0|0:0,0:0:0:0:
204,84,52977,1,2,0:0:0:0:
204,84,53144,2,0,L|284:89,1,70,2|2,0:0|0:0,0:0:0:0:
133,132,53394,2,0,L|53:137,1,70,2|2,0:0|0:0,0:0:0:0:
244,174,53644,1,2,0:0:0:0:
244,174,53727,1,2,0:0:0:0:
244,174,53811,6,0,B|308:196|308:196|401:169,1,140,6|2,0:0|0:0,0:0:0:0:
273,88,54311,1,2,0:0:0:0:
273,88,54477,2,0,B|241:77|241:77|194:90,1,70,2|2,0:0|0:0,0:0:0:0:
237,243,54811,5,2,0:0:0:0:
237,243,54894,2,0,L|245:152,1,70,2|2,0:0|0:0,0:0:0:0:
273,88,55144,6,0,P|218:79|161:115,1,105.000004005432,6|2,0:0|0:0,0:0:0:0:
109,154,55394,1,2,0:0:0:0:
109,154,55477,2,0,P|52:163|0:144,1,105.000004005432,2|2,0:0|0:0,0:0:0:0:
61,63,55810,5,2,0:0:0:0:
234,169,55977,1,2,0:0:0:0:
234,169,56060,2,0,L|223:273,1,105.000004005432,2|2,0:0|0:0,0:0:0:0:
245,68,56394,1,2,0:0:0:0:
155,323,56560,5,2,0:0:0:0:
155,323,56644,2,0,L|147:256,1,52.5000020027161,2|0,0:0|0:0,0:0:0:0:
143,184,56810,1,2,0:0:0:0:
143,184,56894,1,2,0:0:0:0:
143,184,56977,1,2,0:0:0:0:
360,238,57144,5,2,0:0:0:0:
360,238,57311,1,2,0:0:0:0:
324,325,57477,1,2,0:0:0:0:
324,325,57561,2,0,B|275:336|275:336|205:320,1,105.000004005432,2|2,0:0|0:0,0:0:0:0:
148,270,57811,6,0,P|133:208|159:155,1,105.000004005432,6|2,0:0|0:0,0:0:0:0:
192,110,58061,1,2,0:0:0:0:
192,110,58144,2,0,P|207:48|181:-5,1,105.000004005432,2|2,0:0|0:0,0:0:0:0:
106,60,58477,5,2,0:0:0:0:
225,218,58644,1,2,0:0:0:0:
225,218,58727,2,0,L|343:207,1,105.000004005432,2|2,0:0|0:0,0:0:0:0:
119,229,59061,1,2,0:0:0:0:
374,136,59227,5,2,0:0:0:0:
374,136,59311,2,0,L|277:127,1,52.5000020027161,2|0,0:0|0:0,0:0:0:0:
223,127,59477,1,2,0:0:0:0:
223,127,59561,1,2,0:0:0:0:
223,127,59644,1,2,0:0:0:0:
310,285,59811,5,2,0:0:0:0:
310,285,59977,1,2,0:0:0:0:
380,234,60144,1,2,0:0:0:0:
380,234,60227,2,0,B|394:186|394:186|366:118,1,105.000004005432,2|2,0:0|0:0,0:0:0:0:
293,98,60477,6,0,B|236:92|236:92|151:121|151:121|80:112,1,210.000008010865,6|2,0:0|0:0,0:0:0:0:
0,94,60977,1,0,0:0:0:0:
223,277,61144,6,0,B|251:222|219:159,1,105.000004005432,2|2,0:0|0:0,0:0:0:0:
190,108,61394,2,0,B|162:53|194:-10,1,105.000004005432,2|2,0:0|0:0,0:0:0:0:
334,61,61727,1,2,0:0:0:0:
334,61,61811,6,0,B|349:127|349:127|324:194|324:194|340:263,1,210.000008010865,6|2,0:0|0:0,0:0:0:0:
360,354,62311,1,2,0:0:0:0:
476,262,62477,6,0,P|409:229|332:274,1,157.500006008148,2|2,0:0|0:0,0:0:0:0:
276,305,62811,2,0,P|208:326|166:300,1,105.000004005432,2|2,0:0|0:0,0:0:0:0:
134,152,63144,6,0,L|125:260,1,105.000004005432,6|2,0:0|0:0,0:0:0:0:
69,90,63477,2,0,L|60:198,1,105.000004005432,6|2,0:0|0:0,0:0:0:0:
203,89,63811,6,0,L|212:197,1,105.000004005432,6|2,0:0|0:0,0:0:0:0:
268,27,64144,2,0,L|277:135,1,105.000004005432,6|2,0:0|0:0,0:0:0:0:
134,152,64477,6,0,L|127:239,1,52.5000020027161,6|2,0:0|0:0,0:0:0:0:
69,90,64644,2,0,L|61:177,1,52.5000020027161,6|2,0:0|0:0,0:0:0:0:
203,89,64811,6,0,L|211:187,1,52.5000020027161,6|2,0:0|0:0,0:0:0:0:
268,27,64977,2,0,L|275:118,1,52.5000020027161,6|2,0:0|0:0,0:0:0:0:
83,331,65144,5,6,0:0:0:0:
66,305,65227,1,2,0:0:0:0:
61,274,65311,1,6,0:0:0:0:
69,244,65394,1,2,0:0:0:0:
129,204,65477,6,0,L|183:212,3,35,6|2|6|2,0:0|0:0|0:0|0:0,0:0:0:0:
149,282,65811,5,14,0:0:0:0:
35,154,65977,1,2,0:0:0:0:
204,118,66144,1,2,0:0:0:0:
149,282,66311,5,2,0:0:0:0:
149,282,66394,1,2,0:0:0:0:
149,282,66477,5,2,0:0:0:0:
204,118,66643,1,2,0:0:0:0:
35,154,66810,1,2,0:0:0:0:
283,204,66977,6,0,P|317:105|253:15,1,210.000008010865,14|2,0:0|0:0,0:0:0:0:
204,118,67477,1,2,0:0:0:0:
387,70,67644,1,2,0:0:0:0:
178,30,67811,1,2,0:0:0:0:
283,204,67977,1,2,0:0:0:0:
283,204,68061,1,2,0:0:0:0:
283,204,68144,5,14,0:0:0:0:
256,192,68227,12,0,69477,0:0:0:0:
160,271,69645,6,0,L|164:293,8,17.5,2|2|2|2|2|2|2|2|2,0:0|0:0|0:0|0:0|0:0|0:0|0:0|0:0|0:0,0:0:0:0:
214,214,70145,6,0,B|263:184|263:184|391:233,1,188.999994232178,14|0,0:0|0:0,0:0:0:0:
160,271,70478,1,2,0:0:0:0:
222,97,70645,6,0,P|237:135|208:221,1,125.999996154785,2|0,0:0|0:0,0:0:0:0:
154,314,70978,2,0,P|167:254|214:214,1,125.999996154785,2|0,0:0|0:0,0:0:0:0:
222,97,71311,6,0,B|259:159|214:215|214:215|145:242|155:332,1,251.999992309571,6|2,0:0|0:0,0:0:0:0:
239,367,71811,6,0,P|252:331|245:299,1,62.9999980773927,2|0,0:0|0:0,0:0:0:0:
140,148,71978,1,2,0:0:0:0:
140,148,72061,1,2,0:0:0:0:
140,148,72145,1,2,0:0:0:0:
13,334,72311,6,0,L|83:324,1,62.9999980773926,2|0,0:0|0:0,0:0:0:0:
31,259,72478,2,0,L|101:249,1,62.9999980773926,2|0,0:0|0:0,0:0:0:0:
51,182,72645,6,0,B|118:174|118:174|212:229|212:229|310:215,1,251.999992309571,6|2,0:0|0:0,0:0:0:0:
389,203,73145,1,2,0:0:0:0:
230,62,73311,5,2,0:0:0:0:
230,62,73395,1,2,0:0:0:0:
230,62,73478,2,0,L|220:161,1,62.9999980773926,2|0,0:0|0:0,0:0:0:0:
113,348,73645,6,0,L|103:249,1,62.9999980773926,2|0,0:0|0:0,0:0:0:0:
182,311,73811,2,0,L|172:212,1,62.9999980773926,2|0,0:0|0:0,0:0:0:0:
250,269,73978,6,0,B|243:206|243:206|294:234|294:234|307:377,1,251.999992309571,6|2,0:0|0:0,0:0:0:0:
74,124,74478,5,6,0:0:0:0:
87,115,74561,1,2,0:0:0:0:
105,112,74645,1,2,0:0:0:0:
122,118,74728,1,2,0:0:0:0:
157,142,74811,5,6,0:0:0:0:
180,158,74894,1,2,0:0:0:0:
213,163,74978,1,2,0:0:0:0:
244,152,75061,1,2,0:0:0:0:
322,103,75145,6,0,L|326:157,3,35,6|2|6|2,0:0|0:0|0:0|0:0,0:0:0:0:
206,80,75478,6,0,B|192:217|192:217|216:265,1,188.999994232178,14|0,0:0|0:0,0:0:0:0:
217,2,75811,1,2,0:0:0:0:
386,193,75978,6,0,P|314:217|261:192,1,125.999996154785,2|0,0:0|0:0,0:0:0:0:
154,206,76311,2,0,P|226:182|279:207,1,125.999996154785,2|0,0:0|0:0,0:0:0:0:
386,193,76645,6,0,B|355:222|308:228|270:199|270:199|230:171|180:178|147:212,1,251.999992309571,6|2,0:0|0:0,0:0:0:0:
160,289,77145,6,0,P|190:283|214:262,1,62.9999980773926,2|0,0:0|0:0,0:0:0:0:
327,114,77311,1,2,0:0:0:0:
327,114,77395,1,2,0:0:0:0:
327,114,77478,6,0,P|394:93|458:125,1,125.999996154785,6|0,0:0|0:0,0:0:0:0:
386,193,77728,1,2,0:0:0:0:
223,109,77978,6,0,B|230:169|230:169|212:212|212:212|217:309,1,157.500006008148,10|0,0:0|0:0,0:0:0:0:
238,358,78311,5,2,0:0:0:0:
238,358,78395,1,2,0:0:0:0:
238,358,78478,1,2,0:0:0:0:
238,358,78561,1,2,0:0:0:0:
238,358,78645,6,0,L|403:342,1,157.500006008148,10|0,0:0|0:0,0:0:0:0:
466,269,78978,6,0,L|402:274,1,52.5000020027161,2|2,0:0|0:0,0:0:0:0:
288,282,79145,2,0,L|340:277,1,52.5000020027161,2|2,0:0|0:0,0:0:0:0:
375,213,79311,5,14,0:0:0:0:
507,163,79645,5,2,0:0:0:0:
487,160,79728,1,2,0:0:0:0:
466,157,79811,1,2,0:0:0:0:
447,154,79895,1,2,0:0:0:0:
429,152,79978,1,2,0:0:0:0:
375,213,80145,5,2,0:0:0:0:
355,210,80228,1,2,0:0:0:0:
334,207,80311,1,2,0:0:0:0:
315,204,80395,1,2,0:0:0:0:
297,202,80478,1,2,0:0:0:0:
243,263,80645,5,14,0:0:0:0:
243,263,80978,5,2,0:0:0:0:
220,236,81061,1,2,0:0:0:0:
211,202,81144,1,2,0:0:0:0:
218,168,81227,1,2,0:0:0:0:
238,140,81311,1,2,0:0:0:0:
297,202,81478,5,2,0:0:0:0:
320,175,81561,1,2,0:0:0:0:
329,142,81644,1,2,0:0:0:0:
322,107,81727,1,2,0:0:0:0:
302,79,81811,1,2,0:0:0:0:
238,140,81978,5,14,0:0:0:0:
238,140,82311,5,2,0:0:0:0:
190,144,82394,1,2,0:0:0:0:
142,148,82477,1,2,0:0:0:0:
94,152,82560,1,2,0:0:0:0:
46,156,82644,1,2,0:0:0:0:
220,236,82811,5,2,0:0:0:0:
268,240,82894,1,2,0:0:0:0:
316,244,82977,1,2,0:0:0:0:
364,248,83060,1,2,0:0:0:0:
412,252,83144,1,2,0:0:0:0:
238,332,83311,5,14,0:0:0:0:
238,332,83645,5,2,0:0:0:0:
240,279,83728,1,2,0:0:0:0:
243,227,83811,1,2,0:0:0:0:
245,174,83894,1,2,0:0:0:0:
248,122,83978,1,2,0:0:0:0:
93,189,84145,5,2,0:0:0:0:
93,189,84228,1,2,0:0:0:0:
93,189,84311,6,0,L|95:229,10,26.2500010013581,2|2|2|2|2|2|2|2|2|2|2,0:0|0:0|0:0|0:0|0:0|0:0|0:0|0:0|0:0|0:0|0:0,0:0:0:0:
248,122,84811,5,14,0:0:0:0:
242,322,84978,1,2,0:0:0:0:
248,122,85145,5,2,0:0:0:0:
248,122,85228,2,0,P|233:186|276:256,1,105.000004005432,2|0,0:0|0:0,0:0:0:0:
242,322,85478,2,0,P|256:257|213:187,1,105.000004005432,2|0,0:0|0:0,0:0:0:0:
162,270,85728,5,2,0:0:0:0:
162,270,85811,1,10,0:0:0:0:
319,167,85978,1,2,0:0:0:0:
100,67,86145,5,14,0:0:0:0:
297,86,86311,1,2,0:0:0:0:
100,67,86478,1,2,0:0:0:0:
100,67,86561,2,0,P|154:57|212:89,1,105.000004005432,2|0,0:0|0:0,0:0:0:0:
297,86,86811,2,0,P|242:95|184:63,1,105.000004005432,2|0,0:0|0:0,0:0:0:0:
259,5,87061,5,2,0:0:0:0:
259,5,87145,1,10,0:0:0:0:
142,154,87311,1,2,0:0:0:0:
426,274,87478,5,14,0:0:0:0:
385,79,87645,1,2,0:0:0:0:
426,274,87811,1,2,0:0:0:0:
426,274,87895,2,0,P|427:211|401:172,1,105.000004005432,2|0,0:0|0:0,0:0:0:0:
385,79,88145,2,0,P|383:141|409:180,1,105.000004005432,2|0,0:0|0:0,0:0:0:0:
472,108,88395,5,2,0:0:0:0:
472,108,88478,1,10,0:0:0:0:
339,242,88645,1,2,0:0:0:0:
182,48,88811,5,14,0:0:0:0:
472,108,88978,1,2,0:0:0:0:
182,48,89145,1,2,0:0:0:0:
182,48,89228,1,2,0:0:0:0:
339,242,89478,6,0,L|345:116,1,105.000004005432,10|0,0:0|0:0,0:0:0:0:
264,292,89728,2,0,L|270:166,1,105.000004005432,10|0,0:0|0:0,0:0:0:0:
189,342,89978,1,10,0:0:0:0:
401,320,90144,5,14,0:0:0:0:
343,137,90311,1,2,0:0:0:0:
401,320,90478,1,2,0:0:0:0:
401,320,90561,2,0,P|410:241|389:194,1,105.000004005432,2|0,0:0|0:0,0:0:0:0:
343,137,90811,2,0,P|383:204|428:228,1,105.000004005432,2|0,0:0|0:0,0:0:0:0:
449,127,91061,5,2,0:0:0:0:
449,127,91145,1,10,0:0:0:0:
315,272,91311,1,2,0:0:0:0:
189,51,91478,5,14,0:0:0:0:
343,137,91645,1,2,0:0:0:0:
189,51,91811,1,2,0:0:0:0:
189,51,91895,2,0,P|259:41|296:61,1,105.000004005432,2|0,0:0|0:0,0:0:0:0:
343,137,92145,2,0,P|293:86|288:44,1,105.000004005432,2|0,0:0|0:0,0:0:0:0:
389,50,92395,5,2,0:0:0:0:
389,50,92478,1,10,0:0:0:0:
227,143,92645,1,2,0:0:0:0:
465,203,92811,6,0,L|452:335,1,105.000004005432,14|0,0:0|0:0,0:0:0:0:
445,383,93145,1,2,0:0:0:0:
386,152,93311,6,0,L|373:284,1,105.000004005432,10|0,0:0|0:0,0:0:0:0:
366,332,93645,1,2,0:0:0:0:
307,101,93811,6,0,L|294:233,1,105.000004005432,10|0,0:0|0:0,0:0:0:0:
395,75,94145,5,14,0:0:0:0:
145,101,94311,1,2,0:0:0:0:
395,75,94478,1,2,0:0:0:0:
395,75,94561,1,2,0:0:0:0:
233,246,94811,6,0,P|217:200|252:145,1,105.000004005432,10|0,0:0|0:0,0:0:0:0:
287,298,95061,2,0,P|311:253|296:205,1,105.000004005432,10|0,0:0|0:0,0:0:0:0:
217,320,95311,1,10,0:0:0:0:
419,124,95478,6,0,L|300:133,1,105.000004005432,14|2,0:0|0:0,0:0:0:0:
95,117,95811,5,2,0:0:0:0:
95,117,95894,2,0,P|100:180|136:212,1,105.000004005432,2|0,0:0|0:0,0:0:0:0:
161,299,96144,2,0,P|155:235|119:203,1,105.000004005432,2|0,0:0|0:0,0:0:0:0:
72,284,96395,5,2,0:0:0:0:
72,284,96478,1,10,0:0:0:0:
179,137,96645,1,2,0:0:0:0:
226,323,96811,6,0,L|350:317,1,105.000004005432,14|2,0:0|0:0,0:0:0:0:
487,356,97145,5,2,0:0:0:0:
487,356,97228,2,0,P|494:285|459:244,1,105.000004005432,2|0,0:0|0:0,0:0:0:0:
407,190,97478,2,0,P|447:248|500:257,1,105.000004005432,2|0,0:0|0:0,0:0:0:0:
496,167,97728,5,2,0:0:0:0:
496,167,97811,1,10,0:0:0:0:
402,317,97978,1,2,0:0:0:0:
273,79,98145,6,0,L|263:187,1,105.000004005432,14|2,0:0|0:0,0:0:0:0:
205,296,98478,5,2,0:0:0:0:
205,296,98561,2,0,P|273:316|310:303,1,105.000004005432,2|0,0:0|0:0,0:0:0:0:
402,317,98811,2,0,P|334:297|297:310,1,105.000004005432,2|0,0:0|0:0,0:0:0:0:
345,383,99061,5,2,0:0:0:0:
345,383,99145,1,10,0:0:0:0:
261,222,99311,1,2,0:0:0:0:
117,366,99478,6,0,L|135:227,1,105.000004005432,14|2,0:0|0:0,0:0:0:0:
161,83,99811,1,2,0:0:0:0:
161,83,99895,1,2,0:0:0:0:
359,222,100145,6,0,P|306:237|247:211,1,105.000004005432,10|0,0:0|0:0,0:0:0:0:
184,175,100395,2,0,P|134:159|85:174,1,105.000004005432,10|0,0:0|0:0,0:0:0:0:
14,229,100645,1,10,0:0:0:0:
307,145,100811,6,0,L|303:34,1,105.000004005432,14|2,0:0|0:0,0:0:0:0:
260,221,101144,5,2,0:0:0:0:
260,221,101228,2,0,P|294:235|367:218,1,105.000004005432,2|0,0:0|0:0,0:0:0:0:
441,166,101478,2,0,P|405:174|356:231,1,105.000004005432,2|0,0:0|0:0,0:0:0:0:
449,255,101728,5,2,0:0:0:0:
449,255,101811,1,10,0:0:0:0:
307,145,101978,1,2,0:0:0:0:
236,330,102144,6,0,B|357:322,1,105.000004005432,14|2,0:0|0:0,0:0:0:0:
158,382,102478,5,2,0:0:0:0:
158,382,102561,2,0,P|139:326|160:280,1,105.000004005432,2|0,0:0|0:0,0:0:0:0:
152,189,102811,2,0,P|171:245|150:291,1,105.000004005432,2|0,0:0|0:0,0:0:0:0:
63,233,103061,5,2,0:0:0:0:
63,233,103144,1,10,0:0:0:0:
236,330,103311,1,2,0:0:0:0:
160,84,103478,6,0,L|151:200,1,105.000004005432,14|2,0:0|0:0,0:0:0:0:
241,26,103811,5,2,0:0:0:0:
241,26,103894,1,2,0:0:0:0:
241,26,103978,2,0,L|232:142,1,105.000004005432,10|2,0:0|0:0,0:0:0:0:
364,108,104311,5,2,0:0:0:0:
364,108,104394,1,2,0:0:0:0:
364,108,104478,2,0,L|439:97,1,52.5000020027161,10|0,0:0|0:0,0:0:0:0:
411,175,104644,2,0,L|486:164,1,52.5000020027161,2|0,0:0|0:0,0:0:0:0:
471,246,104811,5,14,0:0:0:0:
486,31,104978,1,2,0:0:0:0:
471,246,105144,1,2,0:0:0:0:
471,246,105228,1,2,0:0:0:0:
238,79,105478,6,0,P|284:48|343:54,1,105.000004005432,10|0,0:0|0:0,0:0:0:0:
224,170,105728,2,0,P|174:145|149:91,1,105.000004005432,10|0,0:0|0:0,0:0:0:0:
308,142,105978,2,0,L|305:214,1,52.5000020027161,10|0,0:0|0:0,0:0:0:0:
301,332,106144,5,14,0:0:0:0:
255,162,116811,5,2,0:0:0:0:
272,161,116978,1,2,0:0:0:0:
345,230,117144,5,2,0:0:0:0:
328,229,117228,1,2,0:0:0:0:
311,228,117311,1,2,0:0:0:0:
337,103,117478,5,2,0:0:0:0:
257,369,117644,2,0,P|239:307|264:250,1,105,2|0,0:0|0:0,0:0:0:0:
311,228,117978,5,2,0:0:0:0:
46,142,118144,2,0,P|108:125|164:151,1,105,2|0,0:0|0:0,0:0:0:0:
182,199,118478,5,2,0:0:0:0:
3,286,118644,1,2,0:0:0:0:
3,286,118978,5,2,0:0:0:0:
81,44,119144,1,2,0:0:0:0:
182,199,119311,2,0,L|36:205,1,140,2|2,0:0|0:0,0:0:0:0:
170,282,119811,5,2,0:0:0:0:
196,116,119978,1,2,0:0:0:0:
236,247,120144,1,2,0:0:0:0:
248,169,120311,1,2,0:0:0:0:
182,199,120478,1,2,0:0:0:0:
370,205,120644,6,0,P|382:146|332:81,1,140,2|2,0:0|0:0,0:0:0:0:
248,169,121144,1,2,0:0:0:0:
370,205,121311,1,2,0:0:0:0:
370,205,121644,5,2,0:0:0:0:
248,169,121811,1,2,0:0:0:0:
338,84,121978,1,2,0:0:0:0:
370,205,122144,5,2,0:0:0:0:
353,204,122311,1,2,0:0:0:0:
280,273,122477,5,2,0:0:0:0:
297,272,122561,1,2,0:0:0:0:
314,271,122644,1,2,0:0:0:0:
338,84,122811,5,2,0:0:0:0:
384,318,122978,1,2,0:0:0:0:
415,155,123311,5,2,0:0:0:0:
282,352,123478,1,2,0:0:0:0:
419,259,123811,5,2,0:0:0:0:
185,304,123978,1,2,0:0:0:0:
282,352,124311,5,2,0:0:0:0:
419,259,124478,1,2,0:0:0:0:
185,304,124644,1,2,0:0:0:0:
483,324,124811,6,0,P|513:262|469:180,1,140,2|2,0:0|0:0,0:0:0:0:
415,96,125311,2,0,P|431:162|518:197,1,140,2|2,0:0|0:0,0:0:0:0:
503,109,125811,5,2,0:0:0:0:
503,109,125978,1,2,0:0:0:0:
419,259,126144,1,2,0:0:0:0:
419,259,126228,1,2,0:0:0:0:
419,259,126311,1,2,0:0:0:0:
371,49,126478,1,2,0:0:0:0:
489,197,126644,6,0,L|338:195,1,140,2|2,0:0|0:0,0:0:0:0:
211,190,127144,1,2,0:0:0:0:
155,107,127478,6,0,P|205:84|270:103,1,105.000004005432,6|2,0:0|0:0,0:0:0:0:
320,145,127728,1,2,0:0:0:0:
320,145,127811,2,0,P|376:156|429:139,1,105.000004005432,2|2,0:0|0:0,0:0:0:0:
366,54,128144,5,2,0:0:0:0:
211,190,128311,1,2,0:0:0:0:
211,190,128394,2,0,L|222:294,1,105.000004005432,2|2,0:0|0:0,0:0:0:0:
197,87,128728,1,2,0:0:0:0:
305,335,128894,5,2,0:0:0:0:
305,335,128978,2,0,L|316:270,1,52.5000020027161,2|0,0:0|0:0,0:0:0:0:
337,190,129144,1,2,0:0:0:0:
337,190,129228,1,2,0:0:0:0:
337,190,129311,1,2,0:0:0:0:
55,338,129478,6,0,P|107:353|162:332,1,105.000004005432,2|2,0:0|0:0,0:0:0:0:
222,294,129728,1,2,0:0:0:0:
222,294,129811,2,0,L|216:231,1,52.5000020027161,2|2,0:0|0:0,0:0:0:0:
143,254,129978,2,0,L|137:191,1,52.5000020027161,2|2,0:0|0:0,0:0:0:0:
64,220,130144,6,0,L|54:114,1,105.000004005432,6|2,0:0|0:0,0:0:0:0:
48,26,130394,1,2,0:0:0:0:
48,26,130478,2,0,P|111:10|149:28,1,105.000004005432,2|2,0:0|0:0,0:0:0:0:
244,109,130811,5,2,0:0:0:0:
143,254,130978,1,2,0:0:0:0:
143,254,131061,2,0,L|153:148,1,105.000004005432,2|2,0:0|0:0,0:0:0:0:
130,356,131394,1,2,0:0:0:0:
244,109,131561,5,2,0:0:0:0:
244,109,131644,2,0,L|248:161,1,52.5000020027161,2|0,0:0|0:0,0:0:0:0:
264,257,131811,1,2,0:0:0:0:
264,257,131894,1,2,0:0:0:0:
264,257,131978,1,2,0:0:0:0:
87,152,132144,6,0,B|118:138|118:138|152:149,2,70.0000026702882,0|0|0,3:0|3:0|3:0,0:0:0:0:
278,42,132478,6,0,B|247:28|247:28|213:39,2,70.0000026702882,0|0|0,3:0|3:0|3:0,0:0:0:0:
162,253,132811,6,0,P|211:266|268:254,1,105.000004005432,6|2,0:0|0:0,0:0:0:0:
319,205,133061,1,2,0:0:0:0:
319,205,133144,2,0,P|368:192|425:204,1,105.000004005432,2|2,0:0|0:0,0:0:0:0:
371,307,133478,5,2,0:0:0:0:
219,162,133644,1,2,0:0:0:0:
219,162,133728,2,0,L|229:38,1,105.000004005432,2|2,0:0|0:0,0:0:0:0:
210,266,134061,1,2,0:0:0:0:
311,16,134228,5,2,0:0:0:0:
311,16,134311,2,0,L|318:108,1,52.5000020027161,2|0,0:0|0:0,0:0:0:0:
331,172,134478,1,2,0:0:0:0:
331,172,134561,1,2,0:0:0:0:
331,172,134644,1,2,0:0:0:0:
48,82,134811,6,0,P|95:59|152:78,1,105.000004005432,2|2,0:0|0:0,0:0:0:0:
188,135,135061,1,2,0:0:0:0:
188,135,135144,2,0,L|176:213,1,52.5000020027161,2|2,0:0|0:0,0:0:0:0:
251,194,135311,2,0,L|239:272,1,52.5000020027161,2|2,0:0|0:0,0:0:0:0:
296,318,135478,6,0,P|249:336|190:318,1,105.000004005432,6|2,0:0|0:0,0:0:0:0:
140,278,135728,1,2,0:0:0:0:
140,278,135811,2,0,P|93:260|34:278,1,105.000004005432,2|2,0:0|0:0,0:0:0:0:
87,358,136144,5,2,0:0:0:0:
243,245,136311,1,2,0:0:0:0:
243,245,136394,2,0,L|233:137,1,105.000004005432,2|2,0:0|0:0,0:0:0:0:
254,336,136728,1,2,0:0:0:0:
154,81,136894,5,2,0:0:0:0:
154,81,136978,2,0,L|146:168,1,52.5000020027161,2|0,0:0|0:0,0:0:0:0:
151,231,137144,1,2,0:0:0:0:
151,231,137228,1,2,0:0:0:0:
151,231,137311,1,2,0:0:0:0:
412,34,137478,6,0,L|347:25,1,52.5000020027161,2|0,0:0|0:0,0:0:0:0:
433,109,137644,2,0,L|368:100,1,52.5000020027161,2|0,0:0|0:0,0:0:0:0:
453,192,137811,5,2,0:0:0:0:
408,184,137894,1,2,0:0:0:0:
361,176,137978,1,2,0:0:0:0:
314,164,138061,1,2,0:0:0:0:
231,175,138144,6,0,B|207:212|207:212|230:331,1,125.999996154785,14|2,0:0|0:0,0:0:0:0:
314,164,138394,1,2,0:0:0:0:
314,164,138478,2,0,P|297:120|265:99,1,62.9999980773926,2|0,0:0|0:0,0:0:0:0:
293,242,138644,1,2,0:0:0:0:
293,242,138728,1,2,0:0:0:0:
293,242,138811,6,0,P|339:249|373:232,1,62.9999980773926,2|0,0:0|0:0,0:0:0:0:
484,265,138978,2,0,P|443:242|405:247,1,62.9999980773926,2|0,0:0|0:0,0:0:0:0:
390,373,139144,6,0,L|391:309,1,62.9999980773926,2|0,0:0|0:0,0:0:0:0:
391,113,139311,2,0,L|390:175,1,62.9999980773926,2|0,0:0|0:0,0:0:0:0:
173,158,139478,6,0,B|212:136|212:136|292:156,1,125.999996154785,14|2,0:0|0:0,0:0:0:0:
224,283,139728,1,2,0:0:0:0:
224,283,139811,2,0,L|220:203,1,62.9999980773926,2|0,0:0|0:0,0:0:0:0:
293,92,139978,2,0,L|289:172,1,62.9999980773926,2|0,0:0|0:0,0:0:0:0:
63,94,140144,6,0,L|129:82,1,62.9999980773926,2|0,0:0|0:0,0:0:0:0:
36,173,140311,2,0,L|102:161,1,62.9999980773926,2|0,0:0|0:0,0:0:0:0:
0,256,140478,5,2,0:0:0:0:
38,251,140561,1,2,0:0:0:0:
78,245,140644,1,2,0:0:0:0:
119,238,140728,1,2,0:0:0:0:
189,195,140811,6,0,B|211:154|211:154|195:73,1,125.999996154785,14|2,0:0|0:0,0:0:0:0:
119,238,141061,1,2,0:0:0:0:
119,238,141144,2,0,L|127:314,1,62.9999980773926,2|0,0:0|0:0,0:0:0:0:
289,154,141311,2,0,L|297:78,1,62.9999980773926,2|0,0:0|0:0,0:0:0:0:
228,267,141478,6,0,P|296:292|352:258,1,125.999996154785,2|2,0:0|0:0,0:0:0:0:
364,197,141728,1,2,0:0:0:0:
361,177,141811,6,0,L|356:140,3,35,2|2|2|2,0:0|0:0|0:0|0:0,0:0:0:0:
416,74,142144,6,0,B|368:55|368:55|284:72,1,125.999996154785,14|2,0:0|0:0,0:0:0:0:
473,141,142394,1,2,0:0:0:0:
473,141,142478,2,0,P|497:106|496:59,1,62.9999980773926,2|0,0:0|0:0,0:0:0:0:
381,161,142644,2,0,P|399:199|440:221,1,62.9999980773926,2|0,0:0|0:0,0:0:0:0:
298,6,142811,6,0,L|294:80,1,62.9999980773926,2|0,0:0|0:0,0:0:0:0:
224,43,142978,2,0,L|220:117,1,62.9999980773926,2|0,0:0|0:0,0:0:0:0:
145,88,143144,5,2,0:0:0:0:
142,128,143228,1,2,0:0:0:0:
141,167,143311,1,2,0:0:0:0:
140,205,143394,1,2,0:0:0:0:
187,268,143478,6,0,B|222:279|222:279|309:249,1,125.999996154785,14|2,0:0|0:0,0:0:0:0:
140,205,143728,1,2,0:0:0:0:
140,205,143811,2,0,P|115:229|110:265,1,62.9999980773926,2|0,0:0|0:0,0:0:0:0:
222,194,143978,2,0,P|213:160|185:138,1,62.9999980773926,2|0,0:0|0:0,0:0:0:0:
206,343,144144,6,0,L|289:352,1,62.9999980773926,2|0,0:0|0:0,0:0:0:0:
187,268,144311,1,2,0:0:0:0:
187,268,144394,2,0,L|270:277,1,62.9999980773926,2|0,0:0|0:0,0:0:0:0:
395,249,144561,6,0,L|312:258,1,62.9999980773926,2|0,0:0|0:0,0:0:0:0:
409,173,144728,1,2,0:0:0:0:
409,173,144811,2,0,L|326:182,1,62.9999980773926,2|0,0:0|0:0,0:0:0:0:
193,141,144978,6,0,L|276:150,1,62.9999980773926,2|0,0:0|0:0,0:0:0:0:
416,71,145144,5,2,0:0:0:0:
416,71,145227,1,2,0:0:0:0:
416,71,145311,2,0,B|355:84|355:84|287:65|287:65|225:76,1,188.999994232178,2|0,0:0|0:0,0:0:0:0:
193,141,145644,2,0,L|187:234,1,62.9999980773926,2|0,0:0|0:0,0:0:0:0:
329,334,145811,5,2,0:0:0:0:
326,294,145895,1,2,0:0:0:0:
325,255,145978,1,2,0:0:0:0:
324,217,146061,1,2,0:0:0:0:
288,149,146145,6,0,B|253:138|253:138|166:168,1,125.999996154785,14|2,0:0|0:0,0:0:0:0:
235,297,146394,1,2,0:0:0:0:
235,297,146478,2,0,L|241:215,1,62.9999980773926,2|0,0:0|0:0,0:0:0:0:
163,104,146644,2,0,L|169:186,1,62.9999980773926,2|0,0:0|0:0,0:0:0:0:
347,161,146811,6,0,P|309:146|273:155,1,62.9999980773926,2|0,0:0|0:0,0:0:0:0:
43,222,146978,2,0,P|81:237|117:228,1,62.9999980773926,2|0,0:0|0:0,0:0:0:0:
167,41,147144,6,0,L|162:103,1,62.9999980773926,2|0,0:0|0:0,0:0:0:0:
239,359,147311,2,0,L|234:296,1,62.9999980773926,2|0,0:0|0:0,0:0:0:0:
200,201,147478,5,10,0:0:0:0:
200,201,147811,1,10,0:0:0:0:
228,118,148144,6,0,L|263:112,5,23.3333333333333,0|0|0|0|0|0,3:0|3:0|3:0|3:0|3:0|3:0,3:0:0:0:
307,155,148478,5,0,3:0:0:0:
310,166,148533,1,0,3:0:0:0:
312,177,148589,1,0,3:0:0:0:
312,189,148644,1,0,3:0:0:0:
309,201,148700,1,0,3:0:0:0:
305,212,148756,1,0,3:0:0:0:
297,224,148811,6,0,P|250:235|183:207,1,105.000004005432,6|0,0:0|0:0,0:0:0:0:
158,172,149061,2,0,P|191:207|200:279,1,105.000004005432,6|0,0:0|0:0,0:0:0:0:
185,318,149311,2,0,P|198:271|256:227,1,105.000004005432,6|0,0:0|0:0,0:0:0:0:
495,277,149644,6,0,P|448:266|381:294,1,105.000004005432,6|0,0:0|0:0,0:0:0:0:
356,329,149894,2,0,P|389:294|398:222,1,105.000004005432,6|0,0:0|0:0,0:0:0:0:
383,183,150144,2,0,P|396:230|454:274,1,105.000004005432,6|0,0:0|0:0,0:0:0:0:
355,89,150644,5,6,0:0:0:0:
355,89,150978,6,0,P|404:105|454:94,1,105.000004005432,6|0,0:0|0:0,0:0:0:0:
355,89,151228,2,0,P|344:38|309:-1,1,105.000004005432,6|0,0:0|0:0,0:0:0:0:
355,89,151478,2,0,P|316:123|300:172,1,105.000004005432,6|0,0:0|0:0,0:0:0:0:
70,228,151811,6,0,B|101:241|101:241|144:226,2,70.0000026702882,0|0|0,3:3|3:3|3:3,3:0:0:0:
299,171,152144,6,0,B|265:160|265:160|234:173,2,70.0000026702882,0|0|0,3:3|3:3|3:3,3:0:0:0:
218,320,152478,5,0,3:0:0:0:
269,265,152589,1,0,3:0:0:0:
291,336,152700,1,0,3:0:0:0:
210,313,152811,5,0,3:0:0:0:
278,262,152922,1,0,3:0:0:0:
288,345,153033,1,0,3:0:0:0:
205,305,153144,6,0,B|198:234|198:234|228:180|228:180|215:80,1,210.000008010865,6|0,0:0|0:0,0:0:0:0:
204,0,153644,1,6,0:0:0:0:
453,249,154144,6,0,P|368:304|266:241,1,210.000008010865,6|0,0:0|0:0,0:0:0:0:
360,189,154644,1,6,0:0:0:0:
360,189,155144,6,0,P|376:137|350:87,1,105.000004005432,6|0,0:0|0:0,0:0:0:0:
284,242,155394,2,0,P|321:281|377:284,1,105.000004005432,6|0,0:0|0:0,0:0:0:0:
284,150,155644,6,0,P|230:162|197:260,1,157.500006008148,6|0,0:0|0:0,0:0:0:0:
360,189,155978,2,0,P|376:137|308:58,1,157.500006008148,6|0,0:0|0:0,0:0:0:0:
284,242,156311,2,0,P|364:288|448:230,1,157.500006008148,6|0,0:0|0:0,0:0:0:0:
371,57,156644,6,0,L|366:119,1,52.5000020027161,6|0,0:0|0:0,0:0:0:0:
360,189,156811,1,6,0:0:0:0:
360,189,157144,6,0,L|370:63,1,105.000004005432,6|0,0:0|0:0,0:0:0:0:
285,236,157394,2,0,L|295:110,1,105.000004005432,6|0,0:0|0:0,0:0:0:0:
210,283,157644,6,0,B|175:294|175:294|143:281,2,70.0000026702882,0|0|0,3:0|3:0|3:0,3:0:0:0:
350,234,157978,6,0,B|315:223|315:223|283:236,2,70.0000026702882,0|0|0,3:0|3:0|3:0,3:0:0:0:
414,316,158311,5,6,0:0:0:0:
407,106,158644,5,6,0:0:0:0:
461,195,158811,1,6,0:0:0:0:
297,326,159144,5,6,0:0:0:0:
351,237,159311,1,6,0:0:0:0:
234,62,159644,5,6,0:0:0:0:
157,133,159811,6,0,P|195:170|271:160,1,105.000004005432,6|0,0:0|0:0,0:0:0:0:
323,117,160061,2,0,P|271:131|242:202,1,105.000004005432,6|0,0:0|0:0,0:0:0:0:
253,268,160311,2,0,P|266:216|219:155,1,105.000004005432,6|0,0:0|0:0,0:0:0:0:
0,318,160644,6,0,P|38:281|114:291,1,105.000004005432,6|0,0:0|0:0,0:0:0:0:
166,334,160894,2,0,P|114:319|85:248,1,105.000004005432,6|0,0:0|0:0,0:0:0:0:
96,183,161144,2,0,P|109:234|62:295,1,105.000004005432,6|0,0:0|0:0,0:0:0:0:
31,126,161478,5,6,0:0:0:0:
134,110,161644,1,6,0:0:0:0:
291,249,161978,5,6,0:0:0:0:
188,233,162144,6,0,P|200:182|245:156,1,105.000004005432,6|0,0:0|0:0,0:0:0:0:
336,165,162394,2,0,P|285:180|240:154,1,105.000004005432,6|0,0:0|0:0,0:0:0:0:
203,70,162644,2,0,P|241:105|241:157,1,105.000004005432,6|0,0:0|0:0,0:0:0:0:
136,145,162978,5,6,0:0:0:0:
467,200,163311,5,6,0:0:0:0:
103,297,163644,5,6,0:0:0:0:
443,27,163978,5,6,0:0:0:0:
384,111,164144,6,0,L|333:122,1,52.5000020027161,2|0,0:0|0:0,0:0:0:0:
298,36,164311,6,0,L|326:40,8,17.5,2|2|2|2|2|2|2|2|2,0:0|0:0|0:0|0:0|0:0|0:0|0:0|0:0|0:0,0:0:0:0:
220,61,164811,6,0,P|196:125|237:191,1,140,2|2,0:0|0:0,0:0:0:0:
248,306,165311,5,2,0:0:0:0:
248,306,165644,1,2,0:0:0:0:
248,306,165978,2,0,P|265:240|227:184,1,140,2|2,0:0|0:0,0:0:0:0:
186,254,166478,5,2,0:0:0:0:
287,125,166644,1,2,0:0:0:0:
287,125,166728,1,2,0:0:0:0:
287,125,166811,1,2,0:0:0:0:
393,289,166978,5,2,0:0:0:0:
321,298,167144,1,2,0:0:0:0:
248,306,167311,1,2,0:0:0:0:
287,125,167644,5,2,0:0:0:0:
359,134,167810,1,2,0:0:0:0:
439,150,167978,1,2,0:0:0:0:
439,150,168061,1,2,0:0:0:0:
439,150,168144,1,2,0:0:0:0:
186,254,168311,5,2,0:0:0:0:
194,182,168477,1,2,0:0:0:0:
202,108,168644,1,2,0:0:0:0:
385,217,168978,5,2,0:0:0:0:
393,289,169144,1,2,0:0:0:0:
401,363,169311,1,2,0:0:0:0:
202,108,169811,5,2,0:0:0:0:
277,81,169978,1,2,0:0:0:0:
355,56,170144,6,0,L|349:139,1,70,2|2,0:0|0:0,0:0:0:0:
345,203,170394,1,2,0:0:0:0:
345,203,170478,1,2,0:0:0:0:
153,43,170644,6,0,P|199:25|234:38,1,70,2|0,0:0|0:0,0:0:0:0:
181,171,170978,6,0,P|188:122|217:98,1,70,2|0,0:0|0:0,0:0:0:0:
257,230,171311,6,0,B|194:257|194:257|108:248,1,140,2|2,0:0|0:0,0:0:0:0:
46,238,171811,5,2,0:0:0:0:
201,107,171978,1,2,0:0:0:0:
201,107,172061,1,2,0:0:0:0:
201,107,172144,1,2,0:0:0:0:
262,343,172311,5,2,0:0:0:0:
188,332,172478,1,2,0:0:0:0:
115,321,172644,1,2,0:0:0:0:
271,141,172978,5,2,0:0:0:0:
298,210,173145,1,2,0:0:0:0:
329,287,173311,1,2,0:0:0:0:
329,287,173394,1,2,0:0:0:0:
329,287,173478,1,2,0:0:0:0:
100,241,173644,5,2,0:0:0:0:
146,182,173811,1,2,0:0:0:0:
192,124,173977,1,2,0:0:0:0:
188,332,174311,5,2,0:0:0:0:
146,182,174478,1,2,0:0:0:0:
298,210,174645,1,6,0:0:0:0:
188,332,174978,5,2,0:0:0:0:
191,312,175144,1,2,0:0:0:0:
193,295,175311,1,2,0:0:0:0:
261,262,175478,6,0,B|308:243|308:243|440:283,1,188.999994232178,14|0,0:0|0:0,0:0:0:0:
193,295,175811,1,2,0:0:0:0:
310,155,175978,6,0,P|297:228|256:265,1,125.999996154785,2|0,0:0|0:0,0:0:0:0:
170,338,176311,2,0,P|203:285|260:261,1,125.999996154785,2|0,0:0|0:0,0:0:0:0:
310,155,176644,6,0,B|320:226|261:262|261:262|190:268|168:346,1,251.999992309571,6|2,0:0|0:0,0:0:0:0:
258,380,177144,5,6,0:0:0:0:
263,367,177228,1,2,0:0:0:0:
264,353,177311,1,2,0:0:0:0:
259,340,177394,1,2,0:0:0:0:
207,282,177478,5,6,0:0:0:0:
195,251,177562,1,2,0:0:0:0:
192,218,177645,1,2,0:0:0:0:
204,188,177728,1,2,0:0:0:0:
310,155,177811,6,0,L|392:161,1,62.9999980773926,6|2,0:0|0:0,0:0:0:0:
280,233,177978,6,0,B|343:239|343:239|305:283|305:283|162:266,1,251.999992309571,6|2,0:0|0:0,0:0:0:0:
74,258,178478,1,2,0:0:0:0:
234,47,178644,5,2,0:0:0:0:
234,47,178728,1,2,0:0:0:0:
234,47,178811,2,0,L|240:127,1,62.9999980773926,2|0,0:0|0:0,0:0:0:0:
69,320,178978,6,0,L|75:240,1,62.9999980773926,2|0,0:0|0:0,0:0:0:0:
141,299,179144,2,0,L|147:219,1,62.9999980773926,2|0,0:0|0:0,0:0:0:0:
213,278,179311,6,0,B|218:211|218:211|186:113|186:113|198:17,1,251.999992309571,6|2,0:0|0:0,0:0:0:0:
94,178,179811,1,2,0:0:0:0:
233,290,179978,2,0,B|238:223|238:223|206:125|206:125|218:29,1,251.999992309571,6|2,0:0|0:0,0:0:0:0:
430,37,180478,6,0,L|439:110,1,62.9999980773926,2|0,0:0|0:0,0:0:0:0:
360,78,180644,2,0,L|369:151,1,62.9999980773926,2|0,0:0|0:0,0:0:0:0:
290,119,180811,6,0,B|297:181|297:181|258:306,1,188.999994232178,14|0,0:0|0:0,0:0:0:0:
277,41,181144,1,2,0:0:0:0:
340,229,181311,6,0,P|302:179|290:119,1,125.999996154785,2|0,0:0|0:0,0:0:0:0:
249,3,181644,2,0,P|282:55|289:117,1,125.999996154785,2|0,0:0|0:0,0:0:0:0:
340,229,181978,6,0,B|290:185|290:118|290:118|295:43|245:-1,1,251.999992309571,6|2,0:0|0:0,0:0:0:0:
157,90,182478,5,6,0:0:0:0:
171,95,182561,1,2,0:0:0:0:
186,96,182644,1,2,0:0:0:0:
201,91,182728,1,2,0:0:0:0:
275,36,182811,5,6,0:0:0:0:
305,25,182894,1,2,0:0:0:0:
338,22,182977,1,2,0:0:0:0:
371,33,183061,1,2,0:0:0:0:
414,114,183144,6,0,L|409:189,1,62.9999980773926,6|0,0:0|0:0,0:0:0:0:
328,139,183311,6,0,B|322:225|322:225|352:295|352:295|343:391,1,251.999992309571,6|2,0:0|0:0,0:0:0:0:
235,318,183811,1,2,0:0:0:0:
493,173,183978,5,2,0:0:0:0:
493,173,184061,1,2,0:0:0:0:
493,173,184144,2,0,L|502:247,1,62.9999980773926,2|0,0:0|0:0,0:0:0:0:
217,119,184311,6,0,L|226:45,1,62.9999980773926,2|0,0:0|0:0,0:0:0:0:
138,149,184478,2,0,L|147:75,1,62.9999980773926,2|0,0:0|0:0,0:0:0:0:
59,179,184644,6,0,B|66:111|66:111|20:140|20:140|8:268,1,251.999992309571,6|2,0:0|0:0,0:0:0:0:
0,372,185144,1,2,0:0:0:0:
0,247,185311,2,0,B|12:119|12:119|58:90|58:90|51:158,1,251.999992309571,6|2,0:0|0:0,0:0:0:0:
217,228,185811,5,2,0:0:0:0:
212,217,185978,1,2,0:0:0:0:
208,206,186144,6,0,P|242:164|356:181,1,125.999996154785,14|0,0:0|0:0,0:0:0:0:
466,262,186394,2,0,P|412:253|370:146,1,125.999996154785,6|0,0:0|0:0,0:0:0:0:
384,59,186644,6,0,L|381:129,2,62.9999980773926,6|2|2,0:0|0:0|0:0,0:0:0:0:
386,31,186894,1,2,0:0:0:0:
368,200,187061,5,2,0:0:0:0:
368,200,187144,2,0,B|309:187|309:187|249:204|249:204|150:180,1,188.999994232178,2|2,0:0|0:0,0:0:0:0:
124,121,187478,5,6,0:0:0:0:
115,92,187562,1,2,0:0:0:0:
122,62,187645,1,2,0:0:0:0:
137,38,187728,1,2,0:0:0:0:
213,20,187812,5,6,0:0:0:0:
228,21,187895,1,2,0:0:0:0:
240,21,187978,1,2,0:0:0:0:
253,22,188062,1,2,0:0:0:0:
322,88,188145,5,6,0:0:0:0:
325,141,188228,1,2,0:0:0:0:
274,144,188312,1,2,0:0:0:0:
271,91,188395,1,2,0:0:0:0:
322,88,188478,6,0,L|394:82,1,62.9999980773926,6|2,0:0|0:0,0:0:0:0:
199,112,188644,5,6,0:0:0:0:
199,112,188728,2,0,P|195:182|238:220,1,125.999996154785,10|2,0:0|0:0,0:0:0:0:
265,299,188978,5,2,0:0:0:0:
271,280,189061,1,2,0:0:0:0:
269,259,189144,1,2,0:0:0:0:
260,242,189228,1,2,0:0:0:0:
232,217,189311,6,0,B|93:207|93:207|153:250,1,188.999994232178,14|0,0:0|0:0,0:0:0:0:
299,185,189644,2,0,P|305:157|299:114,1,62.9999980773926,2|0,0:0|0:0,0:0:0:0:
154,35,189811,5,6,0:0:0:0:
155,49,189894,1,2,0:0:0:0:
157,63,189978,1,2,0:0:0:0:
157,78,190061,1,2,0:0:0:0:
158,92,190144,2,0,L|162:161,1,62.9999980773926,2|2,0:0|0:0,0:0:0:0:
227,308,190311,5,6,0:0:0:0:
227,293,190394,1,2,0:0:0:0:
228,279,190477,2,0,L|232:210,1,62.9999980773926,2|2,0:0|0:0,0:0:0:0:
80,238,190644,5,6,0:0:0:0:
71,255,190728,1,2,0:0:0:0:
69,272,190811,1,2,0:0:0:0:
72,288,190894,1,2,0:0:0:0:
82,304,190978,5,6,0:0:0:0:
131,290,191061,1,2,0:0:0:0:
182,291,191144,1,2,0:0:0:0:
227,308,191228,1,2,0:0:0:0:
285,365,191311,6,0,B|415:362|415:362|328:322,1,188.999994232178,14|0,0:0|0:0,0:0:0:0:
277,114,191644,6,0,L|265:69,1,31.4999990386963,6|0,0:0|0:0,0:0:0:0:
373,216,191811,6,0,L|385:171,1,31.4999990386963,6|0,0:0|0:0,0:0:0:0:
268,83,192061,6,0,L|256:38,1,31.4999990386963,6|0,0:0|0:0,0:0:0:0:
364,246,192394,6,0,L|376:201,1,31.4999990386963,6|0,0:0|0:0,0:0:0:0:
273,210,192644,5,6,0:0:0:0:
259,217,192728,1,2,0:0:0:0:
246,219,192811,1,2,0:0:0:0:
232,217,192894,1,2,0:0:0:0:
219,211,192978,1,2,0:0:0:0:
209,201,193061,1,2,0:0:0:0:
189,183,193144,5,6,0:0:0:0:
159,173,193228,1,2,0:0:0:0:
127,177,193311,1,2,0:0:0:0:
98,189,193394,1,2,0:0:0:0:
138,320,193478,6,0,L|146:244,1,62.9999980773926,6|2,0:0|0:0,0:0:0:0:
238,71,193644,2,0,L|246:147,1,62.9999980773926,6|2,0:0|0:0,0:0:0:0:
371,293,193811,5,6,0:0:0:0:
296,278,193894,1,6,0:0:0:0:
221,261,193978,2,0,B|168:253|168:253|124:264|124:264|63:253,1,157.500006008148,10|0,0:0|0:0,0:0:0:0:
112,140,194311,5,2,0:0:0:0:
112,140,194394,1,2,0:0:0:0:
112,140,194478,1,2,0:0:0:0:
112,140,194561,1,2,0:0:0:0:
112,140,194644,2,0,L|287:117,1,157.500006008148,10|0,0:0|0:0,0:0:0:0:
372,173,194978,6,0,L|301:183,1,52.5000020027161,2|2,0:0|0:0,0:0:0:0:
189,202,195144,2,0,L|240:194,1,52.5000020027161,2|2,0:0|0:0,0:0:0:0:
293,252,195311,5,14,0:0:0:0:
243,384,195644,5,2,0:0:0:0:
240,364,195727,1,2,0:0:0:0:
237,343,195810,1,2,0:0:0:0:
234,324,195894,1,2,0:0:0:0:
232,306,195977,1,2,0:0:0:0:
293,252,196144,5,2,0:0:0:0:
290,232,196227,1,2,0:0:0:0:
287,211,196310,1,2,0:0:0:0:
284,192,196394,1,2,0:0:0:0:
282,174,196477,1,2,0:0:0:0:
343,120,196644,5,14,0:0:0:0:
343,120,196977,5,2,0:0:0:0:
316,97,197060,1,2,0:0:0:0:
282,88,197143,1,2,0:0:0:0:
248,95,197228,1,2,0:0:0:0:
220,115,197310,1,2,0:0:0:0:
282,174,197477,5,2,0:0:0:0:
255,197,197560,1,2,0:0:0:0:
222,206,197643,1,2,0:0:0:0:
187,199,197728,1,2,0:0:0:0:
159,179,197810,1,2,0:0:0:0:
220,115,197977,5,14,0:0:0:0:
220,115,198310,5,2,0:0:0:0:
226,162,198393,1,2,0:0:0:0:
232,211,198478,1,2,0:0:0:0:
237,258,198561,1,2,0:0:0:0:
243,306,198643,1,2,0:0:0:0:
322,191,198811,5,2,0:0:0:0:
328,144,198894,1,2,0:0:0:0:
334,95,198977,1,2,0:0:0:0:
339,48,199061,1,2,0:0:0:0:
345,0,199144,1,2,0:0:0:0:
427,112,199311,5,14,0:0:0:0:
427,112,199644,5,2,0:0:0:0:
374,114,199727,1,2,0:0:0:0:
322,117,199810,1,2,0:0:0:0:
269,119,199893,1,2,0:0:0:0:
217,122,199977,1,2,0:0:0:0:
366,242,200144,5,2,0:0:0:0:
366,242,200227,1,2,0:0:0:0:
366,242,200311,6,0,L|406:244,10,26.2500010013581,2|2|2|2|2|2|2|2|2|2|2,0:0|0:0|0:0|0:0|0:0|0:0|0:0|0:0|0:0|0:0|0:0,0:0:0:0:
217,122,200810,5,14,0:0:0:0:
412,94,200978,1,2,0:0:0:0:
217,122,201144,1,2,0:0:0:0:
217,122,201228,2,0,P|264:100|326:115,1,105.000004005432,2|0,0:0|0:0,0:0:0:0:
412,94,201478,2,0,P|365:116|303:101,1,105.000004005432,2|0,0:0|0:0,0:0:0:0:
353,21,201728,5,2,0:0:0:0:
353,21,201811,1,10,0:0:0:0:
278,200,201978,1,2,0:0:0:0:
135,64,202144,5,14,0:0:0:0:
170,246,202311,1,2,0:0:0:0:
135,64,202478,1,2,0:0:0:0:
135,64,202561,2,0,P|118:125|147:167,1,105.000004005432,2|0,0:0|0:0,0:0:0:0:
170,246,202811,2,0,P|165:182|123:153,1,105.000004005432,2|0,0:0|0:0,0:0:0:0:
83,233,203061,5,2,0:0:0:0:
83,233,203144,1,10,0:0:0:0:
210,107,203311,1,2,0:0:0:0:
276,254,203478,5,14,0:0:0:0:
83,233,203644,1,2,0:0:0:0:
276,254,203811,1,2,0:0:0:0:
276,254,203894,2,0,P|218:274|171:262,1,105.000004005432,2|0,0:0|0:0,0:0:0:0:
83,233,204144,2,0,P|143:238|181:269,1,105.000004005432,2|0,0:0|0:0,0:0:0:0:
109,332,204394,5,2,0:0:0:0:
109,332,204478,1,10,0:0:0:0:
216,174,204644,1,2,0:0:0:0:
221,352,204811,5,14,0:0:0:0:
129,117,204978,1,2,0:0:0:0:
221,352,205144,1,2,0:0:0:0:
221,352,205228,1,2,0:0:0:0:
320,182,205478,6,0,L|204:173,1,105.000004005432,10|0,0:0|0:0,0:0:0:0:
357,256,205728,2,0,L|241:247,1,105.000004005432,10|0,0:0|0:0,0:0:0:0:
394,330,205978,1,10,0:0:0:0:
410,136,206144,5,14,0:0:0:0:
215,173,206311,1,2,0:0:0:0:
410,136,206478,1,2,0:0:0:0:
410,136,206561,2,0,P|351:143|304:182,1,105.000004005432,2|0,0:0|0:0,0:0:0:0:
215,173,206811,2,0,P|272:183|329:160,1,105.000004005432,2|0,0:0|0:0,0:0:0:0:
262,90,207061,5,2,0:0:0:0:
262,90,207144,1,10,0:0:0:0:
389,226,207311,1,2,0:0:0:0:
160,295,207478,5,14,0:0:0:0:
174,102,207644,1,2,0:0:0:0:
160,295,207811,1,2,0:0:0:0:
162,299,207894,2,0,P|145:239|168:183,1,105.000004005432,2|0,0:0|0:0,0:0:0:0:
174,102,208144,2,0,P|177:164|142:213,1,105.000004005432,2|0,0:0|0:0,0:0:0:0:
89,135,208394,5,2,0:0:0:0:
89,135,208478,1,10,0:0:0:0:
243,248,208644,1,2,0:0:0:0:
13,363,208811,6,0,L|145:349,1,105.000004005432,14|0,0:0|0:0,0:0:0:0:
193,343,209145,1,2,0:0:0:0:
63,268,209311,6,0,L|194:255,1,105.000004005432,10|0,0:0|0:0,0:0:0:0:
243,248,209645,1,2,0:0:0:0:
108,175,209811,6,0,L|240:162,1,105.000004005432,10|0,0:0|0:0,0:0:0:0:
96,31,210144,5,14,0:0:0:0:
63,268,210311,1,2,0:0:0:0:
96,31,210478,1,2,0:0:0:0:
96,31,210561,1,2,0:0:0:0:
306,172,210811,6,0,P|260:188|205:153,1,105.000004005432,10|0,0:0|0:0,0:0:0:0:
358,118,211061,2,0,P|313:94|265:108,1,105.000004005432,10|0,0:0|0:0,0:0:0:0:
380,188,211311,1,10,0:0:0:0:
289,12,211478,5,14,0:0:0:0:
242,245,211644,1,2,0:0:0:0:
410,122,211811,1,2,0:0:0:0:
410,122,211894,1,2,0:0:0:0:
410,122,211978,2,0,L|342:116,1,52.5000020027161,2|0,0:0|0:0,0:0:0:0:
207,64,212144,6,0,P|184:110|199:159,1,105.000004005432,6|0,0:0|0:0,0:0:0:0:
242,245,212394,2,0,P|237:193|199:159,1,105.000004005432,6|0,0:0|0:0,0:0:0:0:
150,246,212644,5,6,0:0:0:0:
150,246,212728,1,2,0:0:0:0:
150,246,212811,5,14,0:0:0:0:
388,285,212978,1,2,0:0:0:0:
272,130,213144,1,2,0:0:0:0:
272,130,213228,1,2,0:0:0:0:
272,130,213311,2,0,L|267:200,1,52.5000020027161,2|0,0:0|0:0,0:0:0:0:
200,299,213478,6,0,P|243:324|301:312,1,105.000004005432,6|0,0:0|0:0,0:0:0:0:
388,285,213728,2,0,P|338:283|292:320,1,105.000004005432,6|0,0:0|0:0,0:0:0:0:
371,364,213978,5,6,0:0:0:0:
371,364,214061,1,2,0:0:0:0:
371,364,214144,5,14,0:0:0:0:
270,129,214311,1,2,0:0:0:0:
208,278,214478,1,2,0:0:0:0:
208,278,214561,1,2,0:0:0:0:
208,278,214644,2,0,L|271:273,1,52.5000020027161,2|0,0:0|0:0,0:0:0:0:
388,272,214811,6,0,P|381:214|341:181,1,105.000004005432,6|0,0:0|0:0,0:0:0:0:
270,129,215061,2,0,P|305:175|357:182,1,105.000004005432,6|0,0:0|0:0,0:0:0:0:
359,96,215311,5,6,0:0:0:0:
359,96,215394,1,2,0:0:0:0:
359,96,215478,5,14,0:0:0:0:
74,112,215644,1,2,0:0:0:0:
359,96,215811,1,2,0:0:0:0:
359,96,215894,1,2,0:0:0:0:
260,273,216144,6,0,L|270:161,1,105.000004005432,14|0,0:0|0:0,0:0:0:0:
183,314,216394,2,0,L|193:202,1,105.000004005432,14|0,0:0|0:0,0:0:0:0:
106,355,216644,5,14,0:0:0:0:
106,355,216728,1,2,0:0:0:0:
106,355,216811,6,0,L|114:263,1,52.5000020027161,14|0,0:0|0:0,0:0:0:0:
61,190,216978,2,0,L|69:264,1,52.5000020027161,2|0,0:0|0:0,0:0:0:0:
187,366,217144,6,0,L|178:274,1,52.5000020027161,14|0,0:0|0:0,0:0:0:0:
130,104,217311,2,0,L|125:178,1,52.5000020027161,2|0,0:0|0:0,0:0:0:0:
337,206,217478,5,14,0:0:0:0:
291,207,217561,1,2,0:0:0:0:
242,208,217644,1,2,0:0:0:0:
192,209,217728,1,2,0:0:0:0:
125,156,217811,6,0,B|108:123|108:123|125:28,1,105.000004005432,14|2,0:0|0:0,0:0:0:0:
268,104,218061,1,2,0:0:0:0:
268,104,218144,6,0,L|182:112,1,52.5000020027161,14|0,0:0|0:0,0:0:0:0:
72,151,218310,2,0,L|158:159,1,52.5000020027161,2|0,0:0|0:0,0:0:0:0:
309,187,218478,6,0,L|225:165,1,52.5000020027161,14|0,0:0|0:0,0:0:0:0:
42,242,218644,2,0,L|125:220,1,52.5000020027161,2|0,0:0|0:0,0:0:0:0:
193,335,218811,5,14,0:0:0:0:
206,294,218894,1,2,0:0:0:0:
206,250,218978,1,2,0:0:0:0:
192,209,219061,1,2,0:0:0:0:
124,155,219144,5,14,0:0:0:0:
114,126,219227,1,2,0:0:0:0:
114,95,219311,1,2,0:0:0:0:
124,66,219394,1,2,0:0:0:0:
198,26,219478,6,0,L|236:33,2,26.2500010013581,14|2|2,0:0|0:0|0:0,0:0:0:0:
124,66,219644,6,0,L|86:73,2,26.2500010013581,2|2|2,0:0|0:0|0:0,0:0:0:0:
239,105,219811,6,0,L|277:112,2,26.2500010013581,14|2|2,0:0|0:0|0:0,0:0:0:0:
50,135,219977,6,0,L|12:142,2,26.2500010013581,2|2|2,0:0|0:0|0:0,0:0:0:0:
150,224,220144,5,14,0:0:0:0:
146,247,220228,1,2,0:0:0:0:
142,270,220311,2,0,L|148:305,2,26.2500010013581,2|2|2,0:0|0:0|0:0,0:0:0:0:
264,109,220478,5,14,0:0:0:0:
268,132,220562,1,2,0:0:0:0:
272,155,220645,2,0,L|266:190,2,26.2500010013581,2|2|2,0:0|0:0|0:0,0:0:0:0:
207,39,220811,6,0,L|154:43,1,52.5000020027161,14|0,0:0|0:0,0:0:0:0:
325,55,220978,2,0,L|377:59,1,52.5000020027161,6|0,0:0|0:0,0:0:0:0:
168,136,221144,5,14,0:0:0:0:
255,193,221228,2,0,B|273:156|273:156|260:88,1,105.000004005432,6|0,0:0|0:0,0:0:0:0:
69,146,221478,6,0,P|117:128|168:136,1,105.000004005432,14|0,0:0|0:0,0:0:0:0:
441,240,221728,6,0,P|393:258|342:250,1,105.000004005432,14|0,0:0|0:0,0:0:0:0:
255,193,221978,5,14,0:0:0:0:
