osu file format v14

[General]
AudioFilename: audio.mp3
AudioLeadIn: 0
PreviewTime: 3693
Countdown: 0
SampleSet: None
StackLeniency: 0.7
Mode: 0
LetterboxInBreaks: 1
WidescreenStoryboard: 1

[Editor]
DistanceSpacing: 1.6
BeatDivisor: 12
GridSize: 8
TimelineZoom: 1.5

[Metadata]
Title:Fennec! Fennec!
TitleUnicode:フェネック!フェネック!
Artist:sasakure.UK
ArtistUnicode:sasakure.UK
Creator:Kitsunemimi
Version:Insane
Source:けものフレンズ
Tags:Kemono Friends fennec raccoon
BeatmapID:1277401
BeatmapSetID:604569

[Difficulty]
HPDrainRate:7
CircleSize:4
OverallDifficulty:8
ApproachRate:9
SliderMultiplier:3.4
SliderTickRate:2

[Events]
//Background and Video events
//Break Periods
2,18192,19893
2,23093,39093
//Storyboard Layer 0 (Background)
//Storyboard Layer 1 (Fail)
//Storyboard Layer 2 (Pass)
//Storyboard Layer 3 (Foreground)
//Storyboard Sound Samples

[TimingPoints]
1293,600,4,2,0,70,1,0
2493,-66.6666666666667,4,2,0,70,0,0
3693,-100,4,2,0,70,0,0

[Colours]
Combo1 : 235,175,254
Combo2 : 251,130,133
Combo3 : 255,166,113
Combo4 : 255,249,125
Combo5 : 149,254,137
Combo6 : 149,197,255

[HitObjects]
256,192,1292,12,0,2192,0:0:0:0:
392,144,2493,6,0,B|421:189|385:244|385:244|366:215,1,127.500004863739
376,144,2793,6,0,B|405:189|369:244|369:244|350:215,1,127.500004863739
360,144,3093,6,0,B|389:189|353:244|353:244|334:215,1,127.500004863739
344,144,3393,6,0,B|373:189|337:244|337:244|318:215,1,127.500004863739
256,40,3693,5,4,0:0:0:0:
104,128,3893,1,0,0:0:0:0:
368,320,4143,1,0,0:0:0:0:
368,320,4293,5,8,0:0:0:0:
432,168,4493,1,0,0:0:0:0:
144,216,4743,1,0,0:0:0:0:
96,136,4893,6,0,L|205:106,1,113.333333333333,0|0,0:0|0:0,0:0:0:0:
226,273,5193,2,0,L|336:339,1,113.333333333333,2|0,0:0|0:0,0:0:0:0:
345,124,5493,2,0,L|453:58,1,113.333333333333,8|0,0:0|0:0,0:0:0:0:
448,280,5893,1,0,0:0:0:0:
176,320,6093,5,0,0:0:0:0:
368,32,6393,1,2,0:0:0:0:
32,168,6693,1,8,0:0:0:0:
384,168,6993,1,2,0:0:0:0:
144,312,7193,5,0,3:0:0:0:
144,312,7293,2,0,L|16:192,1,170,0|2,0:0|0:0,0:0:0:0:
304,192,7793,1,0,3:0:0:0:
304,192,7893,2,0,L|440:88,1,170,8|2,0:0|0:0,0:0:0:0:
136,64,8393,5,2,0:3:0:0:
128,72,8493,2,0,L|72:256,1,170,4|2,0:0|0:0,0:0:0:0:
280,168,8943,1,0,0:0:0:0:
424,64,9093,2,0,L|472:256,1,170,8|2,0:0|0:0,0:0:0:0:
256,304,9543,1,0,0:0:0:0:
104,104,9693,5,0,0:0:0:0:
328,56,9843,1,0,0:0:0:0:
208,224,9993,1,2,0:0:0:0:
416,176,10143,1,0,0:0:0:0:
336,352,10293,2,0,P|216:344|152:288,1,170,8|2,0:0|0:0,0:0:0:0:
136,64,10793,5,2,0:3:0:0:
136,64,10893,1,0,0:0:0:0:
432,136,11193,1,2,0:0:0:0:
72,312,11493,5,8,0:0:0:0:
240,136,11643,1,0,0:0:0:0:
184,344,11793,1,2,0:0:0:0:
144,128,11943,1,0,0:0:0:0:
384,88,12243,5,0,0:0:0:0:
304,304,12393,1,2,0:0:0:0:
216,112,12543,1,0,0:0:0:0:
448,168,12693,1,8,0:0:0:0:
200,224,12843,1,0,0:0:0:0:
416,272,12993,1,2,0:0:0:0:
296,72,13143,1,0,0:0:0:0:
168,72,13293,5,4,0:0:0:0:
128,224,13493,1,0,0:0:0:0:
416,160,13743,1,0,0:0:0:0:
416,160,13893,5,8,0:0:0:0:
272,72,14093,1,0,0:0:0:0:
164,327,14343,1,0,0:0:0:0:
104,208,14493,5,2,0:0:0:0:
304,56,14693,1,2,0:0:0:0:
368,272,14893,1,2,0:0:0:0:
296,208,15043,1,2,0:0:0:0:
264,296,15143,2,0,L|272:344,1,28.3333333333333,2|0,0:0|0:0,0:0:0:0:
104,168,15393,1,0,0:0:0:0:
224,56,15593,5,2,0:3:0:0:
224,56,15693,1,0,0:0:0:0:
216,336,15993,1,2,0:0:0:0:
432,96,16293,1,8,0:0:0:0:
304,360,16593,1,2,0:0:0:0:
136,56,16793,5,0,0:0:0:0:
136,56,16893,1,0,0:0:0:0:
136,336,17193,1,2,0:0:0:0:
336,136,17393,1,0,0:0:0:0:
336,136,17493,2,0,L|328:192,2,56.6666666666667,8|0|0,0:0|0:0|0:0,0:0:0:0:
336,136,17793,2,0,L|256:136,2,56.6666666666667,2|0|0,0:0|0:0|0:0,0:0:0:0:
200,184,20493,5,4,0:0:0:0:
288,168,20793,1,0,0:0:0:0:
200,184,21093,1,4,0:0:0:0:
400,160,21243,1,0,0:0:0:0:
368,216,21393,1,0,0:0:0:0:
344,240,21543,2,0,L|232:240,1,85,0|4,0:0|0:0,0:0:0:0:
272,136,21843,1,0,0:0:0:0:
136,224,22143,5,0,0:0:0:0:
200,184,22293,1,4,0:0:0:0:
216,304,22443,1,0,0:0:0:0:
216,304,22593,1,0,0:0:0:0:
200,184,22893,5,4,0:0:0:0:
200,184,39693,5,4,0:0:0:0:
288,168,39993,1,0,0:0:0:0:
200,184,40293,1,4,0:0:0:0:
400,160,40443,1,0,0:0:0:0:
368,216,40593,1,0,0:0:0:0:
344,240,40743,2,0,L|232:240,1,85,0|4,0:0|0:0,0:0:0:0:
272,136,41043,1,0,0:0:0:0:
136,224,41343,5,0,0:0:0:0:
200,184,41493,1,4,0:0:0:0:
216,304,41643,1,0,0:0:0:0:
216,304,41793,1,0,0:0:0:0:
256,40,42093,5,4,0:0:0:0:
112,208,42293,1,0,0:0:0:0:
368,320,42543,1,0,0:0:0:0:
416,160,42693,5,8,0:0:0:0:
219,45,42893,1,0,0:0:0:0:
164,327,43143,1,0,0:0:0:0:
104,120,43293,6,0,L|200:184,1,113.333333333333
376,184,43593,2,0,L|472:256,1,113.333333333333,2|0,0:0|0:0,0:0:0:0:
216,328,43893,2,0,L|320:376,1,113.333333333333,8|0,0:0|0:0,0:0:0:0:
432,184,44293,1,0,0:0:0:0:
256,192,44493,12,4,46893,0:0:0:0:
