osu file format v14

[General]
AudioFilename: audio.mp3
AudioLeadIn: 0
PreviewTime: 52608
Countdown: 1
SampleSet: Normal
StackLeniency: 0.7
Mode: 1
LetterboxInBreaks: 0
WidescreenStoryboard: 1

[Editor]
Bookmarks: 8430,15005,28156,41307,54457,74183,100485,133361
DistanceSpacing: 1.1
BeatDivisor: 2
GridSize: 32
TimelineZoom: 0.7999997

[Metadata]
Title:Epitorica no Matsuri
TitleUnicode:エピトゥリカの祀
Artist:sasakure.UK
ArtistUnicode:sasakure.UK
Creator:tasuke912
Version:Kantan
Source:BMS
Tags:Team:SASAKURATION Festival of BOF2008 yassu-
BeatmapID:1087170
BeatmapSetID:511420

[Difficulty]
HPDrainRate:8
CircleSize:2
OverallDifficulty:3
ApproachRate:5
SliderMultiplier:1.4
SliderTickRate:1

[Events]
//Background and Video events
0,0,"bg.jpg",0,0
//Break Periods
2,80962,86137
//Storyboard Layer 0 (Background)
//Storyboard Layer 1 (Fail)
//Storyboard Layer 2 (Pass)
//Storyboard Layer 3 (Foreground)
//Storyboard Sound Samples

[TimingPoints]
1858,410.958904109589,4,1,0,60,1,0
8433,-100,4,1,0,70,0,0
27851,-100,4,1,0,50,0,0
41104,-100,4,1,0,50,0,0
41310,-100,4,1,0,70,0,0
54460,-100,4,1,0,75,0,1
67611,-100,4,1,0,70,0,0
80864,-100,4,1,0,60,0,0
87337,-100,4,1,0,70,0,0
93912,-100,4,1,0,75,0,1
120214,-100,4,1,0,70,0,0
133364,-100,4,1,0,75,0,1
146515,-100,4,1,0,70,0,0
146618,-100,4,1,0,30,0,0
148159,-100,4,1,0,30,0,0
149803,-100,4,1,0,30,0,0

[HitObjects]
256,192,1858,5,4,0:0:0:0:
256,192,5145,1,2,0:0:0:0:
256,192,8433,1,0,0:0:0:0:
256,192,10077,1,0,0:0:0:0:
256,192,10899,1,2,0:0:0:0:
256,192,11721,1,0,0:0:0:0:
256,192,13364,1,2,0:0:0:0:
256,192,15008,5,4,0:0:0:0:
256,192,15830,1,2,0:0:0:0:
256,192,16652,1,0,0:0:0:0:
256,192,17063,1,0,0:0:0:0:
256,192,17474,1,0,0:0:0:0:
256,192,18296,1,2,0:0:0:0:
256,192,19118,1,0,0:0:0:0:
256,192,19940,1,2,0:0:0:0:
256,192,20351,1,2,0:0:0:0:
256,192,20762,1,2,0:0:0:0:
256,192,21584,1,0,0:0:0:0:
256,192,22405,1,2,0:0:0:0:
256,192,23227,1,0,0:0:0:0:
256,192,23638,1,0,0:0:0:0:
256,192,24049,1,2,0:0:0:0:
256,192,24871,1,2,0:0:0:0:
256,192,25693,1,0,0:0:0:0:
256,192,26515,1,2,0:0:0:0:
256,192,28159,5,4,0:0:0:0:
256,192,29803,1,2,0:0:0:0:
256,192,31447,1,0,0:0:0:0:
256,192,33090,1,2,0:0:0:0:
256,192,33912,1,0,0:0:0:0:
256,192,34734,1,0,0:0:0:0:
256,192,36378,1,2,0:0:0:0:
256,192,38022,1,0,0:0:0:0:
256,192,39666,1,2,0:0:0:0:
256,192,40488,1,2,0:0:0:0:
256,192,41310,1,4,0:0:0:0:
256,192,42953,1,0,0:0:0:0:
256,192,43775,1,2,0:0:0:0:
256,192,44597,1,0,0:0:0:0:
256,192,46241,1,2,0:0:0:0:
256,192,47063,1,0,0:0:0:0:
256,192,47885,1,0,0:0:0:0:
256,192,49529,1,2,0:0:0:0:
256,192,50351,1,2,0:0:0:0:
256,192,51173,1,0,0:0:0:0:
256,192,52816,1,2,0:0:0:0:
256,192,53227,1,2,0:0:0:0:
256,192,53638,1,2,0:0:0:0:
256,192,54460,5,4,0:0:0:0:
256,192,55282,1,2,0:0:0:0:
256,192,56104,1,0,0:0:0:0:
256,192,56515,1,2,0:0:0:0:
256,192,56926,1,2,0:0:0:0:
256,192,57748,1,0,0:0:0:0:
256,192,58570,1,2,0:0:0:0:
256,192,59392,1,2,0:0:0:0:
256,192,59803,1,2,0:0:0:0:
256,192,60214,1,0,0:0:0:0:
256,192,61138,12,0,64221,0:0:0:0:
256,192,65145,5,2,0:0:0:0:
256,192,65967,1,0,0:0:0:0:
256,192,66378,1,0,0:0:0:0:
256,192,66789,1,2,0:0:0:0:
256,192,67611,1,4,0:0:0:0:
256,192,69255,1,2,0:0:0:0:
256,192,69666,1,2,0:0:0:0:
256,192,70077,1,2,0:0:0:0:
256,192,70899,1,0,0:0:0:0:
256,192,72542,1,2,0:0:0:0:
256,192,72953,1,2,0:0:0:0:
256,192,73364,1,2,0:0:0:0:
256,192,74186,1,0,0:0:0:0:
256,192,75008,1,0,0:0:0:0:
256,192,75830,1,2,0:0:0:0:
256,192,76241,1,2,0:0:0:0:
256,192,76652,1,2,0:0:0:0:
256,192,77474,1,0,0:0:0:0:
256,192,78296,1,0,0:0:0:0:
256,192,79118,1,2,0:0:0:0:
256,192,79529,1,2,0:0:0:0:
256,192,79940,1,2,0:0:0:0:
256,192,80762,5,4,0:0:0:0:
256,192,87337,5,2,0:0:0:0:
256,192,88159,1,2,0:0:0:0:
256,192,88981,1,2,0:0:0:0:
256,192,89803,1,2,0:0:0:0:
256,192,90625,1,2,0:0:0:0:
256,192,91447,1,2,0:0:0:0:
96,64,92268,2,0,P|-28:196|132:282,1,420
256,192,93912,1,4,0:0:0:0:
256,192,94734,1,2,0:0:0:0:
256,192,95556,1,0,0:0:0:0:
256,192,96378,1,2,0:0:0:0:
256,192,96789,1,2,0:0:0:0:
256,192,97200,1,0,0:0:0:0:
256,192,98022,1,2,0:0:0:0:
256,192,98844,1,0,0:0:0:0:
256,192,99255,1,2,0:0:0:0:
256,192,99666,1,0,0:0:0:0:
256,192,100488,1,0,0:0:0:0:
256,192,101310,1,2,0:0:0:0:
256,192,102131,1,0,0:0:0:0:
256,192,102542,1,0,0:0:0:0:
256,192,102953,1,2,0:0:0:0:
256,192,103364,1,2,0:0:0:0:
256,192,103775,1,0,0:0:0:0:
256,192,104597,1,2,0:0:0:0:
256,192,105419,1,0,0:0:0:0:
256,192,107063,5,4,0:0:0:0:
256,192,107885,1,2,0:0:0:0:
256,192,108707,1,0,0:0:0:0:
256,192,109529,1,2,0:0:0:0:
256,192,109940,1,2,0:0:0:0:
256,192,110351,1,0,0:0:0:0:
256,192,111173,1,2,0:0:0:0:
256,192,111994,1,0,0:0:0:0:
256,192,112405,1,2,0:0:0:0:
256,192,112816,1,0,0:0:0:0:
256,192,113638,1,0,0:0:0:0:
256,192,114460,1,2,0:0:0:0:
256,192,115282,1,0,0:0:0:0:
256,192,115693,1,2,0:0:0:0:
256,192,116104,1,0,0:0:0:0:
256,192,116515,1,2,0:0:0:0:
256,192,116926,1,0,0:0:0:0:
256,192,117748,1,2,0:0:0:0:
256,192,118570,1,2,0:0:0:0:
256,192,118981,1,2,0:0:0:0:
256,192,119392,1,0,0:0:0:0:
256,192,120214,1,4,0:0:0:0:
256,192,121036,1,2,0:0:0:0:
256,192,121857,1,0,0:0:0:0:
256,192,122268,1,0,0:0:0:0:
256,192,123501,1,2,0:0:0:0:
256,192,124323,1,0,0:0:0:0:
256,192,125145,1,2,0:0:0:0:
256,192,125556,1,2,0:0:0:0:
256,192,125967,1,2,0:0:0:0:
256,192,126789,1,0,0:0:0:0:
256,192,127611,1,2,0:0:0:0:
256,192,128433,1,0,0:0:0:0:
256,192,128844,1,2,0:0:0:0:
256,192,129255,1,2,0:0:0:0:
256,192,130077,1,0,0:0:0:0:
256,192,131721,1,2,0:0:0:0:
256,192,132131,1,2,0:0:0:0:
256,192,132542,1,2,0:0:0:0:
256,192,133364,5,4,0:0:0:0:
256,192,134186,1,2,0:0:0:0:
256,192,135008,1,0,0:0:0:0:
256,192,135419,1,0,0:0:0:0:
256,192,135830,1,2,0:0:0:0:
256,192,136652,1,0,0:0:0:0:
256,192,137474,1,2,0:0:0:0:
256,192,138296,1,0,0:0:0:0:
256,192,138707,1,2,0:0:0:0:
256,192,139118,1,2,0:0:0:0:
256,192,139940,1,0,0:0:0:0:
256,192,140762,1,2,0:0:0:0:
256,192,141584,1,0,0:0:0:0:
256,192,141994,1,0,0:0:0:0:
256,192,142405,1,2,0:0:0:0:
256,192,142816,1,2,0:0:0:0:
256,192,143227,1,0,0:0:0:0:
256,192,144049,1,2,0:0:0:0:
256,192,144871,1,0,0:0:0:0:
256,192,145282,1,2,0:0:0:0:
256,192,145693,1,2,0:0:0:0:
256,192,146104,1,2,0:0:0:0:
256,192,146515,1,4,0:0:0:0:
256,192,146721,12,0,149803,0:0:0:0:
