osu file format v14

[General]
AudioFilename: audio.mp3
AudioLeadIn: 0
PreviewTime: 52608
Countdown: 1
SampleSet: Normal
StackLeniency: 0.7
Mode: 1
LetterboxInBreaks: 0
WidescreenStoryboard: 1

[Editor]
Bookmarks: 8430,15005,28156,41307,54457,74183,100485,133361
DistanceSpacing: 1.1
BeatDivisor: 4
GridSize: 32
TimelineZoom: 0.9

[Metadata]
Title:Epitorica no Matsuri
TitleUnicode:エピトゥリカの祀
Artist:sasakure.UK
ArtistUnicode:sasakure.UK
Creator:tasuke912
Version:Futsuu
Source:BMS
Tags:Team:SASAKURATION Festival of BOF2008 yassu-
BeatmapID:1373530
BeatmapSetID:511420

[Difficulty]
HPDrainRate:7
CircleSize:2
OverallDifficulty:4
ApproachRate:5
SliderMultiplier:1.4
SliderTickRate:1

[Events]
//Background and Video events
0,0,"bg.jpg",0,0
//Break Periods
2,80962,86137
//Storyboard Layer 0 (Background)
//Storyboard Layer 1 (Fail)
//Storyboard Layer 2 (Pass)
//Storyboard Layer 3 (Foreground)
//Storyboard Sound Samples

[TimingPoints]
1858,410.958904109589,4,1,0,60,1,0
8433,-100,4,1,0,70,0,0
27851,-100,4,1,0,50,0,0
41104,-100,4,1,0,50,0,0
41310,-100,4,1,0,70,0,0
54460,-100,4,1,0,75,0,1
67611,-100,4,1,0,70,0,0
80864,-100,4,1,0,60,0,0
87337,-100,4,1,0,70,0,0
93912,-100,4,1,0,75,0,1
120214,-100,4,1,0,70,0,0
133364,-100,4,1,0,75,0,1
146515,-100,4,1,0,70,0,0
146618,-100,4,1,0,30,0,0
148159,-100,4,1,0,30,0,0
149803,-100,4,1,0,30,0,0

[HitObjects]
256,192,1858,5,4,0:0:0:0:
256,192,2474,1,2,0:0:0:0:
256,192,3501,1,2,0:0:0:0:
256,192,4118,1,2,0:0:0:0:
256,192,4734,1,2,0:0:0:0:
256,192,5145,1,2,0:0:0:0:
256,192,5762,1,2,0:0:0:0:
256,192,6789,1,2,0:0:0:0:
256,192,7405,1,2,0:0:0:0:
256,192,8022,1,2,0:0:0:0:
256,192,8433,5,0,0:0:0:0:
256,192,9255,1,2,0:0:0:0:
256,192,10077,1,0,0:0:0:0:
256,192,10282,1,2,0:0:0:0:
256,192,10488,1,0,0:0:0:0:
256,192,10899,1,2,0:0:0:0:
256,192,11721,1,0,0:0:0:0:
256,192,12131,1,0,0:0:0:0:
256,192,12542,1,2,0:0:0:0:
256,192,13364,1,0,0:0:0:0:
256,192,15008,5,4,0:0:0:0:
256,192,15419,1,2,0:0:0:0:
256,192,16036,1,0,0:0:0:0:
256,192,16241,1,2,0:0:0:0:
256,192,16652,1,0,0:0:0:0:
256,192,16858,1,0,0:0:0:0:
256,192,17063,1,2,0:0:0:0:
256,192,17885,1,2,0:0:0:0:
256,192,18296,1,0,0:0:0:0:
256,192,18707,1,2,0:0:0:0:
256,192,19323,1,0,0:0:0:0:
256,192,19529,1,2,0:0:0:0:
256,192,19940,1,0,0:0:0:0:
256,192,20145,1,0,0:0:0:0:
256,192,20351,1,2,0:0:0:0:
256,192,21275,1,6,0:0:0:0:
256,192,21584,1,0,0:0:0:0:
256,192,21994,1,2,0:0:0:0:
256,192,22611,1,0,0:0:0:0:
256,192,22816,1,2,0:0:0:0:
256,192,23227,1,0,0:0:0:0:
256,192,23433,1,0,0:0:0:0:
256,192,23638,1,2,0:0:0:0:
256,192,24460,1,2,0:0:0:0:
256,192,24871,1,0,0:0:0:0:
256,192,25282,1,2,0:0:0:0:
256,192,25899,1,0,0:0:0:0:
256,192,26104,1,2,0:0:0:0:
256,192,26515,1,0,0:0:0:0:
256,192,26823,1,0,0:0:0:0:
256,192,27131,1,0,0:0:0:0:
256,192,28159,1,4,0:0:0:0:
256,192,28981,1,2,0:0:0:0:
256,192,29803,1,2,0:0:0:0:
256,192,30214,1,2,0:0:0:0:
256,192,31447,1,2,0:0:0:0:
256,192,32268,1,2,0:0:0:0:
256,192,33090,1,2,0:0:0:0:
256,192,33501,1,2,0:0:0:0:
256,192,33912,1,2,0:0:0:0:
256,192,34734,1,2,0:0:0:0:
256,192,36378,1,2,0:0:0:0:
256,192,36789,1,2,0:0:0:0:
256,192,37200,1,2,0:0:0:0:
256,192,38022,1,2,0:0:0:0:
256,192,38844,1,2,0:0:0:0:
256,192,39666,1,2,0:0:0:0:
256,192,40077,1,2,0:0:0:0:
256,192,40488,1,2,0:0:0:0:
256,192,41310,1,4,0:0:0:0:
256,192,42131,1,2,0:0:0:0:
256,192,42953,1,0,0:0:0:0:
256,192,43159,1,0,0:0:0:0:
256,192,43364,1,0,0:0:0:0:
256,192,43775,1,2,0:0:0:0:
256,192,44597,1,0,0:0:0:0:
256,192,45419,1,2,0:0:0:0:
256,192,46241,1,2,0:0:0:0:
256,192,46447,1,2,0:0:0:0:
256,192,46652,1,2,0:0:0:0:
256,192,47063,1,0,0:0:0:0:
256,192,47885,1,0,0:0:0:0:
256,192,48707,1,2,0:0:0:0:
256,192,49529,1,0,0:0:0:0:
256,192,49940,1,2,0:0:0:0:
256,192,50351,1,2,0:0:0:0:
256,192,51173,1,0,0:0:0:0:
256,192,52816,1,0,0:0:0:0:
256,192,53227,1,0,0:0:0:0:
256,192,53638,1,2,0:0:0:0:
256,192,54049,1,2,0:0:0:0:
256,192,54460,5,4,0:0:0:0:
256,192,55282,1,2,0:0:0:0:
256,192,55590,1,2,0:0:0:0:
256,192,55899,1,2,0:0:0:0:
256,192,56104,1,0,0:0:0:0:
256,192,56515,1,2,0:0:0:0:
256,192,56926,1,0,0:0:0:0:
256,192,57337,1,0,0:0:0:0:
256,192,57542,1,0,0:0:0:0:
256,192,57953,1,2,0:0:0:0:
256,192,58159,1,2,0:0:0:0:
256,192,58570,1,2,0:0:0:0:
256,192,58878,1,2,0:0:0:0:
256,192,59186,1,2,0:0:0:0:
256,192,59392,1,0,0:0:0:0:
256,192,59803,1,2,0:0:0:0:
128,128,60214,2,0,L|379:99,1,245
256,192,61138,12,0,64221,0:0:0:0:
256,192,64734,5,2,0:0:0:0:
256,192,65145,1,0,0:0:0:0:
256,192,65351,1,0,0:0:0:0:
256,192,65556,1,2,0:0:0:0:
256,192,65967,1,0,0:0:0:0:
256,192,66789,1,2,0:0:0:0:
256,192,66994,1,2,0:0:0:0:
256,192,67200,1,2,0:0:0:0:
256,192,67611,1,0,0:0:0:0:
256,192,68022,1,0,0:0:0:0:
256,192,68433,1,2,0:0:0:0:
256,192,69255,1,0,0:0:0:0:
256,192,69666,1,0,0:0:0:0:
256,192,70077,1,2,0:0:0:0:
256,192,70488,1,0,0:0:0:0:
256,192,70693,1,0,0:0:0:0:
256,192,70899,1,0,0:0:0:0:
256,192,71310,1,0,0:0:0:0:
256,192,71721,1,2,0:0:0:0:
256,192,72542,1,0,0:0:0:0:
256,192,72953,1,0,0:0:0:0:
256,192,73364,1,2,0:0:0:0:
256,192,73775,1,2,0:0:0:0:
256,192,73981,1,2,0:0:0:0:
256,192,74186,1,0,0:0:0:0:
256,192,74597,1,0,0:0:0:0:
256,192,75008,1,2,0:0:0:0:
256,192,75830,1,0,0:0:0:0:
256,192,76241,1,0,0:0:0:0:
256,192,76652,1,2,0:0:0:0:
256,192,77063,1,2,0:0:0:0:
256,192,77268,1,0,0:0:0:0:
256,192,77474,1,0,0:0:0:0:
256,192,77885,1,0,0:0:0:0:
256,192,78296,1,2,0:0:0:0:
256,192,78707,1,0,0:0:0:0:
256,192,78912,1,2,0:0:0:0:
256,192,79118,1,0,0:0:0:0:
256,192,79529,1,2,0:0:0:0:
128,128,79940,2,0,L|316:97,1,140
256,192,80762,1,4,0:0:0:0:
256,192,87337,5,2,0:0:0:0:
256,192,88159,1,2,0:0:0:0:
256,192,88981,1,2,0:0:0:0:
256,192,89803,1,2,0:0:0:0:
256,192,90111,1,2,0:0:0:0:
256,192,90419,1,2,0:0:0:0:
256,192,90625,1,2,0:0:0:0:
256,192,91447,1,2,0:0:0:0:
106,77,92268,2,0,P|331:30|437:169,1,420
256,192,93912,5,4,0:0:0:0:
256,192,94323,1,2,0:0:0:0:
256,192,94734,1,0,0:0:0:0:
256,192,94940,1,0,0:0:0:0:
256,192,95145,1,0,0:0:0:0:
256,192,95556,1,2,0:0:0:0:
256,192,96378,1,2,0:0:0:0:
256,192,96789,1,2,0:0:0:0:
256,192,97200,1,0,0:0:0:0:
256,192,97611,1,2,0:0:0:0:
256,192,98022,1,2,0:0:0:0:
256,192,98227,1,2,0:0:0:0:
256,192,98433,1,0,0:0:0:0:
256,192,98844,1,0,0:0:0:0:
256,192,99255,1,2,0:0:0:0:
256,192,99666,1,0,0:0:0:0:
256,192,100488,1,0,0:0:0:0:
256,192,100899,1,2,0:0:0:0:
256,192,101310,1,0,0:0:0:0:
256,192,101515,1,0,0:0:0:0:
256,192,101721,1,0,0:0:0:0:
256,192,102131,1,2,0:0:0:0:
256,192,102953,1,2,0:0:0:0:
256,192,103364,1,2,0:0:0:0:
256,192,103775,1,0,0:0:0:0:
256,192,104186,1,2,0:0:0:0:
256,192,104597,1,2,0:0:0:0:
256,192,104803,1,0,0:0:0:0:
256,192,105008,1,2,0:0:0:0:
256,192,105419,1,2,0:0:0:0:
256,192,106447,1,0,0:0:0:0:
256,192,106755,1,0,0:0:0:0:
256,192,107063,1,4,0:0:0:0:
256,192,107474,1,2,0:0:0:0:
256,192,107885,1,2,0:0:0:0:
256,192,108090,1,2,0:0:0:0:
256,192,108296,1,0,0:0:0:0:
256,192,108707,1,0,0:0:0:0:
256,192,109118,1,2,0:0:0:0:
256,192,109529,1,0,0:0:0:0:
256,192,109734,1,0,0:0:0:0:
256,192,109940,1,2,0:0:0:0:
256,192,110351,1,0,0:0:0:0:
256,192,110762,1,2,0:0:0:0:
256,192,111173,1,0,0:0:0:0:
256,192,111378,1,2,0:0:0:0:
256,192,111584,1,0,0:0:0:0:
256,192,111994,1,0,0:0:0:0:
256,192,112405,1,2,0:0:0:0:
256,192,112816,1,0,0:0:0:0:
256,192,113638,1,0,0:0:0:0:
256,192,114049,1,2,0:0:0:0:
256,192,114460,1,2,0:0:0:0:
256,192,114666,1,2,0:0:0:0:
256,192,114871,1,0,0:0:0:0:
256,192,115282,1,0,0:0:0:0:
256,192,115693,1,2,0:0:0:0:
256,192,116104,1,0,0:0:0:0:
256,192,116310,1,0,0:0:0:0:
256,192,116515,1,2,0:0:0:0:
256,192,116926,1,0,0:0:0:0:
256,192,117337,1,2,0:0:0:0:
256,192,117748,1,2,0:0:0:0:
256,192,117953,1,0,0:0:0:0:
256,192,118159,1,2,0:0:0:0:
101,121,118570,2,0,L|447:106,1,280
256,192,120214,1,4,0:0:0:0:
256,192,121036,1,2,0:0:0:0:
256,192,121447,1,2,0:0:0:0:
256,192,121857,1,0,0:0:0:0:
256,192,122063,1,0,0:0:0:0:
256,192,122268,1,0,0:0:0:0:
256,192,123501,1,0,0:0:0:0:
256,192,124323,1,0,0:0:0:0:
256,192,124734,1,2,0:0:0:0:
256,192,125145,1,2,0:0:0:0:
256,192,125351,1,2,0:0:0:0:
256,192,125556,1,2,0:0:0:0:
256,192,125967,1,0,0:0:0:0:
256,192,126789,1,2,0:0:0:0:
256,192,127200,1,0,0:0:0:0:
256,192,127816,1,0,0:0:0:0:
256,192,128022,1,2,0:0:0:0:
256,192,128433,1,0,0:0:0:0:
256,192,128844,1,2,0:0:0:0:
256,192,129255,1,2,0:0:0:0:
256,192,129871,1,2,0:0:0:0:
256,192,130077,1,2,0:0:0:0:
256,192,130488,1,0,0:0:0:0:
256,192,130693,1,2,0:0:0:0:
256,192,130899,1,2,0:0:0:0:
256,192,131721,1,2,0:0:0:0:
256,192,132131,1,0,0:0:0:0:
256,192,132542,1,2,0:0:0:0:
256,192,132953,1,2,0:0:0:0:
256,192,133364,5,4,0:0:0:0:
256,192,133775,1,2,0:0:0:0:
256,192,133981,1,0,0:0:0:0:
256,192,134392,1,0,0:0:0:0:
256,192,134597,1,2,0:0:0:0:
256,192,135008,1,0,0:0:0:0:
256,192,135419,1,2,0:0:0:0:
256,192,135625,1,0,0:0:0:0:
256,192,136241,1,2,0:0:0:0:
256,192,136652,1,0,0:0:0:0:
256,192,137063,1,2,0:0:0:0:
256,192,137268,1,0,0:0:0:0:
256,192,137679,1,0,0:0:0:0:
256,192,137885,1,2,0:0:0:0:
256,192,138296,1,0,0:0:0:0:
256,192,138501,1,0,0:0:0:0:
256,192,138707,1,2,0:0:0:0:
256,192,138912,1,0,0:0:0:0:
256,192,139631,1,6,0:0:0:0:
256,192,139940,1,0,0:0:0:0:
256,192,140351,1,2,0:0:0:0:
256,192,140556,1,0,0:0:0:0:
256,192,140967,1,0,0:0:0:0:
256,192,141173,1,2,0:0:0:0:
256,192,141584,1,0,0:0:0:0:
256,192,141789,1,0,0:0:0:0:
256,192,141994,1,2,0:0:0:0:
256,192,142200,1,0,0:0:0:0:
256,192,142611,1,0,0:0:0:0:
256,192,142816,1,2,0:0:0:0:
256,192,143227,1,0,0:0:0:0:
256,192,143638,1,2,0:0:0:0:
256,192,143844,1,0,0:0:0:0:
256,192,144255,1,0,0:0:0:0:
256,192,144460,1,2,0:0:0:0:
256,192,144871,1,0,0:0:0:0:
256,192,145282,1,2,0:0:0:0:
256,192,145488,1,0,0:0:0:0:
256,192,145693,1,2,0:0:0:0:
256,192,146104,1,2,0:0:0:0:
256,192,146515,1,4,0:0:0:0:
256,192,146721,12,0,149803,0:0:0:0:
