osu file format v14

[General]
AudioFilename: audio.mp3
AudioLeadIn: 0
PreviewTime: 52608
Countdown: 1
SampleSet: Normal
StackLeniency: 0.7
Mode: 1
LetterboxInBreaks: 0
WidescreenStoryboard: 1

[Editor]
Bookmarks: 8430,15005,28156,41307,54457,74183,100485,133361
DistanceSpacing: 0.9
BeatDivisor: 4
GridSize: 32
TimelineZoom: 1.6

[Metadata]
Title:Epitorica no Matsuri
TitleUnicode:エピトゥリカの祀
Artist:sasakure.UK
ArtistUnicode:sasakure.UK
Creator:tasuke912
Version:Muzukashii
Source:BMS
Tags:Team:SASAKURATION Festival of BOF2008 yassu-
BeatmapID:1373531
BeatmapSetID:511420

[Difficulty]
HPDrainRate:6
CircleSize:2
OverallDifficulty:5
ApproachRate:5
SliderMultiplier:1.4
SliderTickRate:1

[Events]
//Background and Video events
0,0,"bg.jpg",0,0
//Break Periods
2,80962,86137
//Storyboard Layer 0 (Background)
//Storyboard Layer 1 (Fail)
//Storyboard Layer 2 (Pass)
//Storyboard Layer 3 (Foreground)
//Storyboard Sound Samples

[TimingPoints]
1858,410.958904109589,4,1,0,60,1,0
8433,-100,4,1,0,70,0,0
27851,-100,4,1,0,50,0,0
41104,-100,4,1,0,50,0,0
41310,-100,4,1,0,70,0,0
54460,-100,4,1,0,75,0,1
67611,-100,4,1,0,70,0,0
80864,-100,4,1,0,60,0,0
87337,-100,4,1,0,70,0,0
93912,-100,4,1,0,75,0,1
120214,-100,4,1,0,70,0,0
133364,-100,4,1,0,75,0,1
146515,-100,4,1,0,70,0,0
146618,-100,4,1,0,30,0,0
148159,-100,4,1,0,30,0,0
149803,-100,4,1,0,30,0,0

[HitObjects]
256,192,1858,5,4,0:0:0:0:
256,192,2474,1,2,0:0:0:0:
256,192,3090,1,2,0:0:0:0:
256,192,3296,1,2,0:0:0:0:
256,192,3501,1,2,0:0:0:0:
256,192,4118,1,2,0:0:0:0:
256,192,4734,1,2,0:0:0:0:
256,192,4940,1,2,0:0:0:0:
256,192,5145,1,0,0:0:0:0:
256,192,5762,1,2,0:0:0:0:
256,192,6378,1,2,0:0:0:0:
256,192,6584,1,2,0:0:0:0:
256,192,6789,1,2,0:0:0:0:
256,192,7405,1,2,0:0:0:0:
256,192,8022,1,2,0:0:0:0:
256,192,8227,1,2,0:0:0:0:
256,192,8433,5,0,0:0:0:0:
256,192,8844,1,0,0:0:0:0:
256,192,9255,1,2,0:0:0:0:
256,192,9666,1,0,0:0:0:0:
256,192,10077,1,0,0:0:0:0:
256,192,10282,1,2,0:0:0:0:
256,192,10488,1,0,0:0:0:0:
256,192,10899,1,2,0:0:0:0:
256,192,11310,1,0,0:0:0:0:
256,192,11721,1,0,0:0:0:0:
256,192,12131,1,0,0:0:0:0:
256,192,12542,1,2,0:0:0:0:
256,192,12953,1,0,0:0:0:0:
256,192,13364,1,0,0:0:0:0:
256,192,13467,1,0,0:0:0:0:
256,192,13570,1,0,0:0:0:0:
256,192,13775,1,2,0:0:0:0:
256,192,13981,1,2,0:0:0:0:
256,192,14084,1,2,0:0:0:0:
256,192,14186,1,2,0:0:0:0:
256,192,14392,1,0,0:0:0:0:
256,192,14597,1,2,0:0:0:0:
256,192,15008,5,4,0:0:0:0:
256,192,15316,1,2,0:0:0:0:
256,192,15625,1,2,0:0:0:0:
256,192,16036,1,0,0:0:0:0:
256,192,16241,1,2,0:0:0:0:
256,192,16447,1,0,0:0:0:0:
256,192,16652,1,0,0:0:0:0:
256,192,16960,1,2,0:0:0:0:
256,192,17268,1,2,0:0:0:0:
256,192,17679,1,0,0:0:0:0:
256,192,17885,1,2,0:0:0:0:
256,192,17988,1,2,0:0:0:0:
256,192,18090,1,2,0:0:0:0:
256,192,18296,1,0,0:0:0:0:
256,192,18604,1,2,0:0:0:0:
256,192,18912,1,2,0:0:0:0:
256,192,19323,1,0,0:0:0:0:
256,192,19529,1,2,0:0:0:0:
256,192,19734,1,0,0:0:0:0:
256,192,19940,1,0,0:0:0:0:
256,192,20248,1,2,0:0:0:0:
256,192,20556,1,2,0:0:0:0:
256,192,20967,1,2,0:0:0:0:
256,192,21173,1,0,0:0:0:0:
256,192,21275,1,2,0:0:0:0:
256,192,21584,1,0,0:0:0:0:
256,192,21892,1,2,0:0:0:0:
256,192,22200,1,2,0:0:0:0:
256,192,22611,1,0,0:0:0:0:
256,192,22816,1,2,0:0:0:0:
256,192,23022,1,0,0:0:0:0:
256,192,23227,1,0,0:0:0:0:
256,192,23536,1,2,0:0:0:0:
256,192,23844,1,2,0:0:0:0:
256,192,24255,1,0,0:0:0:0:
256,192,24460,1,2,0:0:0:0:
256,192,24563,5,2,0:0:0:0:
256,192,24666,1,2,0:0:0:0:
256,192,24871,1,0,0:0:0:0:
256,192,25179,1,2,0:0:0:0:
256,192,25488,1,2,0:0:0:0:
256,192,25899,1,0,0:0:0:0:
256,192,26104,1,2,0:0:0:0:
256,192,26310,1,0,0:0:0:0:
256,192,26515,1,0,0:0:0:0:
256,192,26823,1,2,0:0:0:0:
256,192,27131,1,2,0:0:0:0:
256,192,28159,1,4,0:0:0:0:
256,192,28981,1,2,0:0:0:0:
256,192,29803,1,0,0:0:0:0:
256,192,30008,1,0,0:0:0:0:
256,192,30214,1,0,0:0:0:0:
256,192,31447,1,0,0:0:0:0:
256,192,32268,1,2,0:0:0:0:
256,192,33090,1,2,0:0:0:0:
256,192,33296,1,2,0:0:0:0:
256,192,33501,1,2,0:0:0:0:
256,192,33912,1,0,0:0:0:0:
256,192,34734,1,2,0:0:0:0:
256,192,35145,1,0,0:0:0:0:
256,192,35762,1,0,0:0:0:0:
256,192,35967,1,2,0:0:0:0:
256,192,36378,1,0,0:0:0:0:
256,192,36789,1,2,0:0:0:0:
256,192,37200,1,2,0:0:0:0:
256,192,38022,1,2,0:0:0:0:
256,192,38433,1,0,0:0:0:0:
256,192,38638,1,2,0:0:0:0:
256,192,38844,1,2,0:0:0:0:
256,192,39460,1,2,0:0:0:0:
256,192,39666,1,2,0:0:0:0:
256,192,40077,1,2,0:0:0:0:
256,192,40488,1,0,0:0:0:0:
256,192,41310,1,4,0:0:0:0:
256,192,42131,1,2,0:0:0:0:
256,192,42542,1,2,0:0:0:0:
256,192,42953,1,0,0:0:0:0:
256,192,43159,1,0,0:0:0:0:
256,192,43364,1,0,0:0:0:0:
256,192,44392,1,0,0:0:0:0:
256,192,44494,1,0,0:0:0:0:
256,192,44597,1,0,0:0:0:0:
256,192,45214,5,2,0:0:0:0:
256,192,45316,1,2,0:0:0:0:
256,192,45419,1,2,0:0:0:0:
256,192,45830,1,2,0:0:0:0:
256,192,46241,1,2,0:0:0:0:
256,192,46447,1,2,0:0:0:0:
256,192,46652,1,2,0:0:0:0:
256,192,47063,1,0,0:0:0:0:
256,192,47679,1,0,0:0:0:0:
256,192,47885,1,0,0:0:0:0:
256,192,48090,1,2,0:0:0:0:
256,192,48296,1,0,0:0:0:0:
256,192,48707,1,2,0:0:0:0:
256,192,49118,1,2,0:0:0:0:
256,192,49323,1,2,0:0:0:0:
256,192,49529,1,0,0:0:0:0:
256,192,49940,1,2,0:0:0:0:
256,192,50351,1,2,0:0:0:0:
256,192,50967,1,2,0:0:0:0:
256,192,51070,1,2,0:0:0:0:
256,192,51173,1,2,0:0:0:0:
256,192,51584,1,0,0:0:0:0:
256,192,51789,1,2,0:0:0:0:
256,192,51994,1,2,0:0:0:0:
256,192,52816,1,0,0:0:0:0:
256,192,53227,1,2,0:0:0:0:
256,192,53433,1,0,0:0:0:0:
256,192,53638,1,2,0:0:0:0:
256,192,53741,1,2,0:0:0:0:
256,192,53844,1,2,0:0:0:0:
256,192,54049,1,2,0:0:0:0:
256,192,54460,5,4,0:0:0:0:
256,192,54666,1,2,0:0:0:0:
256,192,54871,1,2,0:0:0:0:
256,192,55282,1,2,0:0:0:0:
256,192,55590,1,2,0:0:0:0:
256,192,55899,1,2,0:0:0:0:
256,192,56104,1,0,0:0:0:0:
256,192,56310,1,2,0:0:0:0:
256,192,56515,1,2,0:0:0:0:
256,192,56721,1,2,0:0:0:0:
256,192,56823,1,2,0:0:0:0:
256,192,56926,1,2,0:0:0:0:
256,192,57131,1,2,0:0:0:0:
256,192,57234,1,2,0:0:0:0:
256,192,57440,1,2,0:0:0:0:
256,192,57645,1,0,0:0:0:0:
256,192,57953,1,2,0:0:0:0:
256,192,58364,1,0,0:0:0:0:
256,192,58467,1,0,0:0:0:0:
256,192,58570,1,0,0:0:0:0:
256,192,58878,1,2,0:0:0:0:
256,192,59186,1,2,0:0:0:0:
256,192,59392,1,0,0:0:0:0:
256,192,59597,1,2,0:0:0:0:
256,192,59700,1,2,0:0:0:0:
256,192,59905,1,2,0:0:0:0:
256,192,60111,1,0,0:0:0:0:
128,128,60316,2,0,L|352:96,1,210
256,192,61138,12,0,64221,0:0:0:0:
256,192,64529,5,2,0:0:0:0:
256,192,64734,5,2,0:0:0:0:
256,192,64837,1,2,0:0:0:0:
256,192,65042,1,0,0:0:0:0:
256,192,65248,1,2,0:0:0:0:
256,192,65453,1,0,0:0:0:0:
256,192,65659,1,2,0:0:0:0:
256,192,65967,1,2,0:0:0:0:
256,192,66070,1,2,0:0:0:0:
256,192,66275,1,0,0:0:0:0:
256,192,66481,1,0,0:0:0:0:
256,192,66686,1,2,0:0:0:0:
256,192,66892,1,0,0:0:0:0:
256,192,67097,1,2,0:0:0:0:
256,192,67303,1,2,0:0:0:0:
256,192,67405,1,2,0:0:0:0:
256,192,67611,1,0,0:0:0:0:
256,192,68022,1,2,0:0:0:0:
256,192,68227,1,0,0:0:0:0:
256,192,68433,1,2,0:0:0:0:
256,192,68844,1,0,0:0:0:0:
256,192,69049,1,2,0:0:0:0:
256,192,69255,1,2,0:0:0:0:
256,192,69460,1,0,0:0:0:0:
256,192,69666,1,2,0:0:0:0:
256,192,70077,1,2,0:0:0:0:
256,192,70282,1,2,0:0:0:0:
256,192,70488,1,0,0:0:0:0:
256,192,70693,5,0,0:0:0:0:
256,192,70796,1,0,0:0:0:0:
256,192,70899,1,0,0:0:0:0:
256,192,71310,1,2,0:0:0:0:
256,192,71515,1,0,0:0:0:0:
256,192,71721,1,2,0:0:0:0:
256,192,72131,1,0,0:0:0:0:
256,192,72337,1,2,0:0:0:0:
256,192,72542,1,2,0:0:0:0:
256,192,72748,1,0,0:0:0:0:
256,192,72953,1,2,0:0:0:0:
256,192,73364,1,0,0:0:0:0:
256,192,73775,1,2,0:0:0:0:
256,192,73981,1,2,0:0:0:0:
256,192,74186,1,0,0:0:0:0:
256,192,74597,1,2,0:0:0:0:
256,192,74803,1,0,0:0:0:0:
256,192,75008,1,2,0:0:0:0:
256,192,75419,1,0,0:0:0:0:
256,192,75625,1,2,0:0:0:0:
256,192,75830,1,2,0:0:0:0:
256,192,76036,1,0,0:0:0:0:
256,192,76241,1,2,0:0:0:0:
256,192,76652,1,2,0:0:0:0:
256,192,76857,1,2,0:0:0:0:
256,192,77063,1,0,0:0:0:0:
256,192,77474,1,0,0:0:0:0:
256,192,77885,1,2,0:0:0:0:
256,192,78090,1,0,0:0:0:0:
256,192,78296,1,2,0:0:0:0:
256,192,78501,1,2,0:0:0:0:
256,192,78604,1,2,0:0:0:0:
256,192,78707,1,2,0:0:0:0:
256,192,78912,1,2,0:0:0:0:
256,192,79118,1,0,0:0:0:0:
256,192,79529,1,2,0:0:0:0:
256,192,79940,1,2,0:0:0:0:
256,192,80042,1,2,0:0:0:0:
256,192,80145,1,2,0:0:0:0:
256,192,80248,1,2,0:0:0:0:
256,192,80351,1,2,0:0:0:0:
256,192,80762,1,4,0:0:0:0:
256,192,87337,5,2,0:0:0:0:
256,192,87953,1,2,0:0:0:0:
256,192,88159,1,2,0:0:0:0:
256,192,88467,1,2,0:0:0:0:
256,192,88775,1,2,0:0:0:0:
256,192,88981,1,2,0:0:0:0:
256,192,89597,1,2,0:0:0:0:
256,192,89700,1,2,0:0:0:0:
256,192,89803,1,2,0:0:0:0:
256,192,90111,1,2,0:0:0:0:
256,192,90419,1,2,0:0:0:0:
256,192,90625,1,2,0:0:0:0:
256,192,90933,1,2,0:0:0:0:
256,192,91241,1,2,0:0:0:0:
256,192,91447,1,2,0:0:0:0:
256,192,91652,1,2,0:0:0:0:
256,192,91755,1,2,0:0:0:0:
256,192,91960,1,2,0:0:0:0:
256,192,92063,1,2,0:0:0:0:
146,69,92268,2,0,P|91:185|280:358,1,420
256,192,93912,5,4,0:0:0:0:
256,192,94323,1,0,0:0:0:0:
256,192,94529,1,2,0:0:0:0:
256,192,94734,1,0,0:0:0:0:
256,192,95042,1,0,0:0:0:0:
256,192,95145,1,0,0:0:0:0:
256,192,95351,1,0,0:0:0:0:
256,192,95556,1,2,0:0:0:0:
256,192,95967,1,2,0:0:0:0:
256,192,96173,1,0,0:0:0:0:
256,192,96378,1,2,0:0:0:0:
256,192,96686,1,2,0:0:0:0:
256,192,96789,1,2,0:0:0:0:
256,192,96994,1,2,0:0:0:0:
256,192,97200,1,0,0:0:0:0:
256,192,97508,1,2,0:0:0:0:
256,192,97611,1,2,0:0:0:0:
256,192,97816,1,2,0:0:0:0:
256,192,98022,1,0,0:0:0:0:
256,192,98433,1,2,0:0:0:0:
256,192,98638,1,0,0:0:0:0:
256,192,98844,1,0,0:0:0:0:
256,192,99049,1,2,0:0:0:0:
256,192,99255,1,2,0:0:0:0:
256,192,99460,1,0,0:0:0:0:
256,192,99666,1,0,0:0:0:0:
256,192,99768,1,0,0:0:0:0:
256,192,99871,1,0,0:0:0:0:
256,192,100077,1,2,0:0:0:0:
256,192,100488,1,0,0:0:0:0:
256,192,100899,1,0,0:0:0:0:
256,192,101104,1,2,0:0:0:0:
256,192,101310,1,0,0:0:0:0:
256,192,101618,1,0,0:0:0:0:
256,192,101721,1,0,0:0:0:0:
256,192,101926,1,0,0:0:0:0:
256,192,102131,1,2,0:0:0:0:
256,192,102542,1,2,0:0:0:0:
256,192,102748,1,0,0:0:0:0:
256,192,102953,1,2,0:0:0:0:
256,192,103262,1,2,0:0:0:0:
256,192,103364,1,2,0:0:0:0:
256,192,103570,1,2,0:0:0:0:
256,192,103775,1,0,0:0:0:0:
256,192,104084,1,0,0:0:0:0:
256,192,104186,1,0,0:0:0:0:
256,192,104392,1,2,0:0:0:0:
256,192,104597,1,2,0:0:0:0:
256,192,104803,1,0,0:0:0:0:
256,192,104905,1,0,0:0:0:0:
256,192,105111,1,2,0:0:0:0:
256,192,105214,1,2,0:0:0:0:
92,96,105419,2,0,L|385:65,1,280
256,192,106447,5,0,0:0:0:0:
256,192,106755,1,0,0:0:0:0:
256,192,107063,1,4,0:0:0:0:
256,192,107474,1,2,0:0:0:0:
256,192,107679,1,2,0:0:0:0:
256,192,107885,1,0,0:0:0:0:
256,192,108090,1,0,0:0:0:0:
256,192,108193,1,0,0:0:0:0:
256,192,108296,1,0,0:0:0:0:
256,192,108501,1,0,0:0:0:0:
256,192,108707,1,2,0:0:0:0:
256,192,109118,1,2,0:0:0:0:
256,192,109323,1,2,0:0:0:0:
256,192,109529,1,0,0:0:0:0:
256,192,109734,1,2,0:0:0:0:
256,192,109837,1,2,0:0:0:0:
256,192,109940,1,2,0:0:0:0:
256,192,110145,1,2,0:0:0:0:
256,192,110351,1,0,0:0:0:0:
256,192,110762,1,0,0:0:0:0:
256,192,110967,1,2,0:0:0:0:
256,192,111173,1,0,0:0:0:0:
256,192,111378,1,0,0:0:0:0:
256,192,111481,1,0,0:0:0:0:
256,192,111584,1,0,0:0:0:0:
256,192,111789,1,0,0:0:0:0:
256,192,111994,1,2,0:0:0:0:
256,192,112405,1,2,0:0:0:0:
256,192,112611,1,0,0:0:0:0:
256,192,112816,1,2,0:0:0:0:
256,192,113227,1,2,0:0:0:0:
256,192,113330,1,2,0:0:0:0:
256,192,113433,1,2,0:0:0:0:
256,192,113638,1,0,0:0:0:0:
256,192,114049,1,2,0:0:0:0:
256,192,114255,1,2,0:0:0:0:
256,192,114460,1,0,0:0:0:0:
256,192,114666,1,0,0:0:0:0:
256,192,114768,1,0,0:0:0:0:
256,192,114871,1,0,0:0:0:0:
256,192,115077,1,0,0:0:0:0:
256,192,115282,1,2,0:0:0:0:
256,192,115693,1,2,0:0:0:0:
256,192,115899,1,2,0:0:0:0:
256,192,116104,1,0,0:0:0:0:
256,192,116310,1,2,0:0:0:0:
256,192,116412,1,2,0:0:0:0:
256,192,116515,1,2,0:0:0:0:
256,192,116721,1,2,0:0:0:0:
256,192,116926,1,0,0:0:0:0:
256,192,117337,1,0,0:0:0:0:
256,192,117542,1,2,0:0:0:0:
256,192,117748,1,0,0:0:0:0:
256,192,117953,1,2,0:0:0:0:
256,192,118056,1,2,0:0:0:0:
256,192,118262,1,2,0:0:0:0:
256,192,118364,1,2,0:0:0:0:
101,121,118570,2,0,L|447:106,1,280
256,192,119803,1,6,0:0:0:0:
256,192,120214,1,0,0:0:0:0:
256,192,120419,1,2,0:0:0:0:
256,192,120625,1,2,0:0:0:0:
256,192,121036,1,2,0:0:0:0:
256,192,121344,1,2,0:0:0:0:
256,192,121652,1,2,0:0:0:0:
256,192,121857,1,0,0:0:0:0:
256,192,122063,1,0,0:0:0:0:
256,192,122166,1,0,0:0:0:0:
256,192,122268,1,0,0:0:0:0:
256,192,122679,1,2,0:0:0:0:
256,192,122885,1,2,0:0:0:0:
256,192,123090,1,0,0:0:0:0:
256,192,123501,1,0,0:0:0:0:
256,192,123707,1,2,0:0:0:0:
256,192,123912,1,2,0:0:0:0:
256,192,124323,1,2,0:0:0:0:
256,192,124631,1,2,0:0:0:0:
256,192,124940,1,2,0:0:0:0:
256,192,125145,1,0,0:0:0:0:
256,192,125351,1,2,0:0:0:0:
256,192,125453,1,2,0:0:0:0:
256,192,125556,1,2,0:0:0:0:
256,192,125762,1,0,0:0:0:0:
256,192,125967,1,2,0:0:0:0:
256,192,126173,1,2,0:0:0:0:
256,192,126378,1,0,0:0:0:0:
256,192,126789,1,0,0:0:0:0:
256,192,126994,1,2,0:0:0:0:
256,192,127200,1,0,0:0:0:0:
256,192,127611,1,2,0:0:0:0:
256,192,127816,1,0,0:0:0:0:
256,192,128022,1,2,0:0:0:0:
256,192,128227,1,2,0:0:0:0:
256,192,128433,1,0,0:0:0:0:
256,192,128844,1,2,0:0:0:0:
256,192,129049,1,2,0:0:0:0:
256,192,129152,1,2,0:0:0:0:
256,192,129255,1,2,0:0:0:0:
256,192,129871,1,2,0:0:0:0:
256,192,129974,1,2,0:0:0:0:
256,192,130077,1,2,0:0:0:0:
256,192,130282,1,2,0:0:0:0:
256,192,130488,1,0,0:0:0:0:
256,192,130693,1,2,0:0:0:0:
256,192,130899,1,2,0:0:0:0:
256,192,131515,1,0,0:0:0:0:
256,192,131618,1,0,0:0:0:0:
256,192,131721,1,0,0:0:0:0:
256,192,132131,1,2,0:0:0:0:
256,192,132337,1,0,0:0:0:0:
256,192,132542,1,2,0:0:0:0:
256,192,132645,1,2,0:0:0:0:
256,192,132748,1,2,0:0:0:0:
256,192,132953,1,2,0:0:0:0:
256,192,133364,5,4,0:0:0:0:
256,192,133775,1,2,0:0:0:0:
256,192,133981,1,0,0:0:0:0:
256,192,134392,1,0,0:0:0:0:
256,192,134597,1,2,0:0:0:0:
256,192,134803,1,0,0:0:0:0:
256,192,134905,1,0,0:0:0:0:
256,192,135008,1,0,0:0:0:0:
256,192,135214,1,0,0:0:0:0:
256,192,135419,1,2,0:0:0:0:
256,192,135625,1,0,0:0:0:0:
256,192,136036,1,0,0:0:0:0:
256,192,136241,1,2,0:0:0:0:
256,192,136344,1,2,0:0:0:0:
256,192,136447,1,2,0:0:0:0:
256,192,136652,1,0,0:0:0:0:
256,192,137063,1,2,0:0:0:0:
256,192,137268,1,0,0:0:0:0:
256,192,137679,1,0,0:0:0:0:
256,192,137885,1,2,0:0:0:0:
256,192,138090,1,0,0:0:0:0:
256,192,138296,1,0,0:0:0:0:
256,192,138501,1,0,0:0:0:0:
256,192,138707,1,2,0:0:0:0:
256,192,138912,1,0,0:0:0:0:
256,192,139015,1,0,0:0:0:0:
256,192,139118,1,0,0:0:0:0:
256,192,139323,1,2,0:0:0:0:
256,192,139529,1,2,0:0:0:0:
256,192,139631,1,2,0:0:0:0:
256,192,139940,1,4,0:0:0:0:
256,192,140351,1,2,0:0:0:0:
256,192,140556,1,0,0:0:0:0:
256,192,140967,1,0,0:0:0:0:
256,192,141173,1,2,0:0:0:0:
256,192,141378,1,0,0:0:0:0:
256,192,141481,1,0,0:0:0:0:
256,192,141584,1,0,0:0:0:0:
256,192,141789,1,0,0:0:0:0:
256,192,141994,1,2,0:0:0:0:
256,192,142200,1,0,0:0:0:0:
256,192,142611,1,0,0:0:0:0:
256,192,142816,1,2,0:0:0:0:
256,192,142919,1,2,0:0:0:0:
256,192,143022,1,2,0:0:0:0:
256,192,143227,1,0,0:0:0:0:
256,192,143638,1,2,0:0:0:0:
256,192,143844,1,0,0:0:0:0:
256,192,144255,1,0,0:0:0:0:
256,192,144460,1,2,0:0:0:0:
256,192,144666,1,0,0:0:0:0:
256,192,144871,1,0,0:0:0:0:
256,192,144974,1,0,0:0:0:0:
256,192,145077,1,0,0:0:0:0:
256,192,145282,1,2,0:0:0:0:
256,192,145488,1,0,0:0:0:0:
256,192,145693,1,2,0:0:0:0:
256,192,145796,1,2,0:0:0:0:
256,192,145899,1,2,0:0:0:0:
256,192,146104,1,2,0:0:0:0:
256,192,146515,1,4,0:0:0:0:
256,192,146721,12,0,149803,0:0:0:0:
