osu file format v14

[General]
AudioFilename: audio.mp3
AudioLeadIn: 0
PreviewTime: 48355
Countdown: 0
SampleSet: Soft
StackLeniency: 0.7
Mode: 0
LetterboxInBreaks: 0
WidescreenStoryboard: 1

[Editor]
DistanceSpacing: 1
BeatDivisor: 2
GridSize: 32
TimelineZoom: 1.6

[Metadata]
Title:Decadence feat. mami
TitleUnicode:ディカダンス feat. mami
Artist:sasakure.UK
ArtistUnicode:sasakure.UK
Creator:Agatsu
Version:Normal
Source:
Tags:japanese rock 有形ランペイジ ukrampage 佐々木秀尚 sasaki hidehisa heroine some hero kowari
BeatmapID:3650170
BeatmapSetID:1719345

[Difficulty]
HPDrainRate:4
CircleSize:3.5
OverallDifficulty:4
ApproachRate:6
SliderMultiplier:0.9
SliderTickRate:1

[Events]
//Background and Video events
0,0,"66944773_p0.jpg",0,0
//Break Periods
2,32618,39368
2,88618,95368
2,118618,125368
//Storyboard Layer 0 (Background)
//Storyboard Layer 1 (Fail)
//Storyboard Layer 2 (Pass)
//Storyboard Layer 3 (Foreground)
//Storyboard Layer 4 (Overlay)
//Storyboard Sound Samples

[TimingPoints]
418,250,4,1,1,80,1,0
418,-100,4,1,1,80,0,0
4418,-111.111111111111,4,2,1,50,0,0
8418,-100,4,1,6,70,0,0
8480,-100,4,1,1,70,0,0
12418,-100,4,1,6,70,0,0
12480,-100,4,1,1,70,0,0
16418,-111.111111111111,4,2,3,50,0,0
16480,-111.111111111111,4,2,1,50,0,0
20418,-111.111111111111,4,2,3,50,0,0
20480,-111.111111111111,4,2,1,50,0,0
24418,-100,4,2,3,60,0,0
24480,-100,4,2,1,60,0,0
28418,-100,4,2,3,60,0,0
28480,-100,4,2,1,60,0,0
32418,-100,4,2,1,40,0,0
39418,-100,4,2,1,50,0,0
40418,-100,4,1,3,60,0,0
40480,-100,4,1,1,60,0,0
42418,-100,4,1,3,60,0,0
42480,-100,4,1,1,60,0,0
44418,-100,4,1,3,60,0,0
44480,-100,4,1,1,60,0,0
46418,-100,4,1,1,40,0,0
46543,-100,4,1,1,40,0,0
47918,-100,4,1,1,50,0,0
48418,-100,4,1,3,70,0,1
48480,-100,4,1,1,70,0,1
56418,-100,4,1,3,70,0,1
56480,-100,4,1,1,70,0,1
64418,-100,4,1,6,70,0,0
64480,-100,4,1,1,70,0,0
72418,-111.111111111111,4,2,3,50,0,0
72480,-111.111111111111,4,2,1,50,0,0
80418,-100,4,2,3,60,0,0
80480,-100,4,2,1,60,0,0
84418,-100,4,2,3,60,0,0
84480,-100,4,2,1,60,0,0
88418,-100,4,2,1,40,0,0
96418,-100,4,1,3,60,0,0
96480,-100,4,1,1,60,0,0
98418,-100,4,1,3,60,0,0
98480,-100,4,1,1,60,0,0
100418,-100,4,1,3,60,0,0
100480,-100,4,1,1,60,0,0
102418,-100,4,1,6,70,0,0
102480,-100,4,1,1,70,0,0
106418,-100,4,1,3,70,0,0
106480,-100,4,1,1,70,0,0
110418,-100,4,1,3,70,0,0
110480,-100,4,1,1,70,0,0
114418,-100,4,1,3,70,0,0
114480,-100,4,1,1,70,0,0
126418,-111.111111111111,4,2,3,60,0,0
126480,-111.111111111111,4,2,1,60,0,0
130418,-111.111111111111,4,2,3,60,0,0
130480,-111.111111111111,4,2,1,60,0,0
132418,-111.111111111111,4,2,3,60,0,0
132480,-111.111111111111,4,2,1,60,0,0
134418,-100,4,1,3,70,0,1
134480,-100,4,1,1,70,0,1
142418,-100,4,1,3,70,0,1
142480,-100,4,1,1,70,0,1
150418,-100,4,1,6,70,0,0
150480,-100,4,1,1,70,0,0
158418,-100,4,1,6,70,0,0
158480,-100,4,1,1,70,0,0
162418,-100,4,1,6,70,0,0
162480,-100,4,1,1,70,0,0
166418,-111.111111111111,4,2,1,50,0,0

[Colours]
Combo1 : 173,255,95
Combo2 : 193,132,255
Combo3 : 17,254,176
Combo4 : 255,138,108

[HitObjects]
11,59,4418,6,0,P|60:86|37:204,1,161.999995056152,0|2,1:0|1:0,0:0:0:0:
163,309,5418,2,0,P|233:333|305:350,2,121.499996292114,2|2|2,1:0|1:0|1:0,0:0:0:0:
121,239,6418,5,0,1:0:0:0:
52,282,6668,2,0,P|66:321|75:376,2,80.9999975280762,0|2|0,0:0|1:0|0:0,0:0:0:0:
4,215,7418,2,0,P|10:144|72:119,1,121.499996292114,2|2,1:0|1:0,0:0:0:0:
163,158,8168,1,2,1:0:0:0:
136,243,8418,6,0,P|156:290|168:339,1,90,4|12,0:0|0:0,0:0:0:0:
156,371,8793,2,0,B|236:348|219:391|322:369,1,135,0|12,0:0|0:0,0:0:0:0:
370,337,9418,2,0,P|417:350|476:359,1,90,0|12,0:0|0:0,0:0:0:0:
498,376,9793,2,0,P|499:338|488:229,1,135,0|12,0:0|0:0,0:0:0:0:
423,180,10418,5,0,0:0:0:0:
343,222,10668,1,12,0:0:0:0:
276,161,10918,2,0,P|237:151|169:124,1,90,0|12,0:0|0:0,0:0:0:0:
120,191,11418,5,0,0:0:0:0:
175,262,11668,1,12,0:0:0:0:
123,335,11918,1,0,0:0:0:0:
67,263,12168,1,12,0:0:0:0:
14,190,12418,6,0,P|37:131|52:78,1,90,4|12,0:0|0:0,0:0:0:0:
60,22,12918,2,0,B|135:37|115:69|206:75,1,135
213,106,13418,1,0,0:0:0:0:
304,90,13668,1,12,0:0:0:0:
304,90,13793,2,0,P|315:151|315:233,1,135,0|12,0:0|0:0,0:0:0:0:
261,301,14418,5,8,0:0:0:0:
329,358,14668,1,12,0:0:0:0:
406,312,14918,2,0,P|457:296|510:273,1,90,8|12,0:0|0:0,0:0:0:0:
499,192,15418,5,8,0:0:0:0:
414,160,15668,1,12,0:0:0:0:
335,204,15918,1,8,0:0:0:0:
248,178,16168,1,12,0:0:0:0:
163,209,16418,5,4,1:0:0:0:
8,159,16918,2,0,P|24:98|35:12,1,121.499996292114,2|0,1:0|3:0,0:0:0:0:
45,1,17418,2,0,P|102:19|108:95,2,121.499996292114,10|10|0,0:1|0:1|0:0,0:0:0:0:
1,69,18418,5,0,1:0:0:0:
117,181,18918,2,0,P|156:173|245:141,1,121.499996292114,2|0,1:0|0:0,0:0:0:0:
265,121,19418,1,10,0:1:0:0:
353,203,19793,1,10,0:1:0:0:
250,268,20168,1,0,0:0:0:0:
307,324,20418,6,0,P|353:339|441:355,1,121.499996292114,4|0,1:0|1:0,0:0:0:0:
465,355,20918,1,2,1:0:0:0:
342,249,21418,2,0,P|304:208|257:139,2,121.499996292114,10|10|0,0:1|0:1|0:0,0:0:0:0:
406,199,22418,5,0,1:0:0:0:
358,133,22668,2,0,P|343:79|336:29,2,80.9999975280763,0|2|0,0:0|1:0|0:0,0:0:0:0:
287,172,23418,5,10,0:1:0:0:
217,133,23668,1,0,0:0:0:0:
183,206,23918,1,0,1:0:0:0:
251,249,24168,1,2,1:0:0:0:
298,325,24418,6,0,P|351:337|407:344,2,90,4|10|2,1:0|0:1|0:1,0:0:0:0:
217,366,25168,1,10,0:1:0:0:
144,312,25418,2,0,P|163:257|174:198,1,90,2|8,1:0|0:1,0:0:0:0:
260,225,25918,2,0,P|249:181|234:139,1,90,2|8,0:1|0:1,0:0:0:0:
203,54,26418,6,0,B|284:33|267:78|362:62,1,135,0|0,1:0|1:0,0:0:0:0:
371,38,26918,2,0,P|410:28|478:0,1,90,2|8,0:1|0:1,0:0:0:0:
502,88,27418,1,2,1:0:0:0:
433,146,27668,1,8,0:1:0:0:
495,210,27918,2,0,P|443:240|389:259,1,90,2|10,1:1|0:1,0:0:0:0:
352,315,28418,5,4,1:0:0:0:
278,367,28668,2,0,P|303:310|252:250,1,135,8|0,0:1|1:0,0:0:0:0:
225,232,29168,1,10,0:1:0:0:
155,289,29418,1,2,1:0:0:0:
84,345,29668,2,0,P|48:336|-9:313,2,90,8|0|8,0:1|0:0|0:1,0:0:0:0:
168,375,30418,5,2,1:0:0:0:
251,342,30668,2,0,P|257:299|255:193,1,135,8|0,0:1|0:0,0:0:0:0:
249,163,31168,1,10,0:1:0:0:
194,91,31418,5,2,1:0:0:0:
136,159,31668,1,8,0:1:0:0:
51,127,31918,1,0,1:0:0:0:
55,37,32168,1,8,0:1:0:0:
141,13,32418,1,0,3:0:0:0:
10,46,40418,6,0,P|52:38|117:18,1,90,6|0,1:0|0:0,0:0:0:0:
177,67,40918,1,0,1:0:0:0:
105,121,41168,1,8,0:1:0:0:
176,175,41418,2,0,P|197:220|213:280,1,90,2|0,1:0|0:0,0:0:0:0:
183,296,41793,2,0,B|109:273|122:315|25:298,1,135,10|0,0:1|0:0,0:0:0:0:
3,224,42418,5,6,1:0:0:0:
46,145,42668,1,0,0:0:0:0:
20,58,42918,2,0,P|68:45|126:21,1,90,0|8,1:0|0:1,0:0:0:0:
177,84,43418,2,0,P|148:149|133:191,1,90,2|0,1:0|0:0,0:0:0:0:
130,210,43793,1,10,0:1:0:0:
209,252,44043,2,0,P|221:197|237:153,1,90,8|0,0:1|0:0,0:0:0:0:
261,131,44418,6,0,B|370:104|353:155|448:142,1,180,6|0,1:0|1:0,0:0:0:0:
493,213,45168,1,8,0:1:0:0:
408,243,45418,2,0,P|431:292|446:342,1,90,2|0,1:0|0:0,0:0:0:0:
441,371,45793,1,0,0:0:0:0:
355,342,46043,2,0,P|323:297|280:252,1,90,8|0,0:1|0:0,0:0:0:0:
264,242,46418,1,0,1:0:0:0:
247,56,48418,6,0,P|188:43|137:26,1,90,6|12,0:0|0:0,0:0:0:0:
131,69,48793,2,0,P|184:93|234:127,1,90,2|0,0:0|0:0,0:0:0:0:
243,141,49168,1,14,0:0:0:0:
171,195,49418,1,0,0:0:0:0:
223,267,49668,2,0,P|203:322|195:369,2,90,14|2|14,0:0|0:0|0:0,0:0:0:0:
297,216,50418,6,0,P|344:203|410:177,1,90,2|12,0:0|0:0,0:0:0:0:
421,166,50793,2,0,B|412:245|369:219|357:313,1,135,2|14,0:0|0:0,0:0:0:0:
297,348,51418,1,2,0:0:0:0:
383,374,51668,2,0,P|428:362|480:338,1,90,14|0,0:0|0:0,0:0:0:0:
504,262,52168,1,14,0:0:0:0:
419,231,52418,6,0,P|451:177|474:129,1,90,2|12,0:0|0:0,0:0:0:0:
468,108,52793,1,2,0:0:0:0:
401,46,53043,1,2,0:0:0:0:
321,88,53293,2,0,P|251:76|202:60,1,90,2|0,0:0|0:0,0:0:0:0:
198,41,53668,2,0,P|263:100|221:188,1,180,14|14,0:0|0:0,0:0:0:0:
163,231,54418,5,2,0:0:0:0:
85,185,54668,1,12,0:0:0:0:
70,273,54918,1,2,0:0:0:0:
144,323,55168,1,14,0:0:0:0:
220,369,55418,6,0,P|267:360|325:338,1,90,2|14,0:0|0:0,0:0:0:0:
384,299,55918,2,0,P|439:318|462:322,2,45,0|0|12,0:0|0:0|0:0,0:0:0:0:
340,219,56418,6,0,P|353:178|357:115,1,90,6|0,0:0|0:0,0:0:0:0:
336,91,56793,2,0,B|260:70|274:108|171:93,1,135,12|10,0:0|0:0,0:0:0:0:
130,150,57418,1,14,0:0:0:0:
195,211,57668,1,0,0:0:0:0:
141,283,57918,2,0,P|93:304|37:318,1,90,2|10,0:0|0:0,0:0:0:0:
8,238,58418,6,0,B|17:159|60:189|68:104,1,135,14|12,0:0|0:0,0:0:0:0:
53,76,58918,2,0,P|97:62|155:33,1,90,2|0,0:0|0:0,0:0:0:0:
215,86,59418,1,14,0:0:0:0:
165,161,59668,2,0,P|221:182|288:195,1,90,2|0,0:0|0:0,0:0:0:0:
327,235,60168,1,2,0:0:0:0:
405,191,60418,5,14,0:0:0:0:
405,101,60668,1,0,0:0:0:0:
405,101,60793,1,14,0:0:0:0:
324,60,61043,1,2,0:0:0:0:
246,105,61293,2,0,P|266:164|273:221,1,90,2|0,0:0|0:0,0:0:0:0:
335,253,61793,2,0,P|318:311|290:369,1,90,14|0,0:0|0:0,0:0:0:0:
274,369,62168,1,8,0:0:0:0:
194,325,62418,5,14,0:0:0:0:
194,325,62543,2,0,B|117:304|133:344|25:329,1,135,0|12,0:0|0:0,0:0:0:0:
10,257,63168,1,10,0:0:0:0:
66,186,63418,2,0,P|117:176|187:149,1,90,14|0,0:0|0:0,0:0:0:0:
239,189,63918,1,14,0:0:0:0:
318,146,64168,1,8,0:0:0:0:
400,181,64418,6,0,P|413:131|417:77,1,90,4|12,0:0|0:0,0:0:0:0:
397,52,64793,2,0,P|333:45|226:24,1,135,0|12,0:0|0:0,0:0:0:0:
184,76,65418,2,0,P|133:93|84:105,1,90,0|12,0:0|0:0,0:0:0:0:
53,91,65793,2,0,P|28:173|29:244,1,135,0|12,0:0|0:0,0:0:0:0:
60,304,66418,5,0,0:0:0:0:
144,271,66668,1,12,0:0:0:0:
208,333,66918,2,0,P|250:319|316:289,1,90,0|12,0:0|0:0,0:0:0:0:
377,330,67418,5,0,0:0:0:0:
459,365,67668,1,12,0:0:0:0:
485,278,67918,1,0,0:0:0:0:
403,240,68168,1,12,0:0:0:0:
321,201,68418,6,0,P|279:217|210:234,1,90,0|12,0:0|0:0,0:0:0:0:
195,251,68793,2,0,B|117:228|139:268|42:255,1,135,0|12,0:0|0:0,0:0:0:0:
16,179,69418,1,0,0:0:0:0:
74,111,69668,1,12,0:0:0:0:
74,111,69793,2,0,P|136:93|149:20,1,135,0|12,0:0|0:0,0:0:0:0:
241,13,70418,5,0,0:0:0:0:
319,57,70668,1,12,0:0:0:0:
407,39,70918,2,0,P|477:63|521:73,1,90,8|12,0:0|0:0,0:0:0:0:
444,143,71418,5,8,0:0:0:0:
354,139,71668,1,12,0:0:0:0:
361,228,71918,1,8,0:0:0:0:
283,274,72168,1,4,0:0:0:0:
332,349,72418,5,4,1:0:0:0:
170,336,72918,2,0,P|114:348|66:354,1,80.9999975280763,0|8,0:1|0:1,0:0:0:0:
89,270,73418,2,0,B|99:201|130:229|137:147,2,121.499996292114,2|2|10,1:0|1:0|0:1,0:0:0:0:
19,312,74418,5,0,1:0:0:0:
167,376,74918,2,0,P|207:365|275:340,1,80.9999975280763,0|8,0:0|0:1,0:0:0:0:
312,308,75418,1,2,1:0:0:0:
418,369,75793,1,2,1:0:0:0:
495,275,76168,1,10,0:1:0:0:
427,230,76418,6,0,P|387:219|319:194,2,80.9999975280763,4|8|0,1:2|0:1|0:0,0:0:0:0:
482,171,77168,1,8,0:1:0:0:
431,107,77418,2,0,P|451:58|398:-4,2,121.499996292114,2|2|10,1:0|1:0|0:1,0:0:0:0:
361,147,78418,5,0,1:0:0:0:
295,100,78668,1,8,0:1:0:0:
225,141,78918,2,0,P|241:180|254:240,1,80.9999975280763,0|8,0:0|0:1,0:0:0:0:
230,296,79418,5,2,1:0:0:0:
206,373,79668,1,10,0:1:0:0:
143,321,79918,1,2,1:0:0:0:
162,242,80168,1,10,0:1:0:0:
112,166,80418,6,0,P|61:151|2:126,2,90,4|8|2,1:0|0:1|0:1,0:0:0:0:
184,112,81168,1,10,0:1:0:0:
140,33,81418,2,0,P|197:19|255:0,1,90,2|8,1:0|0:1,0:0:0:0:
307,49,81918,1,2,0:1:0:0:
383,0,82168,2,0,P|410:49|423:100,1,90,10|0,0:1|1:0,0:0:0:0:
504,111,82668,5,8,0:1:0:0:
439,174,82918,1,2,0:1:0:0:
490,247,83168,1,10,0:1:0:0:
401,261,83418,1,2,1:0:0:0:
415,349,83668,2,0,P|369:363|292:379,1,90,8|0,0:1|0:0,0:0:0:0:
251,325,84168,1,10,0:1:0:0:
298,248,84418,6,0,P|249:231|186:202,1,90,6|8,1:0|0:1,0:0:0:0:
175,192,84793,1,0,1:0:0:0:
175,192,84918,2,0,P|126:211|68:226,1,90,2|8,0:1|0:1,0:0:0:0:
16,169,85418,1,2,1:0:0:0:
53,87,85668,1,8,0:1:0:0:
140,107,85918,2,0,P|162:62|177:5,1,90,2|8,1:1|0:1,0:0:0:0:
261,2,86418,6,0,P|280:48|291:105,1,90,2|8,1:0|0:1,0:0:0:0:
284,131,86793,2,0,B|369:115|348:154|443:144,1,135,2|10,1:0|0:1,0:0:0:0:
493,192,87418,1,2,1:0:0:0:
414,235,87668,1,10,0:1:0:0:
350,299,87918,1,2,1:0:0:0:
262,276,88168,1,2,1:0:0:0:
177,307,88418,1,0,3:0:0:0:
468,187,96418,5,6,0:0:0:0:
512,108,96668,1,0,0:0:0:0:
455,37,96918,2,0,P|419:27|352:2,1,90,0|8,0:0|0:0,0:0:0:0:
292,55,97418,2,0,B|309:97|309:97|297:146,1,90,10|0,0:0|0:0,0:0:0:0:
276,180,97793,2,0,B|199:159|218:203|114:186,1,135,10|0,0:0|0:0,0:0:0:0:
86,259,98418,5,14,0:0:0:0:
156,315,98668,1,0,0:0:0:0:
236,274,98918,2,0,P|256:326|267:372,1,90,0|8,0:0|0:0,0:0:0:0:
351,383,99418,2,0,P|384:352|424:319,1,90,10|0,0:0|0:0,0:0:0:0:
454,296,99793,1,10,0:0:0:0:
393,229,100043,2,0,P|337:220|292:206,1,90
262,226,100418,6,0,P|287:139|216:89,1,180,14|8,0:0|0:0,0:0:0:0:
158,28,101168,1,8,0:0:0:0:
123,111,101418,1,10,0:0:0:0:
33,110,101668,1,8,0:0:0:0:
60,195,101918,1,8,0:0:0:0:
1,263,102168,1,0,0:0:0:0:
81,303,102418,6,0,P|139:288|192:270,1,90,4|12,0:0|0:0,0:0:0:0:
203,251,102793,2,0,P|260:272|312:286,1,90
322,309,103168,1,12,0:0:0:0:
396,359,103418,2,0,B|406:279|452:313|458:217,1,135
446,197,103918,1,0,0:0:0:0:
363,160,104168,6,0,P|424:145|507:118,2,135,12|0|0,0:0|0:0|0:0,0:0:0:0:
294,219,105168,1,12,0:0:0:0:
222,165,105418,5,0,0:0:0:0:
253,80,105668,1,12,0:0:0:0:
180,26,105918,1,0,0:0:0:0:
147,109,106168,1,12,0:0:0:0:
66,150,106418,6,0,P|81:197|94:266,1,90,4|12,0:0|0:0,0:0:0:0:
114,280,106793,1,0,0:0:0:0:
114,280,106918,2,0,P|129:236|162:168,1,90,0|12,0:0|0:0,0:0:0:0:
224,150,107418,5,0,0:0:0:0:
297,202,107668,1,12,0:0:0:0:
386,212,107918,1,0,0:0:0:0:
460,262,108168,1,12,0:0:0:0:
479,349,108418,6,0,B|332:296|362:380|209:351,1,270,0|12,0:0|0:0,0:0:0:0:
145,295,109418,2,0,B|155:254|155:254|135:202,1,90,0|12,0:0|0:0,0:0:0:0:
211,157,109918,2,0,B|241:186|241:186|296:194,1,90,0|12,0:0|0:0,0:0:0:0:
295,283,110418,2,0,B|254:294|254:294|219:338,1,90,4|12,0:0|0:0,0:0:0:0:
157,272,110918,1,0,0:0:0:0:
202,194,111168,1,12,0:0:0:0:
147,122,111418,2,0,B|67:97|81:137|-3:122,2,135,0|0|12,0:0|0:0|0:0,0:0:0:0:
219,68,112418,6,0,P|256:56|326:24,1,90,0|12,0:0|0:0,0:0:0:0:
366,100,112918,2,0,P|321:149|288:195,1,90,0|12,0:0|0:0,0:0:0:0:
219,190,113418,5,0,0:0:0:0:
209,279,113668,1,12,0:0:0:0:
290,316,113918,1,0,0:0:0:0:
350,249,114168,1,12,0:0:0:0:
306,167,114418,6,0,B|245:155|201:165|201:165|155:129|155:129|114:135|46:120,1,270,4|12,0:0|0:0,0:0:0:0:
9,201,115418,2,0,P|26:246|43:316,1,90,0|12,0:0|0:0,0:0:0:0:
111,337,115918,2,0,P|93:384|82:403,2,45,0|0|12,0:0|0:0|0:0,0:0:0:0:
184,284,116418,5,0,0:0:0:0:
263,326,116668,1,12,0:0:0:0:
332,269,116918,2,0,P|380:251|428:224,1,90,8|12,0:0|0:0,0:0:0:0:
476,168,117418,5,8,0:0:0:0:
398,122,117668,1,12,0:0:0:0:
311,146,117918,1,8,0:0:0:0:
230,106,118168,1,4,0:0:0:0:
140,116,118418,1,0,0:0:0:0:
30,91,126418,6,0,P|71:78|124:57,1,80.9999975280763,14|0,0:1|0:0,0:0:0:0:
138,40,126793,2,0,P|148:125|143:186,1,121.499996292114,10|8,0:1|0:1,0:0:0:0:
220,192,127418,2,0,P|230:107|225:46,1,121.499996292114,10|10,0:1|0:1,0:0:0:0:
228,30,127918,1,0,0:0:0:0:
305,53,128168,1,10,0:1:0:0:
377,16,128418,6,0,P|421:9|492:-13,2,80.9999975280763,14|2|2,0:1|0:1|0:1,0:0:0:0:
378,96,129168,1,2,1:1:0:0:
450,132,129418,1,10,0:1:0:0:
422,208,129668,2,0,P|378:201|307:179,1,80.9999975280763
272,231,130168,1,2,0:1:0:0:
206,183,130418,6,0,P|162:220|170:298,1,121.499996292114,14|10,0:1|0:1,0:0:0:0:
203,348,131043,1,2,1:0:0:0:
280,325,131293,2,0,P|319:316|370:299,1,80.9999975280763
436,325,131793,1,10,0:1:0:0:
501,277,132043,2,0,P|492:226|470:173,1,80.9999975280763,8|0,0:1|0:0,0:0:0:0:
458,165,132418,6,0,B|370:138|384:192|272:173,1,161.999995056153,14|0,0:1|1:0,0:0:0:0:
226,212,133168,1,2,1:0:0:0:
269,280,133418,2,0,P|213:302|160:311,1,80.9999975280763,10|8,1:0|1:0,0:0:0:0:
134,250,133918,2,0,P|94:239|57:223,1,80.9999975280763,10|8,1:0|1:0,0:0:0:0:
12,145,134418,6,0,P|54:128|100:104,1,90,6|12,0:0|0:0,0:0:0:0:
124,75,134793,2,0,P|181:105|225:122,1,90,2|0,0:0|0:0,0:0:0:0:
245,133,135168,1,14,0:0:0:0:
189,203,135418,1,0,0:0:0:0:
243,274,135668,2,0,P|287:262|345:241,1,90,14|2,0:0|0:0,0:0:0:0:
395,185,136168,1,14,0:0:0:0:
473,228,136418,6,0,P|450:282|437:346,1,90,2|12,0:0|0:0,0:0:0:0:
437,356,136793,2,0,B|362:330|375:369|278:353,1,135,2|14,0:0|0:0,0:0:0:0:
226,309,137418,1,2,0:0:0:0:
215,219,137668,2,0,P|149:242|91:257,1,90,14|0,0:0|0:0,0:0:0:0:
75,319,138168,1,14,0:0:0:0:
4,263,138418,6,0,P|7:217|26:163,1,90,2|12,0:0|0:0,0:0:0:0:
41,135,138793,1,2,0:0:0:0:
127,159,139043,1,2,0:0:0:0:
202,110,139293,2,0,P|215:152|218:197,1,90,2|0,1:1|0:0,0:0:0:0:
289,253,139793,2,0,P|263:200|315:127,1,135,2|14,0:0|0:0,0:0:0:0:
372,89,140418,5,2,0:0:0:0:
435,152,140668,1,14,0:0:0:0:
415,239,140918,1,2,0:0:0:0:
464,314,141168,1,14,0:0:0:0:
401,379,141418,6,0,P|342:363|286:343,1,90,2|14,0:0|0:0,0:0:0:0:
240,302,141918,2,0,P|212:312|178:320,2,45,0|0|14,0:0|0:0|0:0,0:0:0:0:
284,223,142418,6,0,P|274:171|285:71,1,135,14|12,0:0|0:0,0:0:0:0:
302,50,142918,2,0,P|256:38|202:15,1,90,2|8,0:0|0:0,0:0:0:0:
136,61,143418,1,14,0:0:0:0:
143,150,143668,1,2,0:0:0:0:
70,203,143918,2,0,P|110:237|158:268,1,90,2|10,0:0|0:0,0:0:0:0:
120,343,144418,6,0,B|201:330|186:373|270:359,1,135,14|12,0:0|0:0,0:0:0:0:
293,344,144918,2,0,P|357:369|399:380,1,90,2|0,0:0|0:0,0:0:0:0:
453,326,145418,1,14,0:0:0:0:
401,251,145668,2,0,P|435:215|469:169,1,90,2|0,0:0|0:0,0:0:0:0:
418,100,146168,1,10,0:0:0:0:
333,132,146418,6,0,P|321:79|301:24,1,90,14|0,0:0|0:0,0:0:0:0:
282,9,146793,1,14,0:0:0:0:
213,66,147043,1,2,0:0:0:0:
137,17,147293,2,0,P|65:37|15:44,1,90,2|0,0:0|0:0,0:0:0:0:
43,129,147793,2,0,P|87:138|129:151,1,90,14|0,0:0|0:0,0:0:0:0:
169,173,148168,2,0,P|132:191|99:208,1,45,8|2,0:0|0:0,0:0:0:0:
93,220,148418,1,12,0:0:0:0:
256,295,148918,6,0,B|269:252|269:252|252:204,1,90,14|8,0:0|0:0,0:0:0:0:
234,168,149293,2,0,P|284:154|331:135,1,90,2|0,0:0|0:0,0:0:0:0:
357,115,149668,1,10,0:0:0:0:
427,170,149918,1,14,0:0:0:0:
386,250,150168,1,10,0:0:0:0:
311,199,150418,6,0,P|245:218|194:225,1,90,4|12,0:0|0:0,0:0:0:0:
182,239,150793,2,0,P|243:255|321:282,1,135,0|12,0:0|0:0,0:0:0:0:
397,250,151418,2,0,P|417:202|427:139,1,90,0|12,0:0|0:0,0:0:0:0:
434,121,151793,2,0,B|441:195|473:163|484:246,1,135,0|12,0:0|0:0,0:0:0:0:
448,326,152418,5,0,0:0:0:0:
365,362,152668,1,12,0:0:0:0:
293,307,152918,2,0,P|218:285|188:273,1,90,0|12,0:0|0:0,0:0:0:0:
137,223,153418,5,0,0:0:0:0:
82,294,153668,1,12,0:0:0:0:
19,229,153918,1,2,0:0:0:0:
65,151,154168,1,14,0:0:0:0:
21,72,154418,6,0,P|66:54|112:30,1,90,2|14,0:0|0:0,0:0:0:0:
186,1,154918,2,0,P|239:39|216:119,1,135
208,140,155418,2,0,P|270:166|317:179,1,90,0|12,0:0|0:0,0:0:0:0:
287,262,155918,2,0,B|368:243|349:280|436:265,1,135
464,272,156418,6,0,P|483:209|486:155,1,90,0|12,0:0|0:0,0:0:0:0:
443,105,156918,1,0,0:0:0:0:
355,125,157168,1,12,0:0:0:0:
288,56,157418,5,0,0:0:0:0:
247,136,157668,1,12,0:0:0:0:
165,97,157918,1,0,0:0:0:0:
144,184,158168,1,12,0:0:0:0:
57,160,158418,6,0,B|35:201|35:201|44:247,1,90,4|12,0:0|0:0,0:0:0:0:
23,284,158793,2,0,B|107:272|85:310|172:308,1,135,0|12,0:0|0:0,0:0:0:0:
230,354,159418,1,0,0:0:0:0:
310,313,159668,1,12,0:0:0:0:
310,313,159793,2,0,P|314:246|301:164,1,135,0|12,0:0|0:0,0:0:0:0:
261,100,160418,5,0,0:0:0:0:
180,139,160668,1,12,0:0:0:0:
117,74,160918,2,0,P|50:57|5:40,1,90,0|12,0:0|0:0,0:0:0:0:
19,139,161418,5,0,0:0:0:0:
80,205,161668,1,12,0:0:0:0:
158,248,161918,1,0,0:0:0:0:
243,274,162168,1,12,0:0:0:0:
331,260,162418,1,4,0:0:0:0:
444,332,162793,6,0,P|428:274|490:212,1,135,0|12,0:0|0:0,0:0:0:0:
425,140,163418,1,0,0:0:0:0:
427,50,163668,2,0,B|385:64|318:74,1,90,12|0,0:0|0:0,0:0:0:0:
280,138,164168,2,0,P|235:124|205:113,1,45,12|0,0:0|0:0,0:0:0:0:
198,100,164418,5,8,0:0:0:0:
147,174,164668,1,12,0:0:0:0:
207,240,164918,1,8,0:0:0:0:
259,166,165168,1,12,0:0:0:0:
308,90,165418,5,8,0:0:0:0:
381,141,165668,1,12,0:0:0:0:
380,230,165918,1,8,0:0:0:0:
445,291,166168,1,12,0:0:0:0:
435,380,166418,5,0,1:0:0:0:
261,333,166918,1,2,1:0:0:0:
102,368,167418,2,0,B|98:295|63:325|63:227,2,121.499996292114,2|2|2,1:0|1:0|1:0,0:0:0:0:
22,353,168418,5,0,1:0:0:0:
118,222,168918,1,2,1:0:0:0:
46,76,169418,2,0,P|102:62|186:37,2,121.499996292114,2|2|2,1:0|1:0|1:0,0:0:0:0:
5,146,170418,5,0,1:0:0:0:
60,204,170668,2,0,P|37:258|30:309,2,80.9999975280763,0|2|0,0:0|1:0|0:0,0:0:0:0:
123,153,171418,1,2,1:0:0:0:
226,216,171793,1,2,1:0:0:0:
168,323,172168,1,2,1:0:0:0:
