osu file format v14

[General]
AudioFilename: audio.mp3
AudioLeadIn: 0
PreviewTime: 48355
Countdown: 0
SampleSet: Normal
StackLeniency: 0.7
Mode: 0
LetterboxInBreaks: 0
WidescreenStoryboard: 1

[Editor]
Bookmarks: 8418,16418,24418,32418,40418,48418,64418,72418,88418,96418,102418,118418,126418,134418,150418,166418
DistanceSpacing: 1.4
BeatDivisor: 4
GridSize: 32
TimelineZoom: 1.6

[Metadata]
Title:Decadence feat. mami
TitleUnicode:ディカダンス feat. mami
Artist:sasakure.UK
ArtistUnicode:sasakure.UK
Creator:Agatsu
Version:Heroine's Hard
Source:
Tags:japanese rock 有形ランペイジ ukrampage 佐々木秀尚 sasaki hidehisa heroine some hero kowari
BeatmapID:3653051
BeatmapSetID:1719345

[Difficulty]
HPDrainRate:5
CircleSize:3.7
OverallDifficulty:6.5
ApproachRate:8
SliderMultiplier:1.2
SliderTickRate:1

[Events]
//Background and Video events
0,0,"66944773_p0.jpg",0,0
//Break Periods
2,32618,39668
2,64618,71668
2,88368,95668
2,118618,125668
//Storyboard Layer 0 (Background)
//Storyboard Layer 1 (Fail)
//Storyboard Layer 2 (Pass)
//Storyboard Layer 3 (Foreground)
//Storyboard Layer 4 (Overlay)
//Storyboard Sound Samples

[TimingPoints]
418,250,4,1,1,80,1,0
418,-133.333333333333,4,1,1,80,0,0
4418,-133.333333333333,4,2,1,50,0,0
8418,-100,4,1,6,70,0,0
8480,-100,4,1,1,70,0,0
12418,-100,4,1,6,70,0,0
12480,-100,4,1,1,70,0,0
16418,-100,4,2,3,50,0,0
16480,-100,4,2,1,50,0,0
16918,-111.111111111111,4,2,1,50,0,0
20418,-111.111111111111,4,2,3,50,0,0
20480,-111.111111111111,4,2,1,50,0,0
24418,-100,4,2,3,60,0,0
24480,-100,4,2,1,60,0,0
28418,-100,4,2,3,60,0,0
28480,-100,4,2,1,60,0,0
32418,-100,4,2,1,40,0,0
39418,-100,4,2,1,50,0,0
40418,-100,4,1,3,60,0,0
40480,-100,4,1,1,60,0,0
42418,-100,4,1,3,60,0,0
42480,-100,4,1,1,60,0,0
44418,-100,4,1,3,60,0,0
44480,-100,4,1,1,60,0,0
46418,-100,4,1,1,40,0,0
47918,-100,4,1,1,50,0,0
48418,-100,4,1,3,70,0,1
48480,-100,4,1,1,70,0,1
56418,-100,4,1,3,70,0,1
56480,-100,4,1,1,70,0,1
64418,-100,4,1,6,70,0,0
64480,-100,4,1,1,70,0,0
72418,-100,4,2,3,50,0,0
72480,-100,4,2,1,50,0,0
80418,-100,4,2,3,60,0,0
80480,-100,4,2,1,60,0,0
84418,-100,4,2,3,60,0,0
84480,-100,4,2,1,60,0,0
88418,-100,4,2,1,40,0,0
96418,-100,4,1,3,60,0,0
96480,-100,4,1,1,60,0,0
98418,-100,4,1,3,60,0,0
98480,-100,4,1,1,60,0,0
100418,-100,4,1,3,60,0,0
100480,-100,4,1,1,60,0,0
102418,-100,4,1,6,70,0,0
102480,-100,4,1,1,70,0,0
106418,-100,4,1,3,70,0,0
106480,-100,4,1,1,70,0,0
110418,-100,4,1,3,70,0,0
110480,-100,4,1,1,70,0,0
114418,-100,4,1,3,70,0,0
114480,-100,4,1,1,70,0,0
126418,-100,4,2,3,60,0,0
126480,-100,4,2,1,60,0,0
130418,-100,4,2,3,60,0,0
130480,-100,4,2,1,60,0,0
132418,-100,4,2,3,60,0,0
132480,-100,4,2,1,60,0,0
134418,-95.2380952380952,4,1,3,70,0,1
134480,-95.2380952380952,4,1,1,70,0,1
142418,-95.2380952380952,4,1,3,70,0,1
142480,-95.2380952380952,4,1,1,70,0,1
150418,-100,4,1,6,70,0,0
150480,-100,4,1,1,70,0,0
158418,-100,4,1,6,70,0,0
158480,-100,4,1,1,70,0,0
162418,-100,4,1,6,70,0,0
162480,-100,4,1,1,70,0,0
166418,-100,4,2,1,50,0,0

[Colours]
Combo1 : 173,255,95
Combo2 : 193,132,255
Combo3 : 17,254,176
Combo4 : 255,138,108

[HitObjects]
92,90,8418,6,0,P|146:112|203:97,1,120,4|12,0:0|0:0,0:0:0:0:
244,21,8793,1,0,0:0:0:0:
402,49,9043,1,0,0:0:0:0:
402,49,9168,2,0,P|409:79|416:108,1,60,12|0,0:0|0:0,0:0:0:0:
458,182,9418,6,0,P|450:241|433:298,1,120,0|12,0:0|0:0,0:0:0:0:
368,363,9793,1,0,0:0:0:0:
201,334,10043,1,0,0:0:0:0:
201,334,10168,2,0,L|142:321,1,60,12|0,0:0|0:0,0:0:0:0:
154,241,10418,2,0,L|95:253,1,60
96,172,10668,1,12,0:0:0:0:
96,172,10793,2,0,P|106:113|92:55,1,120
162,0,11168,2,0,P|209:34|216:92,1,120,12|0,0:0|0:0,0:0:0:0:
382,201,11668,5,12,0:0:0:0:
382,201,11793,1,0,0:0:0:0:
382,201,11918,2,0,P|374:171|368:142,1,60
477,89,12168,2,0,P|469:118|463:147,1,60,12|0,0:0|0:0,0:0:0:0:
502,230,12418,6,0,P|508:288|484:342,1,120,4|12,0:0|0:0,0:0:0:0:
405,384,12793,2,0,L|347:366,1,60
303,275,13043,1,0,0:0:0:0:
240,331,13168,2,0,P|183:344|136:309,1,120,12|0,0:0|0:0,0:0:0:0:
33,113,13668,5,12,0:0:0:0:
33,113,13793,2,0,L|91:124,1,60
163,185,14043,1,0,0:0:0:0:
163,185,14168,2,0,L|221:173,1,60,12|0,0:0|0:0,0:0:0:0:
314,159,14418,5,8,0:0:0:0:
314,159,14543,1,8,0:0:0:0:
314,159,14668,2,0,L|302:100,1,60,12|0,0:0|0:0,0:0:0:0:
400,94,14918,1,8,0:0:0:0:
400,94,15043,1,0,0:0:0:0:
400,94,15168,2,0,L|411:35,1,60,12|0,0:0|0:0,0:0:0:0:
499,84,15418,6,0,P|508:112|510:142,1,60,8|0,0:0|0:0,0:0:0:0:
490,226,15668,2,0,P|476:252|457:275,1,60,12|0,0:0|0:0,0:0:0:0:
383,317,15918,2,0,P|354:326|324:328,1,60,8|0,0:0|0:0,0:0:0:0:
240,311,16168,2,0,P|225:307|210:303,3,30,12|0|0|0,0:0|0:0|0:0|0:0,0:0:0:0:
183,267,16418,6,0,B|91:243|100:312|11:321,1,180,4|0,1:0|1:0,0:0:0:0:
32,229,16918,2,0,B|31:200|31:200|19:177,1,53.9999983520508,2|0,1:0|0:0,0:0:0:0:
306,61,17418,2,0,P|365:116|442:141,1,161.999995056153,10|10,0:1|0:1,0:0:0:0:
394,219,17918,2,0,B|365:219|365:219|342:231,1,53.9999983520508,0|8,1:0|0:1,0:0:0:0:
146,341,18418,6,0,B|141:234|109:285|110:184,1,161.999995056153,0|8,1:0|0:1,0:0:0:0:
162,121,18918,2,0,B|142:100|142:100|134:76,1,53.9999983520508,2|0,1:0|0:0,0:0:0:0:
512,161,19418,2,0,B|439:240|498:226|426:296,1,161.999995056153,10|10,0:1|0:1,0:0:0:0:
342,306,19918,2,0,B|322:326|322:326|314:350,1,53.9999983520508,0|8,0:0|0:1,0:0:0:0:
223,50,20418,6,0,P|298:69|316:144,1,161.999995056153,4|0,1:0|1:0,0:0:0:0:
252,204,20918,2,0,P|225:197|199:190,1,53.9999983520508,2|8,1:0|0:1,0:0:0:0:
0,285,21418,2,0,P|17:360|92:380,1,161.999995056153,10|10,0:1|0:1,0:0:0:0:
152,313,21918,2,0,P|145:286|138:260,1,53.9999983520508,0|8,1:0|0:1,0:0:0:0:
451,374,22418,6,0,P|441:294|459:215,1,161.999995056153,0|8,1:0|0:1,0:0:0:0:
512,143,22918,2,0,B|502:117|502:117|498:90,1,53.9999983520508,2|0,1:0|0:0,0:0:0:0:
264,5,23418,1,10,0:1:0:0:
226,80,23668,1,0,0:0:0:0:
266,164,23918,1,0,1:0:0:0:
266,164,24043,1,8,0:1:0:0:
266,164,24168,1,2,1:0:0:0:
249,373,24418,6,0,P|268:317|277:258,1,120,4|10,1:0|0:1,0:0:0:0:
201,234,24793,2,0,P|175:250|147:261,1,60,0|2,1:0|0:1,0:0:0:0:
97,333,25043,1,0,1:0:0:0:
97,333,25168,2,0,P|71:317|43:306,1,60,10|0,0:1|0:0,0:0:0:0:
20,222,25418,2,0,P|46:169|53:110,1,120,2|8,1:0|0:1,0:0:0:0:
106,40,25793,1,2,1:0:0:0:
106,40,26043,1,0,1:0:0:0:
179,88,26168,2,0,L|238:77,1,60,8|0,0:1|0:0,0:0:0:0:
306,22,26418,6,0,P|359:48|418:45,1,120,0|8,1:0|0:1,0:0:0:0:
392,139,26793,2,0,B|335:157|344:183|290:200,1,120,0|0,1:0|0:0,0:0:0:0:
323,285,27168,2,0,B|352:286|352:286|382:295,1,60,8|0,0:1|0:0,0:0:0:0:
268,349,27418,2,0,P|209:351|150:364,1,120,2|8,1:0|0:1,0:0:0:0:
77,318,27793,1,2,1:0:0:0:
77,318,28043,1,0,1:0:0:0:
17,250,28168,2,0,B|32:220|32:220|36:193,1,60,10|0,0:1|0:0,0:0:0:0:
61,111,28418,6,0,P|112:141|170:155,1,120,4|8,1:0|0:1,0:0:0:0:
188,71,28793,2,0,P|239:40|297:26,1,120,0|0,1:0|0:0,0:0:0:0:
370,88,29168,2,0,P|342:100|317:116,1,60,10|0,0:1|0:0,0:0:0:0:
254,188,29418,2,0,B|273:212|273:212|282:240,1,60,2|0,1:0|0:0,0:0:0:0:
213,280,29668,2,0,B|194:256|194:256|184:227,1,60,8|2,0:1|1:0,0:0:0:0:
114,330,29918,2,0,B|174:344|161:369|244:385,1,120,0|8,0:0|0:1,0:0:0:0:
424,295,30418,6,0,P|405:237|393:179,1,120,2|8,1:0|0:1,0:0:0:0:
380,95,30793,1,2,1:0:0:0:
380,95,31043,1,0,1:0:0:0:
439,37,31168,2,0,P|467:50|495:59,1,60,10|0,0:1|0:0,0:0:0:0:
512,144,31418,2,0,P|499:171|490:199,1,60,2|0,1:0|0:0,0:0:0:0:
484,285,31668,2,0,P|455:295|429:309,1,60,8|0,0:1|1:0,0:0:0:0:
374,376,31918,2,0,P|345:365|319:351,1,60,0|0,1:0|1:0,0:0:0:0:
236,371,32168,5,8,0:1:0:0:
236,371,32293,1,8,0:1:0:0:
236,371,32418,1,0,3:0:0:0:
52,272,40418,6,0,P|111:277|171:286,1,120,6|0,1:0|0:0,0:0:0:0:
251,307,40793,2,0,P|250:277|244:247,1,60,10|0,0:1|1:0,0:0:0:0:
291,175,41043,1,0,1:0:0:0:
291,175,41168,2,0,P|291:145|297:115,1,60,8|0,0:1|0:0,0:0:0:0:
201,137,41418,2,0,P|142:127|101:86,1,120,2|0,1:0|0:0,0:0:0:0:
146,10,41793,2,0,P|202:28|262:32,1,120,10|8,0:1|0:1,0:0:0:0:
346,26,42168,1,0,0:0:0:0:
391,162,42418,6,0,P|372:218|368:278,1,120,6|0,1:0|0:0,0:0:0:0:
447,294,42793,2,0,P|465:237|469:177,1,120,10|0,0:1|1:0,0:0:0:0:
512,105,43168,1,8,0:1:0:0:
289,110,43418,1,2,1:0:0:0:
289,110,43543,2,0,P|261:122|233:131,1,60
152,164,43793,2,0,P|174:219|184:278,2,120,10|8|0,0:1|0:1|0:0,0:0:0:0:
79,125,44418,5,6,1:0:0:0:
267,256,44793,2,0,P|294:270|323:279,1,60,10|0,0:1|1:0,0:0:0:0:
245,346,45043,1,0,1:0:0:0:
245,346,45168,2,0,P|218:359|189:368,1,60,8|0,0:1|0:0,0:0:0:0:
104,345,45418,2,0,P|101:286|56:250,1,120,2|0,1:0|0:0,0:0:0:0:
48,168,45793,2,0,P|58:139|69:112,1,60,0|0,0:0|1:0,0:0:0:0:
133,28,46043,2,0,P|143:56|154:83,1,60,8|0,0:1|0:0,0:0:0:0:
230,45,46293,2,0,P|258:34|285:23,1,60,0|0,0:0|1:0,0:0:0:0:
288,109,46543,6,0,B|371:129|329:145|392:161,1,120,0|0,0:0|1:0,0:0:0:0:
464,89,46918,2,0,P|474:117|477:146,1,60
457,235,47168,2,0,P|444:261|425:284,1,60
335,269,47418,2,0,B|336:301|336:301|345:328,2,60
256,192,47730,12,6,48418,0:0:0:0:
89,129,48793,6,0,L|78:69,1,60,2|0,0:0|0:0,0:0:0:0:
139,8,49043,1,0,0:0:0:0:
196,57,49168,2,0,P|180:114|174:174,1,120,14|0,0:0|0:0,0:0:0:0:
430,246,49668,1,14,0:0:0:0:
430,246,49793,2,0,B|359:260|387:281|320:291,1,120
248,353,50168,2,0,B|274:370|274:370|302:376,1,60,14|0,0:0|0:0,0:0:0:0:
223,263,50418,6,0,P|169:288|111:300,1,120,2|12,0:0|0:0,0:0:0:0:
40,256,50793,2,0,P|49:228|57:199,1,60,2|0,0:0|0:0,0:0:0:0:
123,142,51043,1,0,0:0:0:0:
123,142,51168,1,14,0:0:0:0:
285,39,51418,6,0,B|366:62|330:75|390:92,1,120,2|14,0:0|0:0,0:0:0:0:
454,143,51793,2,0,P|440:169|433:198,1,60
287,260,52043,1,0,0:0:0:0:
254,180,52168,2,0,P|267:153|274:124,1,60,14|0,0:0|0:0,0:0:0:0:
189,75,52418,6,0,P|134:55|75:66,1,120,2|12,0:0|0:0,0:0:0:0:
123,142,52793,2,0,B|42:165|78:178|17:195,1,120,2|2,0:0|0:0,0:0:0:0:
126,234,53168,2,0,B|135:263|135:263|151:287,1,60,12|2,0:0|0:0,0:0:0:0:
283,308,53418,2,0,P|229:333|199:384,1,120,0|14,0:0|0:0,0:0:0:0:
112,365,53793,2,0,P|84:357|54:350,1,60
16,279,54043,1,0,0:0:0:0:
16,279,54168,1,14,0:0:0:0:
212,219,54418,6,0,P|270:205|327:187,1,120,2|12,0:0|0:0,0:0:0:0:
358,98,54793,2,0,P|416:111|473:129,1,120
498,210,55168,2,0,P|481:235|460:255,1,60,14|0,0:0|0:0,0:0:0:0:
435,347,55418,1,2,0:0:0:0:
435,347,55543,1,0,0:0:0:0:
435,347,55668,2,0,P|387:313|328:313,1,120,14|0,0:0|0:0,0:0:0:0:
253,353,56043,1,0,0:0:0:0:
178,316,56168,2,0,L|168:287,3,30,12|0|0|0,0:0|0:0|0:0|0:0,0:0:0:0:
193,251,56418,6,0,P|195:192|204:132,1,120,6|0,0:0|0:0,0:0:0:0:
213,57,56793,1,12,0:0:0:0:
282,127,56918,2,0,P|282:156|279:186,1,60,2|0,0:0|0:0,0:0:0:0:
367,152,57168,2,0,P|367:123|370:93,1,60,10|0,0:0|0:0,0:0:0:0:
325,21,57418,1,14,0:0:0:0:
512,142,57668,2,0,P|490:162|471:186,1,60,0|12,0:0|0:0,0:0:0:0:
476,268,57918,2,0,P|447:277|420:291,1,60,2|0,0:0|0:0,0:0:0:0:
370,373,58168,6,0,P|341:321|286:300,2,120,10|14|0,0:0|0:0|0:0,0:0:0:0:
425,295,58793,1,12,0:0:0:0:
425,295,58918,2,0,P|418:266|413:237,2,60,2|0|0,0:0|0:0|0:0,0:0:0:0:
231,139,59418,1,14,0:0:0:0:
231,139,59668,2,0,B|226:209|211:189|203:255,1,120,2|0,0:0|0:0,0:0:0:0:
136,308,60043,1,0,0:0:0:0:
136,308,60168,2,0,P|113:288|87:272,1,60,2|0,0:0|0:0,0:0:0:0:
36,198,60418,6,0,P|66:148|60:90,1,120,14|0,0:0|0:0,0:0:0:0:
110,26,60793,2,0,P|139:37|168:43,1,60,14|0,0:0|0:0,0:0:0:0:
246,66,61043,2,0,P|302:48|361:35,1,120,2|2,0:0|0:0,0:0:0:0:
440,69,61418,1,12,0:0:0:0:
439,148,61543,2,0,P|409:149|379:147,1,60
319,209,61793,2,0,P|261:218|222:261,1,120,14|0,0:0|0:0,0:0:0:0:
246,351,62168,5,8,0:0:0:0:
246,351,62293,1,0,0:0:0:0:
246,351,62418,2,0,P|275:343|305:336,2,60,14|0|0,0:0|0:0|0:0,0:0:0:0:
159,384,62793,1,0,0:0:0:0:
159,384,62918,2,0,L|101:367,1,60,12|0,0:0|0:0,0:0:0:0:
24,343,63168,2,0,L|40:285,1,60,10|0,0:0|0:0,0:0:0:0:
3,202,63418,6,0,P|36:152|57:96,1,120,14|0,0:0|0:0,0:0:0:0:
86,21,63793,1,0,0:0:0:0:
165,35,63918,2,0,P|192:48|220:57,1,60,14|8,0:0|0:0,0:0:0:0:
226,145,64168,2,0,P|253:131|281:122,1,60,8|8,0:0|0:0,0:0:0:0:
307,45,64418,5,4,0:0:0:0:
61,302,72418,6,0,P|119:315|178:324,1,120,4|8,1:0|0:1,0:0:0:0:
229,250,72793,2,0,P|170:236|111:227,1,120,0|0,1:0|0:0,0:0:0:0:
24,230,73168,1,8,0:1:0:0:
183,123,73418,2,0,P|169:67|200:17,1,120,2|8,1:0|0:1,0:0:0:0:
283,57,73793,2,0,B|358:74|323:95|391:103,1,120,2|0,1:0|1:0,0:0:0:0:
483,98,74168,2,0,P|472:126|467:155,1,60,10|0,0:1|0:0,0:0:0:0:
388,203,74418,6,0,P|404:260|403:320,1,120,0|8,1:0|0:1,0:0:0:0:
319,359,74793,1,0,1:0:0:0:
319,359,74918,2,0,P|309:330|308:300,1,60
302,219,75168,1,8,0:1:0:0:
123,375,75418,6,0,P|136:316|129:257,1,120,2|8,1:0|0:1,0:0:0:0:
57,220,75793,2,0,P|47:248|46:278,1,60,2|0,1:0|0:0,0:0:0:0:
249,160,76168,2,0,P|240:101|271:51,1,120,10|4,0:1|1:2,0:0:0:0:
455,143,76668,5,8,0:1:0:0:
455,143,76793,2,0,P|461:202|472:261,1,120,0|0,1:0|1:0,0:0:0:0:
426,334,77168,2,0,B|366:340|376:356|307:351,2,120,8|2|8,0:1|1:0|0:1,0:0:0:0:
377,257,77793,2,0,P|348:249|320:237,1,60,2|0,1:0|0:0,0:0:0:0:
506,37,78168,6,0,P|470:85|455:142,2,120,10|0|8,0:1|1:0|0:1,0:0:0:0:
326,32,78918,2,0,P|278:67|224:92,1,120,0|8,0:0|0:1,0:0:0:0:
60,169,79418,2,0,P|35:223|0:271,1,120,2|10,1:0|0:1,0:0:0:0:
21,355,79793,1,0,1:0:0:0:
21,355,79918,2,0,P|47:343|74:327,1,60,2|0,1:0|1:0,0:0:0:0:
163,324,80168,2,0,P|151:350|135:377,1,60,10|0,0:1|0:0,0:0:0:0:
234,372,80418,6,0,B|298:353|287:374|351:348,1,120,4|8,1:0|0:1,0:0:0:0:
479,155,80918,1,2,0:1:0:0:
250,99,81168,2,0,P|263:125|272:154,1,60,10|0,0:1|0:0,0:0:0:0:
344,199,81418,2,0,P|366:143|372:84,1,120,2|8,1:0|0:1,0:0:0:0:
325,7,81793,2,0,B|250:8|290:23|206:23,1,120,0|0,1:0|0:0,0:0:0:0:
126,22,82168,2,0,P|124:51|129:81,1,60,10|0,0:1|0:0,0:0:0:0:
59,149,82418,6,0,P|100:190|105:249,1,120,0|8,1:0|0:1,0:0:0:0:
83,331,82793,2,0,P|124:289|183:284,1,120,0|0,1:0|1:0,0:0:0:0:
256,332,83168,1,10,0:1:0:0:
383,60,83418,6,0,P|439:80|498:89,1,120,2|8,1:0|0:1,0:0:0:0:
385,158,83793,2,0,B|314:165|334:186|259:184,1,120,0|0,1:0|1:0,0:0:0:0:
255,102,84168,2,0,B|233:80|233:80|217:55,1,60,10|0,0:1|0:0,0:0:0:0:
139,60,84418,1,6,1:0:0:0:
11,176,84668,5,8,0:1:0:0:
11,176,84793,2,0,P|44:224|37:282,1,120,0|0,1:0|1:0,0:0:0:0:
124,277,85168,2,0,P|147:257|171:239,1,60,8|0,0:1|0:0,0:0:0:0:
256,287,85418,2,0,P|305:318|364:312,1,120,2|8,1:0|0:1,0:0:0:0:
445,346,85793,1,0,1:0:0:0:
488,166,86043,1,0,1:0:0:0:
488,165,86168,2,0,P|479:137|468:109,1,60,8|0,0:1|0:0,0:0:0:0:
391,55,86418,6,0,B|323:77|343:94|270:110,1,120,2|8,1:0|0:1,0:0:0:0:
207,67,86793,2,0,P|148:58|94:34,1,120,2|0,1:0|1:0,0:0:0:0:
29,83,87168,1,10,0:1:0:0:
236,177,87418,2,0,P|216:200|202:226,1,60,2|0,1:0|0:0,0:0:0:0:
257,290,87668,2,0,P|276:266|290:240,1,60,10|0,0:1|1:0,0:0:0:0:
336,176,87918,1,2,1:0:0:0:
453,99,88168,1,2,1:0:0:0:
95,233,96418,6,0,P|155:233|215:224,1,120,6|0,0:0|0:0,0:0:0:0:
163,149,96793,2,0,P|103:148|43:139,1,120,10|0,0:0|0:0,0:0:0:0:
76,63,97168,1,8,0:0:0:0:
273,35,97418,2,0,P|265:93|281:151,1,120,10|0,0:0|0:0,0:0:0:0:
361,118,97793,2,0,P|365:88|376:60,2,60,10|0|0,0:0|0:0|0:0,0:0:0:0:
104,237,98418,6,0,P|112:295|96:353,1,120,14|0,0:0|0:0,0:0:0:0:
16,319,98793,2,0,P|11:289|0:261,2,60,10|0|0,0:0|0:0|0:0,0:0:0:0:
205,280,99293,2,0,P|232:294|260:305,1,60,0|10,0:0|0:0,0:0:0:0:
312,370,99543,2,0,B|302:323|296:319|286:252,2,120,0|10|0,0:0|0:0|0:0,0:0:0:0:
464,276,100293,6,0,P|471:218|444:165,1,120
370,125,100668,1,8,0:0:0:0:
223,64,100918,2,0,P|194:74|165:81,1,60,8|0,0:0|0:0,0:0:0:0:
161,0,101168,2,0,P|132:6|104:17,1,60,8|0,0:0|0:0,0:0:0:0:
27,81,101418,5,10,0:0:0:0:
27,81,101543,1,0,0:0:0:0:
27,81,101668,2,0,P|36:109|44:138,1,60,8|10,0:0|0:0,0:0:0:0:
109,196,101918,2,0,P|89:218|71:242,1,60,8|8,0:0|0:0,0:0:0:0:
20,314,102168,2,0,L|32:341,3,30
79,359,102418,6,0,B|129:344|99:357|195:330,1,120,4|12,0:0|0:0,0:0:0:0:
192,245,102793,2,0,P|251:255|307:275,1,120
393,300,103168,2,0,B|377:227|376:249|362:184,1,120,12|0,0:0|0:0,0:0:0:0:
190,100,103668,1,12,0:0:0:0:
190,100,103793,2,0,P|160:107|131:112,1,60
244,171,104043,1,0,0:0:0:0:
244,171,104168,2,0,P|303:171|362:183,2,120,12|0|12,0:0|0:0|0:0,0:0:0:0:
191,244,104793,6,0,P|195:274|201:304,1,60
293,327,105043,1,0,0:0:0:0:
293,327,105168,2,0,P|289:297|283:267,1,60,12|0,0:0|0:0,0:0:0:0:
344,203,105418,2,0,P|354:145|378:90,1,120,0|12,0:0|0:0,0:0:0:0:
438,20,105793,1,0,0:0:0:0:
344,7,105918,2,0,P|314:13|286:23,1,60
237,92,106168,2,0,P|180:73|132:37,2,120,12|4|12,0:0|0:0|0:0,0:0:0:0:
172,161,106793,2,0,B|144:174|144:174|115:177,1,60
30,238,107043,5,0,0:0:0:0:
30,238,107168,2,0,P|47:262|67:284,1,60,12|0,0:0|0:0,0:0:0:0:
103,362,107418,1,0,0:0:0:0:
103,362,107543,2,0,P|132:357|162:355,1,60,0|12,0:0|0:0,0:0:0:0:
201,284,107793,6,0,P|260:284|310:253,1,120
376,189,108168,2,0,P|371:160|368:130,1,60,12|0,0:0|0:0,0:0:0:0:
451,123,108418,2,0,P|450:64|414:17,1,120,0|14,0:0|0:0,0:0:0:0:
333,32,108793,2,0,P|303:27|273:24,1,60
194,12,109043,1,0,0:0:0:0:
193,12,109168,2,0,P|164:19|135:25,1,60,12|0,0:0|0:0,0:0:0:0:
46,79,109418,6,0,P|41:138|56:196,1,120,0|12,0:0|0:0,0:0:0:0:
134,155,109793,2,0,P|138:214|123:272,1,120
179,340,110168,2,0,P|207:327|235:317,1,60,12|0,0:0|0:0,0:0:0:0:
316,299,110418,1,4,0:0:0:0:
348,218,110543,1,0,0:0:0:0:
348,218,110668,1,12,0:0:0:0:
348,218,110793,2,0,P|340:188|334:159,1,60
148,96,111168,2,0,P|140:125|134:154,1,60,12|0,0:0|0:0,0:0:0:0:
57,197,111418,5,0,0:0:0:0:
180,340,111668,1,12,0:0:0:0:
180,340,111793,2,0,P|237:321|294:304,1,120
348,218,112168,2,0,P|405:236|462:253,2,120,12|0|12,0:0|0:0|0:0,0:0:0:0:
292,149,112793,1,0,0:0:0:0:
292,149,112918,2,0,P|287:119|282:89,1,60
371,96,113168,2,0,P|375:66|380:36,1,60,12|0,0:0|0:0,0:0:0:0:
473,59,113418,6,0,P|473:88|481:117,1,60
471,194,113668,2,0,P|470:223|462:252,1,60,12|0,0:0|0:0,0:0:0:0:
380,305,113918,1,0,0:0:0:0:
380,305,114043,1,0,0:0:0:0:
380,305,114168,2,0,B|346:297|346:297|320:296,1,60,12|0,0:0|0:0,0:0:0:0:
254,351,114418,2,0,P|195:336|137:321,1,120,4|12,0:0|0:0,0:0:0:0:
83,255,114793,2,0,P|130:220|151:164,1,120
89,101,115168,2,0,P|75:127|65:155,1,60,12|0,0:0|0:0,0:0:0:0:
175,90,115418,6,0,P|234:82|292:67,1,120,0|12,0:0|0:0,0:0:0:0:
332,140,115793,2,0,B|402:158|375:168|441:186,1,120
502,243,116168,2,0,B|494:277|494:277|493:302,1,60,12|0,0:0|0:0,0:0:0:0:
431,353,116418,2,0,P|412:330|389:312,2,60,0|8|12,0:0|0:0|0:0,0:0:0:0:
244,326,116918,6,0,B|247:296|247:296|255:267,1,60,8|0,0:0|0:0,0:0:0:0:
279,187,117168,2,0,P|262:130|254:71,1,120,12|8,0:0|0:0,0:0:0:0:
185,22,117543,1,0,0:0:0:0:
185,22,117668,2,0,P|158:35|129:43,1,60,12|0,0:0|0:0,0:0:0:0:
89,115,117918,2,0,L|99:143,3,30,8|0|0|0,0:0|0:0|0:0|0:0,0:0:0:0:
73,186,118168,2,0,L|62:214,3,30,4|0|0|0,0:0|0:0|0:0|0:0,0:0:0:0:
87,254,118418,5,0,0:0:0:0:
54,289,126418,6,0,P|110:306|170:300,1,120,14|0,0:1|0:0,0:0:0:0:
251,307,126793,2,0,P|238:249|212:195,1,120,10|0,0:1|0:0,0:0:0:0:
133,180,127168,1,8,0:1:0:0:
372,211,127418,6,0,P|319:183|281:136,1,120,10|0,0:1|0:0,0:0:0:0:
219,85,127793,2,0,P|269:52|326:33,1,120,10|8,0:1|0:1,0:0:0:0:
393,78,128168,1,10,0:1:0:0:
472,267,128418,6,0,B|400:281|432:293|358:305,1,120,14|2,0:1|0:1,0:0:0:0:
316,375,128793,2,0,B|244:361|276:349|202:336,1,120,8|8,0:1|0:1,0:0:0:0:
127,306,129168,2,0,B|102:326|102:326|76:337,1,60,2|0,0:1|0:0,0:0:0:0:
3,259,129418,6,0,P|14:200|17:140,1,120,10|0,0:1|0:0,0:0:0:0:
73,71,129793,1,8,0:1:0:0:
198,156,130043,1,8,0:1:0:0:
197,155,130168,2,0,P|199:126|207:97,1,60,2|0,0:1|0:0,0:0:0:0:
286,42,130418,6,0,P|343:55|381:100,1,120,14|0,0:1|0:0,0:0:0:0:
465,114,130793,2,0,P|474:172|503:225,1,120,10|0,0:1|0:0,0:0:0:0:
510,302,131168,1,8,0:1:0:0:
257,250,131418,6,0,B|264:187|279:193|292:135,1,120,10|0,0:1|0:0,0:0:0:0:
185,68,131793,2,0,P|192:96|204:124,1,60,10|0,0:1|0:0,0:0:0:0:
162,202,132043,1,8,0:1:0:0:
162,202,132168,1,8,0:1:0:0:
276,363,132418,5,14,0:1:0:0:
276,363,132543,2,0,P|336:350|417:340,1,120,0|0,1:0|0:0,0:0:0:0:
430,266,132918,1,0,1:0:0:0:
430,266,133043,1,0,1:0:0:0:
430,266,133168,2,0,P|416:239|408:210,1,60,2|0,1:0|0:0,0:0:0:0:
333,234,133418,6,0,B|255:249|290:258|219:277,1,120,10|8,1:0|1:0,0:0:0:0:
190,351,133793,2,0,P|165:368|140:384,1,60,0|10,1:0|1:0,0:0:0:0:
60,384,134043,1,0,1:0:0:0:
60,384,134168,2,0,P|50:355|36:329,1,60,8|0,1:0|1:0,0:0:0:0:
57,230,134418,6,0,P|85:174|140:145,1,125.999996154785,6|12,0:0|0:0,0:0:0:0:
156,63,134793,2,0,P|216:83|278:78,1,125.999996154785,2|0,0:0|0:0,0:0:0:0:
342,135,135168,2,0,P|370:120|400:111,1,62.9999980773926,14|0,0:0|0:0,0:0:0:0:
437,195,135418,2,0,P|379:219|316:223,1,125.999996154785,0|14,0:0|0:0,0:0:0:0:
253,282,135793,1,0,0:0:0:0:
80,372,136043,5,0,0:0:0:0:
80,372,136168,2,0,B|87:343|87:343|91:309,1,62.9999980773926,14|0,0:0|0:0,0:0:0:0:
154,253,136418,2,0,P|129:195|94:142,1,125.999996154785,2|12,0:0|0:0,0:0:0:0:
132,65,136793,2,0,P|194:65|246:31,1,125.999996154785,2|0,0:0|0:0,0:0:0:0:
323,12,137168,2,0,B|351:28|351:28|380:36,1,62.9999980773926,14|0,0:0|0:0,0:0:0:0:
383,120,137418,6,0,B|335:178|372:169|324:231,1,125.999996154785,2|14,0:0|0:0,0:0:0:0:
266,290,137793,2,0,P|283:317|297:346,1,62.9999980773926
381,374,138043,1,0,0:0:0:0:
381,374,138168,1,14,0:0:0:0:
177,330,138418,6,0,P|121:301|62:278,1,125.999996154785,2|12,0:0|0:0,0:0:0:0:
31,196,138793,2,0,B|71:137|45:141|83:81,1,125.999996154785,2|2,0:0|0:0,0:0:0:0:
180,40,139168,2,0,P|167:68|171:99,1,62.9999980773926,12|0,0:0|0:0,0:0:0:0:
275,107,139418,2,0,P|330:74|389:54,1,125.999996154785,0|12,0:0|0:0,0:0:0:0:
480,43,139793,2,0,P|459:102|427:156,1,125.999996154785,2|0,0:0|0:0,0:0:0:0:
442,240,140168,1,14,0:0:0:0:
269,332,140418,6,0,B|256:303|256:303|249:272,1,62.9999980773926,2|0,0:0|0:0,0:0:0:0:
174,314,140668,2,0,P|153:254|127:197,2,125.999996154785,14|2|14,0:0|0:0|0:0,0:0:0:0:
40,170,141418,1,2,0:0:0:0:
189,62,141668,1,14,0:0:0:0:
189,62,141793,2,0,P|219:71|249:79,1,62.9999980773926
330,31,142043,1,0,0:0:0:0:
330,31,142168,2,0,P|333:93|321:155,1,125.999996154785,14|14,0:0|0:0,0:0:0:0:
395,310,142668,5,0,0:0:0:0:
395,310,142793,1,12,0:0:0:0:
432,236,142918,2,0,P|463:230|494:221,1,62.9999980773926,2|0,0:0|0:0,0:0:0:0:
477,141,143168,2,0,P|471:110|462:79,1,62.9999980773926,8|0,0:0|0:0,0:0:0:0:
385,109,143418,2,0,P|337:148|276:147,1,125.999996154785,14|2,0:0|0:0,0:0:0:0:
212,194,143793,2,0,B|244:270|216:253|247:322,1,125.999996154785,12|0,0:0|0:0,0:0:0:0:
171,356,144168,2,0,P|151:333|128:312,1,62.9999980773926,10|0,0:0|0:0,0:0:0:0:
130,227,144418,5,14,0:0:0:0:
332,316,144668,1,0,0:0:0:0:
332,316,144793,2,0,P|363:314|394:309,2,62.9999980773926,12|2|0,0:0|0:0|0:0,0:0:0:0:
212,194,145293,1,0,0:0:0:0:
212,194,145418,2,0,P|192:169|170:147,2,62.9999980773926,14|0|2,0:0|0:0|0:0,0:0:0:0:
262,120,145793,1,12,0:0:0:0:
262,119,145918,2,0,P|255:89|252:57,1,62.9999980773926
188,0,146168,1,10,0:0:0:0:
369,215,146418,6,0,P|389:157|444:128,2,125.999996154785,14|0|0,0:0|0:0|0:0,0:0:0:0:
312,278,147043,2,0,B|325:311|325:311|330:338,1,62.9999980773926,2|8,0:0|0:0,0:0:0:0:
116,299,147418,6,0,P|118:237|155:187,1,125.999996154785,12|0,0:0|0:0,0:0:0:0:
190,104,147793,1,14,0:0:0:0:
190,104,147918,2,0,P|175:75|162:47,1,62.9999980773926
81,23,148168,2,0,P|52:37|24:50,1,62.9999980773926,8|2,0:0|0:0,0:0:0:0:
0,166,148418,1,12,0:0:0:0:
0,166,148543,2,0,P|24:223|35:285,1,125.999996154785
116,299,148918,2,0,B|142:318|142:318|171:326,1,62.9999980773926,14|0,0:0|0:0,0:0:0:0:
254,291,149168,5,8,0:0:0:0:
254,291,149293,1,2,0:0:0:0:
254,291,149418,2,0,P|311:268|375:261,1,125.999996154785,12|10,0:0|0:0,0:0:0:0:
434,192,149793,1,0,0:0:0:0:
434,192,149918,2,0,P|425:161|420:130,2,62.9999980773926,14|0|10,0:0|0:0|0:0,0:0:0:0:
498,251,150293,2,0,P|493:266|489:281,2,31.4999990386963,0|0|4,0:0|0:0|0:0,0:0:0:0:
256,192,150480,12,0,153418,0:0:0:0:
411,114,153918,6,0,P|408:84|401:54,1,60,2|0,0:0|0:0,0:0:0:0:
321,111,154168,2,0,P|327:140|337:168,1,60,14|0,0:0|0:0,0:0:0:0:
269,223,154418,2,0,B|191:196|221:240|134:200,1,120,2|14,0:0|0:0,0:0:0:0:
87,249,154793,2,0,B|90:284|90:284|102:305,1,60
174,351,155043,1,0,0:0:0:0:
174,351,155168,1,12,0:0:0:0:
194,133,155418,6,0,P|184:73|164:17,1,120,0|12,0:0|0:0,0:0:0:0:
84,13,155793,2,0,P|87:42|97:70,1,60
22,141,156043,1,0,0:0:0:0:
22,141,156168,2,0,P|77:162|121:203,1,120,12|0,0:0|0:0,0:0:0:0:
274,92,156668,5,12,0:0:0:0:
274,92,156793,2,0,B|296:113|296:113|308:139,1,60
385,190,157043,1,0,0:0:0:0:
385,190,157168,2,0,P|364:246|358:305,1,120,12|0,0:0|0:0,0:0:0:0:
90,314,157668,5,12,0:0:0:0:
94,319,157793,2,0,P|114:262|120:203,1,120
171,134,158168,2,0,P|160:105|152:77,1,60,12|0,0:0|0:0,0:0:0:0:
81,26,158418,2,0,P|53:77|0:101,1,120,4|12,0:0|0:0,0:0:0:0:
0,184,158793,1,0,0:0:0:0:
0,184,158918,2,0,P|9:212|16:241,1,60
121,203,159168,2,0,P|177:224|235:235,2,120,12|0|12,0:0|0:0|0:0,0:0:0:0:
137,119,159793,6,0,P|165:111|193:99,1,60
265,53,160043,1,0,0:0:0:0:
265,53,160168,2,0,B|275:84|275:84|288:107,1,60,12|0,0:0|0:0,0:0:0:0:
368,137,160418,2,0,P|362:196|340:252,1,120,0|12,0:0|0:0,0:0:0:0:
438,277,160793,2,0,P|443:217|465:161,1,120
512,90,161168,2,0,B|495:66|495:66|482:38,1,60,12|0,0:0|0:0,0:0:0:0:
403,51,161418,6,0,P|374:55|344:57,1,60
263,64,161668,2,0,P|266:93|268:123,1,60,12|0,0:0|0:0,0:0:0:0:
197,186,161918,2,0,P|193:215|191:245,1,60
110,231,162168,2,0,P|80:227|50:225,1,60,12|0,0:0|0:0,0:0:0:0:
63,310,162418,2,0,P|121:323|181:326,1,120,4|12,0:0|0:0,0:0:0:0:
259,356,162793,2,0,P|299:314|357:327,1,120
400,260,163168,2,0,B|397:227|397:227|404:201,1,60,12|0,0:0|0:0,0:0:0:0:
337,141,163418,6,0,P|331:82|320:23,1,120,0|12,0:0|0:0,0:0:0:0:
238,43,163793,2,0,P|212:57|183:64,1,60
102,91,164043,2,0,P|116:117|123:146,1,60,0|12,0:0|0:0,0:0:0:0:
201,211,164293,2,0,P|179:266|180:326,1,120
259,355,164668,2,0,P|288:348|314:334,1,60,12|0,0:0|0:0,0:0:0:0:
401,338,164918,2,0,P|390:280|395:220,1,120,8|12,0:0|0:0,0:0:0:0:
320,219,165293,5,0,0:0:0:0:
320,219,165418,2,0,P|291:236|256:248,1,60,8|0,0:0|0:0,0:0:0:0:
259,152,165668,2,0,P|276:123|288:88,1,60,12|0,0:0|0:0,0:0:0:0:
225,36,165918,1,8,0:0:0:0:
225,36,166043,1,0,0:0:0:0:
225,36,166168,2,0,L|196:27,3,30,12|0|0|0,0:0|0:0|0:0|0:0,0:0:0:0:
158,48,166418,6,0,P|174:125|158:203,1,160,0|0,1:0|0:0,0:0:0:0:
87,251,166918,2,0,P|94:290|111:326,2,80,2|0|0,1:0|0:0|0:0,0:0:0:0:
20,189,167418,5,2,1:0:0:0:
253,106,167793,1,2,1:0:0:0:
24,192,168168,2,0,P|68:151|101:102,1,120,2|0,1:0|1:0,0:0:0:0:
170,166,168668,1,0,0:0:0:0:
170,166,168793,2,0,P|177:193|193:229,1,60,0|2,0:0|1:0,0:0:0:0:
209,308,169043,1,0,0:0:0:0:
209,308,169168,2,0,P|262:282|322:275,1,120,0|2,0:0|1:0,0:0:0:0:
486,91,169793,5,2,1:0:0:0:
404,85,169918,2,0,P|388:110|368:132,1,60
368,210,170168,1,2,1:0:0:0:
170,166,170418,2,0,P|127:123|72:101,1,120,0|0,1:0|0:0,0:0:0:0:
280,366,170918,2,0,B|269:289|266:314|254:243,2,120,2|0|2,1:0|0:0|1:0,0:0:0:0:
46,247,171793,1,2,1:0:0:0:
256,192,172168,5,2,1:0:0:0:
