osu file format v14

[General]
AudioFilename: audio.mp3
AudioLeadIn: 0
PreviewTime: 62057
Countdown: 0
SampleSet: Soft
StackLeniency: 0.7
Mode: 0
LetterboxInBreaks: 0
WidescreenStoryboard: 1

[Editor]
DistanceSpacing: 1
BeatDivisor: 2
GridSize: 4
TimelineZoom: 1.8

[Metadata]
Title:ChRoNiClESeVeN feat. Annabel
TitleUnicode:ChRøNiClESeVeN feat. Annabel
Artist:sasakure.UK
ArtistUnicode:sasakure.UK
Creator:Delis
Version:VINXIS's Normal
Source:セブンスドラゴンⅢ code:VFD
Tags:7th dragon III RLC VINXIS Chromoxx Arrival
BeatmapID:1403565
BeatmapSetID:630014

[Difficulty]
HPDrainRate:4
CircleSize:3
OverallDifficulty:5
ApproachRate:5
SliderMultiplier:1
SliderTickRate:1

[Events]
//Background and Video events
0,0,"No.jpg",0,0
//Break Periods
2,51794,55318
2,81949,90395
2,101641,110087
2,151487,157471
2,199896,208358
//Storyboard Layer 0 (Background)
//Storyboard Layer 1 (Fail)
//Storyboard Layer 2 (Pass)
//Storyboard Layer 3 (Foreground)
//Storyboard Sound Samples

[TimingPoints]
1021,357.142857142857,4,2,1,5,1,0
1378,468.75,4,2,1,5,1,0
1846,612.244897959184,4,2,1,5,1,0
2458,394.736842105263,4,2,1,5,1,0
2852,447.761194029851,4,2,1,5,1,0
3299,535.714285714286,4,2,1,5,1,0
3834,566.037735849057,4,2,1,5,1,0
4400,545.454545454546,4,2,1,5,1,0
4945,461.538461538462,4,2,1,5,1,0
5406,612.244897959184,4,2,1,5,1,0
6018,545.454545454546,4,2,1,5,1,0
6563,439.56043956044,4,2,1,5,1,0
7442,530.973451327434,4,2,1,5,1,0
7972,447.761194029851,4,2,1,5,1,0
8867,357.142857142857,4,2,1,40,1,0
11724,-100,4,2,1,5,0,0
12211,307.692307692308,4,2,1,50,1,0
12211,-100,4,2,1,50,0,0
22057,-100,4,2,2,60,0,0
31903,-100,4,2,1,60,0,0
41749,-100,4,2,2,60,0,0
45518,-100,4,2,3,60,0,0
45826,-100,4,2,2,60,0,0
50441,-100,4,2,3,60,0,0
51595,-100,4,2,1,60,0,0
55903,-100,4,2,1,30,0,0
56057,-100,4,2,1,60,0,0
56211,-100,4,2,1,40,0,0
56364,-100,4,2,1,60,0,0
56826,-100,4,2,2,60,0,0
57518,-100,4,2,1,60,0,0
57749,-100,4,2,2,60,0,0
57980,-100,4,2,1,60,0,0
58134,-100,4,2,2,60,0,0
58287,-100,4,2,3,60,0,0
62057,307.692307692308,4,2,2,70,1,0
70826,-100,4,2,3,70,0,0
71749,-100,4,2,2,70,0,0
75749,-100,4,2,3,70,0,0
76441,-100,4,2,2,70,0,0
91595,307.692307692308,3,2,1,70,1,0
97133,-100,3,2,2,60,0,0
98979,-100,3,2,2,40,0,0
101133,-100,3,2,2,50,0,0
101441,307.692307692308,4,2,2,50,1,0
110210,-100,4,2,1,60,0,0
111287,-100,4,2,2,60,0,0
111979,-100,4,2,1,60,0,0
112133,-100,4,2,2,60,0,0
116056,-100,4,2,1,60,0,0
116210,-100,4,2,2,60,0,0
119748,-100,4,2,1,60,0,0
125441,-100,4,2,1,30,0,0
125594,-100,4,2,1,60,0,0
125748,-100,4,2,1,40,0,0
125902,-100,4,2,1,60,0,0
126056,-100,4,2,2,60,0,0
126748,-100,4,2,3,60,0,0
126902,-100,4,2,2,60,0,0
127825,-100,4,2,3,60,0,0
128210,-100,4,2,1,60,0,0
128517,-100,4,2,3,60,0,0
131595,307.692307692308,4,2,2,70,1,0
135902,-100,4,2,1,70,0,0
135979,-100,4,2,2,70,0,0
140364,-100,4,2,3,70,0,0
141441,-100,4,2,2,70,0,0
160825,-100,4,2,1,60,0,0
161441,-100,4,2,2,60,0,0
170979,307.692307692308,7,3,2,60,1,0
183902,307.692307692308,6,2,1,60,1,0
185748,307.692307692308,3,2,2,60,1,0
187594,307.692307692308,4,2,3,60,1,0
187670,-100,4,2,3,30,0,0
193747,-100,4,2,3,40,0,0
195055,-100,4,2,3,50,0,0
196209,-100,4,2,3,55,0,0
197440,-100,4,2,3,10,0,0
199901,-100,4,2,1,50,0,0
204747,-100,4,2,1,10,0,0
204824,-100,4,2,1,50,0,0
209747,-100,4,2,2,60,0,0
213824,-100,4,2,1,60,0,0
213978,-100,4,2,2,60,0,0
214132,-100,4,2,1,60,0,0
214286,-100,4,2,2,60,0,0
218978,-100,4,2,3,70,0,0
219747,-100,4,2,2,80,0,0
229286,-100,4,2,2,70,0,0
229440,-100,4,2,2,80,0,0
233440,-100,4,2,3,80,0,0
234055,-100,4,2,2,80,0,0
239363,-100,4,2,3,80,0,0
250670,-100,4,2,2,80,0,0
251132,-100,4,2,3,80,0,0
253209,-100,4,2,2,80,0,0
253517,-100,4,2,3,80,0,0
255670,-100,4,2,2,80,0,0
255978,-100,4,2,3,80,0,0
256440,-100,4,2,2,80,0,0
258363,-100,4,2,3,70,0,0
261440,-100,4,2,3,60,0,0
278363,348.837209302326,4,2,3,60,1,0

[Colours]
Combo1 : 114,114,114
Combo2 : 111,172,128
Combo3 : 167,159,105
Combo4 : 48,203,199
Combo5 : 182,109,155
Combo6 : 165,165,165

[HitObjects]
152,245,12211,5,2,0:0:0:0:
245,280,12518,2,0,P|298:276|341:250,1,100,0|0,0:0|0:0,0:0:0:0:
365,211,12980,1,0,0:0:0:0:
435,140,13287,2,0,L|439:35,1,100,2|0,0:0|0:0,0:0:0:0:
345,3,13903,2,0,L|341:102,1,100,2|0,0:0|0:0,0:0:0:0:
209,174,14672,5,2,0:0:0:0:
146,95,14980,2,0,P|112:72|57:54,1,100,0|0,0:0|0:0,0:0:0:0:
6,56,15441,1,0,0:0:0:0:
41,149,15749,2,0,L|43:251,1,100,2|0,0:0|0:0,0:0:0:0:
138,279,16364,2,0,L|136:179,1,100,0|2,0:0|0:0,0:0:0:0:
257,90,17134,5,2,0:0:0:0:
299,180,17441,2,0,P|316:222|359:257,1,100,0|0,0:0|0:0,0:0:0:0:
406,264,17903,1,0,0:0:0:0:
350,347,18211,2,0,L|250:327,1,100,2|0,0:0|0:0,0:0:0:0:
181,255,18826,2,0,L|81:275,1,100,2|0,0:0|0:0,0:0:0:0:
35,290,19287,1,0,0:0:0:0:
54,191,19595,6,0,P|66:130|41:19,2,150,2|0|0,0:0|0:0|0:0,0:0:0:0:
112,271,20826,2,0,P|151:233|184:155,1,100,2|0,0:0|0:0,0:0:0:0:
179,144,21287,1,0,0:0:0:0:
256,80,21595,2,0,L|379:99,1,100,2|2,0:0|0:0,0:0:0:0:
394,126,22057,38,0,P|457:122|503:139,1,100,6|8,0:0|0:0,0:0:0:0:
496,232,22672,2,0,P|447:244|398:238,1,100,0|8,0:0|0:0,0:0:0:0:
353,216,23134,2,0,L|366:373,1,150,2|8,0:2|0:0,0:0:0:0:
275,321,23903,1,0,3:0:0:0:
182,360,24211,1,8,0:0:0:0:
101,301,24518,6,0,P|109:234|143:192,1,100,2|8,0:2|0:2,0:0:0:0:
199,139,25134,2,0,P|222:182|224:232,1,100,2|8,3:0|0:0,0:0:0:0:
204,278,25595,2,0,B|265:272|265:272|293:285|293:285|354:279,1,150,2|8,0:0|0:0,0:0:0:0:
432,220,26364,2,0,L|421:87,1,100,2|8,0:0|0:0,0:0:0:0:
355,46,26980,6,0,P|296:44|252:77,1,100,4|8,0:0|0:0,0:0:0:0:
223,96,27441,1,2,0:0:0:0:
178,117,27595,2,0,P|119:119|75:86,1,100,2|8,3:0|0:0,0:0:0:0:
39,77,28057,2,0,B|23:177|23:177|56:239,1,150,2|8,0:0|0:0,0:0:0:0:
112,295,28826,1,2,3:2:0:0:
212,291,29134,1,8,0:0:0:0:
303,329,29441,6,0,P|377:342|406:341,1,100,2|8,0:0|0:0,0:0:0:0:
440,309,29903,1,2,0:0:0:0:
475,274,30057,2,0,P|488:200|487:171,1,100,0|8,0:0|0:0,0:0:0:0:
466,130,30518,2,0,B|271:112,1,150,2|8,0:0|0:0,0:0:0:0:
224,77,31287,2,0,L|153:95,1,50,2|2,3:2|3:2,0:0:0:0:
145,129,31595,2,0,L|74:147,1,50,8|2,0:0|3:2,0:0:0:0:
66,182,31903,37,4,3:2:0:0:
44,279,32211,2,0,P|65:347|99:373,1,100,8|0,0:0|0:0,0:0:0:0:
133,376,32672,1,0,3:0:0:0:
194,296,32980,2,0,L|311:293,1,100,0|0,3:0|3:0,0:0:0:0:
367,225,33595,2,0,L|484:222,2,100,8|2|2,0:0|3:0|3:0,0:0:0:0:
318,212,34364,5,2,3:2:0:0:
237,152,34672,2,0,P|239:87|301:46,1,100,8|2,0:0|0:2,0:0:0:0:
304,39,35134,1,0,3:0:0:0:
403,49,35441,2,0,L|412:166,1,100,0|0,3:0|3:0,0:0:0:0:
505,182,36057,2,0,L|514:299,1,100,2|2,3:0|3:0,0:0:0:0:
507,331,36518,2,0,L|433:343,1,50,8|2,0:0|3:2,0:0:0:0:
408,347,36826,5,6,0:0:0:0:
317,305,37134,2,0,P|273:251|282:184,2,100,8|0|8,0:0|0:0|0:0,0:0:0:0:
319,354,37903,2,0,L|181:358,1,100,0|0,3:0|3:0,0:0:0:0:
164,272,38518,2,0,L|26:276,1,100,0|2,0:0|0:0,0:0:0:0:
13,277,38980,1,10,0:0:0:0:
52,185,39287,6,0,P|64:124|39:13,2,150,0|0|8,3:0|3:0|0:0,0:0:0:0:
110,265,40518,2,0,P|149:227|182:149,1,100,0|8,0:0|0:0,0:0:0:0:
166,137,40980,2,0,L|337:121,1,150,0|0,3:0|0:0,0:0:0:0:
366,208,41749,38,0,L|253:218,1,100,6|8,0:2|0:0,0:0:0:0:
194,287,42364,1,0,0:0:0:0:
144,283,42518,2,0,P|108:242|98:177,2,100,2|2|2,0:0|0:0|0:0,0:0:0:0:
197,198,43441,2,0,P|251:185|292:146,1,100,2|2,3:2|0:0,0:0:0:0:
308,112,43903,1,8,0:0:0:0:
377,39,44211,5,4,0:0:0:0:
448,108,44518,2,0,L|454:244,1,100,8|0,0:0|0:0,0:0:0:0:
430,253,44980,2,0,P|371:277|314:279,2,100,2|0|2,0:0|0:0|3:2,0:0:0:0:
356,184,45903,2,0,P|297:160|240:158,1,100,2|2,3:2|0:0,0:0:0:0:
213,169,46364,1,8,0:0:0:0:
134,231,46672,5,4,0:0:0:0:
35,211,46980,2,0,L|46:314,1,100,8|0,0:0|0:0,0:0:0:0:
90,332,47441,2,0,P|150:328|194:308,2,100,2|2|2,0:0|0:0|0:0,0:0:0:0:
125,238,48364,2,0,P|137:157|130:116,1,100,0|2,3:0|0:0,0:0:0:0:
105,99,48826,2,0,L|114:44,1,50,8|2,0:0|0:0,0:0:0:0:
151,17,49134,6,0,P|233:38|296:77,2,150,4|2|8,0:0|0:0|0:0,0:0:0:0:
174,113,50364,2,0,P|217:158|234:209,2,100,0|10|2,0:0|0:0|0:0,0:0:0:0:
123,107,51134,1,2,0:0:0:0:
73,101,51287,2,0,L|7:107,2,50,10|4|4,0:0|0:3|0:0,0:0:0:0:
377,24,56518,38,0,L|392:150,1,100,4|8,0:0|0:0,0:0:0:0:
359,164,56980,1,2,3:2:0:0:
323,199,57134,2,0,L|272:188,2,50,0|2|4,3:0|0:0|0:0,0:0:0:0:
345,243,57595,2,0,L|469:228,1,100,2|4,0:0|3:2,0:0:0:0:
493,219,58057,2,0,L|477:358,1,100,2|10,0:0|0:0,0:0:0:0:
469,366,58518,1,10,0:0:0:0:
370,350,58826,54,0,P|278:323|194:337,1,150,4|4,0:0|0:1,0:0:0:0:
247,230,59595,2,0,P|174:244|69:328,2,200,8|0|8,0:0|0:0|0:0,0:0:0:0:
231,55,62057,22,0,L|399:67,2,150,4|2|8,0:0|0:0|0:0,0:0:0:0:
146,108,63287,1,0,0:0:0:0:
196,194,63595,1,8,0:0:0:0:
111,247,63903,2,0,L|39:259,2,50,2|2|8,3:2|0:0|0:0,0:0:0:0:
196,194,64518,6,0,L|386:179,2,150,4|2|8,0:0|0:0|0:0,0:0:0:0:
111,247,65749,1,0,0:0:0:0:
172,326,66057,1,8,0:0:0:0:
80,365,66364,2,0,L|22:374,2,50,0|2|8,3:0|0:0|0:0,0:0:0:0:
172,326,66980,6,0,L|304:299,1,100,4|8,0:0|0:0,0:0:0:0:
319,309,67441,2,0,L|391:239,1,100,6|2,0:0|0:0,0:0:0:0:
363,144,68057,2,0,L|376:10,2,100,4|6|6,0:0|0:0|3:2,0:0:0:0:
273,188,68980,1,2,0:0:0:0:
182,68,69441,6,0,L|88:125,1,100,4|8,0:0|0:0,0:0:0:0:
85,169,69903,2,0,L|41:293,1,100,6|2,0:0|0:0,0:0:0:0:
55,313,70364,1,8,0:0:0:0:
65,362,70518,2,0,P|150:326|316:334,1,250,6|2,0:0|0:0,0:0:0:0:
393,283,71595,1,10,0:0:0:0:
481,236,71903,38,0,L|460:81,2,150,4|2|8,3:2|0:0|0:0,0:0:0:0:
393,283,73133,1,0,0:0:0:0:
329,205,73441,1,8,0:0:0:0:
250,267,73749,2,0,L|257:326,2,50,0|2|8,3:0|0:0|0:0,0:0:0:0:
329,205,74364,38,0,L|308:50,2,150,4|2|8,0:0|0:0|0:0,0:0:0:0:
250,267,75595,1,0,0:0:0:0:
165,213,75903,1,10,0:2:0:0:
78,263,76210,2,0,L|87:332,2,50,2|2|8,0:2|3:2|0:0,0:0:0:0:
18,182,76826,38,0,P|54:107|97:79,1,100,4|8,0:0|0:0,0:0:0:0:
111,77,77287,2,0,P|171:79|225:105,1,100,6|2,0:0|0:0,0:0:0:0:
240,131,77749,1,8,0:0:0:0:
280,160,77903,2,0,P|340:158|394:132,2,100,6|6|2,0:0|0:0|3:2,0:0:0:0:
214,236,78826,1,2,0:0:0:0:
120,352,79287,6,0,P|84:299|31:277,1,100,4|8,0:0|0:0,0:0:0:0:
91,189,79903,2,0,L|163:199,2,50,0|2|8,0:0|0:0|0:0,0:0:0:0:
54,154,80364,2,0,P|52:88|76:27,1,100,6|12,0:0|0:0,0:0:0:0:
156,88,80980,2,0,P|204:99|254:95,1,100,2|2,0:0|0:0,0:0:0:0:
301,78,81441,1,12,0:0:0:0:
364,155,81749,5,4,3:2:0:0:
201,70,91595,6,0,L|206:243,1,150,6|2,0:0|0:0,0:0:0:0:
355,221,92518,2,0,L|350:394,1,150,2|2,0:0|0:0,0:0:0:0:
207,324,93441,38,0,L|27:349,2,150,2|2|2,0:0|0:0|0:0,0:0:0:0:
300,288,94671,2,0,L|286:225,2,50,0|4|4,0:0|0:3|0:3,0:0:0:0:
393,251,95287,6,0,P|394:165|367:69,1,150,4|0,0:0|3:0,0:0:0:0:
391,54,95902,1,0,3:0:0:0:
295,24,96210,2,0,P|209:23|113:50,1,150,2|0,0:0|3:0,0:0:0:0:
103,63,96825,1,0,3:0:0:0:
48,146,97133,6,0,L|64:308,1,150,4|4,0:0|0:0,0:0:0:0:
188,213,98056,2,0,L|172:375,1,150,4|4,0:0|0:0,0:0:0:0:
329,371,98979,6,0,P|449:320|190:247,1,700,4|8,0:0|0:0,0:0:0:0:
270,271,101441,37,4,0:0:0:0:
131,105,111287,6,0,L|235:89,1,100,6|2,0:0|0:0,0:0:0:0:
317,138,111902,1,2,1:0:0:0:
317,138,112056,2,0,L|399:157,1,50,2|2,0:0|0:0,0:0:0:0:
414,160,112364,2,0,L|389:288,1,100,0|0,0:0|0:0,0:0:0:0:
295,271,112979,2,0,L|314:369,1,100,0|0,0:0|0:0,0:0:0:0:
169,327,113748,5,2,0:0:0:0:
73,356,114056,1,2,0:0:0:0:
67,256,114364,1,2,1:0:0:0:
67,256,114517,2,0,L|79:171,1,50,0|2,0:0|0:0,0:0:0:0:
82,156,114825,2,0,P|142:171|223:173,1,100,0|0,3:0|0:0,0:0:0:0:
262,117,115441,2,0,P|322:102|403:100,1,100,0|2,0:0|3:0,0:0:0:0:
487,178,116210,6,0,L|480:298,1,100,6|2,0:0|0:0,0:0:0:0:
399,335,116825,1,2,1:0:0:0:
399,335,116979,2,0,L|316:344,1,50,0|2,0:0|0:0,0:0:0:0:
302,320,117287,2,0,P|235:301|186:322,1,100,0|0,0:0|0:0,0:0:0:0:
118,354,117902,1,0,3:0:0:0:
77,262,118210,2,0,L|98:118,1,100,0|0,0:0|0:0,0:0:0:0:
121,123,118671,38,0,B|185:120|185:120|207:134|207:134|268:129,2,150,2|0|2,0:0|0:0|0:0,0:0:0:0:
149,26,119902,2,0,B|213:23|213:23|235:37|235:37|296:32,2,150,0|2|2,3:0|0:2|3:2,0:0:0:0:
51,46,121133,6,0,L|31:217,2,150,4|2|2,0:0|0:0|0:0,0:0:0:0:
461,46,123594,2,0,L|481:217,2,150,2|2|2,0:0|0:0|0:0,0:0:0:0:
39,315,126056,6,0,P|85:296|134:291,1,100,4|8,0:0|0:0,0:0:0:0:
183,304,126517,1,2,3:2:0:0:
230,318,126671,2,0,L|297:325,1,50,0|10,3:0|0:0,0:0:0:0:
324,299,126979,1,4,0:0:0:0:
365,270,127133,2,0,L|376:132,2,100,0|4|8,0:0|0:0|0:0,0:0:0:0:
464,261,128056,2,0,L|475:123,1,100,10|4,0:0|0:0,0:0:0:0:
475,111,128517,38,0,P|395:64|281:89,2,200,0|8|0,0:0|0:0|0:0,0:0:0:0:
460,310,130364,1,8,0:0:0:0:
181,49,131595,38,0,L|32:29,2,150,4|2|8,0:0|0:0|0:0,0:0:0:0:
235,131,132825,1,0,0:0:0:0:
148,181,133133,1,8,0:0:0:0:
228,241,133441,2,0,L|276:252,2,50,2|2|8,3:2|0:0|0:0,0:0:0:0:
148,181,134056,6,0,L|-1:161,2,150,4|2|8,0:0|0:0|0:0,0:0:0:0:
228,241,135287,1,0,0:0:0:0:
321,205,135595,1,8,0:0:0:0:
406,256,135902,2,0,L|412:317,2,50,2|2|8,3:2|0:0|0:0,0:0:0:0:
321,205,136518,38,0,L|216:227,1,100,4|8,0:0|0:0,0:0:0:0:
179,249,136979,2,0,L|74:227,1,100,6|2,0:0|0:0,0:0:0:0:
36,138,137595,2,0,P|60:63|90:28,2,100,6|6|0,0:0|0:0|3:0,0:0:0:0:
81,228,138518,1,2,0:0:0:0:
207,308,138979,6,0,P|261:303|319:279,1,100,4|8,0:0|0:0,0:0:0:0:
341,253,139441,2,0,P|336:198|312:141,1,100,6|2,0:0|0:0,0:0:0:0:
283,122,139902,1,8,0:0:0:0:
242,92,140056,2,0,P|172:70|10:134,1,250,6|2,0:0|3:2,0:0:0:0:
40,226,141133,1,10,0:0:0:0:
90,312,141441,6,0,L|257:319,2,150,4|2|8,0:0|0:0|0:0,0:0:0:0:
40,226,142671,1,0,0:0:0:0:
118,164,142979,1,8,0:0:0:0:
44,95,143287,2,0,L|30:32,2,50,2|2|8,3:2|0:0|0:0,0:0:0:0:
118,164,143902,6,0,L|285:171,2,150,4|0|8,0:0|3:0|0:0,0:0:0:0:
44,95,145133,1,0,0:0:0:0:
142,76,145441,1,8,0:2:0:0:
241,63,145748,2,0,L|227:0,2,50,2|2|8,3:2|0:0|0:0,0:0:0:0:
340,48,146364,38,0,L|485:73,1,100,4|8,0:0|0:0,0:0:0:0:
487,75,146825,2,0,L|470:173,1,100,6|2,0:0|0:0,0:0:0:0:
461,223,147287,1,8,0:0:0:0:
451,272,147441,2,0,P|393:250|310:246,2,100,6|6|0,0:0|0:0|3:0,0:0:0:0:
463,371,148364,1,2,0:0:0:0:
317,333,148825,6,0,P|271:344|188:345,1,100,6|8,0:0|0:0,0:0:0:0:
151,272,149441,2,0,L|162:214,2,50,0|2|12,0:0|0:0|0:0,0:0:0:0:
131,318,149902,2,0,P|70:319|28:304,1,100,2|12,0:0|0:0,0:0:0:0:
6,210,150518,2,0,P|-3:146|3:88,1,100,2|8,3:2|0:3,0:0:0:0:
20,65,150979,1,12,0:0:0:0:
112,25,151287,5,4,3:2:0:0:
256,192,158671,12,0,159902,0:0:0:0:
74,116,160825,5,2,0:0:0:0:
167,80,161133,2,0,L|309:99,1,100,6|8,0:0|0:0,0:0:0:0:
310,117,161595,2,0,L|440:99,1,100,2|2,0:0|0:0,0:0:0:0:
458,112,162056,1,8,0:0:0:0:
487,152,162210,2,0,L|474:274,1,100,2|2,0:0|0:0,0:0:0:0:
445,291,162671,1,8,0:0:0:0:
404,320,162825,1,2,0:0:0:0:
332,249,163133,1,2,0:0:0:0:
230,238,163441,38,0,L|46:265,1,150,0|8,3:0|0:0,0:0:0:0:
32,271,164056,1,2,0:0:0:0:
35,170,164364,2,0,L|49:86,1,50,2|8,0:0|0:0,0:0:0:0:
60,73,164671,2,0,L|193:66,1,100,2|2,0:0|0:0,0:0:0:0:
205,89,165133,1,8,0:0:0:0:
250,109,165287,1,2,0:0:0:0:
325,43,165595,2,0,L|389:39,1,50,2|4,0:0|0:0,0:0:0:0:
423,25,165902,6,0,P|464:64|375:335,1,350,8|8,0:0|0:0,0:0:0:0:
312,320,167287,2,0,P|226:175|302:26,1,350,0|2,0:0|0:0,0:0:0:0:
256,192,168518,12,4,170979,3:2:0:0:
168,135,173132,5,4,0:0:0:0:
168,135,175286,1,4,0:0:0:0:
168,135,177440,1,4,0:0:0:0:
168,135,179594,6,0,L|177:247,1,100,4|0,0:0|0:0,0:0:0:0:
168,135,181748,2,0,L|177:247,1,100,4|0,0:0|0:0,0:0:0:0:
168,135,183902,6,0,L|340:103,2,150,4|2|2,0:0|0:0|0:0,0:0:0:0:
63,242,185286,1,2,0:0:0:0:
173,343,185748,38,0,L|280:328,1,100,4|0,0:0|0:0,0:0:0:0:
301,288,186209,2,0,L|408:303,1,100,4|0,0:0|0:0,0:0:0:0:
450,301,186671,2,0,L|445:168,1,100,4|0,0:0|0:0,0:0:0:0:
404,174,187132,2,0,L|409:41,1,100,4|0,0:0|0:0,0:0:0:0:
440,35,187594,5,4,1:0:0:0:
256,192,187747,12,4,192517,0:1:0:0:
256,192,192670,12,0,197440,0:0:0:0:
67,79,209747,6,0,P|139:68|199:74,1,100,4|2,3:2|3:0,0:0:0:0:
213,84,210209,2,0,P|285:95|345:89,1,100,0|0,0:0|0:0,0:0:0:0:
360,80,210670,2,0,P|417:82|471:166,1,150,2|0,3:0|0:0,0:0:0:0:
449,197,211286,2,0,L|466:328,2,100,2|2|2,3:0|3:0|3:0,0:0:0:0:
356,234,212209,6,0,P|284:245|224:239,1,100,4|2,0:0|3:0,0:0:0:0:
226,283,212671,2,0,P|154:272|94:278,1,100,0|0,0:0|0:0,0:0:0:0:
109,226,213132,2,0,P|52:224|-2:140,1,150,2|0,3:0|0:0,0:0:0:0:
18,108,213747,2,0,L|1:-23,1,100,2|2,3:0|3:0,0:0:0:0:
101,35,214363,1,0,3:0:0:0:
199,21,214670,38,0,L|309:41,1,100,4|2,3:2|3:3,0:0:0:0:
328,78,215132,2,0,L|293:197,1,100,0|0,0:0|0:0,0:0:0:0:
228,244,215747,2,0,L|118:224,1,100,0|0,0:0|0:0,0:0:0:0:
71,144,216363,2,0,L|106:25,1,100,0|0,3:0|0:0,0:0:0:0:
249,39,217132,6,0,P|260:107|247:160,1,100,4|8,0:0|3:2,0:0:0:0:
198,219,217747,2,0,L|152:197,2,50,2|0|8,3:0|0:0|3:2,0:0:0:0:
238,248,218209,2,0,P|302:248|404:294,1,150,0|2,3:0|3:0,0:0:0:0:
469,230,218978,1,2,0:0:0:0:
436,136,219286,1,10,0:0:0:0:
393,47,219594,6,0,P|308:41|204:59,2,150,4|2|8,1:2|0:0|0:0,0:0:0:0:
436,136,220824,2,0,L|421:197,1,50,0|2,0:0|0:0,0:0:0:0:
411,233,221132,1,8,0:0:0:0:
333,296,221440,1,2,3:2:0:0:
268,219,221747,1,8,0:0:0:0:
185,274,222055,6,0,P|100:280|-4:262,2,150,4|2|8,1:2|0:0|0:0,0:0:0:0:
268,219,223286,2,0,L|283:158,1,50,0|2,0:0|0:0,0:0:0:0:
293,122,223594,1,8,0:0:0:0:
233,41,223901,1,2,3:2:0:0:
331,21,224209,1,8,0:0:0:0:
413,77,224517,38,0,P|431:138|421:211,1,100,4|8,1:2|0:0,0:0:0:0:
401,214,224978,2,0,P|383:275|393:348,1,100,4|2,1:2|0:0,0:0:0:0:
294,356,225594,6,0,L|150:337,2,100,4|4|4,1:2|0:0|3:2,0:0:0:0:
287,258,226517,1,2,0:0:0:0:
197,138,226978,6,0,P|192:88|201:20,1,100,4|8,1:2|0:0,0:0:0:0:
235,7,227440,2,0,P|280:40|346:49,1,100,4|2,1:2|0:0,0:0:0:0:
371,40,227901,1,8,0:0:0:0:
420,31,228055,2,0,L|429:221,1,150,4|2,3:2|1:0,0:0:0:0:
356,252,228824,1,2,1:0:0:0:
265,208,229132,1,2,1:0:0:0:
181,263,229440,6,0,P|160:215|167:80,2,150,4|0|8,1:2|3:0|0:0,0:0:0:0:
117,339,230670,2,0,L|49:339,1,50,0|2,0:0|0:0,0:0:0:0:
16,339,230978,1,8,0:0:0:0:
61,249,231286,1,2,0:0:0:0:
37,151,231594,1,8,0:0:0:0:
96,71,231901,38,0,P|192:55|281:86,2,150,4|2|8,1:2|0:0|3:2,0:0:0:0:
37,151,233132,2,0,L|49:227,1,50,0|2,0:0|0:0,0:0:0:0:
61,249,233440,1,10,0:0:0:0:
160,244,233747,1,2,3:2:0:0:
254,277,234055,1,8,0:0:0:0:
351,298,234363,6,0,P|377:206|378:161,1,100,4|8,1:2|0:0,0:0:0:0:
413,167,234824,2,0,P|389:74|367:34,1,100,4|2,1:2|0:0,0:0:0:0:
347,41,235286,1,8,0:0:0:0:
304,15,235440,2,0,L|179:27,2,100,4|4|2,0:2|0:0|0:0,0:0:0:0:
271,109,236363,1,2,0:0:0:0:
180,228,236824,6,0,P|138:276|117:354,1,100,4|8,1:2|0:0,0:0:0:0:
56,234,237440,2,0,L|54:173,2,50,4|2|8,0:0|0:0|0:0,0:0:0:0:
29,276,237901,2,0,L|42:391,1,100,4|6,0:0|0:0,0:0:0:0:
140,383,238517,2,0,L|128:283,1,100,0|8,1:0|1:2,0:0:0:0:
155,241,238978,1,0,1:0:0:0:
198,150,239286,6,0,P|253:163|317:161,1,100,4|8,1:0|0:0,0:0:0:0:
334,131,239747,1,0,3:2:0:0:
376,104,239901,2,0,P|375:157|368:220,1,100,0|8,0:0|0:0,0:0:0:0:
375,253,240363,38,0,P|295:248|142:348,1,250,2|0,3:1|3:1,0:0:0:0:
110,243,241440,1,10,0:0:0:0:
155,154,241747,6,0,L|137:31,1,100,2|8,0:1|0:0,0:0:0:0:
92,40,242209,1,2,3:1:0:0:
46,61,242363,2,0,L|60:159,1,100,0|8,0:0|0:0,0:0:0:0:
45,207,242824,6,0,B|66:327|66:327|156:217,1,250,2|0,3:1|1:0,0:0:0:0:
224,164,243901,1,8,0:0:0:0:
303,99,244209,6,0,L|374:83,2,50,2|0|8,0:1|0:0|0:0,0:0:0:0:
319,197,244824,2,0,L|390:213,2,50,0|0|10,0:0|3:0|0:0,0:0:0:0:
224,164,245440,6,0,L|153:148,2,50,0|2|10,0:0|3:1|0:0,0:0:0:0:
208,262,246055,2,0,L|137:278,2,50,2|0|8,3:1|3:0|0:0,0:0:0:0:
304,235,246670,38,0,L|491:316,1,200,2|0,3:1|0:0,0:0:0:0:
509,216,247594,1,8,0:0:0:0:
505,115,247901,2,0,L|302:145,1,200,0|2,0:1|3:2,0:0:0:0:
216,186,248824,1,10,0:0:0:0:
134,127,249132,6,0,P|83:136|36:181,1,100,4|8,0:0|0:0,0:0:0:0:
53,215,249594,1,2,3:2:0:0:
61,263,249747,2,0,P|101:293|158:296,1,100,0|8,0:0|0:0,0:0:0:0:
198,284,250209,6,0,B|322:265|322:265|457:283,1,250,2|2,3:1|3:1,0:0:0:0:
481,187,251286,1,10,0:0:0:0:
423,105,251594,38,0,L|318:76,1,100,4|8,0:0|0:0,0:0:0:0:
279,95,252055,1,2,3:1:0:0:
231,111,252209,2,0,L|135:85,1,100,0|8,0:0|0:0,0:0:0:0:
85,79,252670,6,0,B|61:147|72:205|72:205|83:270|58:343,1,250,2|2,3:1|3:2,0:0:0:0:
150,374,253747,1,10,0:0:0:0:
193,283,254055,6,0,P|243:282|299:298,1,100,4|8,0:0|0:0,0:0:0:0:
337,314,254517,1,0,3:0:0:0:
383,333,254670,2,0,P|431:345|481:344,1,100,0|8,0:0|0:0,0:0:0:0:
500,298,255132,6,0,B|493:127|493:127|459:206,1,250,0|0,3:0|3:0,0:0:0:0:
362,190,256209,1,8,0:0:0:0:
263,174,256517,38,0,L|152:162,1,100,4|8,0:0|0:0,0:0:0:0:
116,179,256978,1,2,0:0:0:0:
68,194,257132,2,0,L|57:293,1,100,0|8,0:0|0:0,0:0:0:0:
76,340,257594,6,0,L|333:334,1,250,2|2,0:0|0:2,0:0:0:0:
412,284,258670,1,2,3:2:0:0:
505,246,258978,38,0,P|513:197|510:148,1,100,4|0,0:0|1:0,0:0:0:0:
477,110,259440,1,0,3:0:0:0:
438,77,259594,2,0,L|449:26,2,50,0|0|10,0:0|3:0|0:0,0:0:0:0:
399,109,260055,2,0,P|339:123|282:110,1,100,0|0,3:0|3:0,0:0:0:0:
258,92,260517,2,0,L|192:101,1,50,0|0,1:0|0:0,0:0:0:0:
158,91,260824,2,0,L|92:100,2,50,0|0|0,3:0|3:0|1:0,0:0:0:0:
197,183,261440,6,0,P|192:233|175:298,1,100,2|0,3:2|1:0,0:0:0:0:
150,321,261901,1,0,3:0:0:0:
116,358,262055,2,0,L|58:348,2,50,0|0|0,0:0|3:0|1:0,0:0:0:0:
163,373,262517,2,0,L|281:359,1,100,2|0,3:2|3:0,0:0:0:0:
293,322,262978,2,0,L|352:330,1,50,0|0,1:0|3:0,0:0:0:0:
392,337,263286,2,0,L|453:344,2,50,0|0|8,3:0|3:0|0:0,0:0:0:0:
432,245,263901,70,0,P|441:182|413:84,1,150,6|0,0:0|3:0,0:0:0:0:
381,67,264517,2,0,L|394:12,2,50,2|0|0,0:0|3:0|1:0,0:0:0:0:
334,85,264978,2,0,P|277:80|230:84,1,100,2|0,3:2|3:0,0:0:0:0:
206,125,265440,2,0,L|212:185,1,50,0|0,1:0|0:0,0:0:0:0:
200,223,265747,2,0,L|206:283,2,50,0|2|0,3:0|3:2|1:0,0:0:0:0:
99,232,266363,6,0,P|46:217|9:172,1,100,2|0,3:2|1:0,0:0:0:0:
14,135,266824,1,0,3:0:0:0:
20,85,266978,2,0,L|12:31,2,50,2|0|0,0:0|3:0|1:0,0:0:0:0:
62,112,267440,2,0,L|168:106,1,100,2|0,3:2|3:0,0:0:0:0:
206,83,267901,2,0,L|275:81,1,50,0|0,1:0|3:0,0:0:0:0:
306,76,268209,2,0,L|375:74,2,50,0|2|0,3:0|3:0|1:0,0:0:0:0:
327,173,268824,70,0,P|335:222|332:271,1,100,4|0,0:0|1:0,0:0:0:0:
290,300,269286,1,0,3:0:0:0:
248,327,269440,2,0,L|259:378,2,50,0|0|0,0:0|3:0|1:0,0:0:0:0:
214,290,269901,2,0,P|154:276|97:289,1,100,2|0,3:2|3:0,0:0:0:0:
74,254,270363,2,0,L|80:204,1,50,0|0,1:0|0:0,0:0:0:0:
61,158,270670,2,0,L|67:108,2,50,0|0|0,3:0|3:0|1:0,0:0:0:0:
160,145,271286,6,0,P|165:95|182:30,1,100,2|0,3:2|1:0,0:0:0:0:
225,34,271747,1,0,3:0:0:0:
273,47,271901,2,0,L|263:101,2,50,0|0|0,0:0|3:0|1:0,0:0:0:0:
323,45,272363,2,0,L|441:59,1,100,0|0,3:0|3:0,0:0:0:0:
468,76,272824,2,0,L|476:135,1,50,0|0,1:0|3:0,0:0:0:0:
483,175,273132,2,0,L|490:236,2,50,0|0|0,3:0|3:0|1:0,0:0:0:0:
385,152,273747,70,0,P|394:215|366:313,1,150,4|0,0:0|3:0,0:0:0:0:
335,330,274363,2,0,L|348:385,2,50,0|0|2,0:0|3:0|1:2,0:0:0:0:
287,315,274824,2,0,P|230:320|183:316,1,100,0|0,3:0|3:0,0:0:0:0:
169,269,275286,2,0,L|175:209,1,50,0|0,1:0|0:0,0:0:0:0:
209,183,275593,2,0,L|215:123,2,50,0|0|0,3:0|3:0|1:0,0:0:0:0:
309,191,276209,6,0,P|362:176|399:131,1,100,4|2,0:0|0:0,0:0:0:0:
414,99,276670,1,2,0:0:0:0:
414,48,276824,2,0,L|422:-6,2,50,2|0|2,0:0|0:0|0:0,0:0:0:0:
363,53,277286,2,0,L|257:47,1,100,2|2,0:0|0:0,0:0:0:0:
243,93,277747,2,0,L|174:91,1,50,2|2,0:0|0:0,0:0:0:0:
143,86,278055,2,0,L|74:84,1,50,2|2,0:0|0:0,0:0:0:0:
49,84,278363,2,0,L|-20:82,1,50,2|2,0:0|0:0,0:0:0:0:
