osu file format v14

[General]
AudioFilename: audio.mp3
AudioLeadIn: 0
PreviewTime: 62057
Countdown: 0
SampleSet: Soft
StackLeniency: 0.7
Mode: 0
LetterboxInBreaks: 0
WidescreenStoryboard: 1

[Editor]
DistanceSpacing: 0.5
BeatDivisor: 4
GridSize: 4
TimelineZoom: 1.2

[Metadata]
Title:ChRoNiClESeVeN feat. Annabel
TitleUnicode:ChRøNiClESeVeN feat. Annabel
Artist:sasakure.UK
ArtistUnicode:sasakure.UK
Creator:Delis
Version:RLC's Insane
Source:セブンスドラゴンⅢ code:VFD
Tags:7th dragon III RLC VINXIS Chromoxx Arrival
BeatmapID:1362332
BeatmapSetID:630014

[Difficulty]
HPDrainRate:7
CircleSize:4
OverallDifficulty:8
ApproachRate:9
SliderMultiplier:1.4
SliderTickRate:2

[Events]
//Background and Video events
0,0,"rlcbg.jpg",0,0
//Break Periods
2,81949,90995
2,151487,160071
//Storyboard Layer 0 (Background)
//Storyboard Layer 1 (Fail)
//Storyboard Layer 2 (Pass)
//Storyboard Layer 3 (Foreground)
//Storyboard Sound Samples

[TimingPoints]
1021,357.142857142857,4,2,1,5,1,0
1378,468.75,4,2,1,5,1,0
1846,612.244897959184,4,2,1,5,1,0
2458,394.736842105263,4,2,1,5,1,0
2852,447.761194029851,4,2,1,5,1,0
3299,535.714285714286,4,2,1,5,1,0
3834,566.037735849057,4,2,1,5,1,0
4400,545.454545454546,4,2,1,5,1,0
4945,461.538461538462,4,2,1,5,1,0
5406,612.244897959184,4,2,1,5,1,0
6018,545.454545454546,4,2,1,5,1,0
6563,439.56043956044,4,2,1,5,1,0
7442,530.973451327434,4,2,1,5,1,0
7972,447.761194029851,4,2,1,5,1,0
8867,357.142857142857,4,2,1,40,1,0
11724,-100,4,2,1,5,0,0
12211,307.692307692308,4,2,1,50,1,0
12211,-111.111111111111,4,2,1,50,0,0
21595,-100,4,2,1,50,0,0
22057,-100,4,2,2,60,0,0
31903,-100,4,2,1,60,0,0
41749,-100,4,2,2,60,0,0
45518,-100,4,2,3,60,0,0
45826,-100,4,2,2,60,0,0
50441,-100,4,2,3,60,0,0
51595,-100,4,2,1,60,0,0
55903,-100,4,2,1,30,0,0
56057,-100,4,2,1,60,0,0
56211,-100,4,2,1,40,0,0
56364,-100,4,2,1,60,0,0
56826,-100,4,2,2,60,0,0
57518,-100,4,2,1,60,0,0
57749,-100,4,2,2,60,0,0
57980,-100,4,2,1,60,0,0
58134,-100,4,2,2,60,0,0
58287,-100,4,2,3,60,0,0
58826,-100,4,2,3,60,0,0
60211,-100,4,2,3,60,0,0
62057,307.692307692308,4,2,2,70,1,1
70826,-100,4,2,3,70,0,1
71749,-100,4,2,2,70,0,1
75749,-100,4,2,3,70,0,1
76441,-100,4,2,2,70,0,1
81749,-100,4,2,2,70,0,0
91595,307.692307692308,3,2,1,70,1,0
91595,-100,3,2,1,70,0,0
97133,-100,3,2,2,60,0,0
98979,-800,3,2,2,40,0,0
101133,-100,3,2,2,50,0,0
101441,307.692307692308,4,2,2,50,1,0
101441,-100,4,2,2,50,0,0
110210,-100,4,2,1,60,0,0
111287,-100,4,2,2,60,0,0
111979,-100,4,2,1,60,0,0
112133,-100,4,2,2,60,0,0
116056,-100,4,2,1,60,0,0
116210,-100,4,2,2,60,0,0
119748,-100,4,2,1,60,0,0
121133,-100,4,2,1,60,0,0
125441,-100,4,2,1,30,0,0
125594,-100,4,2,1,60,0,0
125748,-100,4,2,1,40,0,0
125902,-100,4,2,1,60,0,0
126056,-100,4,2,2,60,0,0
126748,-100,4,2,3,60,0,0
126902,-100,4,2,2,60,0,0
127825,-100,4,2,3,60,0,0
128210,-100,4,2,1,60,0,0
128517,-100,4,2,3,60,0,0
129748,-100,4,2,3,60,0,0
131595,307.692307692308,4,2,2,70,1,1
135902,-100,4,2,1,70,0,1
135979,-100,4,2,2,70,0,1
140364,-100,4,2,3,70,0,1
141441,-100,4,2,2,70,0,1
150210,-100,4,2,2,60,0,1
150364,-100,4,2,2,60,0,1
151287,-100,4,2,2,60,0,0
160825,-100,4,2,1,60,0,0
161441,-100,4,2,2,60,0,0
170979,307.692307692308,7,3,2,60,1,0
183902,307.692307692308,6,2,1,60,1,0
185748,307.692307692308,3,2,2,60,1,0
187594,307.692307692308,4,2,3,60,1,0
187670,-100,4,2,3,30,0,0
193747,-100,4,2,3,40,0,0
195055,-100,4,2,3,50,0,0
196209,-100,4,2,3,55,0,0
197440,-100,4,2,3,10,0,0
199901,-133.333333333333,4,2,1,50,0,0
204747,-117.647058823529,4,2,1,10,0,0
204824,-117.647058823529,4,2,1,50,0,0
209747,-100,4,2,2,60,0,0
213824,-100,4,2,1,60,0,0
213978,-100,4,2,2,60,0,0
214132,-100,4,2,1,60,0,0
214286,-100,4,2,2,60,0,0
218978,-100,4,2,3,70,0,0
219594,-100,4,2,3,70,0,1
219747,-100,4,2,2,80,0,1
229286,-100,4,2,2,70,0,1
229440,-100,4,2,2,80,0,1
233440,-100,4,2,3,80,0,1
234055,-100,4,2,2,80,0,1
239286,-100,4,2,2,80,0,0
239363,-100,4,2,3,80,0,0
250670,-100,4,2,2,80,0,0
251132,-100,4,2,3,80,0,0
253209,-100,4,2,2,80,0,0
253517,-100,4,2,3,80,0,0
255670,-100,4,2,2,80,0,0
255978,-100,4,2,3,80,0,0
256440,-100,4,2,2,80,0,0
258363,-100,4,2,3,70,0,0
261440,-100,4,2,3,60,0,0
278055,-100,4,2,3,60,0,0
278363,348.837209302326,4,2,3,60,1,0
278363,-100,4,2,3,60,0,0

[Colours]
Combo1 : 157,157,157
Combo2 : 153,196,165
Combo3 : 255,128,255
Combo4 : 124,224,222
Combo5 : 176,102,102
Combo6 : 188,183,141
Combo7 : 255,174,94
Combo8 : 198,140,176

[HitObjects]
256,192,8867,12,0,11724,0:0:0:0:
433,320,12211,5,2,0:0:0:0:
130,310,12518,2,0,P|182:316|264:270,1,125.999996154785,0|0,0:0|0:0,0:0:0:0:
181,231,12980,2,0,B|141:307|189:287|148:370,1,125.999996154785,0|2,0:0|0:0,0:0:0:0:
27,219,13595,1,0,0:0:0:0:
181,231,13903,2,0,P|190:199|193:162,1,62.9999980773926,2|0,0:0|0:0,0:0:0:0:
261,77,14211,2,0,P|282:122|370:162,1,125.999996154785,0|0,0:0|0:0,0:0:0:0:
416,118,14672,1,2,0:0:0:0:
123,244,14980,21,0,0:0:0:0:
96,321,15134,1,0,0:0:0:0:
176,306,15287,1,0,0:0:0:0:
176,306,15441,2,0,L|201:243,1,62.9999980773926,0|0,0:0|0:0,0:0:0:0:
244,168,15749,1,2,0:0:0:0:
416,199,16057,1,0,0:0:0:0:
257,258,16364,2,0,P|216:273|176:282,1,62.9999980773926,0|0,0:0|0:0,0:0:0:0:
290,277,16672,2,0,P|354:280|415:295,1,125.999996154785,2|0,0:0|0:0,0:0:0:0:
435,309,17057,1,0,0:0:0:0:
452,326,17134,1,2,0:0:0:0:
331,171,17441,21,0,0:0:0:0:
331,171,17749,1,0,0:0:0:0:
441,128,17903,1,0,0:0:0:0:
241,33,18211,2,0,P|241:87|193:148,1,125.999996154785,2|0,0:0|0:0,0:0:0:0:
122,170,18672,1,0,0:0:0:0:
200,143,18826,2,0,B|283:151|238:182|325:191,1,125.999996154785,2|0,0:0|0:0,0:0:0:0:
395,180,19287,1,0,0:0:0:0:
347,113,19441,1,0,0:0:0:0:
313,189,19595,22,0,P|310:241|350:312,1,125.999996154785,2|0,0:0|0:0,0:0:0:0:
401,247,20057,2,0,P|368:230|270:242,1,125.999996154785,0|0,0:0|0:0,0:0:0:0:
253,336,20518,1,0,0:0:0:0:
136,205,20826,2,0,L|161:281,2,62.9999980773926,2|0|0,0:0|0:0|0:0,0:0:0:0:
75,139,21287,2,0,L|220:160,1,125.999996154785,0|2,0:0|0:0,0:0:0:0:
199,157,21672,1,0,0:0:0:0:
199,157,21749,1,2,0:0:0:0:
199,157,21826,1,0,0:0:0:0:
199,157,21903,1,2,0:0:0:0:
199,157,21980,1,0,0:0:0:0:
199,157,22057,22,0,L|232:86,1,70,6|0,0:0|0:0,0:0:0:0:
301,52,22364,1,8,0:0:0:0:
368,102,22518,2,0,L|456:130,1,70,2|0,0:0|0:0,0:0:0:0:
304,234,22826,2,0,P|308:189|292:150,1,70,2|8,0:0|0:0,0:0:0:0:
223,72,23134,1,2,0:2:0:0:
39,247,23441,21,2,0:0:0:0:
57,329,23595,1,8,0:0:0:0:
106,161,23749,1,0,3:0:0:0:
106,161,23826,1,0,3:0:0:0:
106,161,23903,1,0,3:0:0:0:
130,276,24057,1,2,0:0:0:0:
206,129,24211,2,0,P|189:168|185:205,1,70,8|2,0:0|0:0,0:0:0:0:
245,366,24518,22,0,P|270:326|276:221,1,140,2|8,0:2|0:0,0:0:0:0:
185,194,24980,1,2,0:0:0:0:
296,142,25134,2,0,P|329:156|365:186,1,70,2|2,3:0|0:0,0:0:0:0:
365,260,25441,1,8,0:0:0:0:
279,235,25595,22,0,P|235:224|157:146,1,140,2|2,0:0|0:0,0:0:0:0:
175,78,26057,1,8,0:0:0:0:
63,164,26211,1,2,3:2:0:0:
65,177,26287,1,8,3:2:0:0:
69,190,26364,2,0,P|93:228|124:256,1,70,2|2,0:0|0:0,0:0:0:0:
270,157,26672,1,8,0:0:0:0:
270,157,26826,1,2,0:0:0:0:
353,203,26980,22,0,L|438:225,1,70,4|0,0:0|0:0,0:0:0:0:
247,66,27287,2,0,L|162:44,1,70,8|2,0:0|0:0,0:0:0:0:
327,116,27595,1,2,3:0:0:0:
353,203,27749,2,0,P|361:253|359:277,1,70,2|8,0:0|0:0,0:0:0:0:
442,107,28057,1,2,0:0:0:0:
94,230,28364,21,2,0:0:0:0:
94,230,28518,1,8,0:0:0:0:
29,167,28672,1,0,3:0:0:0:
29,167,28749,1,0,3:0:0:0:
29,167,28826,1,2,3:2:0:0:
80,316,28980,1,2,0:2:0:0:
171,182,29134,2,0,P|210:202|236:235,1,70,8|2,0:0|0:0,0:0:0:0:
406,367,29441,22,0,P|367:351|307:258,1,140,2|8,0:0|0:0,0:0:0:0:
349,190,29903,1,2,0:0:0:0:
221,246,30057,1,0,0:0:0:0:
256,143,30211,2,0,P|239:117|200:85,1,70,2|8,0:0|0:0,0:0:0:0:
35,172,30518,22,0,B|79:177|104:157|104:157|149:157|178:174,1,140,2|2,0:0|0:0,0:0:0:0:
221,246,30980,1,8,0:0:0:0:
311,204,31134,1,2,3:2:0:0:
292,183,31211,1,0,3:2:0:0:
286,156,31287,1,2,3:2:0:0:
289,129,31364,1,0,3:2:0:0:
299,103,31441,1,2,3:2:0:0:
387,92,31595,1,8,0:0:0:0:
481,87,31749,1,2,3:2:0:0:
481,87,31826,1,4,3:0:0:0:
481,87,31903,22,0,P|492:161|480:246,1,140,4|8,3:2|0:0,0:0:0:0:
489,363,32364,2,0,P|478:289|490:204,1,140,0|0,3:0|3:0,0:0:0:0:
484,224,32826,1,8,0:0:0:0:
412,171,32980,22,0,P|399:222|399:252,1,70,0|0,3:0|0:0,0:0:0:0:
278,97,33287,1,0,3:0:0:0:
278,97,33441,1,8,0:0:0:0:
392,82,33595,2,0,L|443:77,2,35,8|0|0,0:0|0:0|3:0,0:0:0:0:
332,192,33903,1,2,3:0:0:0:
247,157,34057,1,8,0:0:0:0:
164,124,34211,1,2,3:0:0:0:
111,228,34364,22,0,P|118:264|119:381,1,140,2|8,3:2|0:0,0:0:0:0:
97,203,34826,2,0,P|95:133|106:63,1,140,0|0,3:0|3:0,0:0:0:0:
129,53,35287,1,8,0:0:0:0:
12,144,35441,22,0,P|12:194|14:222,1,70,0|0,3:0|0:0,0:0:0:0:
202,256,35749,2,0,P|202:206|200:178,1,70,0|10,3:0|0:0,0:0:0:0:
259,94,36057,1,2,3:0:0:0:
259,94,36134,1,0,0:0:0:0:
259,94,36211,1,0,3:0:0:0:
342,129,36364,1,2,3:0:0:0:
412,71,36518,1,8,0:0:0:0:
329,32,36672,1,2,3:2:0:0:
463,3,36826,22,0,P|459:50|475:169,1,140,6|8,0:0|0:0,0:0:0:0:
438,222,37287,1,0,3:0:0:0:
438,222,37441,2,0,P|443:277|441:310,2,70,0|0|8,0:0|3:0|0:0,0:0:0:0:
368,108,37903,22,0,P|318:82|218:69,1,140,0|0,3:0|3:0,0:0:0:0:
147,88,38364,1,8,0:0:0:0:
68,261,38518,1,0,0:0:0:0:
68,261,38595,1,0,0:0:0:0:
68,261,38672,1,0,3:0:0:0:
153,230,38826,1,2,0:0:0:0:
240,205,38980,1,10,0:0:0:0:
240,205,39134,1,0,3:0:0:0:
277,326,39287,22,0,P|321:320|363:305,1,70,0|0,3:0|0:0,0:0:0:0:
315,231,39595,1,8,0:0:0:0:
345,313,39749,2,0,B|422:300|405:345|493:331,1,140,0|0,3:0|3:0,0:0:0:0:
343,144,40211,2,0,P|298:149|257:165,1,70,8|0,0:0|3:0,0:0:0:0:
187,79,40518,22,0,P|231:73|273:58,1,70,0|0,0:0|3:0,0:0:0:0:
339,25,40826,1,8,0:0:0:0:
439,150,40980,1,0,3:0:0:0:
439,150,41057,1,8,0:0:0:0:
439,150,41134,2,0,L|431:187,3,35,0|0|0|0,3:0|0:0|3:0|0:0,0:0:0:0:
381,251,41441,2,0,L|389:214,3,35,0|0|0|0,0:0|0:0|3:0|0:0,0:0:0:0:
454,131,41749,21,6,0:2:0:0:
195,197,42057,2,0,P|205:238|204:269,1,70,8|2,0:0|0:0,0:0:0:0:
57,160,42364,2,0,P|47:119|48:88,1,70,0|2,0:0|0:0,0:0:0:0:
135,120,42672,1,8,0:0:0:0:
188,51,42826,2,0,B|256:38|256:38|280:68|323:75,1,140,2|2,0:0|0:0,0:0:0:0:
403,50,43287,1,8,0:0:0:0:
428,209,43441,22,0,L|466:229,2,35,2|0|2,3:2|3:0|3:0,0:0:0:0:
347,194,43749,1,2,0:0:0:0:
456,131,43903,1,8,0:0:0:0:
372,275,44057,1,0,0:0:0:0:
308,113,44211,1,4,0:0:0:0:
63,232,44518,22,0,B|112:202|166:218|166:218|202:248,1,140,8|0,0:0|0:0,0:0:0:0:
239,316,44980,1,2,0:0:0:0:
227,144,45134,1,8,0:0:0:0:
290,230,45287,22,0,L|334:292,1,70
302,79,45595,2,0,L|258:17,1,70,2|10,3:2|0:0,0:0:0:0:
382,206,45903,1,2,3:2:0:0:
397,213,45980,1,0,3:0:0:0:
412,220,46057,1,0,3:0:0:0:
290,230,46211,2,0,P|260:254|224:264,1,70,2|8,0:0|0:0,0:0:0:0:
166,194,46518,1,2,1:0:0:0:
49,354,46672,1,4,0:0:0:0:
52,51,46980,22,0,P|75:90|82:117,1,70,8|0,0:0|0:0,0:0:0:0:
45,197,47287,1,0,0:0:0:0:
108,262,47441,2,0,P|151:263|181:254,1,70,2|8,0:0|0:0,0:0:0:0:
212,93,47749,2,0,P|161:82|74:120,1,140,2|2,0:0|0:0,0:0:0:0:
45,197,48211,1,8,0:0:0:0:
212,93,48364,22,0,L|285:138,1,70,0|2,3:0|3:0,0:0:0:0:
281,232,48672,2,0,L|208:187,1,70,2|8,0:0|0:0,0:0:0:0:
139,203,48980,1,2,0:0:0:0:
271,129,49134,22,0,B|342:110|342:110|363:147|393:164,1,140,4|8,0:0|0:0,0:0:0:0:
429,320,49595,2,0,B|358:339|358:339|337:302|307:285,1,140,2|2,0:0|0:0,0:0:0:0:
222,180,50057,2,0,L|141:207,1,70,8|2,0:0|0:0,0:0:0:0:
314,289,50364,22,0,P|326:245|323:208,1,70,0|2,0:0|3:2,0:0:0:0:
296,126,50672,1,10,0:0:0:0:
56,206,50826,21,2,0:0:0:0:
56,206,50903,1,0,0:0:0:0:
56,206,50980,2,0,L|97:209,1,35,2|0,0:0|0:0,0:0:0:0:
195,250,51134,2,0,L|156:262,1,35,2|0,0:0|0:0,0:0:0:0:
99,330,51287,1,10,0:0:0:0:
99,330,51441,1,4,0:3:0:0:
148,152,51595,22,0,L|124:73,2,70,4|0|0,0:0|0:0|0:0,0:0:0:0:
162,261,52057,1,2,0:0:0:0:
54,186,52211,2,0,B|140:162|140:162|199:180,1,140,0|4,1:0|0:0,0:0:0:0:
306,339,52672,21,0,3:0:0:0:
306,339,52826,2,0,P|325:300|311:192,1,140
273,126,53287,2,0,P|274:78|291:37,1,70,0|0,3:0|1:0,0:0:0:0:
216,196,53595,2,0,P|189:165|169:115,1,70,0|0,3:0|0:0,0:0:0:0:
165,57,53903,1,0,3:0:0:0:
45,198,54057,21,4,0:0:0:0:
45,198,54211,2,0,B|99:195|99:195|127:206|127:206|200:201,1,140,0|2,0:0|0:0,0:0:0:0:
250,141,54672,1,0,1:0:0:0:
395,201,54826,2,0,L|318:192,1,70,0|4,0:0|0:0,0:0:0:0:
182,202,55134,21,0,3:0:0:0:
271,245,55287,2,0,P|286:284|289:325,1,70,0|0,0:0|3:0,0:0:0:0:
345,156,55595,1,0,0:0:0:0:
345,156,55749,2,0,P|361:121|350:15,2,140,0|2|2,3:0|3:2|3:2,0:0:0:0:
355,362,56518,22,0,L|380:279,1,70,4|0,0:0|0:0,0:0:0:0:
403,207,56826,1,8,0:0:0:0:
185,137,56980,21,2,3:2:0:0:
185,137,57057,1,0,3:0:0:0:
185,137,57134,1,0,3:0:0:0:
221,229,57287,1,2,0:0:0:0:
276,150,57441,1,4,0:0:0:0:
185,49,57595,2,0,P|148:55|115:78,1,70,2|8,0:0|0:0,0:0:0:0:
60,267,57903,1,4,3:2:0:0:
60,267,58057,2,0,P|97:261|130:238,1,70,2|8,0:0|0:0,0:0:0:0:
66,168,58364,21,10,0:0:0:0:
221,229,58518,2,0,L|301:261,1,70,10|2,0:0|0:0,0:0:0:0:
400,338,58826,22,0,P|358:327|256:358,1,140,4|0,0:0|0:0,0:0:0:0:
278,251,59287,2,0,P|285:200|257:101,1,140,4|8,0:1|0:0,0:0:0:0:
400,338,59903,2,0,P|404:304|414:259,1,70,4|8,3:1|0:0,0:0:0:0:
394,133,60211,21,0,0:0:0:0:
394,133,60364,1,0,3:0:0:0:
337,204,60518,2,0,P|300:215|265:216,1,70,4|8,0:1|0:0,0:0:0:0:
87,106,60826,2,0,P|131:97|203:104,1,105,8|8,0:0|0:0,0:0:0:0:
217,109,61134,1,4,0:1:0:0:
314,126,61287,1,0,3:0:0:0:
268,216,62057,38,0,P|315:206|410:259,1,140,4|8,0:0|0:0,0:0:0:0:
282,99,62518,2,0,P|235:89|140:142,1,140,2|2,0:0|0:0,0:0:0:0:
268,216,62980,1,8,0:0:0:0:
367,103,63133,1,2,0:0:0:0:
22,56,63441,53,2,0:0:0:0:
157,109,63595,1,8,0:0:0:0:
78,140,63749,1,0,3:0:0:0:
78,140,63826,1,8,3:2:0:0:
78,140,63903,1,2,3:2:0:0:
237,82,64057,1,2,0:0:0:0:
120,219,64210,2,0,P|72:234|42:234,1,70,8|2,0:0|0:0,0:0:0:0:
172,303,64518,54,0,P|214:294|320:331,1,140,4|8,0:0|0:0,0:0:0:0:
373,377,64980,1,2,0:0:0:0:
497,107,65287,1,2,0:0:0:0:
404,114,65441,2,0,L|379:188,1,70,8|0,0:0|0:0,0:0:0:0:
397,268,65749,1,0,0:0:0:0:
246,300,65903,1,2,0:0:0:0:
246,300,66057,1,8,0:0:0:0:
243,196,66210,53,2,3:2:0:0:
252,181,66287,1,8,3:2:0:0:
265,169,66364,2,0,P|318:169|345:178,1,70,0|2,3:0|0:0,0:0:0:0:
222,73,66672,2,0,P|169:73|142:64,1,70,8|8,0:0|0:0,0:0:0:0:
333,173,66980,54,0,B|363:233|325:243|366:311,1,140,4|8,0:0|0:0,0:0:0:0:
153,68,67441,2,0,P|109:78|78:97,1,70,6|0,0:0|0:0,0:0:0:0:
17,149,67749,1,2,0:0:0:0:
2,59,67903,1,8,0:0:0:0:
87,89,68057,54,0,L|143:150,1,70,4|0,0:0|0:0,0:0:0:0:
92,241,68364,2,0,P|54:246|5:230,1,70,6|8,0:0|0:0,0:0:0:0:
221,87,68672,1,6,3:2:0:0:
221,87,68749,1,8,3:2:0:0:
221,87,68826,2,0,B|280:73|280:73|365:100,1,140,0|12,1:0|0:0,0:0:0:0:
473,303,69441,53,4,0:0:0:0:
242,257,69749,1,8,0:0:0:0:
343,215,69903,1,6,0:0:0:0:
76,196,70210,53,2,0:0:0:0:
206,346,70364,1,8,0:0:0:0:
255,145,70518,2,0,B|220:112|198:101|198:101|147:108|123:122,1,140,6|2,0:0|3:2,0:0:0:0:
76,196,70980,1,10,0:0:0:0:
272,238,71133,53,2,3:2:0:0:
272,238,71210,1,0,0:0:0:0:
272,238,71287,1,2,0:0:0:0:
298,152,71441,1,2,3:2:0:0:
326,67,71595,1,10,0:0:0:0:
150,28,71749,1,2,3:2:0:0:
150,28,71826,1,0,3:0:0:0:
150,28,71903,54,0,P|170:63|182:109,1,70,4|0,3:2|0:0,0:0:0:0:
166,193,72210,1,8,0:0:0:0:
386,241,72364,2,0,B|371:179|394:142|394:142|444:122,1,140,2|2,0:0|0:0,0:0:0:0:
303,13,72826,54,0,P|302:86|248:147,1,140,8|0,0:0|0:0,0:0:0:0:
172,130,73287,2,0,L|96:102,1,70,2|8,0:0|0:0,0:0:0:0:
41,300,73595,1,2,3:2:0:0:
41,300,73672,1,8,3:2:0:0:
41,300,73749,1,0,3:0:0:0:
116,262,73903,1,2,0:0:0:0:
190,222,74057,2,0,L|269:185,1,70,8|2,0:0|0:0,0:0:0:0:
379,332,74364,54,0,B|326:342|284:321|284:321|252:276,1,140,4|8,0:0|0:0,0:0:0:0:
253,192,74826,1,2,0:0:0:0:
81,58,75133,1,2,0:0:0:0:
160,102,75287,1,8,0:0:0:0:
160,102,75441,2,0,P|206:86|230:69,1,70,2|0,0:0|0:0,0:0:0:0:
386,41,75749,1,2,3:2:0:0:
308,204,75903,1,10,0:2:0:0:
345,122,76057,53,2,3:2:0:0:
338,109,76133,1,8,0:0:0:0:
331,96,76210,2,0,P|305:62|277:44,1,70,2|2,0:0|3:2,0:0:0:0:
359,137,76518,2,0,P|385:171|413:189,1,70,8|2,0:0|0:2,0:0:0:0:
282,46,76826,54,0,B|196:55|237:74|140:81,1,140,4|8,0:0|0:0,0:0:0:0:
407,186,77287,2,0,P|425:222|431:271,1,70,6|0,0:0|0:0,0:0:0:0:
372,107,77595,1,2,0:0:0:0:
455,111,77749,1,8,0:0:0:0:
407,186,77903,54,0,L|325:208,1,70,6|0,0:0|0:0,0:0:0:0:
212,29,78210,2,0,L|294:51,1,70,6|8,0:0|0:0,0:0:0:0:
199,213,78518,1,2,3:2:0:0:
199,213,78595,1,8,3:2:0:0:
199,213,78672,2,0,B|172:266|172:266|194:365,1,140,0|12,3:0|0:0,0:0:0:0:
48,123,79287,53,4,0:0:0:0:
201,20,79595,1,8,0:0:0:0:
126,186,79903,53,0,0:0:0:0:
94,36,80057,1,2,0:0:0:0:
48,123,80210,1,8,0:0:0:0:
209,151,80364,2,0,P|220:187|223:235,1,70,6|0,0:0|0:0,0:0:0:0:
130,106,80672,53,12,0:0:0:0:
223,219,80826,1,8,0:0:0:0:
322,81,80980,53,2,0:0:0:0:
322,81,81057,1,2,0:0:0:0:
322,81,81133,2,0,L|311:28,1,35,8|0,0:0|0:0,0:0:0:0:
380,137,81287,2,0,L|373:183,1,35,2|0,0:0|0:0,0:0:0:0:
435,78,81441,2,0,L|420:-6,1,70,12|0,0:0|3:0,0:0:0:0:
480,255,81749,85,4,3:2:0:0:
77,82,91595,70,0,B|129:89|129:89|157:117|157:117|222:126,1,140,6|0,0:0|0:0,0:0:0:0:
273,68,92056,1,2,0:0:0:0:
204,123,92210,2,0,P|191:161|190:200,1,70,0|0,1:0|0:0,0:0:0:0:
316,259,92518,2,0,B|352:235|352:235|375:191|346:117,1,140,2|0,0:0|0:0,0:0:0:0:
354,140,92979,1,2,0:0:0:0:
444,208,93133,2,0,P|437:253|423:285,1,70,0|0,1:0|0:0,0:0:0:0:
358,342,93441,21,2,0:0:0:0:
358,342,93595,1,0,0:0:0:0:
87,190,93902,1,2,0:2:0:0:
169,160,94056,2,0,P|209:176|235:211,1,70,0|0,1:0|0:0,0:0:0:0:
155,245,94364,2,0,L|305:264,1,140,2|0,0:0|0:0,0:0:0:0:
359,200,94825,1,8,3:0:0:0:
378,51,94979,1,4,3:0:0:0:
378,51,95133,1,8,3:0:0:0:
272,160,95287,22,0,P|233:144|173:42,1,140,4|0,0:0|0:0,0:0:0:0:
99,118,95748,1,0,3:0:0:0:
99,118,95825,1,0,3:0:0:0:
99,118,95902,2,0,L|116:190,1,70,0|2,3:0|3:2,0:0:0:0:
97,276,96210,1,2,0:0:0:0:
167,334,96364,1,0,0:0:0:0:
244,286,96518,2,0,P|253:248|243:207,1,70,0|0,0:0|3:0,0:0:0:0:
242,201,96748,1,0,3:0:0:0:
235,184,96825,2,0,L|315:218,1,70,0|0,3:0|3:0,0:0:0:0:
406,294,97133,22,0,B|426:249|426:249|412:150,1,140,4|0,1:2|0:2,0:0:0:0:
446,359,97595,2,0,B|417:319|417:319|324:281,1,140,4|0,1:2|0:2,0:0:0:0:
423,87,98056,2,0,B|403:132|403:132|417:231,1,140,4|0,1:2|0:0,0:0:0:0:
321,358,98518,2,0,B|341:313|341:313|327:214,1,140,4|0,1:2|0:0,0:0:0:0:
491,223,98979,6,2,L|367:223,1,122.5,4|8,1:1|1:2,0:1:0:0:
369,223,101441,6,0,P|396:182|425:167,1,70,4|0,0:0|0:0,0:0:0:0:
448,252,101748,2,0,P|432:301|352:355,1,140,2|2,0:0|0:0,0:0:0:0:
257,239,102210,2,0,P|214:243|186:257,1,70,0|2,0:0|0:0,0:0:0:0:
124,329,102517,1,0,0:0:0:0:
124,329,102594,1,0,0:0:0:0:
124,329,102671,22,0,L|39:318,1,70,2|0,0:0|0:0,0:0:0:0:
14,242,102979,1,2,0:0:0:0:
185,157,103133,1,0,0:0:0:0:
185,157,103210,1,0,0:0:0:0:
185,157,103287,2,0,L|347:166,1,140,2|2,0:0|0:0,0:0:0:0:
405,188,103748,1,0,0:0:0:0:
431,56,103902,22,0,P|395:82|382:108,1,70,2|0,0:0|0:0,0:0:0:0:
324,163,104210,2,0,B|326:220|279:254|279:254|233:242,1,140,2|2,0:0|0:0,0:0:0:0:
137,167,104671,1,0,0:0:0:0:
109,263,104825,2,0,P|110:301|131:338,1,70,2|0,0:0|0:0,0:0:0:0:
136,341,105056,1,0,0:0:0:0:
153,344,105133,21,2,0:0:0:0:
246,245,105287,2,0,P|245:207|224:170,1,70,0|2,0:0|0:0,0:0:0:0:
164,101,105594,1,0,0:0:0:0:
164,101,105748,2,0,P|99:103|11:101,1,140,2|2,0:0|0:0,0:0:0:0:
287,136,106210,21,0,0:0:0:0:
287,136,106287,1,0,0:0:0:0:
287,136,106364,1,4,0:0:0:0:
259,214,106517,1,0,0:0:0:0:
233,293,106671,2,0,L|208:369,1,70,2|0,0:0|0:0,0:0:0:0:
97,243,106979,22,0,L|182:227,1,70,2|0,0:0|0:0,0:0:0:0:
221,151,107287,1,2,0:0:0:0:
321,148,107441,1,0,0:0:0:0:
321,148,107517,1,0,0:0:0:0:
321,148,107594,22,0,P|347:177|362:225,1,70,2|0,0:0|0:0,0:0:0:0:
451,191,107902,2,0,P|446:237|429:274,1,70,2|0,0:0|0:0,0:0:0:0:
425,276,108133,1,0,0:0:0:0:
407,287,108210,1,2,0:0:0:0:
286,274,108364,1,0,0:0:0:0:
358,205,108517,2,0,P|362:153|370:63,1,140,2|2,0:0|0:0,0:0:0:0:
286,274,109133,21,2,0:0:0:0:
358,205,109287,2,0,P|393:222|418:252,1,70,0|2,0:0|0:0,0:0:0:0:
391,334,109594,1,0,0:0:0:0:
286,274,109748,2,0,P|233:273|146:203,1,140,2|2,0:0|0:0,0:0:0:0:
12,171,110210,22,0,P|-1:222|0:250,1,70,2|2,0:2|3:2,0:0:0:0:
161,227,110517,2,0,P|174:176|173:148,1,70,2|2,0:2|3:2,0:0:0:0:
96,126,110825,1,2,0:2:0:0:
96,126,110902,1,0,0:0:0:0:
96,126,110979,1,2,3:2:0:0:
82,214,111133,1,2,0:2:0:0:
25,61,111287,21,6,0:0:0:0:
25,61,111441,1,0,0:0:0:0:
113,44,111594,2,0,P|166:44|226:69,1,105,2|0,0:0|0:0,0:0:0:0:
237,77,111902,1,2,1:0:0:0:
321,43,112056,1,2,0:0:0:0:
444,167,112364,22,0,P|408:150|285:144,1,140
264,218,112825,1,2,0:0:0:0:
343,261,112979,1,0,0:0:0:0:
343,261,113056,1,0,0:0:0:0:
343,261,113133,1,2,1:0:0:0:
309,139,113287,2,0,P|290:108|257:77,2,70,0|2|0,0:0|0:0|0:0,0:0:0:0:
278,323,113748,21,2,0:0:0:0:
278,323,113902,1,0,0:0:0:0:
195,362,114056,2,0,P|136:364|78:348,1,105,2|0,0:0|0:0,0:0:0:0:
64,344,114364,1,2,1:0:0:0:
0,211,114517,2,0,P|55:208|155:254,1,140,0|0,0:0|3:0,0:0:0:0:
133,236,114902,1,0,3:0:0:0:
133,236,114979,1,2,3:2:0:0:
161,76,115133,22,0,L|194:146,1,70,0|2,0:0|0:0,0:0:0:0:
227,215,115441,1,0,0:0:0:0:
280,150,115594,2,0,L|298:68,1,70,2|2,1:0|3:0,0:0:0:0:
369,130,115902,1,2,0:0:0:0:
346,215,116056,1,2,0:0:0:0:
487,107,116210,21,6,0:0:0:0:
487,107,116364,1,0,0:0:0:0:
442,177,116517,2,0,P|434:222|443:304,1,105,2|0,0:0|0:0,0:0:0:0:
445,308,116825,1,2,1:0:0:0:
364,350,116979,1,0,0:0:0:0:
442,177,117287,22,0,P|441:135|388:44,1,140
306,69,117748,1,2,0:0:0:0:
342,157,117902,1,0,3:0:0:0:
342,157,117979,1,0,3:0:0:0:
342,157,118056,1,2,1:0:0:0:
233,118,118210,2,0,L|202:56,1,70,0|2,0:0|0:0,0:0:0:0:
202,203,118517,1,0,0:0:0:0:
135,141,118671,22,0,P|108:122|0:130,1,140,2|2,0:0|0:0,0:0:0:0:
65,203,119133,1,0,0:0:0:0:
65,203,119287,2,0,P|72:157|39:55,1,140,2|2,1:0|0:0,0:0:0:0:
213,77,119748,1,2,0:0:0:0:
213,77,119825,1,0,0:0:0:0:
213,77,119902,22,0,L|195:145,1,70,0|2,3:0|0:2,0:0:0:0:
167,232,120210,1,2,3:2:0:0:
167,232,120364,1,2,0:2:0:0:
63,281,120517,22,0,L|87:337,1,35,2|0,3:2|0:0,0:0:0:0:
132,365,120671,2,0,L|111:315,1,35,2|0,0:2|0:0,0:0:0:0:
167,232,120825,2,0,L|191:288,1,35,2|0,3:2|0:0,0:0:0:0:
236,316,120979,2,0,L|215:266,1,35,2|0,0:2|0:0,0:0:0:0:
221,154,121133,21,4,0:0:0:0:
221,154,121287,1,0,0:0:0:0:
382,318,121594,1,2,0:0:0:0:
461,272,121748,1,0,1:0:0:0:
382,318,121902,1,0,0:0:0:0:
461,272,122056,22,0,P|466:232|436:128,1,140,4|0,0:2|0:0,0:0:0:0:
356,117,122517,2,0,P|379:79|405:56,1,70,0|0,3:0|0:0,0:0:0:0:
287,183,122825,2,0,P|297:218|297:270,1,70,0|0,3:0|0:0,0:0:0:0:
269,88,123133,1,2,0:2:0:0:
269,88,123210,1,0,0:0:0:0:
269,88,123287,1,2,0:2:0:0:
191,39,123441,1,2,0:2:0:0:
131,107,123594,21,4,0:2:0:0:
131,107,123748,1,2,0:2:0:0:
376,137,124056,2,0,L|354:215,1,70,2|0,0:0|1:0,0:0:0:0:
337,286,124364,1,0,0:0:0:0:
376,137,124517,22,0,P|411:137|445:146,1,70,4|0,0:2|3:0,0:0:0:0:
509,256,124825,2,0,P|474:255|440:247,1,70,0|0,0:0|3:0,0:0:0:0:
274,190,125133,1,0,0:0:0:0:
274,190,125287,2,0,P|227:181|123:199,2,140,0|2|2,3:0|3:2|3:2,0:0:0:0:
419,143,126056,21,4,0:0:0:0:
337,124,126210,1,0,0:0:0:0:
337,124,126364,1,8,0:0:0:0:
254,112,126517,1,2,3:2:0:0:
254,112,126594,1,0,3:2:0:0:
254,112,126671,1,0,3:0:0:0:
292,35,126825,21,10,0:0:0:0:
323,209,126979,1,4,0:0:0:0:
396,70,127133,2,0,P|402:30|421:-4,1,70,0|8,0:0|0:0,0:0:0:0:
397,252,127441,2,0,P|368:282|339:294,1,70,4|0,0:0|0:0,0:0:0:0:
161,302,127748,21,8,0:0:0:0:
161,302,127825,1,0,0:0:0:0:
161,302,127902,1,10,0:0:0:0:
156,214,128056,2,0,P|189:183|294:160,1,140,10|4,0:0|0:0,0:0:0:0:
342,219,128517,22,0,P|309:240|274:242,1,70
156,214,128825,2,0,B|124:186|65:182|65:182|29:219,1,140,4|8,0:1|0:0,0:0:0:0:
220,133,129441,1,4,3:1:0:0:
220,133,129594,1,10,0:0:0:0:
300,168,129748,22,0,P|336:153|375:149,1,70,0|8,0:0|0:0,0:0:0:0:
476,213,130056,2,0,P|441:230|402:234,1,70,4|8,0:1|0:0,0:0:0:0:
286,157,130364,2,0,P|343:136|419:141,1,105,8|8,0:0|0:0,0:0:0:0:
414,140,130671,1,8,0:0:0:0:
410,234,130825,1,8,0:0:0:0:
410,234,131595,6,0,B|451:195|447:140|447:140|424:92,1,140,4|8,0:0|0:0,0:0:0:0:
222,147,132056,2,0,B|257:147|290:128|290:128|328:137|362:165,1,140,2|2,0:0|0:0,0:0:0:0:
410,234,132518,1,8,0:0:0:0:
431,108,132671,1,2,0:0:0:0:
213,291,132979,53,2,0:0:0:0:
133,246,133133,1,8,0:0:0:0:
134,337,133287,1,0,3:0:0:0:
134,337,133364,1,8,3:2:0:0:
134,337,133441,1,2,3:2:0:0:
256,201,133595,1,2,0:0:0:0:
256,201,133748,2,0,P|301:224|320:246,1,70,8|2,0:0|0:0,0:0:0:0:
133,246,134056,54,0,P|89:242|13:169,1,140,4|8,0:0|0:0,0:0:0:0:
35,91,134518,1,2,0:0:0:0:
279,133,134825,1,2,0:0:0:0:
205,183,134979,2,0,P|176:167|133:158,1,70,8|0,0:0|0:0,0:0:0:0:
231,274,135287,53,0,0:0:0:0:
386,185,135441,1,2,0:0:0:0:
386,185,135595,1,8,0:0:0:0:
298,218,135748,1,2,3:2:0:0:
293,201,135825,1,8,3:2:0:0:
293,183,135902,2,0,P|302:146|321:113,1,70,2|2,3:2|0:0,0:0:0:0:
439,198,136210,2,0,P|430:235|411:268,1,70,8|2,0:0|0:0,0:0:0:0:
305,100,136518,54,0,P|356:82|457:94,1,140,4|8,0:0|0:0,0:0:0:0:
424,284,136979,2,0,P|381:270|351:248,1,70,6|0,0:0|0:0,0:0:0:0:
499,224,137287,1,2,0:0:0:0:
469,352,137441,1,8,0:0:0:0:
360,256,137595,54,0,P|310:245|213:271,1,140,6|6,0:0|0:0,0:0:0:0:
157,326,138056,1,8,0:0:0:0:
68,238,138210,1,0,3:0:0:0:
68,238,138287,1,8,3:2:0:0:
68,238,138364,2,0,B|76:327|76:327|56:399,1,140,6|12,3:2|0:0,0:0:0:0:
259,245,138979,53,4,0:0:0:0:
127,80,139287,1,8,0:0:0:0:
151,180,139441,1,6,0:0:0:0:
413,62,139748,53,2,0:0:0:0:
333,185,139902,1,8,0:0:0:0:
205,94,140056,2,0,P|243:65|358:41,1,140,6|2,0:0|3:2,0:0:0:0:
413,62,140518,1,10,0:0:0:0:
464,209,140671,53,2,3:2:0:0:
464,209,140748,1,0,3:0:0:0:
464,209,140825,1,2,3:2:0:0:
371,189,140979,1,2,0:0:0:0:
275,169,141133,1,10,0:0:0:0:
181,346,141287,1,2,3:2:0:0:
181,346,141364,1,0,3:1:0:0:
181,346,141441,54,0,P|216:332|241:307,1,70,4|0,0:0|0:0,0:0:0:0:
291,235,141748,1,8,0:0:0:0:
164,256,141902,2,0,P|120:268|9:253,1,140,2|2,0:0|0:0,0:0:0:0:
153,166,142364,2,0,P|205:177|254:255,1,140,8|0,0:0|0:0,0:0:0:0:
466,108,142825,54,0,P|432:90|390:82,1,70,2|8,0:0|0:0,0:0:0:0:
309,86,143133,1,0,3:0:0:0:
309,86,143210,1,8,3:2:0:0:
309,86,143287,1,2,3:2:0:0:
356,155,143441,1,2,0:0:0:0:
406,222,143595,2,0,L|460:296,1,70,8|2,0:0|0:0,0:0:0:0:
282,303,143902,54,0,P|319:268|330:232,1,70,4|0,0:0|0:0,0:0:0:0:
326,166,144210,1,8,0:0:0:0:
275,99,144364,1,0,3:0:0:0:
326,251,144518,54,0,P|370:243|417:234,1,70,2|2,3:2|0:0,0:0:0:0:
356,88,144825,1,8,0:0:0:0:
356,88,144979,2,0,P|312:96|210:110,1,140,2|2,0:0|0:0,0:0:0:0:
171,28,145441,53,8,0:2:0:0:
149,172,145595,1,0,3:2:0:0:
149,172,145671,1,8,3:2:0:0:
149,172,145748,1,2,3:2:0:0:
217,109,145902,1,2,0:0:0:0:
213,236,146056,2,0,P|204:284|193:306,1,70,8|4,0:0|0:3,0:0:0:0:
222,91,146364,54,0,P|268:63|377:69,1,140,4|8,0:0|0:0,0:0:0:0:
213,236,146825,2,0,P|176:254|126:256,1,70,6|0,0:0|0:0,0:0:0:0:
64,241,147133,1,2,0:0:0:0:
17,171,147287,1,8,0:0:0:0:
147,257,147441,54,0,P|134:224|128:176,1,70,6|0,0:0|0:0,0:0:0:0:
202,52,147748,2,0,P|203:87|193:134,1,70,6|8,0:0|0:0,0:0:0:0:
261,341,148056,1,0,3:0:0:0:
261,341,148133,1,8,3:2:0:0:
261,341,148210,2,0,B|244:303|239:273|239:273|245:241|271:182,1,140,6|12,3:2|0:0,0:0:0:0:
497,171,148825,53,6,0:0:0:0:
338,62,149133,1,8,0:0:0:0:
418,229,149441,53,0,0:0:0:0:
462,79,149595,1,2,0:0:0:0:
338,173,149748,1,12,0:0:0:0:
497,171,149902,2,0,L|511:250,1,70,2|0,0:0|0:0,0:0:0:0:
330,270,150210,53,12,0:0:0:0:
419,143,150364,1,8,0:0:0:0:
252,157,150518,53,2,3:2:0:0:
252,157,150595,1,8,3:0:0:0:
252,157,150671,2,0,L|273:110,1,35,0|0,3:0|0:0,0:0:0:0:
175,112,150825,2,0,L|167:62,1,35,8|0,0:3|0:0,0:0:0:0:
84,117,150979,2,0,L|42:40,1,70,12|0,0:0|3:0,0:0:0:0:
147,223,151287,21,4,3:2:0:0:
275,169,160671,70,0,L|229:162,5,35,0|0|2|2|2|2,0:0|0:0|0:0|0:0|0:0|0:0,0:0:0:0:
222,160,161133,22,0,P|225:113|273:17,1,140,6|8,0:0|0:0,0:0:0:0:
343,83,161595,2,0,P|383:100|493:106,1,140,2|2,0:0|0:0,0:0:0:0:
444,30,162056,1,8,0:0:0:0:
306,175,162210,22,0,P|278:154|258:125,1,70,2|0,0:0|0:0,0:0:0:0:
365,254,162518,2,0,P|400:283|418:319,1,70,2|8,0:0|0:0,0:0:0:0:
232,128,162825,1,2,0:0:0:0:
232,128,162902,1,0,0:0:0:0:
232,128,162979,2,0,P|261:102|299:88,1,70,0|2,0:0|0:0,0:0:0:0:
383,120,163287,1,8,0:0:0:0:
383,120,163441,1,0,3:0:0:0:
247,226,163595,22,0,P|188:242|95:218,1,140,4|8,3:2|0:0,0:0:0:0:
32,174,164056,1,2,0:0:0:0:
83,325,164364,21,2,0:0:0:0:
83,325,164518,1,8,0:0:0:0:
111,227,164671,2,0,P|122:186|115:140,1,70,2|0,0:0|0:0,0:0:0:0:
220,296,164979,1,2,0:0:0:0:
111,227,165133,1,8,0:0:0:0:
206,145,165287,1,2,0:0:0:0:
206,145,165364,1,0,0:0:0:0:
206,145,165441,2,0,P|199:106|205:59,1,70,0|2,0:0|0:0,0:0:0:0:
282,32,165748,21,8,0:0:0:0:
298,36,165825,1,0,0:0:0:0:
314,40,165902,1,8,0:0:0:0:
330,44,165979,1,0,0:0:0:0:
346,48,166056,22,0,L|398:41,3,35,4|0|2|0,0:0|0:0|0:0|0:0,0:0:0:0:
399,56,166364,2,0,L|444:47,3,35,8|0|2|0,0:0|0:0|0:0|0:0,0:0:0:0:
444,62,166671,1,0,0:0:0:0:
460,66,166748,1,0,0:0:0:0:
475,74,166825,1,2,0:0:0:0:
484,88,166902,1,0,0:0:0:0:
490,104,166979,1,8,0:0:0:0:
491,121,167056,1,0,0:0:0:0:
489,138,167133,1,2,0:0:0:0:
480,153,167210,1,0,0:0:0:0:
466,164,167287,22,0,L|450:217,3,35,0|0|2|0,0:0|0:0|0:0|0:0,0:0:0:0:
440,200,167595,2,0,L|424:253,3,35,8|0|2|8,0:0|0:0|0:0|0:0,0:0:0:0:
418,247,167902,1,4,0:0:0:0:
405,259,167979,1,0,0:0:0:0:
390,268,168056,1,2,0:0:0:0:
373,274,168133,1,0,0:0:0:0:
355,275,168210,1,8,0:0:0:0:
337,272,168287,1,0,0:0:0:0:
320,266,168364,1,2,0:0:0:0:
304,258,168441,1,0,0:0:0:0:
289,247,168518,22,0,L|276:161,2,70,4|0|8,0:0|0:0|0:0,0:0:0:0:
186,151,168979,2,0,B|192:206|192:206|182:237|182:237|190:292,1,140,2|2,0:0|0:0,0:0:0:0:
227,365,169441,1,8,0:0:0:0:
40,320,169595,22,0,B|74:304|74:304|111:308,1,70,0|6,3:2|3:2,0:0:0:0:
186,151,169902,2,0,B|152:167|152:167|115:163,1,70,2|8,0:0|0:0,0:0:0:0:
33,125,170210,1,8,0:2:0:0:
33,125,170287,1,8,3:2:0:0:
33,125,170364,1,2,3:2:0:0:
77,245,170518,1,2,0:0:0:0:
119,163,170671,1,8,0:0:0:0:
205,307,170825,1,8,3:2:0:0:
205,307,170902,1,4,3:3:0:0:
205,307,170979,6,0,L|348:307,1,140,4|0,3:2|0:0,0:0:0:0:
374,330,171389,2,0,L|432:330,2,46.6666666666667
374,330,171748,1,0,0:0:0:0:
454,175,172055,1,2,0:0:0:0:
454,175,172363,2,0,L|426:103,1,70,2|2,0:0|0:0,0:0:0:0:
324,75,172671,2,0,L|352:147,1,70,0|2,0:0|0:0,0:0:0:0:
299,208,172979,1,0,0:0:0:0:
324,75,173132,54,0,P|255:47|176:51,1,140,4|0,0:0|0:0,0:0:0:0:
163,73,173543,2,0,L|107:85,2,46.6666666666667
163,73,173902,1,0,0:0:0:0:
4,156,174209,1,2,0:0:0:0:
4,156,174517,2,0,L|87:138,1,70,2|2,0:0|0:0,0:0:0:0:
141,309,174825,2,0,L|54:273,1,70,0|2,0:0|0:0,0:0:0:0:
3,252,175133,1,0,0:0:0:0:
145,173,175286,54,0,P|156:229|140:314,1,140,4|0,0:0|0:0,0:0:0:0:
117,338,175696,2,0,L|61:346,2,46.6666666666667
117,338,176055,1,0,0:0:0:0:
269,263,176363,2,0,P|302:275|417:271,1,140,2|2,0:0|0:0,0:0:0:0:
483,230,176825,2,0,P|491:266|493:315,1,70,2|0,0:0|0:0,0:0:0:0:
405,274,177132,2,0,P|397:238|395:189,1,70,2|0,0:0|0:0,0:0:0:0:
269,263,177440,54,0,B|190:273|225:293|122:299,1,140,4|0,0:0|0:0,0:0:0:0:
99,310,177850,2,0,L|92:251,2,46.6666666666667
99,310,178209,1,0,0:0:0:0:
81,96,178517,2,0,P|114:120|164:229,1,140,2|2,0:0|0:0,0:0:0:0:
252,220,178979,2,0,P|249:185|240:151,1,70,2|0,0:0|0:0,0:0:0:0:
254,68,179286,1,2,0:0:0:0:
254,68,179440,1,0,0:0:0:0:
332,95,179594,53,4,0:0:0:0:
463,198,179902,2,0,L|448:246,2,46.6666666666667
467,186,180209,2,0,L|452:96,1,70
324,213,180517,1,0,0:0:0:0:
324,213,180671,2,0,P|334:261|319:378,1,140,2|2,0:0|0:0,0:0:0:0:
234,188,181132,2,0,P|234:232|241:269,1,70,2|0,0:0|0:0,0:0:0:0:
424,320,181440,2,0,P|424:276|417:239,1,70,2|0,0:0|0:0,0:0:0:0:
327,351,181748,53,4,0:0:0:0:
167,98,182055,2,0,L|119:81,2,46.6666666666667
167,116,182363,2,0,L|152:197,1,70
57,265,182671,1,0,0:0:0:0:
57,265,182825,2,0,P|84:225|174:224,1,140,2|2,0:0|0:0,0:0:0:0:
233,276,183286,2,0,L|213:364,1,70,2|0,0:0|0:0,0:0:0:0:
320,267,183594,1,2,0:0:0:0:
343,347,183748,1,0,0:0:0:0:
379,203,183902,6,0,B|431:215|431:215|455:235|455:235|520:248,1,140,4|0,0:0|0:0,0:0:0:0:
343,347,184363,1,2,0:0:0:0:
320,267,184517,2,0,P|301:238|292:187,1,70,0|0,0:0|0:0,0:0:0:0:
246,19,184825,2,0,P|208:46|195:160,1,140,2|0,0:0|0:0,0:0:0:0:
292,204,185286,2,0,P|330:177|343:63,1,140,2|0,0:0|0:0,0:0:0:0:
185,132,185748,22,0,B|114:153|114:153|104:187|58:221,1,140,4|0,0:0|0:0,0:0:0:0:
26,127,186209,2,0,L|34:88,3,35,4|0|0|0,0:0|0:0|0:0|0:0,0:0:0:0:
41,71,186517,1,0,0:0:0:0:
76,206,186671,2,0,L|68:245,3,35,4|0|0|0,0:0|0:0|0:0|0:0,0:0:0:0:
63,263,186979,1,0,0:0:0:0:
158,299,187132,2,0,L|141:377,1,70,4|0,0:0|0:0,0:0:0:0:
283,152,187440,21,0,0:0:0:0:
283,152,187517,1,0,0:0:0:0:
283,152,187594,1,4,1:0:0:0:
256,192,187747,12,4,190055,0:1:0:0:
256,192,190209,12,4,192517,0:1:0:0:
256,192,192670,12,4,194978,0:1:0:0:
256,192,195132,12,0,197440,0:0:0:0:
417,196,199901,54,0,B|393:282|446:268|421:357,2,157.500006008148,2|2|2,0:0|0:0|0:0,0:0:0:0:
442,72,201286,2,0,L|504:92,1,52.5000020027161,2|0,0:0|0:0,0:0:0:0:
336,121,201747,2,0,L|221:94,1,105.000004005432,2|2,0:0|0:0,0:0:0:0:
165,147,202363,22,0,P|135:174|16:190,2,157.500006008148,2|2|2,0:0|0:0|0:0,0:0:0:0:
180,350,203747,1,2,0:0:0:0:
180,350,203901,2,0,L|195:234,1,105.000004005432,0|2,0:0|0:0,0:0:0:0:
281,219,204517,1,2,0:0:0:0:
352,267,204824,22,0,P|414:277|473:290,1,119.000002269745,2|0,0:0|0:0,0:0:0:0:
512,213,205286,2,0,P|450:203|391:190,1,119.000002269745,2|0,0:0|0:0,0:0:0:0:
291,143,205747,2,0,L|308:218,1,59.5000011348725,2|0,0:0|0:0,0:0:0:0:
240,291,206209,1,2,0:0:0:0:
180,203,206517,1,2,0:0:0:0:
180,203,206670,2,0,L|63:187,1,119.000002269745,2|2,0:0|0:0,0:0:0:0:
256,106,207286,21,2,0:0:0:0:
129,46,207594,1,0,0:0:0:0:
129,46,207747,1,2,0:0:0:0:
256,106,208055,1,0,0:0:0:0:
301,90,208209,1,2,0:0:0:0:
345,107,208363,2,0,L|480:107,2,119.000002269745,0|2|2,0:0|0:0|0:0,0:0:0:0:
317,187,209132,1,2,1:2:0:0:
317,187,209286,1,0,0:0:0:0:
406,188,209440,1,2,1:2:0:0:
406,188,209594,1,0,0:0:0:0:
488,187,209747,21,4,3:2:0:0:
334,304,210055,1,2,3:0:0:0:
275,244,210209,2,0,P|277:209|290:173,1,70,0|2,0:0|3:0,0:0:0:0:
416,292,210517,2,0,P|414:327|401:363,1,70,0|2,0:0|3:0,0:0:0:0:
362,222,210824,1,0,3:0:0:0:
362,222,210901,1,0,3:0:0:0:
362,222,210978,1,2,3:0:0:0:
275,244,211132,22,0,L|201:226,1,70,0|2,0:0|3:0,0:0:0:0:
72,341,211440,1,0,0:0:0:0:
72,341,211594,2,0,P|127:329|217:316,1,140,2|2,3:0|3:0,0:0:0:0:
95,243,212055,1,2,3:0:0:0:
40,176,212209,22,0,L|24:90,1,70,4|0,0:0|0:0,0:0:0:0:
163,230,212517,2,0,L|77:246,1,70,2|0,3:0|0:0,0:0:0:0:
217,109,212824,2,0,L|233:195,1,70,2|0,3:0|0:0,0:0:0:0:
127,144,213132,1,2,3:0:0:0:
212,27,213286,21,0,0:0:0:0:
212,27,213363,1,0,0:0:0:0:
212,27,213440,1,0,0:0:0:0:
288,61,213594,1,0,0:0:0:0:
288,61,213747,2,0,L|364:91,1,70,2|2,3:0|0:2,0:0:0:0:
431,118,214055,1,2,3:0:0:0:
381,367,214363,1,0,3:0:0:0:
280,362,214517,1,0,3:0:0:0:
280,362,214594,1,0,3:0:0:0:
280,362,214670,22,0,P|283:317|263:202,1,140,4|2,3:2|3:3,0:0:0:0:
326,138,215132,2,0,B|359:168|382:184|382:184|414:187|454:185,1,140,0|0,0:0|0:0,0:0:0:0:
269,223,215594,2,0,L|188:279,1,70,2|0,3:0|3:0,0:0:0:0:
198,274,215824,1,0,3:0:0:0:
185,285,215901,22,0,L|109:273,1,70,2|0,3:0|0:0,0:0:0:0:
27,263,216209,1,2,3:0:0:0:
27,263,216363,1,0,3:0:0:0:
115,274,216517,2,0,L|258:294,1,140,8|8,3:2|3:2,0:0:0:0:
465,152,217132,21,4,0:0:0:0:
254,207,217440,1,8,3:2:0:0:
437,218,217747,21,2,3:0:0:0:
322,161,217901,1,0,0:0:0:0:
414,233,218055,1,8,3:2:0:0:
298,137,218209,22,0,L|286:69,1,70,0|2,3:0|3:0,0:0:0:0:
179,16,218517,1,0,0:0:0:0:
193,126,218670,2,0,P|180:163|99:232,1,140,2|2,3:0|0:2,0:0:0:0:
89,225,219055,1,2,0:2:0:0:
73,217,219132,1,2,0:2:0:0:
55,214,219209,1,2,0:2:0:0:
38,219,219286,1,10,0:2:0:0:
26,231,219363,1,2,0:2:0:0:
17,246,219440,1,2,0:2:0:0:
13,263,219517,1,2,0:2:0:0:
15,280,219594,70,0,L|47:345,1,70,4|0,1:2|0:0,0:0:0:0:
217,250,219901,1,8,0:0:0:0:
198,161,220055,2,0,B|128:124|138:168|69:107,1,140,2|2,0:0|0:0,0:0:0:0:
111,26,220517,1,8,0:0:0:0:
198,161,220670,54,0,P|189:204|167:235,1,70,2|0,0:0|0:0,0:0:0:0:
102,268,220978,1,2,0:0:0:0:
170,342,221132,1,8,0:0:0:0:
104,161,221286,53,0,3:2:0:0:
104,161,221363,1,8,3:2:0:0:
104,161,221440,1,2,3:2:0:0:
11,209,221594,1,2,0:0:0:0:
165,78,221747,2,0,P|200:67|235:43,1,70,8|2,0:0|0:0,0:0:0:0:
367,59,222055,54,0,P|400:82|428:125,1,70,4|0,1:2|0:0,0:0:0:0:
490,193,222363,1,8,0:0:0:0:
309,244,222517,2,0,B|249:307|305:305|235:375,1,140,2|2,0:0|0:0,0:0:0:0:
401,233,222978,2,0,P|389:200|368:172,1,70,8|0,0:2|0:0,0:0:0:0:
204,115,223286,53,0,0:0:0:0:
235,33,223440,1,2,0:0:0:0:
120,136,223594,1,8,0:0:0:0:
254,177,223747,1,0,3:2:0:0:
267,183,223824,1,8,3:2:0:0:
281,185,223901,2,0,P|311:168|335:142,1,70,2|2,3:2|0:0,0:0:0:0:
207,244,224209,1,8,0:0:0:0:
207,244,224363,1,2,0:0:0:0:
336,143,224517,54,0,B|406:103|399:151|475:107,1,140,4|8,1:2|0:0,0:0:0:0:
290,287,224978,2,0,P|277:326|275:365,1,70,4|0,1:2|0:0,0:0:0:0:
234,118,225286,54,0,L|168:80,1,70,2|8,0:0|0:0,0:0:0:0:
388,307,225593,2,0,L|454:345,1,70,4|0,1:2|0:0,0:0:0:0:
300,194,225901,2,0,L|210:227,1,70,4|0,0:0|0:0,0:0:0:0:
101,358,226209,1,4,3:2:0:0:
101,358,226286,1,8,3:2:0:0:
101,358,226363,2,0,P|157:361|248:305,1,140,2|8,3:2|0:0,0:0:0:0:
175,252,226824,53,2,0:0:0:0:
300,194,226978,1,4,1:2:0:0:
79,228,227286,53,8,0:0:0:0:
230,324,227440,1,4,1:2:0:0:
367,110,227747,53,2,0:0:0:0:
211,163,227901,1,8,0:0:0:0:
390,17,228055,2,0,P|442:55|453:145,1,140,4|2,3:2|1:0,0:0:0:0:
404,200,228517,1,2,1:0:0:0:
288,108,228670,53,2,1:0:0:0:
288,108,228747,1,0,0:0:0:0:
288,108,228824,1,2,1:0:0:0:
199,84,228978,1,2,1:0:0:0:
110,62,229132,1,2,1:0:0:0:
71,245,229286,53,8,1:3:0:0:
71,245,229363,1,12,1:3:0:0:
71,245,229440,2,0,B|103:241|136:218|136:218|173:223|213:244,1,140,4|8,1:2|0:0,0:0:0:0:
338,355,229901,2,0,B|313:337|289:307|289:307|285:276|284:235,1,140,0|2,3:0|0:0,0:0:0:0:
240,121,230363,1,8,0:0:0:0:
201,238,230517,54,0,P|188:279|176:308,1,70,2|0,0:2|0:0,0:0:0:0:
366,190,230824,2,0,P|362:149|360:108,1,70,2|8,0:0|0:0,0:0:0:0:
189,98,231132,1,0,0:0:0:0:
189,98,231209,1,8,0:0:0:0:
189,98,231286,2,0,P|195:160|201:255,1,140,2|8,0:0|0:0,0:0:0:0:
102,226,231747,1,2,0:0:0:0:
290,311,231901,54,0,P|294:263|305:224,1,70,4|0,1:2|0:0,0:0:0:0:
303,155,232209,1,8,0:0:0:0:
466,128,232363,2,0,B|455:84|403:56|403:56|361:65,1,140,2|2,0:0|3:2,0:0:0:0:
266,79,232824,1,8,3:2:0:0:
367,212,232978,1,2,0:0:0:0:
466,128,233132,53,0,0:0:0:0:
460,236,233286,1,2,0:0:0:0:
356,107,233440,1,10,0:0:0:0:
272,166,233594,1,0,0:0:0:0:
259,171,233670,1,8,0:0:0:0:
246,177,233747,2,0,P|212:150|195:120,1,70,2|2,3:2|3:2,0:0:0:0:
351,204,234055,1,8,0:0:0:0:
351,204,234209,1,0,0:0:0:0:
198,127,234363,54,0,P|161:94|56:92,1,140,4|8,1:2|0:0,0:0:0:0:
314,257,234824,2,0,P|351:290|456:292,1,140,4|2,1:2|0:0,0:0:0:0:
256,192,235286,1,8,0:0:0:0:
172,220,235440,54,0,L|130:305,1,70,4|0,0:2|0:0,0:0:0:0:
255,349,235747,2,0,L|248:274,1,70,4|8,0:0|0:0,0:0:0:0:
284,114,236055,1,2,0:0:0:0:
284,114,236132,1,8,0:0:0:0:
284,114,236209,2,0,B|286:160|290:187|290:187|312:214|340:239,1,140,0|12,0:0|0:0,0:0:0:0:
213,42,236824,53,4,1:2:0:0:
92,205,237132,1,8,0:0:0:0:
245,177,237440,53,4,0:0:0:0:
111,93,237594,1,2,0:0:0:0:
92,205,237747,1,8,0:0:0:0:
233,88,237901,2,0,P|250:87|307:111,1,70,4|0,0:0|0:0,0:0:0:0:
111,93,238209,53,6,0:0:0:0:
323,114,238363,2,0,L|305:214,1,70,8|0,0:0|1:0,0:0:0:0:
300,224,238594,1,8,1:2:0:0:
300,224,238670,1,2,0:0:0:0:
374,344,238824,1,8,1:2:0:0:
497,275,238978,1,0,1:0:0:0:
489,240,239055,1,0,1:0:0:0:
469,211,239132,1,0,1:0:0:0:
436,198,239209,1,0,1:0:0:0:
401,201,239286,38,0,P|359:215|323:217,1,70,4|0,1:0|0:0,0:0:0:0:
256,181,239594,1,8,0:0:0:0:
217,106,239747,1,0,3:2:0:0:
360,172,239901,22,0,P|356:217|338:263,1,70,0|2,0:0|3:2,0:0:0:0:
291,302,240209,1,8,0:0:0:0:
169,213,240363,2,2,P|127:209|40:272,1,140,0|2,3:1|3:1,0:1:0:0:
71,339,240824,1,8,0:2:0:0:
242,278,240978,22,0,L|291:289,2,35,2|8|0,0:1|0:0|3:1,0:0:0:0:
242,278,241286,1,0,3:0:0:0:
169,213,241440,1,10,0:0:0:0:
297,125,241594,1,0,3:0:0:0:
155,101,241747,22,0,L|69:122,1,70,2|0,0:1|0:0,0:0:0:0:
155,101,242055,2,2,L|241:80,1,70,8|2,0:2|3:1,0:1:0:0:
61,118,242363,2,0,P|64:71|78:43,1,70,0|0,0:0|3:0,0:0:0:0:
105,197,242670,1,8,0:0:0:0:
155,101,242824,2,2,P|202:74|302:73,1,140,0|2,3:1|3:1,0:1:0:0:
392,111,243286,22,0,P|390:76|383:42,1,70,8|2,0:0|1:1,0:0:0:0:
390,49,243517,1,0,1:0:0:0:
390,49,243594,2,0,P|382:109|394:207,1,140,0|8,1:0|0:0,0:0:0:0:
405,182,243978,1,0,0:0:0:0:
422,182,244055,1,0,3:0:0:0:
438,186,244132,1,0,0:0:0:0:
452,195,244209,22,0,L|489:218,3,35,2|0|0|0,0:1|0:0|0:0|0:0,0:0:0:0:
445,320,244517,2,0,L|426:286,1,35,8|0,0:0|0:0,0:0:0:0:
334,258,244670,2,0,L|341:302,3,35,2|0|0|0,3:1|0:0|0:0|0:0,0:0:0:0:
246,350,244978,2,0,L|252:314,1,35,0|0,3:0|0:0,0:0:0:0:
209,240,245132,21,10,0:0:0:0:
192,233,245209,1,0,0:0:0:0:
175,228,245286,1,2,3:1:0:0:
157,228,245363,1,0,0:0:0:0:
139,231,245440,1,0,0:0:0:0:
124,240,245517,1,0,0:0:0:0:
109,249,245594,1,2,3:1:0:0:
98,262,245670,1,2,0:1:0:0:
88,276,245747,22,0,L|56:292,3,35,10|0|0|8,0:0|0:0|3:1|0:0,0:0:0:0:
55,180,246055,2,0,L|90:163,3,35,2|0|0|0,3:1|0:1|3:0|0:0,0:0:0:0:
137,158,246363,1,8,0:0:0:0:
137,158,246440,1,0,0:0:0:0:
137,158,246517,1,2,3:1:0:0:
137,158,246594,1,0,0:0:0:0:
137,158,246670,22,2,P|148:120|117:10,1,140,0|8,3:1|0:2,0:1:0:0:
66,103,247132,2,0,P|119:104|216:84,1,140,2|2,3:1|3:1,0:0:0:0:
314,124,247594,1,8,0:0:0:0:
314,124,247747,2,2,P|382:109|452:109,1,140,0|2,3:1|3:1,0:1:0:0:
359,210,248209,21,8,0:0:0:0:
388,340,248363,1,2,3:1:0:0:
388,340,248440,1,8,0:0:0:0:
388,340,248517,1,2,0:0:0:0:
282,262,248670,1,2,3:2:0:0:
198,343,248824,2,0,L|98:364,1,70,10|4,0:0|0:3,0:3:0:0:
130,358,249055,1,0,0:0:0:0:
130,358,249132,22,0,P|155:300|125:210,1,140,4|8,0:0|0:0,0:0:0:0:
59,175,249594,1,2,3:2:0:0:
138,227,249747,2,0,P|177:231|214:226,1,70,0|2,0:0|3:1,0:0:0:0:
275,75,250055,1,8,0:0:0:0:
420,184,250209,2,2,P|367:166|264:172,1,140,0|2,3:1|0:1,0:1:0:0:
262,171,250594,1,2,0:0:0:0:
243,179,250670,1,8,3:2:0:0:
382,79,250824,2,0,L|421:63,2,35,2|0|0,3:1|3:0|3:1,0:0:0:0:
420,184,251132,21,0,3:0:0:0:
444,264,251286,1,10,0:0:0:0:
493,97,251440,1,2,0:0:0:0:
505,200,251594,1,4,0:0:0:0:
344,134,251747,22,0,L|318:64,1,70,0|8,0:1|0:0,0:0:0:0:
246,135,252055,2,2,P|266:199|264:296,1,140,0|2,3:1|3:1,0:1:0:0:
191,311,252517,1,8,0:0:0:0:
356,243,252670,22,0,P|351:289|343:320,1,70,2|0,3:1|0:0,0:0:0:0:
159,143,252978,2,2,P|164:97|172:66,1,70,0|8,3:1|0:2,0:1:0:0:
229,205,253286,1,2,3:1:0:0:
229,205,253363,1,8,3:2:0:0:
229,205,253440,1,2,3:2:0:0:
146,240,253593,1,2,3:1:0:0:
76,182,253747,1,10,0:0:0:0:
159,143,253901,1,0,3:0:0:0:
20,116,254055,22,0,L|40:279,1,140,4|8,0:0|0:0,0:0:0:0:
159,143,254517,1,0,3:0:0:0:
159,143,254670,2,0,L|145:234,1,70,0|0,0:0|3:0,0:0:0:0:
191,312,254978,1,8,0:0:0:0:
294,263,255132,2,0,L|307:351,2,70,0|0|0,3:0|0:0|3:0,0:0:0:0:
148,212,255594,1,8,0:0:0:0:
317,170,255747,21,2,3:2:0:0:
333,175,255824,1,8,3:2:0:0:
347,184,255901,2,0,P|380:221|389:248,1,70,0|0,3:0|3:0,0:0:0:0:
247,106,256209,2,0,P|214:69|205:42,1,70,8|0,0:0|3:0,0:0:0:0:
84,88,256517,22,0,L|41:98,3,35,4|0|0|0,0:0|0:0|0:0|0:0,0:0:0:0:
52,209,256825,2,0,L|79:183,1,35,8|0,0:0|0:0,0:0:0:0:
176,184,256978,2,0,L|155:223,3,35,2|0|0|0,0:0|0:0|0:0|0:0,0:0:0:0:
232,299,257286,2,0,L|237:262,1,35,2|0,0:0|0:0,0:0:0:0:
302,203,257440,21,8,0:0:0:0:
319,203,257517,1,0,0:0:0:0:
335,207,257594,1,2,0:0:0:0:
350,214,257670,1,0,0:0:0:0:
364,224,257747,1,4,0:0:0:0:
375,237,257824,1,0,0:0:0:0:
384,251,257901,1,2,0:0:0:0:
392,266,257978,1,0,0:0:0:0:
397,282,258055,2,0,L|406:318,3,35,8|0|8|2,0:0|0:0|0:0|0:0,0:0:0:0:
482,214,258363,22,0,L|489:179,4,23.3333333333333,2|0|0|2|0,0:2|0:0|0:0|0:2|0:0,0:0:0:0:
467,154,258670,2,0,L|460:121,4,23.3333333333333,2|0|0|8|0,3:2|0:0|0:0|0:3|0:0,0:0:0:0:
491,104,258978,38,0,P|429:135|358:90,1,140,4|0,0:0|1:0,0:0:0:0:
369,107,259440,2,0,P|307:79|247:110,1,140,0|0,3:0|3:0,0:0:0:0:
164,152,259901,1,2,0:0:0:0:
147,64,260055,2,0,L|161:139,1,70,0|0,3:0|0:0,0:0:0:0:
90,196,260363,54,0,L|12:182,1,70,0|0,3:0|1:0,0:0:0:0:
18,280,260670,1,0,0:0:0:0:
18,280,260747,1,0,1:0:0:0:
18,280,260824,2,0,L|104:293,1,70,0|0,3:0|3:0,0:0:0:0:
204,266,261132,1,0,1:0:0:0:
185,347,261286,1,0,3:0:0:0:
296,256,261440,53,2,3:2:0:0:
108,160,261747,1,0,1:0:0:0:
200,155,261901,2,0,P|234:164|274:168,2,70,0|0|0,3:0|0:0|3:0,0:0:0:0:
145,80,262363,1,0,1:0:0:0:
145,80,262517,2,0,P|186:61|285:52,1,140,2|0,3:2|3:0,0:0:0:0:
383,57,262978,54,0,L|366:147,1,70,0|0,1:0|3:0,0:0:0:0:
366,143,263209,1,0,1:0:0:0:
362,160,263286,2,0,L|452:174,1,70,0|0,3:0|3:0,0:0:0:0:
276,150,263594,2,0,L|186:136,1,70,8|2,0:0|3:2,0:0:0:0:
450,175,263901,53,6,0:0:0:0:
450,175,264055,1,0,0:0:0:0:
381,224,264209,2,0,P|378:269|391:306,1,70,0|0,1:0|3:0,0:0:0:0:
292,304,264517,2,0,P|312:348|334:373,2,70,2|0|0,0:0|3:0|1:0,0:0:0:0:
292,304,264978,54,0,P|247:342|157:358,1,140,2|0,3:2|3:0,0:0:0:0:
79,338,265440,1,0,1:0:0:0:
110,194,265594,1,0,0:0:0:0:
110,194,265670,1,0,1:0:0:0:
110,194,265747,2,0,L|122:275,1,70,0|2,3:0|3:2,0:0:0:0:
30,131,266055,1,0,1:0:0:0:
16,222,266209,1,0,3:0:0:0:
156,118,266363,53,2,3:2:0:0:
312,336,266670,1,0,1:0:0:0:
312,336,266824,2,0,P|332:304|304:204,1,140,0|0,3:0|3:0,0:0:0:0:
255,275,267286,1,0,1:0:0:0:
197,209,267440,2,0,P|170:271|195:335,1,140,2|0,3:2|3:0,0:0:0:0:
310,209,267901,54,0,L|390:217,1,70,0|0,1:0|3:0,0:0:0:0:
397,218,268132,1,0,1:0:0:0:
414,220,268209,1,0,3:0:0:0:
468,131,268363,1,2,3:0:0:0:
468,131,268517,2,0,L|388:123,1,70,0|2,1:0|3:0,0:0:0:0:
310,209,268824,54,0,P|260:230|172:235,1,140,4|0,0:0|1:0,0:0:0:0:
134,151,269286,1,0,3:0:0:0:
81,228,269440,2,0,P|84:275|100:306,1,70,0|0,0:0|3:0,0:0:0:0:
184,332,269747,1,0,1:0:0:0:
175,235,269901,54,0,P|166:165|128:98,1,140,2|0,3:2|3:0,0:0:0:0:
230,55,270363,1,0,1:0:0:0:
304,136,270517,1,0,0:0:0:0:
304,136,270594,1,0,1:0:0:0:
304,136,270670,1,0,3:0:0:0:
388,80,270824,2,0,P|388:40|376:8,2,70
452,192,271286,54,0,P|407:193|371:214,1,70,2|0,3:2|0:0,0:0:0:0:
436,276,271594,1,0,1:0:0:0:
436,276,271747,2,0,L|303:219,1,140,0|0,3:0|3:0,0:0:0:0:
219,219,272209,1,0,1:0:0:0:
248,347,272363,54,0,P|287:324|306:294,1,70,0|0,3:0|0:0,0:0:0:0:
307,220,272670,1,0,3:0:0:0:
270,144,272824,1,0,1:0:0:0:
378,150,272978,54,0,L|413:105,2,35,0|0|0,3:0|1:0|3:0,0:0:0:0:
308,240,273286,1,0,3:0:0:0:
253,136,273440,2,0,L|183:105,1,70,0|0,1:0|3:0,0:0:0:0:
125,200,273747,54,0,P|175:235|181:322,1,140,4|0,0:0|1:0,0:0:0:0:
103,281,274209,2,0,B|169:247|174:297|241:258,1,140,0|0,3:0|3:0,0:0:0:0:
309,215,274670,1,2,1:2:0:0:
309,215,274824,1,0,3:0:0:0:
427,73,275132,53,0,3:0:0:0:
383,145,275286,1,0,1:0:0:0:
453,190,275440,1,0,0:0:0:0:
462,200,275517,1,0,1:0:0:0:
471,210,275594,2,0,L|489:286,1,70,0|0,3:0|3:0,0:0:0:0:
375,269,275901,2,0,L|357:345,1,70,0|0,1:0|3:0,0:0:0:0:
307,193,276209,5,4,0:0:0:0:
121,287,276517,1,2,0:0:0:0:
186,234,276670,1,2,0:0:0:0:
202,316,276824,1,2,0:0:0:0:
368,167,277132,21,2,0:0:0:0:
248,141,277286,1,2,0:0:0:0:
460,216,277594,21,2,0:0:0:0:
460,205,277747,1,2,0:0:0:0:
469,210,277901,1,2,0:0:0:0:
463,210,278055,6,0,L|481:134,1,70,2|2,0:0|0:0,0:0:0:0:
375,115,278362,2,0,L|357:39,1,70,2|0,0:0|0:0,0:0:0:0:
