osu file format v14

[General]
AudioFilename: audio.mp3
AudioLeadIn: 0
PreviewTime: 62057
Countdown: 0
SampleSet: Soft
StackLeniency: 0.7
Mode: 0
LetterboxInBreaks: 0
WidescreenStoryboard: 1

[Editor]
DistanceSpacing: 1
BeatDivisor: 4
GridSize: 4
TimelineZoom: 1.5

[Metadata]
Title:ChRoNiClESeVeN feat. Annabel
TitleUnicode:ChRøNiClESeVeN feat. Annabel
Artist:sasakure.UK
ArtistUnicode:sasakure.UK
Creator:Delis
Version:Easy
Source:セブンスドラゴンⅢ code:VFD
Tags:7th dragon III RLC VINXIS Chromoxx Arrival
BeatmapID:1365812
BeatmapSetID:630014

[Difficulty]
HPDrainRate:3
CircleSize:3
OverallDifficulty:3
ApproachRate:4
SliderMultiplier:0.9
SliderTickRate:1

[Events]
//Background and Video events
0,0,"BEGE.jpg",0,0
//Break Periods
2,22257,30583
2,81948,90275
2,151487,159697
2,187794,191197
2,199901,208427
2,261640,262581
//Storyboard Layer 0 (Background)
//Storyboard Layer 1 (Fail)
//Storyboard Layer 2 (Pass)
//Storyboard Layer 3 (Foreground)
//Storyboard Sound Samples

[TimingPoints]
1021,357.142857142857,4,2,1,5,1,0
1378,468.75,4,2,1,5,1,0
1846,612.244897959184,4,2,1,5,1,0
2458,394.736842105263,4,2,1,5,1,0
2852,447.761194029851,4,2,1,5,1,0
3299,535.714285714286,4,2,1,5,1,0
3834,566.037735849057,4,2,1,5,1,0
4400,545.454545454546,4,2,1,5,1,0
4945,461.538461538462,4,2,1,5,1,0
5406,612.244897959184,4,2,1,5,1,0
6018,545.454545454546,4,2,1,5,1,0
6563,439.56043956044,4,2,1,5,1,0
7442,530.973451327434,4,2,1,5,1,0
7972,447.761194029851,4,2,1,5,1,0
8867,357.142857142857,4,2,1,40,1,0
11724,-100,4,2,1,5,0,0
12211,307.692307692308,4,2,1,50,1,0
22057,-100,4,2,2,60,0,0
31903,-100,4,2,1,60,0,0
41749,-100,4,2,2,60,0,0
45518,-100,4,2,3,60,0,0
45826,-100,4,2,2,60,0,0
50441,-100,4,2,3,60,0,0
51595,-100,4,2,1,60,0,0
55903,-100,4,2,1,30,0,0
56057,-100,4,2,1,60,0,0
56211,-100,4,2,1,40,0,0
56364,-100,4,2,1,60,0,0
56826,-100,4,2,2,60,0,0
57518,-100,4,2,1,60,0,0
57749,-100,4,2,2,60,0,0
57980,-100,4,2,1,60,0,0
58134,-100,4,2,2,60,0,0
58287,-100,4,2,3,60,0,0
62057,307.692307692308,4,2,2,70,1,0
70826,-100,4,2,3,70,0,0
71749,-100,4,2,2,70,0,0
75749,-100,4,2,3,70,0,0
76441,-100,4,2,2,70,0,0
91595,307.692307692308,3,2,1,70,1,0
97133,-100,3,2,2,60,0,0
98979,-100,3,2,2,40,0,0
101133,-100,3,2,2,50,0,0
101441,307.692307692308,4,2,2,50,1,0
110210,-100,4,2,1,60,0,0
111287,-100,4,2,2,60,0,0
111979,-100,4,2,1,60,0,0
112133,-100,4,2,2,60,0,0
116056,-100,4,2,1,60,0,0
116210,-100,4,2,2,60,0,0
119748,-100,4,2,1,60,0,0
126056,-100,4,2,2,60,0,0
126748,-100,4,2,3,60,0,0
126902,-100,4,2,2,60,0,0
127825,-100,4,2,3,60,0,0
128210,-100,4,2,1,60,0,0
128517,-100,4,2,3,60,0,0
131595,307.692307692308,4,2,2,70,1,0
135902,-100,4,2,1,70,0,0
135979,-100,4,2,2,70,0,0
140364,-100,4,2,3,70,0,0
141441,-100,4,2,2,70,0,0
160825,-100,4,2,1,60,0,0
161441,-100,4,2,2,60,0,0
170979,307.692307692308,7,3,2,60,1,0
183902,307.692307692308,6,2,1,60,1,0
185748,307.692307692308,3,2,2,60,1,0
187594,307.692307692308,4,2,3,60,1,0
187670,-100,4,2,3,30,0,0
193747,-100,4,2,3,40,0,0
195055,-100,4,2,3,50,0,0
196209,-100,4,2,3,55,0,0
197440,-100,4,2,3,10,0,0
199901,-100,4,2,1,50,0,0
204747,-100,4,2,1,10,0,0
204824,-100,4,2,1,50,0,0
209747,-100,4,2,2,60,0,0
213824,-100,4,2,1,60,0,0
213978,-100,4,2,2,60,0,0
214132,-100,4,2,1,60,0,0
214286,-100,4,2,2,60,0,0
218978,-100,4,2,3,70,0,0
219747,-100,4,2,2,80,0,0
229286,-100,4,2,2,70,0,0
229440,-100,4,2,2,80,0,0
233440,-100,4,2,3,80,0,0
234055,-100,4,2,2,80,0,0
239363,-100,4,2,3,80,0,0
250670,-100,4,2,2,80,0,0
251132,-100,4,2,3,80,0,0
253209,-100,4,2,2,80,0,0
253517,-100,4,2,3,80,0,0
255670,-100,4,2,2,80,0,0
255978,-100,4,2,3,80,0,0
256440,-100,4,2,2,80,0,0
258363,-100,4,2,3,70,0,0
261440,-100,4,2,3,60,0,0
263901,-125,4,2,3,60,0,0
278209,-131.578947368421,4,2,3,60,0,0
278363,348.837209302326,4,2,3,60,1,0

[Colours]
Combo1 : 114,114,114
Combo2 : 111,172,128
Combo3 : 167,159,105
Combo4 : 48,203,199
Combo5 : 182,109,155
Combo6 : 165,165,165

[HitObjects]
88,72,12211,5,2,0:0:0:0:
396,136,13287,2,0,L|368:320,1,180,2|2,0:0|0:0,0:0:0:0:
148,316,14672,1,2,0:0:0:0:
460,344,15749,2,0,L|428:76,1,270,2|2,0:0|0:0,0:0:0:0:
300,36,17134,5,2,0:0:0:0:
60,240,18211,2,0,B|76:284|140:292|172:252|172:252|208:288,1,180,2|2,0:0|0:0,0:0:0:0:
364,128,19595,2,0,P|296:84|240:88,2,135,2|0|0,0:0|0:0|0:0,0:0:0:0:
336,212,20826,2,0,L|360:344,2,135,2|0|2,0:0|0:0|0:0,0:0:0:0:
256,172,22057,1,4,0:0:0:0:
364,184,31903,5,4,3:2:0:0:
288,232,32211,2,0,B|228:244|176:232|176:232|212:296|168:356,1,225,8|0,0:0|3:0,0:0:0:0:
88,328,33287,1,0,3:0:0:0:
16,276,33595,2,0,B|-12:200|36:140|36:140|132:144,1,225,8|2,0:0|3:2,0:0:0:0:
184,84,34672,2,0,B|248:88|276:56|276:56|332:128|332:128|376:120,1,225,8|0,0:0|3:0,0:0:0:0:
428,188,35749,2,0,P|432:252|420:300,1,90,8|2,0:0|3:3,0:0:0:0:
368,348,36364,2,0,P|300:368|228:348,1,135,2|6,3:0|0:0,0:0:0:0:
176,292,37134,6,0,B|220:256|272:272|272:272|240:136,1,225,8|0,0:0|3:0,0:0:0:0:
304,84,38211,1,0,3:0:0:0:
384,44,38518,2,0,L|416:192,1,135,0|10,0:0|0:0,0:0:0:0:
432,264,39287,2,0,P|356:268|308:224,2,135,0|0|8,3:0|3:0|0:0,0:0:0:0:
460,348,40518,2,0,L|316:368,1,135,0|0,0:0|3:0,0:0:0:0:
244,332,41287,2,0,B|168:320|88:344,1,135,2|6,0:0|0:2,0:0:0:0:
48,272,42057,37,8,0:0:0:0:
100,200,42364,2,0,B|176:220|248:192,1,135,0|2,0:0|0:0,0:0:0:0:
312,152,43134,1,2,0:0:0:0:
400,176,43441,2,0,P|416:240|384:308,1,135,2|8,3:2|0:0,0:0:0:0:
300,284,44211,1,4,0:0:0:0:
212,304,44518,2,0,L|24:352,1,180,8|8,0:0|0:0,0:0:0:0:
24,260,45441,2,0,P|100:232|120:180,1,135,0|2,0:0|3:2,0:0:0:0:
104,96,46211,2,0,P|176:76|236:64,1,135,2|4,0:0|0:0,0:0:0:0:
316,100,46980,5,8,0:0:0:0:
256,168,47287,2,0,P|240:252|244:312,1,135,0|2,0:0|0:0,0:0:0:0:
324,344,48057,1,2,0:0:0:0:
412,320,48364,2,0,B|456:248|396:184|396:184|440:108,1,225,0|4,3:0|0:0,0:0:0:0:
316,52,49595,2,0,P|248:48|172:56,1,135,2|8,0:0|0:0,0:0:0:0:
148,136,50364,2,0,P|216:140|288:132,2,135,0|2|10,0:0|0:0|0:0,0:0:0:0:
72,188,51595,6,0,P|52:248|100:316,2,135,4|2|2,0:0|0:0|0:0,0:0:0:0:
52,100,52826,2,0,B|116:80|176:112|176:112|236:56|320:80,1,270,0|2,0:0|0:0,0:0:0:0:
380,128,54057,2,0,L|360:272,2,135,2|2|2,0:0|0:0|0:0,0:0:0:0:
468,112,55287,2,0,B|472:168|456:212|456:212|464:228|464:228|440:280|448:348,1,225,0|2,0:0|3:2,0:0:0:0:
312,356,56518,6,0,B|256:312|284:240|284:240|252:188,1,180,4|0,0:0|3:0,0:0:0:0:
244,108,57441,2,0,P|176:84|108:104,2,135,4|4|10,0:0|3:2|0:0,0:0:0:0:
240,244,58826,2,0,B|284:168|364:180|364:180|436:212,1,225,4|8,0:0|0:0,0:0:0:0:
344,48,60211,2,0,L|148:60,1,180,2|8,0:0|0:0,0:0:0:0:
104,128,61134,1,4,0:1:0:0:
460,184,62057,38,0,P|408:212|320:192,1,135,4|2,0:0|0:0,0:0:0:0:
216,140,62980,2,0,P|156:128|72:164,1,135,8|2,0:0|0:0,0:0:0:0:
28,272,63903,2,0,L|64:376,1,90,2|8,3:2|0:0,0:0:0:0:
140,316,64518,2,0,B|180:284|228:296|228:296|272:268,1,135,4|2,0:0|0:0,0:0:0:0:
360,180,65441,2,0,L|340:32,2,135,8|2|2,0:0|0:0|0:2,0:0:0:0:
308,252,66672,1,8,0:0:0:0:
240,308,66980,6,0,B|128:320|128:320|36:232,1,225,4|2,0:0|0:0,0:0:0:0:
48,152,68057,2,0,P|120:112|180:120,1,135,4|8,0:0|0:0,0:0:0:0:
244,168,68826,2,0,L|352:128,1,90,0|12,1:0|0:0,0:0:0:0:
404,88,69441,2,0,B|432:196|400:320,1,225,4|2,0:0|0:0,0:0:0:0:
312,308,70518,2,0,B|296:248|312:156,1,135,6|10,0:0|0:0,0:0:0:0:
276,92,71287,2,0,L|176:116,1,90,2|10,0:0|0:0,0:0:0:0:
140,188,71903,6,0,P|72:168|48:80,2,135,4|2|8,3:2|0:0|0:0,0:0:0:0:
268,148,73287,2,0,B|344:108|400:156|400:156|431:108|468:84,1,225,2|8,0:0|0:0,0:0:0:0:
496,172,74364,2,0,L|508:332,2,135,4|2|8,0:0|0:0|0:0,0:0:0:0:
396,264,75749,2,0,B|292:316|292:212|172:264,1,225,2|8,3:2|0:0,0:0:0:0:
104,308,76826,6,0,L|60:84,1,225,4|2,0:0|0:0,0:0:0:0:
140,44,77903,2,0,B|184:64|212:100|212:100|292:92|328:40|328:40|372:32|416:84,1,315,6|12,0:0|0:0,0:0:0:0:
436,152,79287,2,0,P|416:244|452:332,1,180,4|0,0:0|0:0,0:0:0:0:
320,280,80364,2,0,P|236:252|152:304,1,180,2|2,0:0|0:0,0:0:0:0:
52,212,81441,2,0,P|32:160|36:120,1,90,12|4,0:0|3:2,0:0:0:0:
76,88,91595,38,0,L|216:72,1,135,6|2,0:0|0:0,0:0:0:0:
324,144,92518,2,0,L|460:128,1,135,2|2,0:0|0:0,0:0:0:0:
504,256,93441,2,0,P|448:292|376:280,1,135,2|2,0:0|0:0,0:0:0:0:
268,212,94364,2,0,P|212:176|140:188,1,135,2|8,0:0|3:0,0:0:0:0:
60,288,95287,6,0,L|40:136,1,135,4|0,0:0|3:0,0:0:0:0:
176,128,96210,2,0,L|156:280,1,135,2|0,0:0|3:0,0:0:0:0:
280,324,97133,2,0,L|256:160,3,135,4|4|4|4,0:0|0:0|0:0|0:0,0:0:0:0:
236,56,98979,1,4,1:0:0:0:
256,192,99133,12,8,101133,0:0:0:0:
104,268,102056,6,0,P|224:296|288:232,1,180,2|2,0:0|0:0,0:0:0:0:
332,100,103287,2,0,P|432:64|512:104,1,180,2|2,0:0|0:0,0:0:0:0:
432,256,104517,2,0,B|372:280|328:236|328:236|256:268,1,180,2|2,0:0|3:2,0:0:0:0:
100,328,105748,2,0,P|52:248|88:140,1,180,2|4,0:0|0:0,0:0:0:0:
216,68,106979,6,0,L|396:44,2,180,2|2|2,0:0|0:0|0:0,0:0:0:0:
176,244,108825,2,0,B|252:296|252:296|344:272,1,180,2|2,3:2|0:0,0:0:0:0:
444,128,110056,2,0,L|264:164,1,180,2|2,0:0|3:2,0:0:0:0:
104,84,111287,37,6,0:0:0:0:
68,168,111594,2,0,L|92:280,1,90,2|2,0:0|1:0,0:0:0:0:
204,328,112364,2,0,B|316:384|316:260|440:328,1,225,0|2,0:0|1:0,0:0:0:0:
476,148,113748,1,2,0:0:0:0:
388,144,114056,2,0,L|280:164,1,90,2|2,0:0|1:0,0:0:0:0:
216,268,114825,2,0,P|100:272|40:180,1,225,0|2,0:0|1:0,0:0:0:0:
152,48,116210,6,0,L|252:64,1,90,6|2,0:0|0:0,0:0:0:0:
332,76,116825,2,0,P|328:200|336:268,1,180,2|2,1:0|0:0,0:0:0:0:
172,340,118056,2,0,P|120:340|68:348,1,90,2|0,1:0|0:0,0:0:0:0:
32,268,118671,2,0,P|32:164|0:120,2,135,2|0|2,0:0|0:0|0:0,0:0:0:0:
120,260,119902,2,0,P|192:220|264:236,2,135,0|2|2,3:0|0:2|3:2,0:0:0:0:
192,316,121133,6,0,L|364:328,1,135,4|2,0:0|0:0,0:0:0:0:
448,268,122056,1,2,0:0:0:0:
508,200,122364,2,0,P|464:112|384:84,1,180
340,156,123287,1,0,0:0:0:0:
284,224,123594,2,0,L|108:212,2,135,2|2|2,0:0|0:0|0:0,0:0:0:0:
360,272,124825,2,0,P|416:184|484:168,1,180,0|0,0:0|1:0,0:0:0:0:
332,80,126056,6,0,B|280:48|220:52|220:52|152:104,1,180,4|0,0:0|3:0,0:0:0:0:
124,168,126979,2,0,L|152:308,2,135,4|4|10,0:0|0:0|0:0,0:0:0:0:
252,212,128364,2,0,B|348:200|348:200|384:208|384:208|488:196,1,225,4|8,0:0|0:0,0:0:0:0:
364,340,129748,2,0,P|260:352|204:288,1,180,4|8,0:0|0:0,0:0:0:0:
188,216,130671,1,8,0:0:0:0:
488,52,131594,38,0,L|280:80,1,180,4|0,0:0|0:0,0:0:0:0:
224,100,132518,2,0,P|152:72|36:92,1,180,8|8,0:0|0:0,0:0:0:0:
104,160,133441,2,0,P|112:216|92:268,1,90,2|8,3:2|0:0,0:0:0:0:
76,332,134056,2,0,L|268:308,1,180,4|0,0:0|0:0,0:0:0:0:
320,244,134979,2,0,P|412:252|496:184,1,180,8|8,0:0|0:0,0:0:0:0:
416,144,135902,2,0,B|400:88|440:40,2,90,2|8|4,3:2|0:0|0:0,0:0:0:0:
328,152,136825,6,0,L|172:140,1,135,8|2,0:0|0:0,0:0:0:0:
128,80,137595,2,0,B|76:120|88:188|132:220|132:220|100:288,1,225,6|6,0:0|3:2,0:0:0:0:
160,348,138671,1,12,0:0:0:0:
232,292,138979,2,0,P|292:264|384:280,1,135,4|6,0:0|0:0,0:0:0:0:
436,316,139748,1,2,0:0:0:0:
480,236,140056,2,0,L|432:72,1,135,6|10,0:0|0:0,0:0:0:0:
352,104,140825,2,0,L|388:224,1,90,2|10,3:2|0:0,0:0:0:0:
288,196,141441,6,0,B|220:224|168:184|168:184|104:212,1,180,4|0,0:0|1:0,0:0:0:0:
36,240,142364,2,0,P|8:176|40:104,2,135,8|2|2,0:0|0:0|3:2,0:0:0:0:
112,288,143595,1,8,0:0:0:0:
200,288,143902,2,0,B|336:264|336:264|380:296,1,180,4|2,0:0|3:2,0:0:0:0:
444,336,144825,2,0,P|472:280|432:192,2,135,8|2|2,0:0|0:0|3:2,0:0:0:0:
364,376,146056,2,0,P|320:356|260:360,1,90,8|4,0:0|0:0,0:0:0:0:
188,364,146671,6,0,L|164:220,1,135,8|2,0:0|0:0,0:0:0:0:
172,140,147441,2,0,B|216:156|256:132|256:132|292:164|292:164|328:144|328:144|400:140,1,225,6|6,0:0|3:2,0:0:0:0:
460,176,148518,1,12,0:0:0:0:
400,240,148825,2,0,B|372:304|396:344|396:344|344:352|296:380,1,180,6|0,0:0|0:0,0:0:0:0:
224,280,149902,2,0,P|168:260|112:252,1,90,2|12,0:0|0:0,0:0:0:0:
52,280,150518,2,0,P|48:204|52:120,1,135,2|12,3:2|0:0,0:0:0:0:
140,136,151287,1,4,3:2:0:0:
180,296,161133,38,0,P|248:316|320:292,1,135,6|2,0:0|0:0,0:0:0:0:
368,232,161902,1,2,0:0:0:0:
328,152,162210,2,0,B|260:124|208:164|208:164|164:116,1,180,2|2,0:0|0:0,0:0:0:0:
112,56,163133,1,2,0:0:0:0:
24,156,163595,2,0,L|40:304,1,135,4|2,3:2|0:0,0:0:0:0:
108,348,164364,1,2,0:0:0:0:
184,304,164671,2,0,P|304:280|376:292,1,180,2|2,0:0|0:0,0:0:0:0:
440,328,165595,2,0,L|456:164,1,135,2|4,0:0|0:0,0:0:0:0:
372,84,166518,6,0,P|316:112|224:96,1,135,2|8,0:0|0:0,0:0:0:0:
120,52,167441,2,0,P|148:108|132:200,1,135,2|4,0:0|0:0,0:0:0:0:
88,248,168210,1,8,0:0:0:0:
136,324,168518,2,2,B|240:296|240:296|256:264|256:264|292:296|352:296,1,225,6|2,0:1|0:0,0:1:0:0:
420,308,169595,2,2,P|444:240|400:144,1,180,0|0,3:2|3:2,0:1:0:0:
288,76,170671,2,0,L|172:100,1,90,8|4,0:0|3:2,0:0:0:0:
112,112,171286,5,0,0:0:0:0:
168,184,171594,2,0,P|284:208|312:240,2,135
84,216,172825,1,2,0:0:0:0:
56,300,173132,2,0,L|172:312,1,90,4|0,0:0|0:0,0:0:0:0:
232,292,173748,2,0,P|308:296|372:256,2,135,0|0|2,0:0|0:0|0:0,0:0:0:0:
188,212,174979,2,0,L|204:116,1,90,2|4,0:0|0:0,0:0:0:0:
268,60,175594,5,0,0:0:0:0:
320,132,175902,2,0,P|408:128|452:80,2,135,0|0|2,0:0|0:0|0:0,0:0:0:0:
268,208,177132,2,0,L|164:232,1,90,2|4,0:0|0:0,0:0:0:0:
116,292,177748,1,0,0:0:0:0:
56,224,178055,2,0,P|48:152|64:88,2,135,0|0|2,0:0|0:0|0:0,0:0:0:0:
132,176,179286,1,2,0:0:0:0:
212,216,179594,38,0,B|272:228|320:196,1,90,4|0,0:0|0:0,0:0:0:0:
372,156,180209,2,0,P|448:140|516:184,2,135,0|0|2,0:0|0:0|0:0,0:0:0:0:
376,244,181440,2,0,L|344:344,1,90,2|4,0:0|0:0,0:0:0:0:
264,356,182055,1,0,0:0:0:0:
192,304,182363,2,0,B|176:224|216:232|192:152,2,135,0|0|2,0:0|0:0|0:0,0:0:0:0:
112,344,183594,1,2,0:0:0:0:
40,292,183902,6,0,P|20:220|40:148,1,135,4|2,0:0|0:0,0:0:0:0:
148,92,184825,2,0,P|168:164|148:236,1,135,2|2,0:0|0:0,0:0:0:0:
248,320,185748,2,0,B|312:272|392:300,1,135,4|4,0:0|0:0,0:0:0:0:
412,164,186671,2,0,B|348:212|268:184,1,135,4|4,0:0|0:0,0:0:0:0:
184,100,187594,1,4,1:0:0:0:
256,192,192517,12,0,197440,0:0:0:0:
348,80,209747,6,0,P|412:76|456:80,2,90,4|2|2,3:2|3:0|3:0,0:0:0:0:
316,168,210670,2,0,P|404:172|500:168,1,180,2|2,3:0|3:0,0:0:0:0:
460,252,211594,2,0,P|456:308|456:348,1,90,2|2,3:0|3:0,0:0:0:0:
368,356,212209,2,0,B|284:388|284:320|188:356,1,180,4|2,0:0|3:0,0:0:0:0:
108,328,213132,2,0,P|52:248|96:160,1,180,2|2,3:0|3:0,0:0:0:0:
140,112,214055,1,2,3:0:0:0:
224,144,214363,1,0,3:0:0:0:
312,120,214670,6,0,P|384:116|488:120,1,135,4|0,3:2|0:0,0:0:0:0:
476,204,215440,1,0,0:0:0:0:
388,220,215747,2,0,P|340:224|264:224,1,90,0|0,0:0|0:0,0:0:0:0:
228,280,216363,2,0,L|72:288,1,135,0|8,3:0|3:2,0:0:0:0:
32,220,217132,2,0,B|16:152|36:88|24:24,1,180,4|2,0:0|3:0,0:0:0:0:
112,72,218055,1,8,3:2:0:0:
188,120,218363,2,0,P|272:92|300:96,1,90,2|2,3:0|3:0,0:0:0:0:
360,116,218978,2,0,P|388:200|384:228,1,90,2|10,0:2|0:2,0:0:0:0:
316,252,219594,38,0,B|236:232|176:288,2,135,4|2|8,1:2|0:0|0:0,0:0:0:0:
428,328,220978,2,0,P|456:268|440:180,1,135,2|2,0:0|3:2,0:0:0:0:
376,148,221747,1,8,0:0:0:0:
300,100,222055,2,0,L|156:128,2,135,4|2|8,1:2|0:0|0:0,0:0:0:0:
384,72,223286,1,0,0:0:0:0:
460,124,223594,2,0,P|472:228|412:296,1,180,8|8,0:0|0:0,0:0:0:0:
344,260,224517,6,0,B|276:236|204:272,1,135,4|4,1:2|1:2,0:0:0:0:
132,304,225286,1,2,0:0:0:0:
96,220,225594,2,0,L|112:92,2,90,4|4|4,1:2|0:0|3:2,0:0:0:0:
24,276,226517,1,2,0:0:0:0:
156,292,226978,2,0,B|220:280|220:280|268:304|328:296,2,135,4|4|8,1:2|1:2|0:0,0:0:0:0:
172,204,228209,2,0,L|188:88,1,90,0|2,1:0|1:0,0:0:0:0:
276,116,228824,2,0,L|292:232,1,90,2|2,1:0|1:0,0:0:0:0:
372,236,229440,6,0,P|404:172|384:88,2,135,4|0|8,1:2|3:0|0:0,0:0:0:0:
278,332,230824,2,0,P|225:293|151:298,1,135,2|2,0:0|0:0,0:0:0:0:
76,333,231594,1,8,0:0:0:0:
45,248,231901,2,0,L|66:98,1,135,4|2,1:2|0:0,0:0:0:0:
191,71,232824,2,0,B|257:46|257:46|336:66,1,135,8|2,3:2|0:0,0:0:0:0:
434,132,233747,1,2,3:2:0:0:
386,208,234055,1,8,0:0:0:0:
450,271,234363,6,0,B|431:321|370:328|370:328|314:291|242:315,1,225,4|2,1:2|0:0,0:0:0:0:
168,332,235440,2,0,P|116:324|80:300,1,90,4|4,0:2|0:0,0:0:0:0:
104,216,236055,2,0,L|76:68,1,135,2|8,0:0|0:0,0:0:0:0:
168,64,236824,2,0,L|276:88,1,90,4|8,0:0|0:2,0:0:0:0:
344,112,237440,2,0,B|392:88|440:96|440:96|480:72,2,135,4|4|8,0:0|0:0|0:0,0:0:0:0:
296,188,238670,2,0,P|288:244|304:288,1,90,2|0,0:0|1:0,0:0:0:0:
352,348,239286,38,0,L|184:372,1,135,4|0,1:0|3:2,0:0:0:0:
144,316,240055,1,2,3:2:0:0:
208,252,240363,2,2,B|232:192|200:144|200:144|220:56,1,180,2|2,3:1|0:1,0:1:0:0:
344,44,241440,2,0,L|328:160,1,90,10|2,0:0|0:1,0:0:0:0:
404,188,242055,2,0,L|384:340,1,135,8|0,0:0|3:0,0:0:0:0:
308,364,242824,2,2,P|204:352|176:256,1,180,2|2,3:1|1:1,0:1:0:0:
224,168,243901,1,8,0:0:0:0:
152,116,244209,6,0,L|32:144,2,90,2|8|0,0:1|0:0|0:0,0:0:0:0:
228,64,245132,2,0,B|304:92|304:92|372:80|372:80|360:136,1,180,10|10,0:0|0:0,0:0:0:0:
320,188,246055,2,0,P|368:208|440:192,1,90,2|8,3:1|0:0,0:0:0:0:
484,160,246670,2,2,P|496:240|472:320,1,135,2|2,3:1|3:1,0:1:0:0:
400,328,247440,1,2,3:1:0:0:
324,280,247747,2,2,B|248:264|188:300|188:300|88:264,1,225,2|2,3:1|3:2,0:1:0:0:
64,196,248824,1,10,0:0:0:0:
108,116,249132,6,0,L|212:92,1,90,4|8,0:0|0:0,0:0:0:0:
276,136,249747,1,0,0:0:0:0:
360,104,250055,2,0,B|416:72|472:96|472:96|496:176,1,180,8|8,0:0|3:2,0:0:0:0:
424,216,250978,2,0,L|416:328,1,90,2|10,3:1|0:0,0:0:0:0:
336,344,251594,2,0,P|264:352|184:348,1,135,4|2,0:0|3:1,0:0:0:0:
120,308,252363,1,2,3:1:0:0:
64,240,252670,2,2,P|180:224|224:252,1,135,2|8,3:1|0:0,0:1:0:0:
276,268,253440,2,0,P|324:264|372:256,1,90,2|10,3:2|0:0,0:0:0:0:
448,224,254055,6,2,P|436:112|428:84,2,135,4|0|8,0:0|3:0|0:0,0:1:0:0:
308,336,255594,2,0,L|216:324,2,90,8|0|8,0:0|3:0|0:0,0:0:0:0:
388,292,256517,2,0,L|360:124,3,135,4|2|8|2,0:0|0:0|0:0|0:0,0:0:0:0:
260,240,258363,2,0,P|208:256|160:252,2,90,2|2|4,0:2|3:2|0:0,0:0:0:0:
256,192,259286,12,2,261440,3:2:0:0:
116,320,263901,6,0,L|100:152,1,144,6|2,0:0|0:0,0:0:0:0:
164,64,264978,2,0,P|256:56|308:100,1,144,2|0,3:2|0:0,0:0:0:0:
324,212,266055,1,0,1:0:0:0:
264,272,266363,2,0,L|104:244,1,144,2|2,3:2|0:0,0:0:0:0:
100,120,267440,2,0,L|280:152,1,180,2|0,3:2|3:0,0:0:0:0:
360,120,268517,1,0,1:0:0:0:
444,92,268824,6,0,P|472:172|400:268,1,180,4|0,0:0|3:0,0:0:0:0:
352,288,269901,2,0,B|280:252|192:284|192:284|100:232,1,252,2|0,3:2|1:0,0:0:0:0:
60,176,271286,2,0,P|56:132|64:80,1,72,2|0,3:2|1:0,0:0:0:0:
128,52,271901,2,0,L|256:60,2,108,0|0|0,0:0|3:0|1:0,0:0:0:0:
152,136,273132,2,0,L|228:144,1,72,0|0,3:0|1:0,0:0:0:0:
268,216,273747,70,0,P|352:176|420:188,1,144,4|0,0:0|0:0,0:0:0:0:
352,300,274824,2,0,P|320:320|204:316,1,144,0|0,3:0|3:0,0:0:0:0:
116,240,275901,1,0,1:0:0:0:
188,188,276209,2,0,L|204:92,2,72,4|2|2,0:0|0:0|0:0,0:0:0:0:
264,292,277286,2,0,L|396:276,1,108,2|2,0:0|0:0,0:0:0:0:
448,204,278209,2,0,P|450:166|444:116,1,72.9000017797852
