osu file format v14

[General]
AudioFilename: audio.mp3
AudioLeadIn: 0
PreviewTime: 62057
Countdown: 0
SampleSet: Soft
StackLeniency: 0.7
Mode: 0
LetterboxInBreaks: 0
WidescreenStoryboard: 1

[Editor]
DistanceSpacing: 1
BeatDivisor: 4
GridSize: 4
TimelineZoom: 1.4

[Metadata]
Title:ChRoNiClESeVeN feat. Annabel
TitleUnicode:ChRøNiClESeVeN feat. Annabel
Artist:sasakure.UK
ArtistUnicode:sasakure.UK
Creator:Delis
Version:Insane
Source:セブンスドラゴンⅢ code:VFD
Tags:7th dragon III RLC VINXIS Chromoxx Arrival
BeatmapID:1360649
BeatmapSetID:630014

[Difficulty]
HPDrainRate:8
CircleSize:4
OverallDifficulty:9
ApproachRate:9
SliderMultiplier:1.8
SliderTickRate:2

[Events]
//Background and Video events
0,0,"BEGE.jpg",0,0
//Break Periods
2,151487,159918
//Storyboard Layer 0 (Background)
//Storyboard Layer 1 (Fail)
//Storyboard Layer 2 (Pass)
//Storyboard Layer 3 (Foreground)
//Storyboard Sound Samples

[TimingPoints]
1021,357.142857142857,4,2,1,5,1,0
1378,468.75,4,2,1,5,1,0
1846,612.244897959184,4,2,1,5,1,0
2458,394.736842105263,4,2,1,5,1,0
2852,447.761194029851,4,2,1,5,1,0
3299,535.714285714286,4,2,1,5,1,0
3834,566.037735849057,4,2,1,5,1,0
4400,545.454545454546,4,2,1,5,1,0
4945,461.538461538462,4,2,1,5,1,0
5406,612.244897959184,4,2,1,5,1,0
6018,545.454545454546,4,2,1,5,1,0
6563,439.56043956044,4,2,1,5,1,0
7442,530.973451327434,4,2,1,5,1,0
7972,447.761194029851,4,2,1,5,1,0
8867,357.142857142857,4,2,1,40,1,0
11724,-100,4,2,1,5,0,0
12211,307.692307692308,4,2,1,50,1,0
12211,-111.111111111111,4,2,1,50,0,0
21595,-100,4,2,1,50,0,0
22057,-100,4,2,2,60,0,0
31903,-100,4,2,1,60,0,0
41749,-100,4,2,2,60,0,0
45518,-100,4,2,3,60,0,0
45826,-100,4,2,2,60,0,0
50441,-100,4,2,3,60,0,0
51595,-125,4,2,1,60,0,0
55903,-125,4,2,1,30,0,0
56057,-125,4,2,1,60,0,0
56211,-125,4,2,1,40,0,0
56364,-125,4,2,1,60,0,0
56826,-100,4,2,2,60,0,0
57518,-100,4,2,1,60,0,0
57749,-100,4,2,2,60,0,0
57980,-100,4,2,1,60,0,0
58134,-100,4,2,2,60,0,0
58287,-100,4,2,3,60,0,0
58826,-125,4,2,3,60,0,0
60211,-100,4,2,3,60,0,0
62057,307.692307692308,4,2,2,70,1,0
70826,-100,4,2,3,70,0,0
71749,-100,4,2,2,70,0,0
75749,-100,4,2,3,70,0,0
76441,-100,4,2,2,70,0,0
82441,-100,4,2,1,70,0,0
82595,-100,4,2,2,70,0,0
85210,-100,4,2,1,70,0,0
85364,-100,4,2,2,70,0,0
86518,-100,4,2,3,70,0,0
86672,-100,4,2,2,70,0,0
87364,-100,4,2,1,70,0,0
87518,-100,4,2,2,70,0,0
89826,-100,4,2,1,70,0,0
89980,-100,4,2,2,70,0,0
91364,-100,4,2,1,70,0,0
91595,307.692307692308,3,2,1,70,1,0
91595,-125,3,2,1,70,0,0
97133,-111.111111111111,3,2,2,60,0,0
97595,-133.333333333333,3,2,2,60,0,0
98056,-166.666666666667,3,2,2,60,0,0
98518,-222.222222222222,3,2,2,60,0,0
98979,-20000,3,2,2,40,0,0
101133,-10000,3,2,2,50,0,0
101441,307.692307692308,4,2,2,50,1,0
101441,-111.111111111111,4,2,2,50,0,0
110210,-111.111111111111,4,2,1,60,0,0
111287,-100,4,2,2,60,0,0
111979,-100,4,2,1,60,0,0
112133,-100,4,2,2,60,0,0
116056,-100,4,2,1,60,0,0
116210,-100,4,2,2,60,0,0
119979,-100,4,2,1,60,0,0
121133,-125,4,2,1,60,0,0
125441,-125,4,2,1,30,0,0
125594,-125,4,2,1,60,0,0
125748,-125,4,2,1,40,0,0
125902,-100,4,2,1,60,0,0
126056,-100,4,2,2,60,0,0
126748,-100,4,2,3,60,0,0
126902,-100,4,2,2,60,0,0
127825,-100,4,2,3,60,0,0
128210,-100,4,2,1,60,0,0
128517,-125,4,2,3,60,0,0
129748,-100,4,2,3,60,0,0
131595,307.692307692308,4,2,2,70,1,0
135902,-100,4,2,1,70,0,0
135979,-100,4,2,2,70,0,0
140364,-100,4,2,3,70,0,0
141441,-100,4,2,2,70,0,0
160825,-100,4,2,1,60,0,0
161441,-100,4,2,2,60,0,0
170979,307.692307692308,7,3,2,60,1,0
183902,307.692307692308,6,2,1,60,1,0
185748,307.692307692308,3,2,2,60,1,0
187594,307.692307692308,4,2,3,60,1,0
187670,-100,4,2,3,30,0,0
193747,-100,4,2,3,40,0,0
195055,-100,4,2,3,50,0,0
196209,-100,4,2,3,55,0,0
197440,-100,4,2,3,10,0,0
199901,-125,4,2,1,50,0,0
204747,-125,4,2,1,10,0,0
204824,-125,4,2,1,50,0,0
209747,-100,4,2,2,60,0,0
213824,-100,4,2,1,60,0,0
213978,-100,4,2,2,60,0,0
214132,-100,4,2,1,60,0,0
214286,-100,4,2,2,60,0,0
218978,-100,4,2,3,70,0,0
219747,-100,4,2,2,80,0,0
229286,-100,4,2,2,70,0,0
229440,-100,4,2,2,80,0,0
233440,-100,4,2,3,80,0,0
234055,-100,4,2,2,80,0,0
239363,-100,4,2,3,80,0,0
250670,-100,4,2,2,80,0,0
251132,-100,4,2,3,80,0,0
253209,-100,4,2,2,80,0,0
253517,-100,4,2,3,80,0,0
255670,-100,4,2,2,80,0,0
255978,-100,4,2,3,80,0,0
256440,-100,4,2,2,80,0,0
258363,-100,4,2,3,70,0,0
261440,-100,4,2,3,60,0,0
278055,-153.846153846154,4,2,3,60,0,0
278363,348.837209302326,4,2,3,60,1,0
278363,-111.111111111111,4,2,3,60,0,0

[Colours]
Combo1 : 114,114,114
Combo2 : 111,172,128
Combo3 : 167,159,105
Combo4 : 48,203,199
Combo5 : 182,109,155
Combo6 : 165,165,165

[HitObjects]
256,192,8867,12,0,11724,0:0:0:0:
152,280,12211,6,0,L|248:272,1,80.9999975280763,2|0,0:0|0:0,0:0:0:0:
280,344,12518,2,0,L|296:168,1,161.999995056153
368,224,12980,2,0,B|412:232|460:228,1,80.9999975280763
416,120,13287,2,0,B|392:64|308:60|280:112,1,161.999995056153,2|0,0:0|0:0,0:0:0:0:
208,176,13749,1,0,0:0:0:0:
112,132,13903,2,0,B|116:44,1,80.9999975280763,2|0,0:0|0:0,0:0:0:0:
208,176,14211,2,0,B|204:220|204:264,1,80.9999975280763
120,212,14518,1,0,0:0:0:0:
296,216,14672,5,2,0:0:0:0:
296,216,14980,2,0,B|300:176|296:128,1,80.9999975280763
280,44,15287,1,0,0:0:0:0:
384,120,15441,1,0,0:0:0:0:
228,164,15595,1,0,0:0:0:0:
384,120,15749,2,0,B|388:164|384:224,1,80.9999975280763,2|0,0:0|0:0,0:0:0:0:
228,164,16057,2,0,B|232:124|232:80,1,80.9999975280763
268,256,16364,2,0,B|226:250|172:248,1,80.9999975280763
104,284,16672,2,0,B|76:136,1,121.499996292114,2|0,0:0|0:0,0:0:0:0:
72,124,16980,2,0,B|92:132|120:128,1,40.4999987640381
184,176,17134,5,2,0:0:0:0:
184,176,17441,1,0,0:0:0:0:
272,232,17595,1,0,0:0:0:0:
352,160,17749,1,0,0:0:0:0:
352,160,17903,2,0,B|392:164|440:164,1,80.9999975280763
364,328,18211,2,0,B|324:324|276:324,1,80.9999975280763,2|0,0:0|0:0,0:0:0:0:
232,168,18518,2,0,B|264:196|308:216,1,80.9999975280763
176,344,18826,2,0,B|192:308|208:248,1,80.9999975280763,2|0,0:0|0:0,0:0:0:0:
148,200,19134,5,0,0:0:0:0:
280,276,19287,1,0,0:0:0:0:
252,120,19441,1,0,0:0:0:0:
120,308,19595,2,0,B|124:364|200:400|252:360,1,161.999995056153,2|0,0:0|0:0,0:0:0:0:
376,341,20057,2,0,B|368:277|304:245|244:287,1,161.999995056153
152,344,20518,2,0,B|148:304|148:260,1,80.9999975280763
204,40,20826,2,0,B|232:132|200:212,1,161.999995056153,2|0,0:0|0:0,0:0:0:0:
128,152,21287,2,0,B|64:152|36:144,1,80.9999975280763
296,192,21595,38,0,L|356:196,1,45,2|0,0:0|0:0,0:0:0:0:
356,204,21749,2,0,L|428:208,1,45,2|0,0:0|0:0,0:0:0:0:
416,216,21903,2,0,L|480:220,1,45,2|0,0:0|0:0,0:0:0:0:
480,232,22057,5,6,0:0:0:0:
388,288,22211,1,0,0:0:0:0:
464,144,22364,2,0,B|464:88|456:40,1,90,8|2,0:0|0:0,0:0:0:0:
308,180,22672,1,0,0:0:0:0:
388,288,22826,1,2,0:0:0:0:
252,320,22980,1,8,0:0:0:0:
220,128,23134,5,2,0:2:0:0:
220,128,23441,1,2,0:0:0:0:
360,188,23595,1,8,0:0:0:0:
224,240,23749,1,0,3:0:0:0:
224,240,23826,1,0,3:0:0:0:
224,240,23903,1,0,3:0:0:0:
280,76,24057,1,2,0:0:0:0:
288,192,24211,1,8,0:0:0:0:
168,156,24364,1,2,0:0:0:0:
316,328,24518,6,0,B|320:284|320:232,1,90,2|0,0:2|0:0,0:0:0:0:
128,136,24826,2,0,B|124:184|124:232,1,90,8|2,0:2|0:0,0:0:0:0:
144,308,25134,1,2,3:0:0:0:
48,268,25287,1,2,0:0:0:0:
204,188,25441,1,8,0:0:0:0:
48,132,25595,37,2,0:0:0:0:
48,132,25903,1,2,0:0:0:0:
127,225,26057,1,8,0:0:0:0:
148,84,26211,1,2,3:2:0:0:
148,84,26287,1,8,3:2:0:0:
148,84,26364,1,2,0:0:0:0:
244,196,26518,1,2,0:0:0:0:
108,300,26672,1,8,0:0:0:0:
72,160,26826,1,2,0:0:0:0:
108,300,26980,6,0,B|156:300|200:296,1,90,4|0,0:0|0:0,0:0:0:0:
344,196,27287,1,8,0:0:0:0:
252,128,27441,1,2,0:0:0:0:
432,84,27595,1,2,3:0:0:0:
384,272,27749,1,2,0:0:0:0:
328,144,27903,1,8,0:0:0:0:
488,192,28057,2,0,B|492:272|496:312,1,90,2|0,0:0|0:0,0:0:0:0:
392,364,28364,5,2,0:0:0:0:
256,288,28518,1,8,0:0:0:0:
388,204,28672,1,0,3:0:0:0:
388,204,28749,1,0,3:0:0:0:
388,204,28826,1,2,3:2:0:0:
328,128,28980,1,2,0:2:0:0:
348,288,29134,1,8,0:0:0:0:
196,244,29287,1,2,0:0:0:0:
208,144,29441,6,0,B|204:96|196:40,1,90,2|0,0:0|0:0,0:0:0:0:
40,216,29749,2,0,B|44:264|52:320,1,90,8|2,0:0|0:0,0:0:0:0:
196,244,30057,1,2,3:0:0:0:
76,176,30211,1,2,0:0:0:0:
240,100,30364,1,8,0:0:0:0:
208,276,30518,2,0,B|158:270|114:262,1,90,2|0,0:0|0:0,0:0:0:0:
200,172,30826,37,2,0:0:0:0:
256,352,30980,1,8,0:0:0:0:
320,216,31134,1,2,3:2:0:0:
364,204,31211,1,0,3:2:0:0:
408,212,31287,1,2,3:2:0:0:
444,236,31364,1,0,3:2:0:0:
464,276,31441,1,2,3:2:0:0:
256,352,31595,1,8,0:0:0:0:
256,80,31749,1,2,3:2:0:0:
256,80,31826,1,4,3:0:0:0:
256,80,31903,2,0,B|216:76|156:72,1,90,4|0,3:2|0:0,0:0:0:0:
444,96,32211,6,0,B|448:144|448:200,1,90,8|0,0:0|3:0,0:0:0:0:
384,248,32518,1,0,0:0:0:0:
456,300,32672,1,0,3:0:0:0:
456,300,32826,1,8,0:0:0:0:
328,328,32980,6,0,B|276:336|228:340,1,90,0|0,3:0|0:0,0:0:0:0:
240,124,33287,1,0,3:0:0:0:
256,220,33441,1,8,0:0:0:0:
320,148,33595,2,0,L|368:136,1,45,8|0,0:0|0:0,0:0:0:0:
404,152,33749,2,0,B|456:148|480:96,1,90,0|2,3:0|3:0,0:0:0:0:
336,236,34057,5,8,0:0:0:0:
260,284,34211,1,2,3:0:0:0:
188,332,34364,1,2,3:2:0:0:
188,332,34672,2,0,B|136:352|96:316,1,90,8|0,0:0|3:0,0:0:0:0:
228,208,34980,1,2,0:2:0:0:
188,332,35134,1,0,3:0:0:0:
260,284,35287,1,8,0:0:0:0:
152,256,35441,2,0,L|132:152,1,90,0|0,3:0|0:0,0:0:0:0:
116,56,35749,37,0,3:0:0:0:
208,96,35903,1,10,0:0:0:0:
64,160,36057,2,0,B|24:144|4:112,1,45,2|0,3:0|0:0,0:0:0:0:
12,116,36211,2,0,B|36:68|-8:16,1,90,0|2,3:0|3:0,0:0:0:0:
40,232,36518,1,8,0:0:0:0:
112,268,36672,1,2,3:2:0:0:
204,132,36826,5,6,0:0:0:0:
204,132,37134,2,0,B|256:128|284:168,1,90,8|0,0:0|3:0,0:0:0:0:
332,288,37441,1,0,0:0:0:0:
240,252,37595,1,0,3:0:0:0:
328,168,37749,1,8,0:0:0:0:
428,320,37903,2,0,B|424:272|424:216,1,90,0|0,3:0|0:0,0:0:0:0:
264,136,38211,5,0,3:0:0:0:
168,184,38364,1,8,0:0:0:0:
176,76,38518,1,0,0:0:0:0:
176,76,38595,1,0,0:0:0:0:
176,76,38672,1,0,3:0:0:0:
312,152,38826,1,2,0:0:0:0:
312,152,38980,2,0,B|264:160|204:160,1,90,10|0,0:0|3:0,0:0:0:0:
40,268,39287,6,0,B|120:248|256:244,1,180,0|8,3:0|0:0,0:0:0:0:
484,312,39749,2,0,B|404:332|268:336,1,180,0|0,3:0|3:0,0:0:0:0:
300,232,40211,1,8,0:0:0:0:
408,216,40364,1,0,3:0:0:0:
228,332,40518,37,0,0:0:0:0:
180,184,40672,1,0,3:0:0:0:
336,124,40826,1,8,0:0:0:0:
300,232,40980,2,0,L|244:256,1,45,0|8,3:0|0:0,0:0:0:0:
140,288,41134,5,0,3:0:0:0:
132,283,41211,1,0,0:0:0:0:
124,278,41287,1,0,3:0:0:0:
116,273,41364,1,0,0:0:0:0:
108,268,41441,1,0,0:0:0:0:
100,263,41518,1,0,0:0:0:0:
92,258,41595,1,0,3:0:0:0:
84,253,41672,1,0,0:0:0:0:
76,248,41749,2,0,L|59:57,1,180,6|8,0:2|0:0,0:0:0:0:
152,128,42211,5,2,0:0:0:0:
328,188,42364,1,0,0:0:0:0:
328,188,42518,2,0,B|348:144|328:72,1,90,2|8,0:0|0:0,0:0:0:0:
184,216,42826,1,2,0:0:0:0:
256,156,42980,1,0,0:0:0:0:
220,300,43134,1,2,0:0:0:0:
96,224,43287,1,8,0:0:0:0:
224,56,43441,5,2,3:2:0:0:
224,56,43518,1,0,3:0:0:0:
224,56,43595,1,2,3:0:0:0:
152,160,43749,1,2,0:0:0:0:
260,232,43903,2,0,B|308:228|352:216,1,90,8|0,0:0|0:0,0:0:0:0:
452,32,44211,38,0,B|484:96|428:160|356:144,1,180,4|8,0:0|0:0,0:0:0:0:
312,64,44672,1,2,0:0:0:0:
363,145,44826,1,0,0:0:0:0:
212,192,44980,1,2,0:0:0:0:
328,304,45134,1,8,0:0:0:0:
292,172,45287,2,0,B|284:120|272:72,1,90
172,304,45595,1,2,3:2:0:0:
296,260,45749,1,10,0:0:0:0:
88,228,45903,5,2,3:2:0:0:
88,228,45980,1,0,3:0:0:0:
88,228,46057,2,0,B|80:280|80:328,1,90,0|2,3:0|0:0,0:0:0:0:
252,360,46364,1,8,0:0:0:0:
264,136,46518,1,2,1:0:0:0:
264,136,46672,2,0,B|216:136|168:144,1,90,4|0,0:0|0:0,0:0:0:0:
216,232,46980,6,0,B|328:220|424:212,1,180,8|0,0:0|0:0,0:0:0:0:
224,312,47441,2,0,B|172:316|124:324,1,90,2|8,0:0|0:0,0:0:0:0:
124,176,47749,2,0,B|124:128|116:76,1,90,2|0,0:0|0:0,0:0:0:0:
308,72,48057,1,2,0:0:0:0:
320,164,48211,1,8,0:0:0:0:
228,132,48364,1,0,3:0:0:0:
228,132,48441,1,0,3:0:0:0:
228,132,48518,1,2,3:0:0:0:
400,104,48672,1,2,0:0:0:0:
248,232,48826,5,8,0:0:0:0:
264,320,48980,1,2,0:0:0:0:
344,260,49134,2,0,B|424:240|508:248,1,135,4|0,0:0|0:0,0:0:0:0:
492,248,49441,1,8,0:0:0:0:
264,320,49595,2,0,B|220:340|160:312|164:240,1,135,2|0,0:0|0:0,0:0:0:0:
168,248,49903,1,2,0:0:0:0:
224,128,50057,1,8,0:0:0:0:
116,168,50211,1,2,0:0:0:0:
264,320,50364,37,0,0:0:0:0:
376,248,50518,1,2,3:2:0:0:
356,336,50672,1,10,0:0:0:0:
280,232,50826,1,2,0:2:0:0:
460,280,50980,5,2,0:0:0:0:
460,280,51134,1,2,0:0:0:0:
488,160,51287,1,10,0:0:0:0:
488,160,51441,1,4,0:3:0:0:
452,80,51595,6,0,B|360:64|276:76,1,144,4|0,0:0|0:0,0:0:0:0:
196,168,52057,1,2,0:0:0:0:
196,168,52211,2,0,B|248:180|296:176,1,72,0|0,1:0|0:0,0:0:0:0:
196,72,52518,2,0,B|112:48|60:120,2,144,2|0|0,0:0|0:0|0:0,0:0:0:0:
284,44,53287,2,0,B|384:28|384:28|436:64,2,144,0|0|2,0:0|0:0|0:0,0:0:0:0:
264,128,54057,6,0,L|248:272,1,144,2|0,0:0|0:0,0:0:0:0:
160,316,54518,1,2,0:0:0:0:
164,224,54672,1,0,1:0:0:0:
248,272,54826,1,0,0:0:0:0:
332,320,54980,1,2,0:0:0:0:
336,224,55134,1,0,0:0:0:0:
160,316,55287,2,0,B|104:324|60:272|80:216,1,144
144,168,55749,2,0,B|148:128|148:88,1,72,0|0,3:0|1:0,0:0:0:0:
4,192,56057,2,0,B|0:232|0:272,1,72,2|0,3:2|0:0,0:0:0:0:
152,324,56364,37,2,3:0:0:0:
220,256,56518,1,4,0:0:0:0:
220,256,56826,1,8,0:0:0:0:
304,316,56980,1,2,3:2:0:0:
304,316,57057,1,0,3:0:0:0:
304,316,57134,1,0,3:0:0:0:
152,324,57287,1,2,0:0:0:0:
212,172,57441,5,4,0:0:0:0:
304,316,57595,2,0,B|356:320|396:296,1,90,2|8,0:0|0:0,0:0:0:0:
324,188,57903,5,4,3:2:0:0:
148,80,58057,2,0,B|96:92|52:128,1,90,2|8,0:0|0:0,0:0:0:0:
228,320,58364,5,10,0:0:0:0:
204,212,58518,1,10,0:0:0:0:
124,284,58672,1,2,0:0:0:0:
300,248,58826,38,0,B|352:184|464:224|456:312,1,216,4|4,0:0|0:1,0:0:0:0:
224,308,59595,2,0,B|192:268|116:284|100:336,1,144,8|4,0:0|3:1,0:0:0:0:
172,368,60057,1,8,0:0:0:0:
160,204,60211,6,0,B|156:156|144:100,1,90,0|0,0:0|3:0,0:0:0:0:
292,216,60518,2,0,B|284:172|272:112,1,90,4|8,0:1|0:0,0:0:0:0:
400,276,60826,2,0,B|440:208|392:140,1,135,8|8,0:0|0:0,0:0:0:0:
376,132,61134,1,4,0:1:0:0:
496,212,61287,1,0,3:0:0:0:
256,192,61364,12,4,62057,0:0:0:0:
156,268,62364,69,8,0:0:0:0:
284,276,62518,2,0,L|464:288,1,180,2|2,0:0|0:0,0:0:0:0:
240,344,62980,1,8,0:0:0:0:
252,176,63133,1,2,0:0:0:0:
392,184,63287,1,0,0:0:0:0:
284,276,63441,5,2,0:0:0:0:
216,96,63595,1,8,0:0:0:0:
380,40,63749,1,0,3:0:0:0:
380,40,63826,1,8,3:2:0:0:
380,40,63903,2,0,B|428:32|484:28,1,90,2|2,3:2|0:0,0:0:0:0:
288,240,64210,2,0,B|240:248|184:252,1,90,8|2,0:0|0:0,0:0:0:0:
56,264,64518,5,4,0:0:0:0:
148,312,64672,1,0,0:0:0:0:
176,176,64826,1,8,0:0:0:0:
84,132,64980,1,2,0:0:0:0:
112,236,65133,1,0,0:0:0:0:
200,88,65287,1,2,0:0:0:0:
288,216,65441,6,0,B|356:240|420:192|404:116,1,180,8|0,0:0|0:0,0:0:0:0:
296,48,65903,1,2,0:0:0:0:
316,136,66057,1,8,0:0:0:0:
220,116,66210,37,2,3:2:0:0:
220,116,66287,1,8,3:2:0:0:
220,116,66364,1,0,3:0:0:0:
204,280,66518,1,2,0:0:0:0:
288,216,66672,1,8,0:0:0:0:
124,120,66826,5,8,0:0:0:0:
124,120,66903,1,2,0:0:0:0:
124,120,66980,1,4,0:0:0:0:
212,200,67133,1,0,0:0:0:0:
96,244,67287,1,8,0:0:0:0:
80,96,67441,1,6,0:0:0:0:
80,96,67749,1,2,0:0:0:0:
184,168,67903,1,8,0:0:0:0:
351,108,68057,6,0,B|316:80|256:84,1,90,4|0,0:0|0:0,0:0:0:0:
156,240,68364,2,0,B|195:268|247:264,1,90,6|8,0:0|0:0,0:0:0:0:
332,192,68672,1,6,3:2:0:0:
332,192,68749,1,8,3:2:0:0:
332,192,68826,1,0,1:0:0:0:
236,160,68980,1,2,0:0:0:0:
324,276,69133,1,12,0:0:0:0:
404,128,69287,1,2,0:0:0:0:
212,272,69441,6,0,B|164:276|108:288,1,90,4|0,0:0|0:0,0:0:0:0:
184,360,69749,1,8,0:0:0:0:
296,160,69903,2,0,B|248:164|192:176,1,90,6|0,0:0|0:0,0:0:0:0:
264,248,70210,1,2,0:0:0:0:
300,68,70364,1,8,0:0:0:0:
432,188,70518,38,0,B|468:248|432:320|360:324,1,180,6|2,0:0|3:2,0:0:0:0:
276,312,70980,1,10,0:0:0:0:
224,240,71133,2,0,L|232:184,1,45,2|0,3:2|3:0,0:0:0:0:
184,324,71287,5,2,0:0:0:0:
316,224,71441,1,2,3:2:0:0:
300,352,71595,1,10,0:0:0:0:
172,148,71749,5,8,3:3:0:0:
172,148,71826,1,4,3:0:0:0:
172,148,71903,2,0,B|152:84|68:64|16:124,1,180,4|8,3:2|0:0,0:0:0:0:
276,104,72364,2,0,B|296:36|380:16|432:80,1,180,2|2,0:0|0:0,0:0:0:0:
448,176,72826,5,8,0:0:0:0:
360,236,72980,2,0,B|328:296|368:344|368:344|328:344|300:368,1,180,2|2,0:0|0:0,0:0:0:0:
192,308,73441,1,8,0:0:0:0:
96,360,73595,1,2,3:2:0:0:
96,360,73672,1,8,3:2:0:0:
96,360,73749,1,0,3:0:0:0:
132,160,73903,1,2,0:0:0:0:
216,232,74057,1,8,0:0:0:0:
108,264,74210,1,2,0:0:0:0:
320,236,74364,38,0,B|372:200|368:104|296:64,1,180,4|8,0:0|0:0,0:0:0:0:
176,180,74826,2,0,B|124:228|136:316|200:352,1,180,2|2,0:0|0:0,0:0:0:0:
248,256,75287,1,8,0:0:0:0:
72,296,75441,2,0,B|8:272|0:184|64:148,1,180,2|2,0:0|3:2,0:0:0:0:
148,172,75903,1,10,0:2:0:0:
232,124,76057,1,2,3:2:0:0:
232,124,76133,1,8,0:2:0:0:
232,124,76210,2,0,B|236:180|236:224,1,90,2|2,0:2|3:2,0:0:0:0:
160,256,76518,5,8,0:0:0:0:
316,164,76672,1,2,0:2:0:0:
176,56,76826,2,0,B|132:28|80:36,1,90,4|0,0:0|0:0,0:0:0:0:
136,192,77133,1,8,0:0:0:0:
300,80,77287,2,0,B|348:56|400:64,1,90,6|0,0:0|0:0,0:0:0:0:
504,180,77595,1,2,0:0:0:0:
388,352,77749,5,8,0:0:0:0:
480,288,77903,1,6,0:0:0:0:
360,184,78057,1,0,0:0:0:0:
348,312,78210,1,6,0:0:0:0:
448,184,78364,1,8,0:0:0:0:
280,244,78518,1,2,3:2:0:0:
280,244,78595,1,8,3:2:0:0:
280,244,78672,2,0,B|232:252|180:248,1,90,8|2,3:2|0:0,0:0:0:0:
240,328,78980,1,12,0:0:0:0:
236,172,79133,1,2,0:0:0:0:
48,180,79287,6,0,B|44:136|48:80,1,90,4|0,0:0|0:0,0:0:0:0:
152,160,79595,1,8,0:0:0:0:
156,60,79749,1,6,0:0:0:0:
256,280,79903,37,0,0:0:0:0:
80,296,80057,1,2,0:0:0:0:
256,280,80210,1,8,0:0:0:0:
80,296,80364,2,0,B|40:268|32:212|64:172,1,135,6|0,0:0|0:0,0:0:0:0:
96,152,80672,1,12,0:0:0:0:
96,152,80826,1,8,0:0:0:0:
220,208,80980,6,0,L|208:144,1,45,2|2,0:0|0:0,0:0:0:0:
188,44,81133,1,8,0:0:0:0:
132,140,81287,1,2,0:0:0:0:
284,108,81441,1,12,0:0:0:0:
312,264,81595,1,0,3:0:0:0:
312,264,81672,1,0,3:0:0:0:
312,264,81749,1,4,3:2:0:0:
312,264,82057,2,0,B|372:260|424:264,1,90,8|2,0:0|0:0,0:0:0:0:
260,168,82364,5,0,0:0:0:0:
196,296,82518,1,2,0:0:0:0:
88,136,82672,1,8,0:0:0:0:
32,240,82826,2,0,B|72:212|136:224,1,90
224,72,83133,5,2,0:0:0:0:
196,212,83287,1,8,0:0:0:0:
328,96,83441,1,0,3:0:0:0:
328,96,83518,1,0,3:0:0:0:
328,96,83595,1,2,3:2:0:0:
360,196,83749,1,2,3:0:0:0:
248,148,83903,1,8,0:0:0:0:
344,20,84057,1,2,0:0:0:0:
464,120,84210,38,0,B|512:176|484:264|396:268,1,180,2|8,0:0|0:0,0:0:0:0:
340,224,84672,1,2,0:0:0:0:
252,264,84826,2,0,B|204:260|152:260,1,90,0|2,0:0|0:0,0:0:0:0:
208,348,85133,1,8,0:0:0:0:
300,360,85287,2,0,B|348:364|396:360,1,90,2|0,0:0|0:0,0:0:0:0:
492,216,85595,5,2,0:0:0:0:
492,216,85749,1,8,0:0:0:0:
436,292,85903,1,0,3:0:0:0:
436,292,85980,1,0,3:0:0:0:
436,292,86057,1,2,3:0:0:0:
448,120,86210,5,0,0:0:0:0:
332,252,86364,1,8,0:0:0:0:
280,80,86518,1,2,3:1:0:0:
352,160,86672,6,0,L|248:184,1,90,4|0,0:0|0:0,0:0:0:0:
200,356,86980,2,0,L|304:332,1,90,8|2,0:0|0:0,0:0:0:0:
176,252,87287,1,0,0:0:0:0:
264,180,87441,1,2,3:2:0:0:
287,335,87595,1,8,0:0:0:0:
264,180,87749,1,0,3:0:0:0:
264,180,88057,1,2,0:0:0:0:
324,244,88210,37,8,0:0:0:0:
260,96,88364,1,0,3:0:0:0:
260,96,88441,1,0,3:0:0:0:
260,96,88518,1,0,3:0:0:0:
352,140,88672,1,2,3:0:0:0:
240,256,88826,1,8,0:0:0:0:
400,284,88980,1,2,0:0:0:0:
436,208,89133,6,0,B|436:156|440:104,1,90,2|0,0:0|0:0,0:0:0:0:
296,188,89441,1,8,0:0:0:0:
436,208,89595,1,2,0:0:0:0:
296,188,89749,1,0,0:0:0:0:
352,280,89903,1,2,3:2:0:0:
360,128,90057,1,8,0:0:0:0:
196,200,90210,2,0,B|148:206|84:208,1,90,2|0,0:0|0:0,0:0:0:0:
52,128,90518,5,2,0:0:0:0:
172,96,90672,1,8,0:0:0:0:
48,288,90826,1,0,3:0:0:0:
48,288,90903,1,0,3:0:0:0:
48,288,90980,1,2,3:2:0:0:
184,300,91133,1,0,0:0:0:0:
106,207,91287,5,8,0:0:0:0:
106,207,91441,1,2,0:0:0:0:
106,207,91595,2,0,L|270:195,1,144,6|0,0:0|0:0,0:0:0:0:
344,172,92056,2,0,L|432:164,2,72,2|0|0,0:0|1:0|0:0,0:0:0:0:
276,120,92518,1,2,0:0:0:0:
200,148,92671,2,0,L|40:124,1,144,0|2,0:0|0:0,0:0:0:0:
228,56,93133,1,0,1:0:0:0:
312,156,93287,1,0,0:0:0:0:
280,240,93441,38,0,B|292:292|360:312|408:272,1,144,2|0,0:0|0:0,0:0:0:0:
192,192,93902,2,0,B|156:228|168:304|228:320,1,144,2|0,0:0|0:0,0:0:0:0:
364,204,94364,2,0,B|404:164|388:92|328:76,1,144,2|0,0:0|0:0,0:0:0:0:
292,152,94825,5,8,3:0:0:0:
188,60,94979,1,4,3:0:0:0:
64,104,95133,1,8,3:0:0:0:
152,152,95287,6,0,B|188:200|160:264|100:272,1,144,4|0,0:0|0:0,0:0:0:0:
32,316,95748,1,0,3:0:0:0:
32,316,95825,1,0,3:0:0:0:
32,316,95902,1,0,3:0:0:0:
132,352,96056,1,2,3:2:0:0:
80,192,96210,6,0,B|44:144|72:80|132:72,1,144,2|0,0:0|0:0,0:0:0:0:
220,120,96671,1,0,3:0:0:0:
220,120,96748,1,0,3:0:0:0:
220,120,96825,2,0,B|264:124|304:120,1,72,0|0,3:0|3:0,0:0:0:0:
392,216,97133,38,0,B|356:48,1,161.999995056153,4|0,0:0|3:0,0:0:0:0:
290,280,97595,2,0,B|300:140,1,135.000005149842,4|0,0:0|3:0,0:0:0:0:
184,308,98056,2,0,B|212:204,1,107.999996704102,4|0,0:0|3:0,0:0:0:0:
68,292,98518,2,0,B|108:272|124:232,1,80.9999975280763,4|0,0:0|3:0,0:0:0:0:
256,32,98979,54,2,L|256:160,1,126,4|0,1:0|1:0,0:1:0:0:
256,312,101441,22,0,B|200:348|140:324|128:260,2,161.999995056153,4|2|2,0:0|0:0|0:0,0:0:0:0:
336,244,102210,2,0,B|336:192|332:140,1,80.9999975280763,0|2,0:0|0:0,0:0:0:0:
316,60,102517,1,0,0:0:0:0:
240,124,102671,1,2,0:0:0:0:
144,128,102825,2,0,B|100:104|100:40,1,80.9999975280763,0|2,0:0|0:0,0:0:0:0:
212,44,103133,5,0,0:0:0:0:
272,204,103287,1,2,0:0:0:0:
240,124,103441,1,0,0:0:0:0:
192,268,103594,2,0,B|132:292|72:240|92:172,1,161.999995056153,2|2,0:0|0:0,0:0:0:0:
272,204,104056,1,0,0:0:0:0:
332,136,104210,6,0,B|332:88|336:40,1,80.9999975280763,2|0,0:0|0:0,0:0:0:0:
240,124,104517,1,2,0:0:0:0:
356,224,104671,1,0,0:0:0:0:
208,256,104825,1,2,0:0:0:0:
320,344,104979,2,0,B|368:348|412:344,1,80.9999975280763,0|2,0:0|0:0,0:0:0:0:
320,200,105287,5,0,0:0:0:0:
136,240,105441,2,0,B|84:244|40:240,1,80.9999975280763,2|0,0:0|0:0,0:0:0:0:
200,180,105748,37,2,0:0:0:0:
216,268,105902,1,0,0:0:0:0:
292,208,106056,1,2,0:0:0:0:
280,120,106210,1,0,0:0:0:0:
68,216,106364,2,0,B|76:256|84:308,1,80.9999975280763,4|0,0:0|0:0,0:0:0:0:
168,328,106671,5,2,0:0:0:0:
244,244,106825,1,0,0:0:0:0:
176,160,106979,1,2,0:0:0:0:
332,220,107133,1,0,0:0:0:0:
256,328,107287,1,2,0:0:0:0:
260,108,107441,5,0,0:0:0:0:
260,108,107517,1,0,0:0:0:0:
260,108,107594,2,0,B|312:108|344:124,1,80.9999975280763,2|0,0:0|0:0,0:0:0:0:
456,208,107902,1,0,0:0:0:0:
468,104,108056,1,0,0:0:0:0:
468,104,108210,1,2,0:0:0:0:
392,264,108364,1,0,0:0:0:0:
272,112,108517,1,2,0:0:0:0:
108,208,108671,5,0,3:0:0:0:
108,208,108748,1,0,3:0:0:0:
108,208,108825,2,0,B|168:220|240:204,1,121.499996292114,2|0,3:2|0:0,0:0:0:0:
264,192,109133,1,2,0:0:0:0:
200,76,109287,2,0,B|144:72|104:80,1,80.9999975280763,0|2,0:0|0:0,0:0:0:0:
119,77,109594,1,0,0:0:0:0:
316,140,109748,2,0,B|320:184|316:228,1,80.9999975280763,2|0,0:0|0:0,0:0:0:0:
228,168,110056,37,2,0:0:0:0:
352,76,110210,1,2,0:2:0:0:
444,200,110364,1,2,3:2:0:0:
320,292,110517,1,2,0:2:0:0:
400,200,110671,5,2,3:2:0:0:
348,128,110825,1,2,0:2:0:0:
272,176,110979,1,2,3:2:0:0:
320,252,111133,1,2,0:2:0:0:
408,144,111287,6,0,B|388:96|328:92,1,90,6|0,0:0|0:0,0:0:0:0:
140,112,111594,2,0,L|228:96,1,90,2|0,0:0|0:0,0:0:0:0:
88,232,111902,1,2,1:0:0:0:
32,152,112056,2,0,B|32:104|36:56,1,90,2|2,0:0|0:0,0:0:0:0:
184,204,112364,2,0,L|288:200,1,90,0|2,0:0|0:0,0:0:0:0:
384,296,112671,5,0,0:0:0:0:
340,132,112825,1,2,0:0:0:0:
476,248,112979,1,0,0:0:0:0:
424,116,113133,2,2,B|452:184|392:244|328:228,1,180,2|2,1:0|0:0,1:0:0:0:
200,112,113594,1,0,0:0:0:0:
332,44,113748,2,0,B|388:44|444:48,1,90,2|0,0:0|0:0,0:0:0:0:
292,248,114056,38,0,B|236:288|156:248|160:180,1,180,2|2,0:0|1:0,0:0:0:0:
260,76,114517,1,0,0:0:0:0:
276,164,114671,1,2,0:0:0:0:
356,104,114825,1,0,3:0:0:0:
356,104,114902,1,0,3:0:0:0:
356,104,114979,1,2,3:2:0:0:
184,136,115133,6,0,B|132:140|96:100,1,90,0|2,0:0|0:0,0:0:0:0:
392,260,115441,2,0,B|396:216|400:164,1,90,0|2,0:0|1:0,0:0:0:0:
256,312,115748,1,2,3:0:0:0:
256,312,115902,2,0,B|204:328|164:288,1,90,2|2,0:0|0:0,0:0:0:0:
112,136,116210,1,6,0:0:0:0:
192,220,116364,1,0,0:0:0:0:
304,148,116517,6,0,B|304:92|300:40,1,90,2|0,0:0|0:0,0:0:0:0:
200,168,116825,1,2,1:0:0:0:
320,236,116979,1,0,0:0:0:0:
212,296,117133,1,2,0:0:0:0:
384,176,117287,2,0,B|432:168|492:168,1,90,0|2,0:0|0:0,0:0:0:0:
301,288,117594,2,0,B|253:296|201:296,1,90,0|2,0:0|0:0,0:0:0:0:
100,180,117902,5,0,3:0:0:0:
100,180,117979,1,0,3:0:0:0:
100,180,118056,1,2,1:0:0:0:
208,96,118210,2,2,B|280:72|336:128|320:200,1,180,0|0,0:0|0:0,0:0:0:0:
256,264,118671,37,2,0:0:0:0:
180,200,118825,1,0,0:0:0:0:
268,164,118979,1,2,0:0:0:0:
168,288,119133,5,0,0:0:0:0:
148,124,119287,1,2,1:0:0:0:
32,220,119441,1,0,0:0:0:0:
180,200,119594,2,0,B|244:192|296:188,1,90,2|2,0:0|0:0,0:0:0:0:
336,248,119902,5,2,0:0:0:0:
356,160,120056,1,2,0:0:0:0:
280,104,120210,1,2,3:2:0:0:
269,190,120364,1,2,0:0:0:0:
392,136,120517,5,2,3:2:0:0:
472,232,120671,1,2,0:2:0:0:
336,248,120825,1,2,3:2:0:0:
408,344,120979,1,2,0:2:0:0:
300,324,121133,37,4,0:0:0:0:
300,324,121287,2,0,B|252:332|208:328,1,72
184,248,121594,1,2,0:0:0:0:
184,248,121748,2,0,B|224:252|276:244,1,72,0|0,1:0|0:0,0:0:0:0:
344,216,122056,2,0,L|332:124,1,72,2|0,0:0|0:0,0:0:0:0:
316,56,122364,2,0,B|368:40|420:84|416:136,1,144
256,116,122825,2,0,B|212:80|148:92|124:152,2,144,0|0|2,0:0|0:0|0:0,0:0:0:0:
208,256,123594,5,2,0:0:0:0:
208,256,123748,2,0,L|224:168,1,72
352,280,124056,1,2,0:0:0:0:
352,280,124210,2,0,L|272:312,1,72,0|0,1:0|0:0,0:0:0:0:
304,144,124517,2,0,L|372:201,1,72,2|0,0:0|0:0,0:0:0:0:
216,336,124825,2,0,B|160:356|108:316|112:256,1,144
184,212,125287,2,0,B|180:176|172:140,1,72,0|0,0:0|1:0,0:0:0:0:
80,128,125594,2,0,B|84:168|92:204,1,72,0|0,0:0|1:0,0:0:0:0:
248,140,125902,5,2,0:0:0:0:
180,60,126056,2,0,L|372:80,1,180,4|8,0:0|0:0,0:0:0:0:
448,36,126517,1,2,3:2:0:0:
448,36,126594,1,0,3:2:0:0:
448,36,126671,1,0,3:0:0:0:
496,168,126825,1,10,0:0:0:0:
392,256,126979,1,4,0:0:0:0:
408,148,127133,5,0,0:0:0:0:
480,272,127287,1,8,0:0:0:0:
356,344,127441,1,4,0:0:0:0:
284,220,127594,1,0,0:0:0:0:
392,256,127748,1,8,0:0:0:0:
256,40,127902,37,10,0:0:0:0:
256,40,128056,2,0,L|256:140,1,90,10|2,0:0|0:0,0:0:0:0:
280,312,128364,5,4,0:0:0:0:
280,312,128517,2,0,B|264:260|208:240|156:272,1,144,0|4,0:0|0:1,0:0:0:0:
56,128,129133,2,0,B|112:152|164:116|160:52,1,144,8|4,0:0|3:1,0:0:0:0:
232,128,129594,5,10,0:0:0:0:
232,128,129748,2,0,B|280:136|328:148,1,90,4|8,0:0|0:0,0:0:0:0:
272,336,130056,2,0,B|224:328|176:316,1,90,4|8,0:1|0:0,0:0:0:0:
140,200,130364,5,8,0:0:0:0:
384,260,130594,1,8,0:0:0:0:
384,260,130671,1,8,0:0:0:0:
256,228,130825,1,8,0:0:0:0:
256,192,130902,12,4,131595,0:0:0:0:
128,104,131902,37,8,0:0:0:0:
128,104,132056,2,0,B|120:196|136:292,1,180,2|2,0:0|0:0,0:0:0:0:
216,216,132518,1,8,0:0:0:0:
244,348,132671,1,2,0:0:0:0:
348,256,132825,1,0,0:0:0:0:
268,276,132979,5,2,0:0:0:0:
228,136,133133,1,8,0:0:0:0:
372,160,133287,1,0,3:0:0:0:
372,160,133364,1,8,3:2:0:0:
372,160,133441,1,2,3:2:0:0:
336,340,133595,1,2,0:0:0:0:
168,284,133748,2,0,B|132:244|68:260,1,90,8|2,0:0|0:0,0:0:0:0:
312,72,134056,6,0,L|412:56,1,90,4|0,0:0|0:0,0:0:0:0:
372,160,134364,1,8,0:0:0:0:
212,208,134518,2,0,L|116:188,1,90,2|0,0:0|0:0,0:0:0:0:
184,116,134825,1,2,0:0:0:0:
352,336,134979,2,0,B|416:360|480:296|444:220,1,180,8|0,0:0|0:0,0:0:0:0:
316,152,135441,5,2,0:0:0:0:
264,248,135595,1,8,0:0:0:0:
232,72,135748,1,2,3:2:0:0:
232,72,135825,1,8,3:2:0:0:
232,72,135902,1,2,3:2:0:0:
404,132,136056,1,2,0:0:0:0:
320,312,136210,2,0,B|256:320|216:328,1,90,8|2,0:0|0:0,0:0:0:0:
52,148,136518,38,0,B|72:204|168:212|204:152,1,180,4|8,0:0|0:0,0:0:0:0:
469,320,136979,2,0,B|449:264|353:256|317:316,1,180,6|2,0:0|0:0,0:0:0:0:
196,264,137441,1,8,0:0:0:0:
376,180,137595,2,0,B|376:116|368:72,1,90,6|0,0:0|0:0,0:0:0:0:
288,248,137902,1,6,0:0:0:0:
184,168,138056,1,8,0:0:0:0:
148,304,138210,5,0,3:0:0:0:
148,304,138287,1,8,3:2:0:0:
148,304,138364,1,6,3:2:0:0:
256,164,138518,1,2,0:0:0:0:
336,312,138671,2,0,B|384:316|440:308,1,90,12|2,0:0|0:0,0:0:0:0:
228,320,138979,5,4,0:0:0:0:
360,208,139133,1,0,0:0:0:0:
268,80,139287,1,8,0:0:0:0:
436,160,139441,1,6,0:0:0:0:
268,196,139595,1,0,0:0:0:0:
320,332,139748,1,2,0:0:0:0:
436,260,139902,1,8,0:0:0:0:
332,132,140056,6,0,B|276:92|196:120|176:192,1,180,6|2,0:0|3:2,0:0:0:0:
168,272,140518,1,10,0:0:0:0:
88,216,140671,2,0,L|96:156,1,45,2|0,3:2|3:0,0:0:0:0:
168,352,140825,1,2,3:2:0:0:
216,188,140979,37,2,0:0:0:0:
256,352,141133,1,10,0:0:0:0:
84,312,141287,1,2,3:2:0:0:
312,248,141441,6,0,B|368:204|364:124|280:96,1,180,4|8,0:0|0:0,0:0:0:0:
212,52,141902,2,0,B|124:116|24:68,1,180,2|2,0:0|0:0,0:0:0:0:
160,164,142364,1,8,0:0:0:0:
160,164,142518,2,0,B|208:180|252:196,1,90,2|0,0:0|0:0,0:0:0:0:
136,328,142825,5,2,0:0:0:0:
48,288,142979,2,0,B|52:248|48:192,1,90,8|0,0:0|3:0,0:0:0:0:
40,164,143210,1,8,3:2:0:0:
40,164,143287,2,0,B|40:116|44:64,1,90,2|2,3:2|0:0,0:0:0:0:
168,52,143595,1,8,0:0:0:0:
260,152,143748,1,2,0:0:0:0:
152,272,143902,6,0,B|100:284|56:244,1,90,4|0,0:0|0:0,0:0:0:0:
148,128,144210,1,8,0:0:0:0:
340,176,144364,1,0,3:0:0:0:
340,176,144441,1,8,3:2:0:0:
340,176,144518,2,0,B|404:180|464:192,1,90,2|2,3:2|0:0,0:0:0:0:
272,68,144825,1,8,0:0:0:0:
168,176,144979,2,0,B|112:176|64:160,1,90,2|0,0:0|0:0,0:0:0:0:
52,52,145287,37,2,0:0:0:0:
104,244,145441,1,8,0:2:0:0:
148,60,145595,1,0,3:2:0:0:
148,60,145671,1,8,3:2:0:0:
148,60,145748,1,2,3:2:0:0:
168,176,145902,1,2,0:0:0:0:
68,128,146056,1,8,0:0:0:0:
224,100,146210,1,4,0:3:0:0:
104,244,146364,6,0,B|56:260|-4:268,1,90,4|0,0:0|0:0,0:0:0:0:
320,300,146671,1,8,0:0:0:0:
320,300,146825,2,0,B|332:252|360:184,1,90,6|0,0:0|0:0,0:0:0:0:
184,260,147133,2,0,B|172:308|144:376,1,90,2|8,0:0|0:0,0:0:0:0:
224,136,147441,6,0,B|176:120|128:104,1,90,6|0,0:0|0:0,0:0:0:0:
280,304,147748,2,0,B|328:312|372:324,1,90,6|8,0:0|0:0,0:0:0:0:
480,144,148056,1,0,3:0:0:0:
440,124,148133,1,8,3:2:0:0:
396,124,148210,1,6,3:2:0:0:
268,156,148364,1,2,0:0:0:0:
204,52,148518,5,12,0:0:0:0:
356,160,148671,1,2,0:0:0:0:
192,220,148825,2,0,B|140:212|80:196,1,90,6|0,0:0|0:0,0:0:0:0:
168,128,149133,1,8,0:0:0:0:
276,264,149287,1,6,0:0:0:0:
268,104,149441,1,0,0:0:0:0:
192,220,149595,1,2,0:0:0:0:
356,200,149748,1,12,0:0:0:0:
192,324,149902,38,0,B|148:328|88:324,1,90,2|0,0:0|0:0,0:0:0:0:
208,136,150210,1,12,0:0:0:0:
208,136,150364,1,8,0:0:0:0:
268,308,150518,1,2,3:2:0:0:
268,308,150595,1,8,3:0:0:0:
268,308,150671,1,0,3:0:0:0:
336,192,150825,1,8,0:3:0:0:
156,240,150979,1,12,0:0:0:0:
248,216,151133,1,0,3:0:0:0:
248,216,151210,1,0,3:0:0:0:
248,216,151287,1,4,3:2:0:0:
364,292,160518,5,0,0:0:0:0:
348,296,160595,1,0,0:0:0:0:
332,300,160671,1,0,0:0:0:0:
316,304,160748,1,0,0:0:0:0:
300,308,160825,1,2,0:0:0:0:
284,312,160902,1,2,0:0:0:0:
268,316,160979,1,2,0:0:0:0:
252,320,161056,1,2,0:0:0:0:
236,324,161133,2,0,B|172:320|136:236|184:180,1,180,6|8,0:0|0:0,0:0:0:0:
336,208,161595,6,0,B|360:168|344:120,1,90,2|0,0:0|0:0,0:0:0:0:
144,36,161902,2,0,B|120:80|136:128,1,90,2|8,0:0|0:0,0:0:0:0:
232,240,162210,2,0,B|256:180|256:180|228:100,1,135,2|0,0:0|0:0,0:0:0:0:
232,113,162518,1,2,0:0:0:0:
300,48,162671,1,8,0:0:0:0:
288,184,162825,1,2,0:0:0:0:
152,168,162979,1,2,0:0:0:0:
260,260,163133,1,2,0:0:0:0:
276,112,163287,1,8,0:0:0:0:
112,188,163441,5,0,3:0:0:0:
112,188,163518,1,0,3:0:0:0:
112,188,163595,2,0,B|96:264|96:264|136:296|132:360,1,180,4|8,3:2|0:0,0:0:0:0:
220,288,164056,2,0,B|264:264|296:244|296:244|328:280|376:288,1,180,2|2,0:0|0:0,0:0:0:0:
456,144,164518,1,8,0:0:0:0:
356,68,164671,38,0,B|312:24|220:40|192:104,1,180,2|2,0:0|0:0,0:0:0:0:
112,48,165133,1,8,0:0:0:0:
32,164,165287,2,0,B|40:216|40:216|28:256|28:256|40:304|40:304|32:348,1,180,2|2,0:0|0:0,0:0:0:0:
172,320,165748,5,8,0:0:0:0:
208,296,165825,1,0,0:0:0:0:
252,292,165902,1,8,0:0:0:0:
292,308,165979,1,0,0:0:0:0:
324,340,166056,2,0,L|392:324,1,45,4|0,0:0|0:0,0:0:0:0:
420,212,166210,2,0,L|412:268,1,45,2|0,0:0|0:0,0:0:0:0:
292,228,166364,2,0,L|356:212,1,45,8|0,0:0|0:0,0:0:0:0:
368,128,166518,6,0,L|376:64,1,45,2|0,0:0|0:0,0:0:0:0:
220,144,166671,2,0,L|284:156,1,45
296,72,166825,2,0,L|304:8,1,45,2|0,0:0|0:0,0:0:0:0:
204,232,166979,6,0,L|152:220,1,45,8|0,0:0|0:0,0:0:0:0:
180,80,167133,2,0,L|192:140,1,45,2|0,0:0|0:0,0:0:0:0:
292,216,167287,38,0,L|256:172,1,45
256,44,167441,2,0,L|268:104,1,45,2|0,0:0|0:0,0:0:0:0:
384,212,167595,6,0,L|372:160,1,45,8|0,0:0|0:0,0:0:0:0:
336,16,167748,2,0,L|348:76,1,45,2|8,0:0|0:0,0:0:0:0:
468,128,167902,5,4,0:0:0:0:
464,152,167979,1,0,0:0:0:0:
460,176,168056,1,2,0:0:0:0:
456,200,168133,1,0,0:0:0:0:
452,220,168210,1,8,0:0:0:0:
448,240,168287,1,0,0:0:0:0:
444,260,168364,1,2,0:0:0:0:
440,280,168441,1,0,0:0:0:0:
436,300,168518,2,2,B|372:316|332:276|332:276|300:296|260:292,1,180,6|8,0:1|0:0,0:1:0:0:
156,356,168979,6,0,B|152:300|156:260,1,90,2|0,0:0|0:0,0:0:0:0:
332,92,169287,2,0,B|336:148|332:188,1,90,2|8,0:0|0:0,0:0:0:0:
152,140,169595,1,0,3:2:0:0:
152,140,169671,1,0,3:2:0:0:
152,140,169748,1,6,3:2:0:0:
268,248,169902,1,2,0:0:0:0:
252,56,170056,1,8,0:0:0:0:
60,224,170210,37,8,0:2:0:0:
104,232,170287,1,8,3:2:0:0:
148,220,170364,1,2,3:2:0:0:
368,156,170518,2,0,B|368:104|360:60,1,90,2|8,0:0|0:0,0:0:0:0:
236,168,170825,1,8,3:2:0:0:
236,212,170902,1,4,3:3:0:0:
248,256,170979,1,4,3:2:0:0:
128,296,171286,6,0,L|116:220,2,60
140,316,171594,2,0,L|252:324,1,90
480,236,172055,5,2,0:0:0:0:
480,236,172363,1,2,0:0:0:0:
304,252,172517,1,2,0:0:0:0:
372,116,172671,1,2,0:0:0:0:
408,340,172825,2,0,B|380:292|404:228,1,90,2|2,0:0|0:0,0:0:0:0:
432,160,173132,5,4,0:0:0:0:
432,160,173440,1,0,0:0:0:0:
428,88,173543,1,0,0:0:0:0:
364,52,173645,1,0,0:0:0:0:
292,64,173748,1,0,0:0:0:0:
340,164,173902,2,0,B|280:192|208:156|204:72,1,180
205,88,174517,37,2,0:0:0:0:
320,36,174671,1,2,0:0:0:0:
340,220,174825,1,2,0:0:0:0:
420,116,174979,1,2,0:0:0:0:
268,148,175132,1,2,0:0:0:0:
300,292,175286,5,4,0:0:0:0:
300,292,175594,2,0,L|220:276,1,60
200,204,175799,2,0,L|120:188,1,60
284,216,176055,1,0,0:0:0:0:
440,152,176363,5,0,0:0:0:0:
440,152,176671,1,2,0:0:0:0:
352,268,176825,1,2,0:0:0:0:
240,132,176979,1,2,0:0:0:0:
352,184,177132,1,2,0:0:0:0:
336,52,177286,1,2,0:0:0:0:
164,72,177440,5,4,0:0:0:0:
164,72,177748,1,0,0:0:0:0:
112,44,177850,1,0,0:0:0:0:
60,72,177953,1,0,0:0:0:0:
8,44,178055,1,0,0:0:0:0:
52,176,178209,2,0,B|88:212|140:200,1,90
248,136,178517,2,0,B|264:320,1,180,0|2,0:0|0:0,0:0:0:0:
184,368,178979,37,2,0:0:0:0:
344,248,179132,1,2,0:0:0:0:
172,276,179286,1,2,0:0:0:0:
356,344,179440,1,2,0:0:0:0:
263,315,179594,5,4,0:0:0:0:
263,315,179902,1,0,0:0:0:0:
236,248,180004,1,0,0:0:0:0:
260,180,180107,1,0,0:0:0:0:
324,152,180209,1,0,0:0:0:0:
400,228,180363,2,0,B|448:212|496:192,1,90
352,340,180671,6,0,B|340:276|256:248|192:308,1,180,0|2,0:0|0:0,0:0:0:0:
140,360,181132,1,2,0:0:0:0:
68,256,181286,1,2,0:0:0:0:
180,172,181440,1,2,0:0:0:0:
52,344,181594,1,2,0:0:0:0:
12,196,181748,5,4,0:0:0:0:
12,196,182055,2,0,B|16:160|28:120,1,60
64,76,182261,1,0,0:0:0:0:
132,56,182363,2,0,B|184:52|240:64,1,90
300,144,182671,1,0,0:0:0:0:
480,64,182825,38,0,B|412:44|360:116|396:184,1,180,0|2,0:0|0:0,0:0:0:0:
456,256,183286,1,2,0:0:0:0:
344,328,183440,1,2,0:0:0:0:
392,176,183594,1,2,0:0:0:0:
432,304,183748,1,2,0:0:0:0:
288,252,183902,6,0,B|284:196|292:132,1,90,4|0,0:0|0:0,0:0:0:0:
192,212,184209,1,0,0:0:0:0:
64,264,184363,2,0,B|12:224|36:132|112:124,1,180,2|0,0:0|0:0,0:0:0:0:
232,332,184825,2,0,B|292:364|292:364|356:332|336:272,1,180,2|0,0:0|0:0,0:0:0:0:
232,56,185286,2,0,B|216:108|184:128|184:128|204:228,1,180,2|0,0:0|0:0,0:0:0:0:
320,132,185748,6,0,B|368:108|416:80,1,90,4|0,0:0|0:0,0:0:0:0:
399,89,186055,1,0,0:0:0:0:
324,240,186209,2,0,B|372:216|420:188,1,90,4|0,0:0|0:0,0:0:0:0:
403,197,186517,1,0,0:0:0:0:
260,324,186671,6,0,B|304:336|360:344,1,90,4|0,0:0|0:0,0:0:0:0:
348,342,186978,1,0,0:0:0:0:
148,200,187132,2,0,B|192:212|248:220,1,90,4|0,0:0|0:0,0:0:0:0:
236,218,187440,1,0,0:0:0:0:
380,160,187594,1,4,1:0:0:0:
256,192,187670,12,4,190055,0:1:0:0:
256,192,190132,12,4,192517,0:1:0:0:
256,192,192594,12,4,194978,0:1:0:0:
256,192,195055,12,0,197440,0:0:0:0:
208,352,199901,38,0,L|200:200,1,144,2|0,0:0|0:0,0:0:0:0:
304,212,200363,2,0,L|296:364,1,144,2|0,0:0|0:0,0:0:0:0:
132,304,200824,2,0,L|120:144,1,144,2|0,0:0|0:0,0:0:0:0:
384,160,201286,2,0,L|372:320,1,144,2|0,0:0|0:0,0:0:0:0:
209,279,201747,2,0,L|197:179,1,72,2|0,0:0|0:0,0:0:0:0:
304,212,202055,2,0,L|292:312,1,72,2|2,0:0|0:0,0:0:0:0:
312,112,202363,6,0,B|384:84|456:112,1,144,2|0,0:0|0:0,0:0:0:0:
200,112,202824,2,0,B|124:80|56:112,1,144,2|0,0:0|0:0,0:0:0:0:
96,240,203286,2,0,B|112:292|164:312|216:272,1,144,2|0,0:0|0:0,0:0:0:0:
416,240,203747,2,0,B|400:292|348:312|300:272,1,144,2|0,0:0|0:0,0:0:0:0:
260,192,204209,1,2,0:0:0:0:
336,136,204363,1,2,0:0:0:0:
240,52,204517,2,0,B|172:56|100:64,1,108
116,96,204824,6,0,B|60:116|56:184|108:212,1,144,2|0,0:0|0:0,0:0:0:0:
192,180,205286,2,0,B|248:200|252:268|200:296,1,144,2|0,0:0|0:0,0:0:0:0:
120,320,205747,1,2,0:0:0:0:
120,320,205901,2,0,B|72:312|40:300,1,72
205,292,206209,2,0,B|248:300|296:320,1,72,2|0,0:0|0:0,0:0:0:0:
380,352,206517,1,2,0:0:0:0:
380,352,206670,2,0,L|384:256,1,72,2|0,0:0|0:0,0:0:0:0:
440,184,206978,2,0,L|444:92,1,72,2|0,0:0|0:0,0:0:0:0:
368,40,207286,6,0,B|276:24|244:112,1,144,2|0,0:0|0:0,0:0:0:0:
168,52,207747,2,0,B|128:136|212:192,1,144,2|0,0:0|0:0,0:0:0:0:
120,236,208209,1,2,0:0:0:0:
120,236,208363,2,0,B|184:296|268:248,1,144,0|2,0:0|0:0,0:0:0:0:
424,184,208824,2,0,B|376:168|336:180,1,72,0|2,0:0|0:0,0:0:0:0:
252,256,209132,1,2,1:2:0:0:
352,176,209286,1,0,0:0:0:0:
296,324,209440,37,2,1:2:0:0:
308,96,209594,1,0,0:0:0:0:
200,148,209747,6,0,L|100:136,1,90,4|0,3:2|0:0,0:0:0:0:
252,256,210055,2,0,L|352:228,1,90,2|0,3:0|0:0,0:0:0:0:
120,224,210363,2,0,L|24:284,1,90,2|0,3:0|0:0,0:0:0:0:
296,164,210670,2,0,L|328:68,1,90,2|0,3:0|3:0,0:0:0:0:
324,78,210901,1,0,3:0:0:0:
324,78,210978,2,0,B|372:88|372:88|404:132,1,90,2|0,3:0|0:0,0:0:0:0:
267,344,211286,6,0,L|251:252,1,90,2|0,3:0|0:0,0:0:0:0:
356,296,211594,2,0,B|412:304|448:260,1,90,2|0,3:0|0:0,0:0:0:0:
184,168,211901,2,0,B|152:204|152:256,1,90,2|2,3:0|3:0,0:0:0:0:
316,176,212209,5,4,0:0:0:0:
272,64,212363,2,0,L|148:40,1,90,0|2,0:0|3:0,0:0:0:0:
372,88,212670,1,0,0:0:0:0:
216,156,212824,2,0,L|236:252,1,90,2|0,3:0|0:0,0:0:0:0:
316,176,213132,1,2,3:0:0:0:
136,228,213286,38,2,B|64:224|32:140|100:88,1,180,0|0,0:0|0:0,0:1:0:0:
216,156,213747,1,2,3:0:0:0:
120,176,213901,1,2,0:2:0:0:
196,72,214055,1,2,3:0:0:0:
240,236,214209,1,0,0:0:0:0:
288,96,214363,5,0,3:0:0:0:
100,56,214517,1,0,3:0:0:0:
100,56,214594,1,0,3:0:0:0:
100,56,214670,2,0,B|32:40|-28:104|0:176,1,180,4|2,3:2|3:3,0:0:0:0:
164,136,215132,2,0,B|216:124|256:136,1,90,0|2,0:0|3:0,0:0:0:0:
176,256,215440,1,0,0:0:0:0:
176,256,215594,1,2,3:0:0:0:
88,188,215747,5,0,0:0:0:0:
164,136,215901,1,2,3:0:0:0:
232,332,216055,1,0,0:0:0:0:
88,292,216209,1,2,3:0:0:0:
252,168,216363,5,0,3:0:0:0:
252,168,216440,1,0,3:0:0:0:
252,168,216517,1,8,3:2:0:0:
272,272,216670,1,0,0:0:0:0:
156,180,216824,37,8,3:2:0:0:
300,76,216978,1,8,3:2:0:0:
392,284,217132,6,0,B|464:280|492:196|444:144,2,180,4|8|2,0:0|3:2|3:0,0:0:0:0:
284,180,217901,2,0,B|228:184|196:220,1,90,0|8,0:0|3:2,0:0:0:0:
64,336,218209,6,0,L|36:272,1,45,0|0,3:0|3:0,0:0:0:0:
8,292,218363,2,0,L|32:188,1,90,2|0,3:0|0:0,0:0:0:0:
308,48,218670,2,0,L|284:152,1,90,2|0,3:0|0:0,0:0:0:0:
234,341,218978,5,2,0:2:0:0:
212,333,219055,1,2,0:2:0:0:
194,320,219132,1,2,0:2:0:0:
179,304,219209,1,2,0:2:0:0:
168,284,219286,1,10,0:2:0:0:
162,262,219363,1,2,0:2:0:0:
162,240,219440,1,2,0:2:0:0:
167,218,219517,1,2,0:2:0:0:
177,198,219594,2,0,B|188:153|167:101,1,90,4|0,1:2|0:0,0:0:0:0:
64,240,219901,37,8,0:0:0:0:
264,264,220055,2,0,L|460:212,1,180,2|2,0:0|0:0,0:0:0:0:
360,320,220517,1,8,0:0:0:0:
256,172,220670,2,0,B|256:116|256:56,1,90,2|0,0:0|0:0,0:0:0:0:
328,36,220978,5,2,0:0:0:0:
168,144,221132,1,8,0:0:0:0:
340,208,221286,1,0,3:2:0:0:
340,208,221363,1,8,3:2:0:0:
340,208,221440,1,2,3:2:0:0:
256,82,221594,5,2,0:0:0:0:
368,128,221747,1,8,0:0:0:0:
280,208,221901,1,2,0:0:0:0:
176,48,222055,6,0,B|116:20|44:64|56:140,1,180,4|8,1:2|0:0,0:0:0:0:
152,236,222517,2,0,B|180:280|160:340,1,90,2|0,0:0|0:0,0:0:0:0:
60,296,222824,1,2,0:0:0:0:
164,144,222978,2,0,B|224:104|300:140|304:208,1,180,8|0,0:0|0:0,0:0:0:0:
260,304,223440,37,2,0:0:0:0:
164,144,223594,1,8,0:0:0:0:
56,220,223747,1,0,3:2:0:0:
56,220,223824,1,8,3:2:0:0:
56,220,223901,1,2,3:2:0:0:
164,144,224055,1,2,0:0:0:0:
128,272,224209,5,8,0:0:0:0:
76,108,224363,1,2,0:0:0:0:
256,140,224517,1,0,1:2:0:0:
256,140,224824,1,8,0:0:0:0:
392,64,224978,1,4,1:2:0:0:
392,64,225286,1,2,0:0:0:0:
236,36,225440,1,8,0:0:0:0:
288,236,225594,6,0,B|232:276|152:236|156:160,2,180,4|4|4,1:2|0:0|3:2,0:0:0:0:
312,208,226286,1,8,3:2:0:0:
312,208,226363,1,2,3:2:0:0:
296,32,226517,1,2,0:0:0:0:
396,88,226670,1,8,0:0:0:0:
224,124,226824,1,2,0:0:0:0:
392,264,226978,5,4,1:2:0:0:
392,264,227286,1,8,0:0:0:0:
204,200,227440,1,4,1:2:0:0:
204,200,227747,1,2,0:0:0:0:
376,116,227901,1,8,0:0:0:0:
308,300,228055,37,4,3:2:0:0:
284,132,228209,1,0,1:0:0:0:
204,200,228363,6,0,L|196:128,1,45,2|0,1:0|0:0,0:0:0:0:
304,256,228517,2,0,L|292:176,1,45,2|0,1:0|0:0,0:0:0:0:
352,144,228670,5,2,1:0:0:0:
352,144,228747,1,0,0:0:0:0:
352,144,228824,2,0,L|336:84,1,45,2|0,1:0|0:0,0:0:0:0:
216,80,228978,2,0,L|200:12,1,45,2|0,1:0|0:0,0:0:0:0:
308,300,229132,6,0,L|320:356,1,45,2|0,1:0|0:0,0:0:0:0:
172,208,229286,2,0,L|184:260,1,45,8|12,1:3|1:3,0:0:0:0:
144,324,229440,38,0,L|40:352,1,90,4|0,1:2|0:0,0:0:0:0:
240,300,229747,1,8,0:0:0:0:
176,136,229901,1,0,3:0:0:0:
176,136,229978,1,8,3:2:0:0:
176,136,230055,2,0,B|256:116|304:120,1,90,2|2,3:2|0:0,0:0:0:0:
384,268,230363,5,8,0:0:0:0:
200,216,230517,2,0,B|148:264|160:344|232:368,1,180,2|2,0:2|0:0,0:0:0:0:
504,196,230978,2,0,B|364:180,1,135,8|8,0:0|0:0,0:0:0:0:
352,184,231286,1,2,0:0:0:0:
268,144,231440,1,2,0:0:0:0:
184,168,231594,1,8,0:0:0:0:
100,132,231747,1,2,0:0:0:0:
200,64,231901,5,4,1:2:0:0:
284,280,232055,1,0,0:0:0:0:
284,280,232132,1,2,0:0:0:0:
284,280,232209,2,0,B|236:288|184:288,1,90,8|2,0:0|0:0,0:0:0:0:
100,240,232517,1,0,0:0:0:0:
100,132,232670,1,2,3:2:0:0:
100,132,232747,1,0,3:2:0:0:
100,132,232824,1,8,3:2:0:0:
204,200,232978,5,2,0:0:0:0:
8,244,233132,2,0,B|4:200|8:144,1,90,0|2,0:0|0:0,0:0:0:0:
228,120,233440,2,0,B|256:180|240:252,1,135,10|8,0:0|0:0,0:0:0:0:
240,252,233747,1,2,3:2:0:0:
136,200,233901,1,2,3:2:0:0:
332,168,234055,38,0,L|432:144,1,90,8|0,0:0|0:0,0:0:0:0:
360,252,234363,1,4,1:2:0:0:
252,108,234517,1,0,0:0:0:0:
240,252,234670,1,8,0:0:0:0:
332,168,234824,1,4,1:2:0:0:
180,152,234978,1,0,0:0:0:0:
168,300,235132,1,2,0:0:0:0:
252,200,235286,5,8,0:0:0:0:
92,184,235440,2,0,B|48:180|0:172,1,90,4|0,0:2|0:0,0:0:0:0:
64,332,235747,2,0,B|116:336|164:348,1,90,4|8,0:0|0:0,0:0:0:0:
296,252,236055,1,2,0:0:0:0:
296,252,236132,1,8,0:0:0:0:
296,252,236209,1,0,0:0:0:0:
240,136,236363,1,2,0:0:0:0:
208,284,236517,1,12,0:0:0:0:
356,312,236670,1,2,0:0:0:0:
348,120,236824,6,0,B|396:112|452:108,1,90,4|0,1:2|0:0,0:0:0:0:
160,152,237132,2,0,B|112:160|56:164,1,90,8|0,0:0|0:0,0:0:0:0:
252,60,237440,1,4,0:0:0:0:
280,216,237594,1,2,0:0:0:0:
348,120,237747,1,8,0:0:0:0:
372,280,237901,1,4,0:0:0:0:
208,332,238055,1,0,0:0:0:0:
208,332,238209,2,0,B|160:332|104:320,1,90,6|8,0:0|0:0,0:0:0:0:
40,192,238517,5,0,1:0:0:0:
40,192,238594,1,8,1:2:0:0:
40,192,238670,1,2,0:0:0:0:
256,268,238824,1,8,1:2:0:0:
472,192,238978,1,0,1:0:0:0:
488,152,239055,1,0,1:0:0:0:
476,108,239132,1,0,1:0:0:0:
444,76,239209,1,0,1:0:0:0:
400,72,239286,2,0,B|352:80|300:80,1,90,4|0,1:0|0:0,0:0:0:0:
196,144,239594,37,8,0:0:0:0:
136,68,239747,2,2,L|192:56,2,45,0|8|0,3:2|0:0|0:0,0:1:0:0:
24,192,240055,2,0,B|52:228|112:224,1,90,2|8,3:2|0:0,0:0:0:0:
400,188,240363,6,2,B|320:200|216:212,1,180,2|2,3:1|3:1,0:1:0:0:
304,328,240824,2,0,B|352:336|408:336,1,90,8|2,0:0|0:1,0:0:0:0:
411,335,241055,1,8,0:0:0:0:
428,332,241132,1,0,3:1:0:0:
512,172,241286,5,0,3:0:0:0:
492,272,241440,1,10,0:0:0:0:
412,200,241594,1,0,3:0:0:0:
436,100,241747,2,0,B|332:80|244:152,1,180,2|8,0:1|0:0,0:1:0:0:
108,280,242209,2,0,B|156:288|192:252,1,90,2|0,3:1|0:0,0:0:0:0:
192,120,242517,1,0,3:0:0:0:
284,272,242670,1,8,0:0:0:0:
436,184,242824,2,2,B|472:124|432:56|360:60,1,180,2|0,3:1|3:0,0:1:0:0:
368,248,243286,5,8,0:0:0:0:
296,152,243440,1,2,1:1:0:0:
296,152,243517,1,0,1:0:0:0:
296,152,243594,2,0,B|236:148|172:168,1,90,0|0,1:0|3:0,0:0:0:0:
188,164,243824,1,0,0:0:0:0:
172,168,243901,2,0,B|128:180|72:180,1,90,8|0,0:0|3:0,0:0:0:0:
24,72,244209,37,2,0:1:0:0:
60,44,244286,1,0,0:0:0:0:
104,40,244363,1,0,0:0:0:0:
148,52,244440,1,0,0:0:0:0:
184,76,244517,2,0,B|212:92|252:96,1,45,8|0,0:0|0:0,0:0:0:0:
284,244,244670,5,2,3:1:0:0:
328,252,244747,1,0,0:0:0:0:
372,244,244824,1,0,0:0:0:0:
408,220,244901,1,0,0:0:0:0:
432,180,244978,2,0,B|400:176|376:156,1,45,0|0,3:0|0:0,0:0:0:0:
284,120,245132,5,10,0:0:0:0:
284,120,245209,1,0,0:0:0:0:
284,120,245286,2,0,L|216:156,1,45,2|0,3:1|0:0,0:0:0:0:
112,60,245440,6,0,L|116:112,1,45
60,232,245594,2,0,L|56:180,1,45,2|2,3:1|0:1,0:0:0:0:
192,76,245747,38,0,L|196:128,1,45,10|0,0:0|0:0,0:0:0:0:
140,248,245901,1,0,3:1:0:0:
140,248,245978,1,8,0:0:0:0:
140,248,246055,2,0,L|136:196,1,45,2|0,3:1|0:1,0:0:0:0:
272,92,246209,6,0,L|276:144,1,45,0|0,3:0|0:0,0:0:0:0:
220,264,246363,2,0,L|216:212,1,45,8|0,0:0|0:0,0:0:0:0:
356,112,246517,6,0,L|360:164,1,45,2|0,3:1|0:0,0:0:0:0:
300,284,246670,2,2,B|340:292|368:272|368:272|408:296|444:284|444:284|476:304,1,180,2|8,3:1|0:0,0:1:0:0:
216,324,247132,2,0,B|168:336|108:340,1,90,2|0,3:1|0:0,0:0:0:0:
40,224,247440,1,2,3:1:0:0:
152,156,247594,1,8,0:0:0:0:
140,260,247747,1,2,3:1:0:0:
160,64,247901,5,0,0:1:0:0:
56,184,248055,1,2,3:1:0:0:
224,216,248209,1,8,0:0:0:0:
268,232,248286,1,0,0:0:0:0:
312,220,248363,1,2,3:1:0:0:
344,188,248440,1,8,0:0:0:0:
348,144,248517,1,2,3:2:0:0:
160,64,248670,1,2,3:2:0:0:
84,264,248824,1,10,0:0:0:0:
280,320,248978,1,4,0:3:0:0:
216,268,249132,38,0,B|216:208|224:152,1,90,4|0,0:0|0:0,0:0:0:0:
368,120,249440,2,0,B|368:180|360:236,1,90,8|2,0:0|3:2,0:0:0:0:
304,288,249747,1,0,0:0:0:0:
416,348,249901,1,2,3:1:0:0:
404,216,250055,1,8,0:0:0:0:
232,304,250209,2,0,B|188:316|124:320,1,90,2|2,3:1|0:1,0:0:0:0:
40,312,250517,5,2,0:0:0:0:
25,294,250594,1,2,0:0:0:0:
15,274,250670,1,8,3:2:0:0:
9,252,250747,1,0,3:0:0:0:
7,230,250824,1,0,3:0:0:0:
9,208,250901,1,0,3:0:0:0:
16,188,250978,2,0,B|36:144|24:80,1,90,2|0,3:1|3:0,0:0:0:0:
180,272,251286,2,0,B|228:288|284:280,1,90,10|2,0:0|0:0,0:0:0:0:
400,144,251594,5,4,0:0:0:0:
400,144,251747,2,0,L|416:260,1,90,0|8,0:1|0:0,0:0:0:0:
212,136,252055,2,0,L|316:120,1,90,2|0,3:1|0:0,0:0:0:0:
168,248,252363,1,2,3:1:0:0:
104,76,252517,1,8,0:0:0:0:
68,208,252670,6,2,B|80:272|80:272|56:340|56:340|68:396,1,180,2|2,3:1|3:1,0:1:0:0:
256,276,253132,1,8,0:0:0:0:
192,140,253286,1,2,3:1:0:0:
172,180,253363,1,8,3:2:0:0:
172,224,253440,1,2,3:2:0:0:
120,84,253594,1,2,3:1:0:0:
80,272,253747,1,10,0:0:0:0:
40,184,253901,1,0,3:0:0:0:
256,140,254055,38,2,B|300:112|352:120|376:152|376:152|436:120,1,180,4|8,0:0|0:0,0:1:0:0:
504,204,254517,1,0,3:0:0:0:
424,256,254670,1,0,0:0:0:0:
496,324,254824,1,0,3:0:0:0:
460,176,254978,1,8,0:0:0:0:
364,296,255132,1,0,3:0:0:0:
288,260,255286,6,0,B|268:216|284:160,1,90,0|0,0:0|3:0,0:0:0:0:
304,88,255594,1,8,0:0:0:0:
180,180,255747,1,2,3:2:0:0:
180,180,255824,1,8,3:2:0:0:
180,180,255901,1,0,3:0:0:0:
164,28,256055,1,0,3:0:0:0:
348,180,256209,1,8,0:0:0:0:
176,276,256363,1,0,3:0:0:0:
264,152,256517,5,4,0:0:0:0:
261,187,256594,1,0,0:0:0:0:
258,223,256670,1,0,0:0:0:0:
255,259,256747,1,0,0:0:0:0:
251,295,256824,2,2,L|244:371,1,45,8|0,0:0|0:0,0:1:0:0:
368,196,256978,5,2,0:0:0:0:
333,193,257055,1,0,0:0:0:0:
297,190,257132,1,0,0:0:0:0:
261,187,257209,1,0,0:0:0:0:
225,183,257286,2,2,L|149:176,1,45,0|0,0:0|0:0,0:1:0:0:
342,86,257440,37,8,0:0:0:0:
339,121,257517,1,0,0:0:0:0:
336,157,257594,1,2,0:0:0:0:
333,193,257670,1,0,0:0:0:0:
329,229,257747,2,2,L|322:305,1,45,4|0,0:0|0:0,0:1:0:0:
446,130,257901,5,2,0:0:0:0:
411,127,257978,1,0,0:0:0:0:
375,124,258055,1,8,0:0:0:0:
339,121,258132,1,0,0:0:0:0:
303,117,258209,2,2,L|227:110,1,45,8|2,0:0|0:0,0:1:0:0:
128,92,258363,5,2,0:2:0:0:
130,95,258440,1,2,0:2:0:0:
134,96,258517,1,2,0:2:0:0:
138,95,258594,1,2,0:2:0:0:
141,92,258670,1,2,3:2:0:0:
144,88,258747,1,2,0:2:0:0:
145,83,258824,1,8,0:3:0:0:
144,78,258901,1,4,0:3:0:0:
141,73,258978,2,0,L|45:87,1,90,4|0,0:0|0:0,0:0:0:0:
184,176,259286,21,0,1:0:0:0:
256,120,259440,2,0,L|452:132,1,180,0|0,3:0|3:0,0:0:0:0:
328,284,259901,1,2,0:0:0:0:
240,316,260055,2,0,L|252:212,1,90,0|0,3:0|0:0,0:0:0:0:
340,188,260363,5,0,3:0:0:0:
340,188,260517,1,0,1:0:0:0:
356,96,260670,1,0,0:0:0:0:
356,96,260747,1,0,1:0:0:0:
356,96,260824,1,0,3:0:0:0:
280,36,260978,1,0,3:0:0:0:
200,80,261132,2,0,B|144:76|88:64,1,90,0|0,1:0|3:0,0:0:0:0:
40,196,261440,70,0,B|84:168|144:180,1,90,2|2,3:2|0:0,0:0:0:0:
216,224,261747,1,0,1:0:0:0:
392,304,261901,1,0,3:0:0:0:
392,304,262055,2,0,B|344:320|288:284,1,90,0|0,0:0|3:0,0:0:0:0:
288,120,262363,1,0,1:0:0:0:
376,160,262517,2,0,B|352:212|288:216,1,90,2|0,3:2|0:0,0:0:0:0:
140,128,262824,5,0,3:0:0:0:
208,60,262978,1,0,1:0:0:0:
236,156,263132,1,0,3:0:0:0:
236,156,263209,1,0,1:0:0:0:
236,156,263286,1,0,3:0:0:0:
300,84,263440,1,0,3:0:0:0:
168,200,263594,1,8,0:0:0:0:
132,48,263747,1,2,3:2:0:0:
52,92,263901,70,0,B|16:136|40:200,1,90,6|0,0:0|0:0,0:0:0:0:
112,276,264209,1,0,1:0:0:0:
252,228,264363,1,0,3:0:0:0:
228,320,264517,1,2,0:0:0:0:
280,144,264670,1,0,3:0:0:0:
168,200,264824,1,0,1:0:0:0:
336,264,264978,2,0,B|384:260|440:248,1,90,2|0,3:2|0:0,0:0:0:0:
476,176,265286,5,0,3:0:0:0:
500,72,265440,1,0,1:0:0:0:
392,96,265594,1,0,0:0:0:0:
392,96,265670,1,0,1:0:0:0:
392,96,265747,1,0,3:0:0:0:
304,52,265901,69,2,3:2:0:0:
216,108,266055,1,0,1:0:0:0:
312,160,266209,1,0,3:0:0:0:
204,216,266363,2,0,B|152:224|88:220,1,90,2|0,3:2|0:0,0:0:0:0:
60,120,266670,5,0,1:0:0:0:
32,256,266824,1,0,3:0:0:0:
164,300,266978,2,0,B|211:295|259:287,1,90,2|0,0:0|3:0,0:0:0:0:
284,196,267286,1,0,1:0:0:0:
188,208,267440,2,0,B|134:217|88:220,1,90,2|0,3:2|0:0,0:0:0:0:
332,268,267747,69,0,3:0:0:0:
332,268,267901,1,0,1:0:0:0:
412,176,268055,1,0,3:0:0:0:
412,176,268132,1,0,1:0:0:0:
412,176,268209,1,0,3:0:0:0:
332,268,268363,1,2,3:0:0:0:
320,176,268517,1,0,1:0:0:0:
472,312,268670,5,2,3:0:0:0:
488,236,268824,2,0,B|492:184|484:128,1,90,4|0,0:0|0:0,0:0:0:0:
264,140,269132,1,0,1:0:0:0:
264,140,269286,2,0,B|228:236|260:336,1,180,0|0,3:0|3:0,0:0:0:0:
368,232,269747,1,0,1:0:0:0:
412,128,269901,2,0,B|400:76|340:64,1,90,2|0,3:2|0:0,0:0:0:0:
172,96,270209,69,0,3:0:0:0:
192,208,270363,1,0,1:0:0:0:
272,136,270517,1,0,0:0:0:0:
272,136,270594,1,0,1:0:0:0:
272,136,270670,1,0,3:0:0:0:
92,172,270824,1,0,3:0:0:0:
204,296,270978,5,0,1:0:0:0:
192,208,271132,1,0,3:0:0:0:
284,240,271286,2,0,B|348:232|388:224,1,90,2|0,3:2|0:0,0:0:0:0:
112,264,271594,1,0,1:0:0:0:
256,144,271747,2,0,B|208:132|156:120,1,90,0|0,3:0|0:0,0:0:0:0:
168,122,272055,1,0,3:0:0:0:
284,240,272209,1,0,1:0:0:0:
348,124,272363,1,0,3:0:0:0:
188,212,272517,1,0,0:0:0:0:
256,144,272670,1,0,3:0:0:0:
276,324,272824,70,0,L|176:340,1,90,0|0,1:0|3:0,0:0:0:0:
160,324,273055,1,0,1:0:0:0:
160,324,273132,2,0,B|112:340|64:332,1,90,0|0,3:0|3:0,0:0:0:0:
188,212,273440,1,0,1:0:0:0:
64,232,273594,1,0,3:0:0:0:
128,120,273747,6,0,L|244:128,1,90,4|0,0:0|0:0,0:0:0:0:
320,128,274055,1,0,1:0:0:0:
376,52,274209,1,0,3:0:0:0:
368,240,274363,1,0,0:0:0:0:
260,200,274517,1,0,3:0:0:0:
400,160,274670,1,2,1:2:0:0:
468,224,274824,2,0,B|468:276|464:320,1,90,0|0,3:0|0:0,0:0:0:0:
360,344,275132,69,0,3:0:0:0:
276,284,275286,1,0,1:0:0:0:
368,240,275440,1,0,0:0:0:0:
368,240,275517,1,0,1:0:0:0:
368,240,275594,1,0,3:0:0:0:
192,248,275747,5,0,3:0:0:0:
336,196,275901,1,0,1:0:0:0:
304,356,276055,1,0,3:0:0:0:
144,120,276209,69,4,0:0:0:0:
112,184,276363,1,0,0:0:0:0:
80,248,276517,1,2,0:0:0:0:
48,312,276670,1,2,0:0:0:0:
172,248,276824,5,2,0:0:0:0:
175,276,276978,1,0,0:0:0:0:
179,305,277132,1,2,0:0:0:0:
182,334,277286,1,2,0:0:0:0:
265,226,277594,69,2,0:0:0:0:
263,217,277747,5,2,0:0:0:0:
261,208,277901,69,2,0:0:0:0:
259,199,278055,6,0,L|240:116,1,58.4999973220826,2|2,0:0|0:0,0:0:0:0:
340,118,278363,70,0,L|352:16,1,80.9999975280763,2|2,0:0|0:0,0:0:0:0:
