osu file format v14

[General]
AudioFilename: audio.mp3
AudioLeadIn: 0
PreviewTime: 62057
Countdown: 0
SampleSet: Soft
StackLeniency: 0.7
Mode: 0
LetterboxInBreaks: 0
WidescreenStoryboard: 1

[Editor]
DistanceSpacing: 1
BeatDivisor: 4
GridSize: 4
TimelineZoom: 1.7

[Metadata]
Title:ChRoNiClESeVeN feat. Annabel
TitleUnicode:ChRøNiClESeVeN feat. Annabel
Artist:sasakure.UK
ArtistUnicode:sasakure.UK
Creator:Delis
Version:Hard
Source:セブンスドラゴンⅢ code:VFD
Tags:7th dragon III RLC VINXIS Chromoxx Arrival
BeatmapID:1363194
BeatmapSetID:630014

[Difficulty]
HPDrainRate:5
CircleSize:4
OverallDifficulty:6
ApproachRate:8
SliderMultiplier:1.5
SliderTickRate:1

[Events]
//Background and Video events
0,0,"BEGE.jpg",0,0
//Break Periods
2,81949,90845
2,151486,157921
2,199896,208997
2,261640,263151
//Storyboard Layer 0 (Background)
//Storyboard Layer 1 (Fail)
//Storyboard Layer 2 (Pass)
//Storyboard Layer 3 (Foreground)
//Storyboard Sound Samples

[TimingPoints]
1021,357.142857142857,4,2,1,5,1,0
1378,468.75,4,2,1,5,1,0
1846,612.244897959184,4,2,1,5,1,0
2458,394.736842105263,4,2,1,5,1,0
2852,447.761194029851,4,2,1,5,1,0
3299,535.714285714286,4,2,1,5,1,0
3834,566.037735849057,4,2,1,5,1,0
4400,545.454545454546,4,2,1,5,1,0
4945,461.538461538462,4,2,1,5,1,0
5406,612.244897959184,4,2,1,5,1,0
6018,545.454545454546,4,2,1,5,1,0
6563,439.56043956044,4,2,1,5,1,0
7442,530.973451327434,4,2,1,5,1,0
7972,447.761194029851,4,2,1,5,1,0
8867,357.142857142857,4,2,1,40,1,0
11724,-100,4,2,1,5,0,0
12211,307.692307692308,4,2,1,50,1,0
12211,-125,4,2,1,50,0,0
21595,-100,4,2,1,50,0,0
22057,-100,4,2,2,60,0,0
31903,-100,4,2,1,60,0,0
41749,-100,4,2,2,60,0,0
45518,-100,4,2,3,60,0,0
45826,-100,4,2,2,60,0,0
50441,-100,4,2,3,60,0,0
51595,-142.857142857143,4,2,1,60,0,0
55903,-142.857142857143,4,2,1,30,0,0
56057,-142.857142857143,4,2,1,60,0,0
56211,-142.857142857143,4,2,1,40,0,0
56364,-142.857142857143,4,2,1,60,0,0
56518,-100,4,2,1,60,0,0
56826,-100,4,2,2,60,0,0
57518,-100,4,2,1,60,0,0
57749,-100,4,2,2,60,0,0
57980,-100,4,2,1,60,0,0
58134,-100,4,2,2,60,0,0
58287,-100,4,2,3,60,0,0
58826,-125,4,2,3,60,0,0
60211,-100,4,2,3,60,0,0
62057,307.692307692308,4,2,2,70,1,0
70826,-100,4,2,3,70,0,0
71749,-100,4,2,2,70,0,0
75749,-100,4,2,3,70,0,0
76441,-100,4,2,2,70,0,0
91595,307.692307692308,3,2,1,70,1,0
97133,-100,3,2,2,60,0,0
98979,-100,3,2,2,40,0,0
101133,-100,3,2,2,50,0,0
101441,307.692307692308,4,2,2,50,1,0
110210,-100,4,2,1,60,0,0
111287,-100,4,2,2,60,0,0
111979,-100,4,2,1,60,0,0
112133,-100,4,2,2,60,0,0
116056,-100,4,2,1,60,0,0
116210,-100,4,2,2,60,0,0
119748,-100,4,2,1,60,0,0
121133,-142.857142857143,4,2,1,60,0,0
125441,-142.857142857143,4,2,1,30,0,0
125594,-142.857142857143,4,2,1,60,0,0
125748,-142.857142857143,4,2,1,40,0,0
125902,-142.857142857143,4,2,1,60,0,0
126056,-100,4,2,2,60,0,0
126748,-100,4,2,3,60,0,0
126902,-100,4,2,2,60,0,0
127825,-100,4,2,3,60,0,0
128210,-100,4,2,1,60,0,0
128517,-125,4,2,3,60,0,0
129748,-100,4,2,3,60,0,0
131595,307.692307692308,4,2,2,70,1,0
135902,-100,4,2,1,70,0,0
135979,-100,4,2,2,70,0,0
140364,-100,4,2,3,70,0,0
141441,-100,4,2,2,70,0,0
160825,-100,4,2,1,60,0,0
161441,-100,4,2,2,60,0,0
170979,307.692307692308,7,3,2,60,1,0
183902,307.692307692308,6,2,1,60,1,0
185748,307.692307692308,3,2,2,60,1,0
187594,307.692307692308,4,2,3,60,1,0
187670,-100,4,2,3,30,0,0
193747,-100,4,2,3,40,0,0
195055,-100,4,2,3,50,0,0
196209,-100,4,2,3,55,0,0
197440,-100,4,2,3,10,0,0
199901,-142.857142857143,4,2,1,50,0,0
204747,-142.857142857143,4,2,1,10,0,0
204824,-125,4,2,1,50,0,0
209747,-111.111111111111,4,2,2,60,0,0
213824,-111.111111111111,4,2,1,60,0,0
213978,-111.111111111111,4,2,2,60,0,0
214132,-111.111111111111,4,2,1,60,0,0
214286,-111.111111111111,4,2,2,60,0,0
218978,-100,4,2,3,70,0,0
219747,-100,4,2,2,80,0,0
229286,-100,4,2,2,70,0,0
229440,-100,4,2,2,80,0,0
233440,-100,4,2,3,80,0,0
234055,-100,4,2,2,80,0,0
239363,-100,4,2,3,80,0,0
250670,-100,4,2,2,80,0,0
251132,-100,4,2,3,80,0,0
253209,-100,4,2,2,80,0,0
253517,-100,4,2,3,80,0,0
255670,-100,4,2,2,80,0,0
255978,-100,4,2,3,80,0,0
256440,-100,4,2,2,80,0,0
258363,-100,4,2,3,70,0,0
261440,-100,4,2,3,60,0,0
263901,-111.111111111111,4,2,3,60,0,0
278363,348.837209302326,4,2,3,60,1,0
278363,-111.111111111111,4,2,3,60,0,0

[Colours]
Combo1 : 114,114,114
Combo2 : 111,172,128
Combo3 : 167,159,105
Combo4 : 48,203,199
Combo5 : 182,109,155
Combo6 : 165,165,165

[HitObjects]
256,192,8867,12,0,11724,0:0:0:0:
188,320,12211,6,0,B|244:292|316:304,2,120,2|0|0,0:0|0:0|0:0,0:0:0:0:
144,248,12980,2,0,B|80:264|16:224,1,120,0|2,0:0|0:0,0:0:0:0:
28,232,13595,1,0,0:0:0:0:
156,136,13903,2,0,L|148:48,1,60,2|0,0:0|0:0,0:0:0:0:
228,48,14211,2,0,L|240:168,1,120,0|0,0:0|0:0,0:0:0:0:
252,256,14672,5,2,0:0:0:0:
252,256,14980,2,0,B|292:256|332:260,1,60,0|0,0:0|0:0,0:0:0:0:
368,320,15287,1,0,0:0:0:0:
368,320,15441,2,0,B|424:284|500:304,1,120,0|2,0:0|0:0,0:0:0:0:
484,300,16057,2,0,L|464:216,1,60,0|0,0:0|0:0,0:0:0:0:
392,228,16364,2,0,L|388:156,1,60,0|0,0:0|0:0,0:0:0:0:
396,80,16672,2,0,B|324:96|288:28,1,120,2|0,0:0|0:0,0:0:0:0:
236,104,17134,5,2,0:0:0:0:
236,104,17441,2,0,L|252:232,1,120,0|0,0:0|0:0,0:0:0:0:
216,300,17903,2,0,B|180:308|132:288,1,60,0|0,0:0|0:0,0:0:0:0:
116,216,18211,2,0,B|72:156|-8:172,1,120,2|0,0:0|0:0,0:0:0:0:
208,152,18826,2,0,B|264:104|348:132,1,120,2|0,0:0|0:0,0:0:0:0:
380,184,19287,2,0,L|452:200,1,60,0|0,0:0|0:0,0:0:0:0:
464,116,19595,6,0,L|496:304,2,180,2|0|0,0:0|0:0|0:0,0:0:0:0:
284,60,20826,2,0,B|200:12|104:84|140:188,1,240,2|0,0:0|0:0,0:0:0:0:
200,228,21595,1,2,0:0:0:0:
200,228,21672,1,0,0:0:0:0:
200,228,21749,2,0,L|252:248,3,37.5,2|0|2|0,0:0|0:0|0:0|0:0,0:0:0:0:
172,260,22057,38,0,B|92:232|20:280,2,150,6|8|0,0:0|0:0|0:0,0:0:0:0:
200,176,22826,2,0,L|284:160,1,75,2|8,0:0|0:0,0:0:0:0:
273,161,23134,1,2,0:2:0:0:
432,272,23441,1,2,0:0:0:0:
368,336,23595,2,0,B|324:344|284:312,1,75,8|0,0:0|3:0,0:0:0:0:
266,236,23903,2,0,L|274:148,1,75,0|2,3:0|0:0,0:0:0:0:
184,196,24211,2,0,L|176:284,1,75,8|2,0:0|0:0,0:0:0:0:
84,292,24518,6,0,L|100:124,2,150,2|8|2,0:2|0:0|3:0,0:0:0:0:
152,352,25287,2,0,B|196:340|248:368,1,75,2|8,0:0|0:0,0:0:0:0:
296,300,25595,1,2,0:0:0:0:
296,300,25903,2,0,L|384:312,2,75,2|8|2,0:0|0:0|3:2,0:0:0:0:
240,236,26364,2,0,B|228:192|236:152,1,75,2|2,0:0|0:0,0:0:0:0:
152,204,26672,2,0,B|144:160|160:120,1,75,8|2,0:0|0:0,0:0:0:0:
68,84,26980,6,0,B|128:16|220:48,1,150,4|8,0:0|0:0,0:0:0:0:
276,84,27441,1,2,0:0:0:0:
348,128,27595,2,0,B|416:140|448:100|448:100|496:128,1,150,2|8,3:0|0:0,0:0:0:0:
460,204,28057,1,2,0:0:0:0:
460,204,28364,2,0,B|448:248|452:288,2,75,2|8|0,0:0|0:0|3:0,0:0:0:0:
372,228,28826,2,0,L|280:240,1,75,2|2,3:2|0:2,0:0:0:0:
248,168,29134,2,0,L|356:152,1,75,8|2,0:0|0:0,0:0:0:0:
392,104,29441,6,0,B|372:52|308:36|268:76,1,150,2|8,0:0|0:0,0:0:0:0:
184,36,29903,1,2,0:0:0:0:
140,112,30057,2,0,B|92:120|60:112,2,75,0|2|8,0:0|0:0|0:0,0:0:0:0:
176,188,30518,2,0,B|260:172|344:180,1,150,2|2,0:0|0:0,0:0:0:0:
376,256,30980,2,0,B|420:256|456:248,1,75,8|2,0:0|3:2,0:0:0:0:
496,164,31287,2,0,L|500:116,2,37.5,2|0|2,3:2|3:2|3:2,0:0:0:0:
412,144,31595,2,0,L|396:64,1,75,8|2,0:0|3:2,0:0:0:0:
397,70,31826,1,4,3:0:0:0:
397,70,31903,1,4,3:2:0:0:
180,40,32211,38,0,B|176:80|180:120,1,75,8|0,0:0|3:0,0:0:0:0:
112,172,32518,1,0,0:0:0:0:
112,172,32672,2,0,B|116:240|108:328,1,150,0|0,3:0|3:0,0:0:0:0:
192,312,33134,2,0,B|240:304|288:304,2,75,0|0|8,0:0|3:0|0:0,0:0:0:0:
224,220,33595,1,8,0:0:0:0:
224,220,33672,1,0,0:0:0:0:
224,220,33749,2,0,L|308:220,1,75,0|2,3:0|3:0,0:0:0:0:
380,248,34057,2,0,B|420:236|456:240,1,75,8|2,0:0|3:0,0:0:0:0:
504,164,34364,5,2,3:2:0:0:
504,164,34672,2,0,B|452:184|400:152|404:92,1,150,8|2,0:0|0:2,0:0:0:0:
324,124,35134,2,0,B|284:104|224:104,1,75,0|8,3:0|0:0,0:0:0:0:
172,148,35441,2,0,B|96:160|96:160|80:128|36:112,1,150,0|0,3:0|3:0,0:0:0:0:
16,196,35903,1,10,0:0:0:0:
88,248,36057,1,2,3:0:0:0:
88,248,36134,1,0,0:0:0:0:
88,248,36211,2,0,L|80:348,1,75,0|2,3:0|3:0,0:0:0:0:
192,328,36518,2,0,L|184:232,1,75,8|2,0:0|3:2,0:0:0:0:
280,288,36826,6,0,B|356:300|448:264,2,150,6|8|0,0:0|0:0|0:0,0:0:0:0:
316,208,37595,2,0,B|320:168|312:124,1,75,0|8,3:0|0:0,0:0:0:0:
228,168,37903,2,0,B|252:72|176:24,1,150,0|0,3:0|3:0,0:0:0:0:
144,104,38364,1,8,0:0:0:0:
68,80,38518,1,0,0:0:0:0:
68,80,38595,1,0,0:0:0:0:
68,80,38672,2,0,B|40:156|32:172,1,75,0|2,3:0|0:0,0:0:0:0:
76,224,38980,2,0,B|112:200|164:204,1,75,10|0,0:0|3:0,0:0:0:0:
232,224,39287,6,0,B|240:284|308:304|352:252,1,150,0|8,3:0|0:0,0:0:0:0:
368,172,39749,2,0,B|360:112|292:92|248:144,1,150,0|0,3:0|3:0,0:0:0:0:
192,84,40211,2,0,B|144:88|104:84,1,75,8|0,0:0|3:0,0:0:0:0:
40,176,40518,2,0,B|120:164|200:172,1,150,0|8,0:0|0:0,0:0:0:0:
256,228,40980,1,0,3:0:0:0:
260,236,41057,1,8,0:0:0:0:
264,244,41134,2,0,L|256:284,3,37.5,0|0|0|0,3:0|0:0|3:0|0:0,0:0:0:0:
280,296,41441,2,0,L|272:336,3,37.5,0|0|0|0,0:0|0:0|3:0|0:0,0:0:0:0:
296,364,41749,1,6,0:2:0:0:
472,200,42057,38,0,B|476:160|468:116,1,75,8|2,0:0|0:0,0:0:0:0:
392,72,42364,1,0,0:0:0:0:
392,72,42518,2,0,B|388:116|392:164,1,75,2|8,0:0|0:0,0:0:0:0:
352,220,42826,2,0,B|304:252|244:216|256:152,1,150,2|2,0:0|0:0,0:0:0:0:
272,64,43287,2,0,L|176:84,1,75,8|2,0:0|3:2,0:0:0:0:
192,92,43518,2,0,L|136:84,1,37.5,0|2,3:0|3:0,0:0:0:0:
68,64,43749,1,2,0:0:0:0:
44,148,43903,2,0,L|60:236,1,75,8|0,0:0|0:0,0:0:0:0:
124,272,44211,1,4,0:0:0:0:
296,332,44518,6,0,B|372:288|460:304,1,150,8|0,0:0|0:0,0:0:0:0:
388,224,44980,2,0,B|364:192|376:144,1,75,2|8,0:0|0:0,0:0:0:0:
388,72,45287,2,0,L|464:16,1,75,0|0,0:0|0:0,0:0:0:0:
304,100,45595,2,0,B|244:96|204:96,1,75,2|10,3:2|0:0,0:0:0:0:
144,60,45903,2,0,L|120:104,1,37.5,2|0,3:2|3:0,0:0:0:0:
88,104,46057,2,0,B|76:148|96:188,1,75,0|2,3:0|0:0,0:0:0:0:
160,232,46364,1,8,0:0:0:0:
228,184,46518,1,2,1:0:0:0:
304,224,46672,2,0,B|348:216|408:216,1,75,4|0,0:0|0:0,0:0:0:0:
456,256,46980,6,0,B|508:232|520:168|464:124,1,150,8|0,0:0|0:0,0:0:0:0:
400,92,47441,2,0,B|364:104|320:100,1,75,2|8,0:0|0:0,0:0:0:0:
244,124,47749,2,0,L|220:28,1,75,2|0,0:0|0:0,0:0:0:0:
144,180,48057,2,0,L|164:88,1,75,2|8,0:0|0:0,0:0:0:0:
68,236,48364,2,0,L|56:148,1,75,0|2,3:0|3:0,0:0:0:0:
56,80,48672,2,0,B|68:36|120:20,2,75,2|8|2,0:0|0:0|0:0,0:0:0:0:
148,156,49134,6,0,B|224:196|296:156,1,150,4|8,0:0|0:0,0:0:0:0:
360,88,49595,2,0,B|284:48|212:88,1,150,2|2,0:0|0:0,0:0:0:0:
291,158,50057,2,0,L|371:178,1,75,8|2,0:0|0:0,0:0:0:0:
448,208,50364,1,0,0:0:0:0:
448,208,50518,2,0,B|460:168|436:124,2,75,2|10|2,3:2|0:0|0:0,0:0:0:0:
384,272,50980,1,2,0:0:0:0:
384,272,51134,1,2,0:0:0:0:
304,232,51287,1,10,0:0:0:0:
304,232,51441,1,4,0:3:0:0:
216,268,51595,38,0,L|88:252,1,104.999996795654,4|0,0:0|0:0,0:0:0:0:
60,240,52057,2,0,B|96:188|64:136,1,104.999996795654,2|0,0:0|0:0,0:0:0:0:
36,100,52518,2,0,L|108:112,1,52.4999983978272,2|0,0:0|0:0,0:0:0:0:
140,124,52826,2,0,B|188:92|264:112,1,104.999996795654,0|0,0:0|0:0,0:0:0:0:
288,136,53287,2,0,B|352:152|400:112,2,104.999996795654,0|0|2,0:0|0:0|0:0,0:0:0:0:
220,192,54057,6,0,B|172:228|184:308|240:324,2,157.499995193482,2|2|2,0:0|0:0|0:0,0:0:0:0:
264,216,55134,1,0,0:0:0:0:
264,216,55287,2,0,B|324:220|388:208,1,104.999996795654,0|0,0:0|0:0,0:0:0:0:
412,184,55749,2,0,B|440:136|404:72,1,104.999996795654,0|2,3:2|3:2,0:0:0:0:
272,40,56364,5,2,3:2:0:0:
272,40,56518,2,0,L|116:64,1,150,4|8,0:0|0:0,0:0:0:0:
152,140,56980,2,0,B|112:144|72:132,2,75,2|0|2,3:2|3:0|0:0,0:0:0:0:
232,176,57441,1,4,0:0:0:0:
232,176,57595,2,0,L|324:160,1,75,2|8,0:0|0:0,0:0:0:0:
292,252,57903,1,4,3:2:0:0:
292,252,58057,2,0,L|384:236,1,75,2|8,0:0|0:0,0:0:0:0:
452,216,58364,1,10,0:0:0:0:
452,216,58518,1,10,0:0:0:0:
288,348,58826,6,0,B|184:400|128:304,1,180,4|4,0:0|0:1,0:0:0:0:
84,160,59595,2,0,B|140:120|212:144,1,120,8|4,0:0|3:1,0:0:0:0:
264,184,60057,1,8,0:0:0:0:
340,148,60211,2,0,L|332:72,1,75,0|0,0:0|3:0,0:0:0:0:
416,96,60518,2,0,L|424:172,1,75,4|8,0:1|0:0,0:0:0:0:
376,248,60826,2,0,B|312:240|264:296,1,112.5,8|8,0:0|0:0,0:0:0:0:
274,285,61134,2,0,B|228:272|184:256,1,75,4|0,0:1|3:0,0:0:0:0:
92,64,62057,38,0,B|160:24|244:48,1,150,4|8,0:0|0:0,0:0:0:0:
192,116,62518,2,0,B|272:140|344:100,1,150,2|2,0:0|0:0,0:0:0:0:
316,32,62980,2,0,L|476:36,1,150,8|0,0:0|0:0,0:0:0:0:
444,112,63441,2,0,B|456:152|440:192,1,75,2|8,0:0|0:0,0:0:0:0:
388,252,63749,1,0,3:0:0:0:
388,252,63826,1,8,3:2:0:0:
388,252,63903,2,0,L|240:288,1,150,2|8,3:2|0:0,0:0:0:0:
242,287,64364,1,2,0:0:0:0:
140,352,64518,6,0,B|88:340|72:268|120:224,1,150,4|8,0:0|0:0,0:0:0:0:
204,216,64980,2,0,B|256:204|272:132|224:88,1,150,2|2,0:0|0:0,0:0:0:0:
152,124,65441,2,0,L|-8:148,1,150,8|0,0:0|0:0,0:0:0:0:
40,60,65903,1,2,0:0:0:0:
40,60,66057,2,0,B|104:48|136:48,1,75,8|2,0:0|3:2,0:0:0:0:
152,48,66287,1,8,3:2:0:0:
152,48,66364,2,0,B|200:52|244:28,1,75,0|2,3:0|0:0,0:0:0:0:
280,104,66672,2,0,B|320:84|368:88,1,75,8|8,0:0|0:0,0:0:0:0:
332,172,66980,6,0,B|276:192|272:276|332:304,1,150,4|8,0:0|0:0,0:0:0:0:
400,272,67441,1,6,0:0:0:0:
400,272,67749,2,0,B|444:264|480:268,1,75,2|8,0:0|0:0,0:0:0:0:
416,180,68057,2,0,B|400:144|412:96,1,75,4|0,0:0|0:0,0:0:0:0:
409,106,68364,2,0,B|368:108|332:104,1,75,6|8,0:0|0:0,0:0:0:0:
256,72,68672,1,6,3:2:0:0:
256,72,68749,1,8,3:2:0:0:
256,72,68826,1,0,1:0:0:0:
168,100,68980,1,2,0:0:0:0:
168,100,69133,2,0,B|120:100|76:96,1,75,12|2,0:0|0:0,0:0:0:0:
52,184,69441,6,0,B|128:196|128:196|160:176|216:184,1,150,4|8,0:0|0:0,0:0:0:0:
284,152,69903,2,0,B|268:236|256:304,1,150,6|2,0:0|0:0,0:0:0:0:
172,324,70364,1,8,0:0:0:0:
84,300,70518,2,0,B|92:240|156:208|212:244,1,150,6|2,0:0|3:2,0:0:0:0:
204,148,70980,2,0,L|180:64,1,75,10|2,0:0|3:2,0:0:0:0:
112,136,71287,2,0,L|24:88,1,75,2|2,0:0|3:2,0:0:0:0:
44,196,71595,38,0,B|56:236|88:256,1,75,10|8,0:0|3:3,0:0:0:0:
87,255,71826,1,4,3:0:0:0:
87,255,71903,2,0,B|160:192|256:232,1,150,4|8,3:2|0:0,0:0:0:0:
144,136,72364,2,0,B|200:64|304:84,1,150,2|2,0:0|0:0,0:0:0:0:
308,184,72826,2,0,L|476:204,1,150,8|0,0:0|0:0,0:0:0:0:
484,284,73287,1,2,0:0:0:0:
404,312,73441,2,0,B|360:312|324:328,2,75,8|2|0,0:0|3:2|3:0,0:0:0:0:
484,284,73903,1,2,0:0:0:0:
420,224,74057,2,0,L|396:148,1,75,8|2,0:0|0:0,0:0:0:0:
356,60,74364,6,0,B|308:20|248:32|248:32|204:60,1,150,4|8,0:0|0:0,0:0:0:0:
188,132,74826,2,0,B|208:188|280:192|316:148,1,150,2|2,0:0|0:0,0:0:0:0:
344,236,75287,2,0,L|280:384,1,150,8|0,0:0|0:0,0:0:0:0:
228,308,75749,1,2,3:2:0:0:
144,328,75903,2,0,B|100:336|48:332,1,75,10|2,0:2|3:2,0:0:0:0:
28,264,76210,1,2,0:2:0:0:
96,204,76364,1,2,3:2:0:0:
32,144,76518,2,0,B|24:100|32:48,1,75,8|2,0:0|0:2,0:0:0:0:
116,104,76826,6,0,L|288:96,1,150,4|8,0:0|0:0,0:0:0:0:
356,92,77287,1,6,0:0:0:0:
356,92,77595,2,0,B|412:88|452:88,1,75,2|8,0:0|0:0,0:0:0:0:
472,172,77903,2,0,B|392:164|316:184,1,150,6|6,0:0|0:0,0:0:0:0:
323,182,78364,1,8,0:0:0:0:
240,216,78518,1,2,3:2:0:0:
240,216,78595,1,8,3:2:0:0:
240,216,78672,2,0,B|192:228|156:208,1,75,0|2,3:0|0:0,0:0:0:0:
112,144,78980,2,0,L|96:48,1,75,12|2,0:0|0:0,0:0:0:0:
200,96,79287,6,0,B|256:116|292:84|292:84|312:116|344:136,2,150,4|8|0,0:0|0:0|0:0,0:0:0:0:
132,36,80057,1,2,0:0:0:0:
132,36,80210,1,8,0:0:0:0:
48,72,80364,2,0,L|88:228,1,150,6|12,0:0|0:0,0:0:0:0:
164,260,80826,1,8,0:0:0:0:
232,200,80980,2,0,L|272:212,2,37.5,2|2|8,0:0|0:0|0:0,0:0:0:0:
176,128,81287,1,2,0:0:0:0:
240,60,81441,2,0,B|288:52|336:52,1,75,12|0,0:0|3:0,0:0:0:0:
352,56,81672,1,0,3:0:0:0:
352,56,81749,1,4,3:2:0:0:
140,300,91595,38,0,L|120:120,1,150,6|0,0:0|0:0,0:0:0:0:
208,176,92056,2,0,B|248:172|288:160,1,75,2|0,0:0|1:0,0:0:0:0:
281,162,92364,1,0,0:0:0:0:
336,92,92518,2,0,B|400:168|328:240,1,150,2|0,0:0|0:0,0:0:0:0:
260,252,92979,2,0,B|220:268|184:296,1,75,2|0,0:0|1:0,0:0:0:0:
194,288,93287,1,0,0:0:0:0:
196,188,93441,6,0,B|180:100|180:100|152:100|116:80,1,150,2|0,0:0|0:0,0:0:0:0:
40,128,93902,2,0,B|12:220|84:276,1,150,2|0,0:0|0:0,0:0:0:0:
160,292,94364,2,0,L|324:316,1,150,2|0,0:0|0:0,0:0:0:0:
400,328,94825,1,8,3:0:0:0:
472,268,94979,1,4,3:0:0:0:
464,176,95133,1,8,3:0:0:0:
380,136,95287,6,0,L|220:160,1,150,4|0,0:0|0:0,0:0:0:0:
144,136,95748,2,0,L|156:220,1,75,0|0,3:0|3:0,0:0:0:0:
240,248,96056,1,2,3:2:0:0:
336,220,96210,2,0,B|392:292|484:256,1,150,2|0,0:0|0:0,0:0:0:0:
448,180,96671,1,0,3:0:0:0:
448,180,96825,2,0,L|416:80,1,75,0|0,3:0|3:0,0:0:0:0:
352,52,97133,6,0,B|232:116|140:24,3,225,4|4|4|4,0:0|0:0|0:0|0:0,0:0:0:0:
232,264,98979,1,4,1:0:0:0:
256,192,99133,12,0,101133,1:0:0:0:
140,120,101441,37,4,0:0:0:0:
140,120,101748,2,0,B|216:104|296:112,1,150,2|2,0:0|0:0,0:0:0:0:
364,132,102210,2,0,B|404:140|440:124,1,75,0|2,0:0|0:0,0:0:0:0:
452,208,102517,2,0,B|376:236|288:196,1,150,0|0,0:0|0:0,0:0:0:0:
305,203,102979,1,2,0:0:0:0:
232,228,103133,2,0,B|188:236|140:252,1,75,0|2,0:0|0:0,0:0:0:0:
92,208,103441,1,0,0:0:0:0:
136,148,103594,2,0,L|152:56,1,75,2|0,0:0|0:0,0:0:0:0:
216,112,103902,1,2,0:0:0:0:
404,52,104210,6,0,B|428:124|412:208,1,150,2|2,0:0|0:0,0:0:0:0:
360,260,104671,2,0,L|264:272,1,75,0|2,0:0|0:0,0:0:0:0:
208,272,104979,2,0,B|148:208|204:128,1,150,0|0,0:0|0:0,0:0:0:0:
264,96,105441,1,2,0:0:0:0:
300,160,105594,2,0,L|380:144,1,75,0|2,0:0|0:0,0:0:0:0:
416,212,105902,2,0,L|336:228,1,75,0|2,0:0|0:0,0:0:0:0:
268,240,106210,1,0,0:0:0:0:
224,304,106364,6,0,B|136:312|64:308,2,150,4|2|2,0:0|0:0|0:0,0:0:0:0:
296,332,107133,1,0,0:0:0:0:
296,332,107441,2,0,B|348:328|384:332,1,75,0|2,0:0|0:0,0:0:0:0:
432,284,107748,2,0,B|432:236|428:196,1,75,0|2,0:0|0:0,0:0:0:0:
352,220,108056,2,0,B|340:144|352:64,1,150,0|0,0:0|0:0,0:0:0:0:
272,56,108517,6,0,B|224:64|184:60,1,75,2|0,0:0|0:0,0:0:0:0:
116,48,108825,2,0,B|56:36|12:92|40:152,1,150,2|2,0:0|0:0,0:0:0:0:
112,160,109287,2,0,B|192:152|268:156,1,150,0|0,0:0|0:0,0:0:0:0:
328,116,109748,2,0,B|376:192|324:276,1,150,2|2,0:0|0:0,0:0:0:0:
256,296,110210,2,0,B|208:252|172:240,2,75,2|2|2,0:2|3:2|0:2,0:0:0:0:
324,344,110671,2,0,B|360:336|404:332,1,75,2|2,3:2|0:2,0:0:0:0:
452,268,110979,2,0,B|472:232|456:188,1,75,2|2,3:2|0:2,0:0:0:0:
400,116,111287,38,0,B|388:72|420:32,1,75,6|0,0:0|0:0,0:0:0:0:
400,116,111594,2,0,B|308:132|276:36,1,150,2|2,0:0|1:0,0:0:0:0:
240,140,112056,2,0,L|188:64,1,75,2|2,0:0|0:0,0:0:0:0:
128,148,112364,2,0,B|120:196|136:228,1,75,0|2,0:0|0:0,0:0:0:0:
184,296,112671,2,0,B|216:272|264:272,1,75,0|2,0:0|0:0,0:0:0:0:
316,336,112979,2,0,B|416:360|448:284|444:264,1,150,0|0,0:0|0:0,0:0:0:0:
396,208,113441,2,0,B|388:160|380:112,1,75,2|0,0:0|0:0,0:0:0:0:
364,48,113748,5,2,0:0:0:0:
364,48,114056,2,0,B|292:72|192:48,1,150,2|2,0:0|1:0,0:0:0:0:
128,40,114517,2,0,B|76:56|56:108,1,75,0|2,0:0|0:0,0:0:0:0:
144,192,114825,2,0,B|160:152|144:104,1,75,0|2,3:0|3:2,0:0:0:0:
64,160,115133,2,0,B|48:200|64:248,1,75,0|2,0:0|0:0,0:0:0:0:
136,284,115441,2,0,L|224:268,1,75,0|2,0:0|1:0,0:0:0:0:
260,192,115748,2,0,B|316:264|412:224,1,150,2|2,3:0|0:0,0:0:0:0:
468,180,116210,2,0,B|480:144|472:100,1,75,6|0,0:0|0:0,0:0:0:0:
412,44,116517,6,0,B|328:24|344:76|256:44,1,150,2|2,0:0|1:0,0:0:0:0:
192,92,116979,2,0,B|152:80|96:80,1,75,0|2,0:0|0:0,0:0:0:0:
72,180,117287,2,0,B|116:184|152:160,1,75,0|2,0:0|0:0,0:0:0:0:
192,232,117594,2,0,B|200:280|184:312,1,75,0|2,0:0|0:0,0:0:0:0:
104,340,117902,2,0,B|96:300|112:260,1,75,0|2,3:0|1:0,0:0:0:0:
144,164,118210,2,0,B|88:192|32:160|40:80,1,150,0|0,0:0|0:0,0:0:0:0:
160,60,118671,6,0,B|208:52|256:56,1,75,2|0,0:0|0:0,0:0:0:0:
316,88,118979,1,2,0:0:0:0:
256,152,119133,1,0,0:0:0:0:
256,152,119287,2,0,L|264:244,1,75,2|0,1:0|0:0,0:0:0:0:
176,204,119594,2,0,L|168:116,1,75,2|2,0:0|0:0,0:0:0:0:
88,180,119902,2,0,B|60:268|112:336,1,150,0|2,3:0|3:2,0:0:0:0:
188,296,120364,1,2,0:2:0:0:
256,352,120517,1,2,3:1:0:0:
256,352,120671,1,2,0:2:0:0:
336,312,120825,1,2,3:2:0:0:
336,312,120979,1,2,0:2:0:0:
420,344,121133,38,0,B|456:292|424:232,1,104.999996795654,4|0,0:0|0:0,0:0:0:0:
388,212,121594,1,2,0:0:0:0:
340,188,121748,2,0,L|352:76,1,104.999996795654,0|2,1:0|0:0,0:0:0:0:
164,84,122364,2,0,L|176:204,1,104.999996795654,0|0,0:0|0:0,0:0:0:0:
132,220,122825,2,0,L|124:332,2,104.999996795654,0|0|2,0:0|0:0|0:0,0:0:0:0:
208,256,123594,6,0,B|280:220|280:220|368:240,1,157.499995193482,2|2,0:0|0:0,0:0:0:0:
404,256,124210,2,0,L|424:140,1,104.999996795654,0|2,1:0|0:0,0:0:0:0:
400,108,124671,1,0,0:0:0:0:
400,108,124825,2,0,B|340:84|297:124|296:124,1,104.999996795654,0|0,0:0|0:0,0:0:0:0:
256,88,125287,2,0,L|140:108,1,104.999996795654
152,105,125902,1,2,0:0:0:0:
68,184,126056,6,0,B|120:256|220:216,1,150,4|8,0:0|0:0,0:0:0:0:
288,196,126517,1,2,3:2:0:0:
288,196,126671,2,0,L|388:180,1,75,0|10,3:0|0:0,0:0:0:0:
428,240,126979,2,0,L|420:328,2,75,4|0|8,0:0|0:0|0:0,0:0:0:0:
436,136,127441,2,0,L|444:40,2,75,4|0|8,0:0|0:0|0:0,0:0:0:0:
362,184,127902,1,10,0:0:0:0:
362,184,128056,1,10,0:0:0:0:
160,220,128364,5,4,0:0:0:0:
200,304,128517,2,0,B|256:336|316:304,1,120,0|4,0:0|0:1,0:0:0:0:
312,120,129133,2,0,B|256:88|196:120,1,120,8|4,0:0|3:1,0:0:0:0:
256,184,129594,1,10,0:0:0:0:
340,200,129748,2,0,L|416:184,1,75,4|8,0:0|0:0,0:0:0:0:
256,184,130056,2,0,L|180:200,1,75,4|8,0:1|0:0,0:0:0:0:
268,272,130364,2,0,L|128:308,1,112.5,8|8,0:0|0:0,0:0:0:0:
159,300,130671,2,0,B|120:284|60:288,1,75,8|8,0:0|0:0,0:0:0:0:
160,64,131594,38,0,L|336:80,1,150,4|8,0:0|0:0,0:0:0:0:
352,160,132056,2,0,B|364:104|440:88|480:144,1,150,2|2,0:0|0:0,0:0:0:0:
408,216,132518,2,0,L|232:200,1,150,8|0,0:0|0:0,0:0:0:0:
184,152,132979,1,2,0:0:0:0:
96,176,133133,2,0,B|56:168|16:164,1,75,8|0,0:0|3:0,0:0:0:0:
124,96,133441,2,0,B|116:56|100:12,1,75,2|2,3:2|0:0,0:0:0:0:
184,152,133748,2,0,B|224:136|260:112,1,75,8|2,0:0|0:0,0:0:0:0:
328,68,134056,6,0,B|416:48|480:116,1,150,4|8,0:0|0:0,0:0:0:0:
448,192,134518,2,0,B|360:212|296:144,1,150,2|2,0:0|0:0,0:0:0:0:
232,212,134979,2,0,B|192:304|260:360,1,150,8|0,0:0|0:0,0:0:0:0:
300,272,135441,1,2,0:0:0:0:
368,216,135595,2,0,L|388:304,1,75,8|2,0:0|3:2,0:0:0:0:
392,320,135825,1,8,3:2:0:0:
392,320,135902,2,0,B|444:328|472:340,1,75,2|2,3:2|0:0,0:0:0:0:
512,252,136210,2,0,B|520:212|508:160,1,75,8|2,0:0|0:0,0:0:0:0:
460,96,136518,6,0,B|376:108|288:120,1,150,4|8,0:0|0:0,0:0:0:0:
396,24,136979,2,0,B|224:48,1,150,6|2,0:0|0:0,0:0:0:0:
164,60,137441,1,8,0:0:0:0:
80,108,137595,2,0,B|72:68|80:28,1,75,6|0,0:0|0:0,0:0:0:0:
36,168,137902,2,0,B|28:128|36:88,1,75,6|8,0:0|0:0,0:0:0:0:
96,232,138210,1,0,3:0:0:0:
96,232,138287,1,8,3:2:0:0:
96,232,138364,2,0,B|56:244|16:244,1,75,6|2,3:2|0:0,0:0:0:0:
144,156,138671,5,12,0:0:0:0:
224,156,138825,1,0,0:0:0:0:
284,208,138979,2,0,B|324:280|292:372,1,150,4|8,0:0|0:0,0:0:0:0:
224,288,139441,2,0,B|180:292|144:316,1,75,6|0,0:0|0:0,0:0:0:0:
84,344,139748,1,2,0:0:0:0:
48,276,139902,1,8,0:0:0:0:
116,236,140056,2,0,L|268:204,1,150,6|2,0:0|3:2,0:0:0:0:
308,136,140518,2,0,L|212:124,1,75,10|2,0:0|3:2,0:0:0:0:
348,212,140825,2,0,L|396:148,1,75,2|2,3:2|0:0,0:0:0:0:
262,205,141133,2,0,L|292:296,1,75,10|2,0:0|3:2,0:0:0:0:
172,212,141441,38,0,B|200:296|224:364,1,150,4|8,0:0|0:0,0:0:0:0:
312,360,141902,2,0,B|356:280|464:304,1,150,2|2,0:0|0:0,0:0:0:0:
400,212,142364,2,0,L|420:36,1,150,8|0,0:0|0:0,0:0:0:0:
324,88,142825,1,2,0:0:0:0:
324,88,142979,2,0,L|328:176,1,75,8|0,0:0|3:0,0:0:0:0:
260,212,143287,2,0,L|176:220,1,75,2|2,3:2|0:0,0:0:0:0:
120,172,143595,2,0,L|116:80,1,75,8|2,0:0|0:0,0:0:0:0:
212,36,143902,6,0,B|256:100|348:84,1,150,4|8,0:0|0:0,0:0:0:0:
328,176,144364,2,0,B|396:120|480:152,1,150,0|2,3:0|0:0,0:0:0:0:
420,224,144825,2,0,L|404:388,1,150,8|0,0:0|0:0,0:0:0:0:
328,312,145287,1,2,0:0:0:0:
328,312,145441,2,0,B|280:324|228:332,1,75,8|0,0:2|3:2,0:0:0:0:
240,328,145671,1,8,3:2:0:0:
224,328,145748,2,0,B|184:328|128:340,1,75,2|2,3:2|0:0,0:0:0:0:
72,296,146056,5,8,0:0:0:0:
144,248,146210,1,4,0:3:0:0:
80,192,146364,2,0,B|48:148|84:80|144:84,1,150,4|8,0:0|0:0,0:0:0:0:
192,148,146825,1,6,0:0:0:0:
192,148,147133,1,2,0:0:0:0:
272,116,147287,1,8,0:0:0:0:
348,80,147441,2,0,B|400:72|432:76,1,75,6|0,0:0|0:0,0:0:0:0:
464,152,147748,2,0,B|412:160|380:156,1,75,6|8,0:0|0:0,0:0:0:0:
316,196,148056,2,0,L|264:188,2,37.5,0|8|6,3:0|3:2|3:2,0:0:0:0:
268,268,148364,1,2,0:0:0:0:
268,268,148518,2,0,L|280:348,1,75,12|2,0:0|0:0,0:0:0:0:
196,188,148825,6,0,B|168:104|72:104,2,150,6|8|0,0:0|0:0|0:0,0:0:0:0:
224,284,149595,2,0,B|228:332|196:368,1,75,2|12,0:0|0:0,0:0:0:0:
140,296,149902,2,0,L|124:212,1,75,2|0,0:0|0:0,0:0:0:0:
140,132,150210,1,12,0:0:0:0:
140,132,150364,2,0,B|200:144|268:92,1,112.5,8|8,0:0|3:0,0:0:0:0:
264,88,150671,2,0,B|308:92|340:112,1,75,0|8,3:0|0:3,0:0:0:0:
376,188,150979,2,0,B|416:236|404:292|336:320,1,150,12|4,0:0|3:2,0:0:0:0:
256,192,158671,12,6,161133,0:0:0:0:
216,252,161441,37,8,0:0:0:0:
148,184,161595,2,0,B|104:184|56:188,1,75,2|0,0:0|0:0,0:0:0:0:
136,100,161902,2,0,B|176:104|232:100,1,75,2|8,0:0|0:0,0:0:0:0:
304,60,162210,2,0,B|368:36|420:76|412:140,1,150,2|2,0:0|0:0,0:0:0:0:
352,188,162671,1,8,0:0:0:0:
352,188,162825,2,0,B|344:252|352:288,1,75,2|2,0:0|0:0,0:0:0:0:
268,320,163133,2,0,B|212:312|188:352|188:352|156:336|124:320,1,150,2|0,0:0|3:0,0:0:0:0:
72,260,163595,6,0,L|56:92,1,150,4|8,3:2|0:0,0:0:0:0:
152,100,164056,2,0,L|156:272,1,150,2|2,0:0|0:0,0:0:0:0:
236,216,164518,1,8,0:0:0:0:
312,180,164671,2,0,B|376:128|464:156,1,150,2|2,0:0|0:0,0:0:0:0:
396,224,165133,1,8,0:0:0:0:
320,272,165287,2,0,L|164:324,1,150,2|2,0:0|0:0,0:0:0:0:
96,344,165748,5,8,0:0:0:0:
80,320,165825,1,0,0:0:0:0:
76,292,165902,1,8,0:0:0:0:
88,264,165979,1,0,0:0:0:0:
108,244,166056,2,0,L|96:188,4,37.5,4|0|2|0|8,0:0|0:0|0:0|0:0|0:0,0:0:0:0:
184,192,166518,2,0,L|176:128,4,37.5,2|0|0|0|2,0:0|0:0|0:0|0:0|0:0,0:0:0:0:
264,148,166979,2,0,L|256:88,4,37.5,8|0|2|0|0,0:0|0:0|0:0|0:0|0:0,0:0:0:0:
348,108,167441,2,0,L|340:48,4,37.5,2|0|8|0|2,0:0|0:0|0:0|0:0|0:0,0:0:0:0:
368,200,167902,5,4,0:0:0:0:
368,200,167979,1,0,0:0:0:0:
368,200,168056,2,0,L|416:192,4,37.5,2|0|8|0|0,0:0|0:0|0:0|0:0|0:0,0:0:0:0:
312,272,168518,2,2,B|228:240|160:308,1,150,6|8,0:1|0:0,0:1:0:0:
100,340,168979,2,2,B|48:272|100:192,1,150,2|2,0:0|0:0,0:1:0:0:
168,156,169441,1,8,0:0:0:0:
168,156,169595,2,2,L|336:136,1,150,0|2,3:1|0:0,0:1:0:0:
380,80,170056,1,8,0:0:0:0:
440,148,170210,2,0,L|488:128,2,37.5,8|8|2,0:2|3:2|3:2,0:0:0:0:
256,324,170671,37,8,0:0:0:0:
256,236,170825,1,8,3:2:0:0:
256,236,170902,1,4,3:3:0:0:
256,236,170979,2,0,L|256:140,1,75,4|0,3:2|0:0,0:0:0:0:
256,76,171286,2,0,B|196:16|96:52,1,150
116,45,171748,1,0,0:0:0:0:
28,248,172055,2,0,B|116:280|176:220,1,150,2|2,0:0|0:0,0:0:0:0:
228,160,172517,2,0,L|260:244,1,75,2|2,0:0|0:0,0:0:0:0:
195,297,172825,2,0,L|163:213,1,75,2|2,0:0|0:0,0:0:0:0:
176,92,173132,5,4,0:0:0:0:
176,92,173440,2,0,B|252:56|328:84,1,150
321,81,173902,1,0,0:0:0:0:
404,248,174209,1,0,0:0:0:0:
404,248,174517,2,0,L|424:176,1,75,2|2,0:0|0:0,0:0:0:0:
316,256,174825,2,0,L|344:164,1,75,2|2,0:0|0:0,0:0:0:0:
232,272,175132,1,2,0:0:0:0:
164,224,175286,5,4,0:0:0:0:
164,224,175594,2,0,L|156:128,1,75
144,64,175902,1,0,0:0:0:0:
144,64,176055,1,0,0:0:0:0:
332,80,176363,1,0,0:0:0:0:
332,80,176671,2,0,B|292:84|236:84,2,75,2|2|2,0:0|0:0|0:0,0:0:0:0:
360,164,177132,2,0,B|412:160|456:164,1,75,2|2,0:0|0:0,0:0:0:0:
496,216,177440,5,4,0:0:0:0:
320,320,177748,2,0,B|276:336|236:328,1,75
180,272,178055,1,0,0:0:0:0:
180,272,178209,2,0,L|164:176,1,75
256,212,178517,2,0,L|228:44,1,150,0|2,0:0|0:0,0:0:0:0:
152,104,178979,2,0,B|108:112|68:96,1,75,2|2,0:0|0:0,0:0:0:0:
0,64,179286,2,0,B|-8:108|8:148,1,75,2|2,0:0|0:0,0:0:0:0:
76,192,179594,37,4,0:0:0:0:
76,192,179902,2,0,B|152:160|252:192,1,150
223,184,180363,1,0,0:0:0:0:
344,328,180671,2,0,B|428:364|508:304,1,150,0|2,0:0|0:0,0:0:0:0:
444,248,181132,2,0,B|428:216|436:168,1,75,2|2,0:0|0:0,0:0:0:0:
496,112,181440,2,0,B|456:88|412:96,1,75,2|2,0:0|0:0,0:0:0:0:
344,128,181748,5,4,0:0:0:0:
344,128,182055,2,0,B|288:132|256:132,1,75
208,76,182363,1,0,0:0:0:0:
208,76,182517,1,0,0:0:0:0:
40,212,182825,1,0,0:0:0:0:
256,344,183132,2,0,L|264:252,2,75,2|2|2,0:0|0:0|0:0,0:0:0:0:
340,324,183594,1,2,0:0:0:0:
424,356,183748,1,2,0:0:0:0:
476,288,183902,6,0,B|488:248|468:200,1,75,4|0,0:0|0:0,0:0:0:0:
473,214,184209,2,0,B|440:236|396:228,1,75,0|2,0:0|0:0,0:0:0:0:
320,192,184517,2,0,B|360:108|284:56,1,150,0|2,0:0|0:0,0:0:0:0:
248,132,184978,2,0,L|144:112,1,75,0|0,0:0|0:0,0:0:0:0:
92,88,185286,2,0,L|-4:72,2,75,2|0|0,0:0|0:0|0:0,0:0:0:0:
112,168,185748,6,0,B|184:212|160:320|68:332,1,225,4|4,0:0|0:0,0:0:0:0:
444,332,186671,2,0,B|352:320|328:212|400:168,1,225,4|4,0:0|0:0,0:0:0:0:
256,32,187594,1,4,1:0:0:0:
256,192,187747,12,4,190055,0:1:0:0:
256,192,190132,12,4,192517,0:1:0:0:
256,192,192594,12,4,194978,0:1:0:0:
256,192,195055,12,0,197440,0:0:0:0:
256,328,209747,38,0,L|112:312,1,134.999995880127,4|2,3:2|3:0,0:0:0:0:
60,240,210209,1,0,0:0:0:0:
60,240,210363,2,0,B|140:256|192:184,1,134.999995880127,2|2,3:0|3:0,0:0:0:0:
264,248,210824,2,0,L|304:252,2,33.7499989700318,0|0|2,3:0|3:0|3:0,0:0:0:0:
252,164,211132,1,0,0:0:0:0:
252,164,211286,2,0,L|232:24,2,134.999995880127,2|2|2,3:0|3:0|3:0,0:0:0:0:
452,168,212209,6,0,B|488:204|484:264|440:292,1,134.999995880127,4|2,0:0|3:0,0:0:0:0:
364,312,212670,1,0,0:0:0:0:
364,312,212824,2,0,B|360:272|364:236,1,67.4999979400635,2|0,3:0|0:0,0:0:0:0:
288,208,213132,2,0,B|248:272|288:344,1,134.999995880127,2|0,3:0|0:0,0:0:0:0:
200,324,213594,1,0,0:0:0:0:
200,324,213747,2,0,L|180:240,1,67.4999979400635,2|2,3:0|0:2,0:0:0:0:
160,176,214055,5,2,3:0:0:0:
256,36,214363,1,0,3:0:0:0:
352,176,214670,2,0,B|432:196|500:172,1,134.999995880127,4|2,3:2|3:3,0:0:0:0:
448,268,215132,2,0,L|308:260,1,134.999995880127,0|0,0:0|0:0,0:0:0:0:
248,188,215594,1,2,3:0:0:0:
248,188,215747,1,0,0:0:0:0:
224,280,215901,2,0,B|228:320|252:356,2,67.4999979400635,2|0|2,3:0|0:0|3:0,0:0:0:0:
156,208,216363,1,0,3:0:0:0:
156,208,216517,2,0,B|96:156|8:188,1,134.999995880127,8|8,3:2|3:2,0:0:0:0:
112,104,216978,5,8,3:2:0:0:
208,124,217132,2,0,B|288:112|304:28,2,134.999995880127,4|8|2,0:0|3:2|3:0,0:0:0:0:
272,192,217901,2,0,L|344:244,1,67.4999979400635,0|8,0:0|3:2,0:0:0:0:
380,168,218209,1,0,3:0:0:0:
464,200,218363,2,0,B|444:144|484:80,1,101.249996910095,2|0,3:0|0:0,0:0:0:0:
488,68,218670,2,0,B|440:96|372:80,1,101.249996910095,2|0,3:0|0:0,0:0:0:0:
352,60,218978,2,0,L|320:36,3,37.5,2|2|2|2,0:2|0:2|0:2|0:2,0:0:0:0:
288,56,219286,2,0,L|252:32,3,37.5,10|2|2|2,0:2|0:2|0:2|0:2,0:0:0:0:
232,68,219594,38,0,B|184:36|120:68|116:128,1,150,4|8,1:2|0:0,0:0:0:0:
152,204,220055,2,0,L|144:376,1,150,2|2,0:0|0:0,0:0:0:0:
228,296,220517,2,0,B|296:240|400:280,1,150,8|0,0:0|0:0,0:0:0:0:
464,292,220978,1,2,0:0:0:0:
512,212,221132,2,0,L|480:128,1,75,8|0,0:0|3:2,0:0:0:0:
485,141,221363,1,8,3:2:0:0:
485,141,221440,2,0,B|440:120|432:64,1,75,2|2,3:2|0:0,0:0:0:0:
368,136,221747,2,0,B|292:112|216:120,1,150,8|4,0:0|1:2,0:0:0:0:
144,36,222209,6,0,B|188:44|232:40,1,75,0|8,0:0|0:0,0:0:0:0:
284,192,222517,2,0,B|212:204|132:184,1,150,2|2,0:0|0:0,0:0:0:0:
71,117,222978,2,0,B|147:97|240:125,1,150,8|0,0:2|0:0,0:0:0:0:
296,104,223440,1,2,0:0:0:0:
376,140,223594,2,0,B|424:144|456:136,1,75,8|0,0:0|3:2,0:0:0:0:
450,137,223824,1,8,3:2:0:0:
450,137,223901,2,0,B|440:184|448:220,1,75,2|2,3:2|0:0,0:0:0:0:
312,220,224209,6,0,B|232:212|148:224,1,150,8|4,0:0|1:2,0:0:0:0:
162,222,224824,2,0,L|128:148,1,75,8|4,0:0|1:2,0:0:0:0:
392,256,225286,2,0,L|364:348,1,75,2|8,0:0|0:0,0:0:0:0:
304,256,225594,2,0,L|356:88,1,150,4|4,1:2|0:0,0:0:0:0:
288,52,226055,1,0,0:0:0:0:
208,84,226209,1,4,3:2:0:0:
208,84,226286,1,8,3:2:0:0:
208,84,226363,2,0,B|160:80|124:88,1,75,2|2,3:2|0:0,0:0:0:0:
44,120,226670,2,0,B|48:72|40:36,1,75,8|2,0:0|0:0,0:0:0:0:
128,172,226978,6,0,B|180:244|120:328,1,150,4|8,1:2|0:0,0:0:0:0:
48,348,227440,2,0,L|200:316,1,150,4|2,1:2|0:0,0:0:0:0:
280,296,227901,1,8,0:0:0:0:
372,328,228055,2,0,B|424:320|448:248|404:204,1,150,4|2,3:2|1:0,0:0:0:0:
360,136,228517,1,2,1:0:0:0:
280,176,228670,1,2,1:0:0:0:
280,176,228747,1,0,0:0:0:0:
280,176,228824,2,0,B|236:184|200:184,1,75,2|2,1:0|1:0,0:0:0:0:
112,144,229132,1,2,1:0:0:0:
112,144,229286,1,8,1:3:0:0:
44,248,229440,38,0,B|52:312|120:332|168:284,1,150,4|8,1:2|0:0,0:0:0:0:
240,328,229901,2,0,B|300:348|344:312|344:312|400:336,1,150,0|2,3:0|0:0,0:0:0:0:
472,360,230363,2,0,L|432:180,1,150,8|0,0:0|0:0,0:0:0:0:
440,128,230824,1,2,0:0:0:0:
360,84,230978,2,0,B|352:128|356:168,1,75,8|0,0:0|0:0,0:0:0:0:
355,158,231209,1,8,0:0:0:0:
355,158,231286,2,0,B|312:168|264:180,1,75,2|2,0:0|0:0,0:0:0:0:
192,120,231594,6,0,B|120:108|24:96,1,150,8|4,0:0|1:2,0:0:0:0:
48,184,232055,2,0,L|148:196,1,75,0|8,0:0|0:0,0:0:0:0:
160,280,232363,2,0,B|180:228|248:212|292:252,1,150,2|2,0:0|3:2,0:0:0:0:
276,352,232824,2,0,L|428:332,1,150,8|0,3:2|0:0,0:0:0:0:
364,256,233286,2,0,B|412:244|452:244,1,75,2|10,0:0|0:0,0:0:0:0:
496,192,233594,1,0,0:0:0:0:
496,192,233670,1,8,0:0:0:0:
496,192,233747,1,2,3:2:0:0:
416,148,233901,1,2,3:2:0:0:
488,96,234055,6,0,B|476:40|408:16|356:56,1,150,8|4,0:0|1:2,0:0:0:0:
368,47,234670,1,8,0:0:0:0:
320,124,234824,2,0,B|260:100|204:132|200:212,1,150,4|2,1:2|0:0,0:0:0:0:
128,124,235286,1,8,0:0:0:0:
36,216,235440,2,0,L|20:384,1,150,4|4,0:2|0:0,0:0:0:0:
100,336,235901,1,8,0:0:0:0:
184,312,236055,1,2,0:0:0:0:
184,312,236132,1,8,0:0:0:0:
184,312,236209,2,0,B|244:328|272:360,1,75,0|2,0:0|0:0,0:0:0:0:
260,248,236517,2,0,B|248:200|256:156,1,75,12|2,0:0|0:0,0:0:0:0:
304,56,236824,6,0,B|284:108|212:124|164:80,2,150,4|8|4,1:2|0:0|0:0,0:0:0:0:
340,136,237594,2,0,L|424:116,1,75,2|8,0:0|0:0,0:0:0:0:
492,176,237901,2,0,B|528:224|508:296|440:304,1,150,4|6,0:0|0:0,0:0:0:0:
380,352,238363,2,0,B|372:308|368:260,1,75,8|0,0:0|1:0,0:0:0:0:
369,278,238594,1,8,1:2:0:0:
369,278,238670,2,0,B|320:275|264:287,1,75,2|8,0:0|1:2,0:0:0:0:
276,364,238978,37,0,1:0:0:0:
246,362,239054,1,0,1:0:0:0:
216,362,239131,1,0,1:0:0:0:
186,363,239208,1,0,1:0:0:0:
156,364,239286,2,0,B|80:358|1:368,1,150,4|8,1:0|0:0,0:0:0:0:
44,284,239747,2,0,B|52:212|36:132,1,150,0|2,3:2|3:2,0:0:0:0:
124,156,240209,1,8,0:0:0:0:
124,156,240363,2,2,B|192:120|268:152,1,150,2|2,3:1|3:1,0:1:0:0:
352,176,240824,1,8,0:0:0:0:
428,128,240978,2,0,L|432:72,2,37.5,2|8|0,0:1|0:0|3:1,0:0:0:0:
472,212,241286,2,0,L|448:316,2,75,0|10|0,3:0|0:0|3:0,0:0:0:0:
388,248,241747,6,0,B|340:276|280:248|276:188,1,150,2|8,0:1|0:0,0:0:0:0:
300,108,242209,2,0,B|304:72|304:24,2,75,2|0|0,3:1|0:0|3:0,0:0:0:0:
216,64,242670,1,8,0:0:0:0:
128,108,242824,2,2,B|80:148|104:216|156:224,1,150,2|0,3:1|3:0,0:1:0:0:
228,188,243286,1,8,0:0:0:0:
312,228,243440,1,2,1:1:0:0:
312,228,243517,1,0,1:0:0:0:
312,228,243594,2,2,B|392:212|476:220,2,150,0|8|2,1:0|0:0|0:1,0:1:0:0:
248,300,244363,5,0,0:0:0:0:
248,300,244440,1,0,0:0:0:0:
248,300,244517,1,8,0:0:0:0:
152,268,244670,2,0,L|80:256,4,37.5,2|0|0|0|0,3:1|0:0|0:0|0:0|3:0,0:0:0:0:
220,204,245132,2,0,L|228:164,4,37.5,10|0|2|0|0,0:0|0:0|3:1|0:0|0:0,0:0:0:0:
316,216,245594,1,2,3:1:0:0:
316,216,245670,1,2,0:1:0:0:
316,216,245747,2,0,B|376:192|436:200,1,112.5,10|8,0:0|0:0,0:0:0:0:
456,208,246055,2,0,B|464:164|464:124,1,75,2|0,3:1|3:0,0:0:0:0:
392,48,246363,2,0,B|384:92|384:132,1,75,8|2,0:0|3:1,0:0:0:0:
288,88,246670,6,2,B|284:144|216:172|164:136,1,150,2|8,3:1|0:0,0:1:0:0:
208,64,247132,2,2,B|160:28|92:60|88:120,1,150,2|2,3:1|3:1,0:1:0:0:
96,188,247594,1,8,0:0:0:0:
168,232,247747,2,2,B|224:244|240:324|184:372,1,150,2|2,3:1|3:1,0:1:0:0:
128,304,248209,1,8,0:0:0:0:
40,308,248363,2,0,L|-8:336,2,37.5,2|8|2,3:1|0:0|3:2,0:0:0:0:
68,220,248670,1,2,3:2:0:0:
96,132,248824,2,0,B|88:76|80:32,1,75,10|4,0:0|0:3,0:0:0:0:
192,96,249132,38,0,B|268:88|368:96,2,150,4|8|0,0:0|0:0|0:0,0:0:0:0:
184,176,249901,2,0,B|224:172|272:176,1,75,2|8,3:1|0:0,0:0:0:0:
232,256,250209,2,2,B|312:272|308:244|388:256,1,150,2|2,3:1|0:0,0:1:0:0:
380,255,250594,1,2,0:0:0:0:
380,255,250671,1,8,3:2:0:0:
424,176,250824,2,0,L|416:128,2,37.5,0|0|2,3:0|3:0|3:1,0:0:0:0:
480,248,251132,1,0,3:0:0:0:
480,248,251286,2,0,B|488:288|488:336,1,75,10|2,0:0|0:0,0:0:0:0:
352,360,251594,6,2,L|192:348,1,150,4|8,0:0|0:0,0:1:0:0:
104,364,252055,2,2,L|80:196,1,150,2|2,3:1|3:1,0:1:0:0:
168,224,252517,1,8,0:0:0:0:
192,136,252670,2,2,B|264:108|360:124,1,150,2|2,3:1|3:1,0:1:0:0:
396,188,253132,2,0,L|476:156,1,75,8|2,0:0|3:1,0:0:0:0:
465,160,253363,1,8,3:2:0:0:
465,160,253440,2,0,B|452:116|464:68,1,75,2|2,3:2|3:1,0:0:0:0:
384,36,253747,2,0,L|300:40,1,75,10|0,0:0|3:0,0:0:0:0:
236,104,254055,6,2,B|216:160|144:176|96:120,1,150,4|8,0:0|0:0,0:1:0:0:
112,136,254670,2,0,B|124:188|128:224,1,75,0|0,0:0|3:0,0:0:0:0:
168,288,254978,1,8,0:0:0:0:
256,288,255132,2,2,B|332:316|412:300,1,150,2|0,3:1|3:0,0:1:0:0:
476,248,255594,2,0,B|488:208|472:172,1,75,8|2,0:0|3:2,0:0:0:0:
473,174,255824,1,8,3:2:0:0:
473,174,255901,2,0,L|460:96,1,75,0|0,3:0|3:0,0:0:0:0:
384,156,256209,2,0,L|304:168,1,75,8|0,0:0|3:0,0:0:0:0:
232,144,256517,6,2,B|140:164|100:72,1,150,4|8,0:0|0:0,0:1:0:0:
244,72,256978,2,2,B|264:164|172:204,1,150,2|0,0:0|0:0,0:1:0:0:
128,308,257440,2,2,B|204:252|296:316,1,150,8|4,0:0|0:0,0:1:0:0:
324,228,257901,2,0,L|404:200,1,75,2|8,0:0|0:0,0:0:0:0:
472,168,258209,1,8,0:0:0:0:
472,168,258286,1,2,0:0:0:0:
472,168,258363,1,2,0:0:0:0:
252,40,258670,1,2,3:2:0:0:
172,284,258978,1,4,0:0:0:0:
256,192,259132,12,4,261440,0:2:0:0:
168,324,263901,6,0,L|152:176,2,134.999995880127,6|0|2,0:0|1:0|0:0,0:0:0:0:
244,356,264670,2,0,B|284:368|320:360,1,67.4999979400635,0|0,3:0|1:0,0:0:0:0:
384,312,264978,1,2,3:2:0:0:
472,144,265286,2,0,L|452:64,1,67.4999979400635,0|0,3:0|1:0,0:0:0:0:
376,116,265594,2,0,L|328:92,2,33.7499989700318,0|0|0,0:0|1:0|3:0,0:0:0:0:
400,204,265901,2,0,B|320:196|264:264,1,134.999995880127,2|0,3:2|3:0,0:0:0:0:
256,336,266363,5,2,3:2:0:0:
24,244,266670,2,0,B|60:244|96:244,1,67.4999979400635,0|0,1:0|3:0,0:0:0:0:
136,168,266978,2,0,L|136:32,1,134.999995880127,2|0,0:0|1:0,0:0:0:0:
52,44,267440,1,2,3:2:0:0:
252,168,267747,1,0,3:0:0:0:
340,156,267900,1,0,1:0:0:0:
428,140,268055,2,0,L|444:100,2,33.7499989700318,0|0|0,3:0|1:0|3:0,0:0:0:0:
416,224,268363,2,0,B|444:252|496:248,2,67.4999979400635,2|0|2,3:0|1:0|3:0,0:0:0:0:
340,280,268824,70,0,B|272:228|184:272,1,134.999995880127,4|0,0:0|1:0,0:0:0:0:
144,312,269286,2,0,L|112:164,1,134.999995880127,0|0,3:0|3:0,0:0:0:0:
204,164,269747,1,0,1:0:0:0:
204,164,269901,2,0,B|276:176|276:176|348:140,1,134.999995880127,2|0,3:2|3:0,0:0:0:0:
396,88,270363,1,0,1:0:0:0:
324,36,270517,2,0,L|276:32,2,33.7499989700318,0|0|0,0:0|1:0|3:0,0:0:0:0:
396,88,270824,2,0,B|436:84|472:100,2,67.4999979400635,0|0|0,3:0|1:0|3:0,0:0:0:0:
331,148,271286,6,0,B|300:232|368:280,1,134.999995880127,2|0,3:2|1:0,0:0:0:0:
412,328,271747,2,0,B|352:280|272:312,1,134.999995880127,0|0,3:0|3:0,0:0:0:0:
208,344,272209,1,0,1:0:0:0:
144,292,272363,1,0,3:0:0:0:
236,40,272670,1,0,3:0:0:0:
312,84,272824,2,0,L|296:176,1,67.4999979400635,0|0,1:0|3:0,0:0:0:0:
224,192,273132,2,0,L|208:116,1,67.4999979400635,0|0,3:0|3:0,0:0:0:0:
136,184,273440,2,0,L|128:264,1,67.4999979400635,0|0,1:0|3:0,0:0:0:0:
228,304,273747,70,0,B|280:288|280:288|308:268|308:268|368:252,1,134.999995880127,4|0,0:0|1:0,0:0:0:0:
432,292,274209,1,0,3:0:0:0:
432,292,274363,2,0,B|416:224|420:144,1,134.999995880127,0|2,0:0|1:2,0:0:0:0:
424,72,274824,1,0,3:0:0:0:
424,72,275132,2,0,L|356:84,1,67.4999979400635,0|0,3:0|1:0,0:0:0:0:
296,140,275440,1,0,0:0:0:0:
296,140,275517,1,0,1:0:0:0:
296,140,275594,2,0,L|200:160,1,67.4999979400635,0|0,3:0|3:0,0:0:0:0:
156,112,275901,2,0,L|64:128,1,67.4999979400635,0|0,1:0|3:0,0:0:0:0:
36,196,276209,5,4,0:0:0:0:
36,196,276517,2,0,L|52:272,1,67.4999979400635,2|2,0:0|0:0,0:0:0:0:
128,264,276824,2,0,L|144:348,1,67.4999979400635,2|0,0:0|0:0,0:0:0:0:
228,344,277132,2,0,L|300:356,1,67.4999979400635,2|2,0:0|0:0,0:0:0:0:
432,224,277594,70,0,B|440:184|428:152,2,67.4999979400635,2|2|2,0:0|0:0|0:0,0:0:0:0:
360,264,278055,2,0,L|288:268,1,67.4999979400635,0|0,0:0|0:0,0:0:0:0:
292,176,278363,2,0,L|368:184,1,67.4999979400635,2|2,0:0|0:0,0:0:0:0:
