osu file format v14

[General]
AudioFilename: audio.mp3
AudioLeadIn: 0
PreviewTime: 0
Countdown: 0
SampleSet: Soft
StackLeniency: 0.7
Mode: 0
LetterboxInBreaks: 0
WidescreenStoryboard: 1

[Editor]
DistanceSpacing: 1
BeatDivisor: 4
GridSize: 32
TimelineZoom: 2.9

[Metadata]
Title:ChRoNiClESeVeN feat. Annabel
TitleUnicode:ChRøNiClESeVeN feat. Annabel
Artist:sasakure.UK
ArtistUnicode:sasakure.UK
Creator:AIR
Version:Normal
Source:セブンスドラゴンⅢ code:VFD
Tags:7th dragon
BeatmapID:1630903
BeatmapSetID:775590

[Difficulty]
HPDrainRate:1
CircleSize:3
OverallDifficulty:3
ApproachRate:4
SliderMultiplier:0.9
SliderTickRate:1

[Events]
//Background and Video events
0,0,"55419383_p0.jpg",0,0
//Break Periods
2,81941,90267
2,151478,159804
2,187785,191188
2,197631,198572
//Storyboard Layer 0 (Background)
//Storyboard Layer 1 (Fail)
//Storyboard Layer 2 (Pass)
//Storyboard Layer 3 (Foreground)
//Storyboard Sound Samples

[TimingPoints]
1013,357.142857142857,4,2,1,5,1,0
1370,468.75,4,2,1,5,1,0
1838,612.244897959184,4,2,1,5,1,0
2450,394.736842105263,4,2,1,5,1,0
2844,447.761194029851,4,2,1,5,1,0
3291,535.714285714286,4,2,1,5,1,0
3826,566.037735849057,4,2,1,5,1,0
4392,545.454545454546,4,2,1,5,1,0
4937,461.538461538462,4,2,1,5,1,0
5398,612.244897959184,4,2,1,5,1,0
6010,545.454545454546,4,2,1,5,1,0
6555,439.56043956044,4,2,1,5,1,0
7434,530.973451327434,4,2,1,5,1,0
7964,447.761194029851,4,2,1,5,1,0
8859,357.142857142857,4,2,1,40,1,0
12203,307.692307692308,4,2,1,60,1,0
12203,-100,4,2,1,60,0,0
22049,-100,4,2,1,70,0,0
31895,-100,4,2,1,60,0,0
41741,-100,4,2,1,70,0,0
51587,-100,4,2,1,70,0,0
52049,-100,4,2,1,70,0,0
52510,-100,4,2,1,70,0,0
54049,-100,4,2,1,70,0,0
54510,-100,4,2,1,70,0,0
54972,-100,4,2,1,70,0,0
56510,-100,4,2,1,70,0,0
58356,-100,4,2,1,70,0,0
58818,-100,4,2,1,70,0,0
59587,-100,4,2,1,70,0,0
61433,-100,4,2,1,70,0,0
62049,307.692307692308,4,2,1,90,1,1
62049,-100,4,2,1,90,0,1
70664,-100,4,2,1,90,0,1
70818,-100,4,2,1,90,0,1
70972,-100,4,2,1,90,0,1
71125,-100,4,2,1,90,0,1
71279,-100,4,2,1,90,0,1
71433,-100,4,2,1,90,0,1
71587,-100,4,2,1,90,0,1
71895,-100,4,2,1,90,0,1
81741,-100,4,2,1,70,0,0
91587,307.692307692308,3,2,1,70,1,0
91587,-100,4,2,1,70,0,0
101433,307.692307692308,4,2,1,60,1,0
101433,-100,4,2,1,80,0,0
111279,-100,4,2,1,80,0,0
121125,-100,4,2,1,70,0,0
121586,-100,4,2,1,70,0,0
122048,-100,4,2,1,70,0,0
123586,-100,4,2,1,70,0,0
124048,-100,4,2,1,70,0,0
124509,-100,4,2,1,70,0,0
126048,-100,4,2,1,70,0,0
128356,-100,4,2,1,70,0,0
129125,-100,4,2,1,70,0,0
130971,-100,4,2,1,70,0,0
131586,307.692307692308,4,2,1,90,1,1
131586,-100,4,2,1,90,0,1
140201,-100,4,2,1,90,0,1
140355,-100,4,2,1,90,0,1
140509,-100,4,2,1,90,0,1
140662,-100,4,2,1,90,0,1
140816,-100,4,2,1,90,0,1
140970,-100,4,2,1,90,0,1
141124,-100,4,2,1,90,0,1
141432,-100,4,2,1,90,0,1
151278,-100,4,2,1,60,0,0
161124,-100,4,2,1,80,0,0
170816,-100,4,2,1,60,0,0
170970,307.692307692308,7,2,1,60,1,0
170970,-100,4,2,1,60,0,0
183893,307.692307692308,6,2,1,80,1,0
183893,-100,4,2,1,80,0,0
184816,-100,4,2,1,80,0,0
185739,307.692307692308,3,2,1,80,1,0
185739,-100,4,2,1,80,0,0
186662,-100,4,2,1,80,0,0
187585,307.692307692308,4,2,1,60,1,0
197123,-100,4,2,1,5,0,0
199892,-100,4,2,1,60,0,0
209738,-100,4,2,1,80,0,0
219585,-100,4,2,1,90,0,1
228200,-100,4,2,1,90,0,1
228354,-100,4,2,1,90,0,1
228508,-100,4,2,1,90,0,1
228661,-100,4,2,1,90,0,1
228815,-100,4,2,1,90,0,1
228969,-100,4,2,1,90,0,1
229123,-100,4,2,1,90,0,1
229431,-100,4,2,1,90,0,1
238661,-100,4,2,1,90,0,0
239277,-100,4,2,1,90,0,1
247892,-100,4,2,1,90,0,1
248046,-100,4,2,1,90,0,1
248200,-100,4,2,1,90,0,1
248354,-100,4,2,1,90,0,1
248508,-100,4,2,1,90,0,1
248661,-100,4,2,1,90,0,1
248815,-100,4,2,1,90,0,1
249123,-100,4,2,1,90,0,1
258354,-100,4,2,1,70,0,0
258661,-100,4,2,1,70,0,0
258969,-100,4,2,1,70,0,0
259738,-100,4,2,1,70,0,0
260046,-100,4,2,1,70,0,0
260354,-100,4,2,1,70,0,0
261123,-100,4,2,1,70,0,0
261431,-100,4,2,1,70,0,0
261892,-100,4,2,1,70,0,0
262200,-100,4,2,1,70,0,0
263277,-100,4,2,1,70,0,0
263585,-100,4,2,1,70,0,0
263892,-100,4,2,1,70,0,0
264969,-100,4,2,1,70,0,0
265277,-100,4,2,1,70,0,0
266354,-100,4,2,1,70,0,0
266661,-100,4,2,1,70,0,0
266969,-100,4,2,1,70,0,0
267431,-100,4,2,1,70,0,0
267738,-100,4,2,1,70,0,0
268200,-100,4,2,1,70,0,0
268508,-100,4,2,1,70,0,0
268815,-100,4,2,1,70,0,0
269123,-100,4,2,1,70,0,0
269585,-100,4,2,1,70,0,0
269892,-100,4,2,1,70,0,0
270969,-100,4,2,1,70,0,0
271277,-100,4,2,1,70,0,0
271738,-100,4,2,1,70,0,0
272815,-100,4,2,1,70,0,0
273123,-100,4,2,1,70,0,0
273431,-100,4,2,1,70,0,0
273738,-100,4,2,1,70,0,0
276200,-100,4,2,1,60,0,0
278354,348.837209302326,4,2,1,60,1,0

[Colours]
Combo1 : 81,81,230
Combo2 : 233,233,233
Combo3 : 255,45,45
Combo4 : 255,6,131

[HitObjects]
87,194,12203,5,2,0:0:0:0:
87,194,13279,2,0,L|280:202,1,180,2|2,0:0|0:0,0:0:0:0:
512,133,14664,5,2,0:0:0:0:
512,133,15741,2,0,L|319:123,1,180,2|2,0:0|0:0,0:0:0:0:
355,210,16664,6,0,P|411:261|410:328,1,135,0|2,0:0|0:0,0:0:0:0:
103,370,18203,2,0,P|87:279|169:205,1,180,2|2,0:0|0:0,0:0:0:0:
314,74,19587,5,2,0:0:0:0:
314,74,20510,1,0,0:0:0:0:
225,88,20818,2,0,L|35:73,1,180,2|0,0:0|0:0,0:0:0:0:
183,189,22049,6,0,P|252:257|230:354,1,180,6|8,0:0|0:0,0:0:0:0:
65,349,23279,2,0,L|80:155,1,180,0|10,0:0|0:0,0:0:0:0:
249,112,24510,2,0,P|343:140|440:118,1,180,2|8,0:0|0:0,0:0:0:0:
499,288,25741,2,0,P|425:272|317:315,1,180,0|10,0:0|0:0,0:0:0:0:
157,362,26972,5,6,0:0:0:0:
11,256,27587,2,0,L|68:75,2,180,8|0|10,0:0|0:0|0:0,0:0:0:0:
184,208,29433,1,2,0:0:0:0:
308,77,30049,2,0,L|334:264,2,180,8|0|10,0:0|0:0|0:0,0:0:0:0:
481,126,31895,5,6,0:0:0:0:
481,126,32972,2,0,P|483:186|473:308,1,180,2|2,0:0|0:0,0:0:0:0:
249,321,34356,1,2,0:0:0:0:
249,321,35433,2,0,P|257:260|237:127,1,180,2|2,0:0|0:0,0:0:0:0:
17,128,36818,5,6,0:0:0:0:
17,128,37895,2,0,P|41:197|51:316,1,180,2|2,0:0|0:0,0:0:0:0:
275,326,39279,2,0,P|297:235|298:134,1,180,2|2,0:0|0:0,0:0:0:0:
120,127,40510,2,0,P|105:204|109:320,1,180,2|2,0:0|0:0,0:0:0:0:
209,157,41741,6,0,B|224:97|224:97|330:30,1,180,6|8,0:0|0:0,0:0:0:0:
492,96,42972,2,0,P|510:194|473:271,1,180,0|8,0:0|0:0,0:0:0:0:
313,338,44203,2,0,L|117:325,1,180,2|8,0:0|0:0,0:0:0:0:
274,214,45433,2,0,L|91:202,1,180,0|8,0:0|0:0,0:0:0:0:
23,36,46664,6,0,P|106:34|185:100,1,180,6|8,0:0|0:0,0:0:0:0:
189,271,47895,2,0,P|243:340|348:348,1,180,0|8,0:0|0:0,0:0:0:0:
499,292,49126,2,0,L|479:97,1,180,2|8,0:0|0:0,0:0:0:0:
326,19,50356,2,0,L|344:198,1,180,0|8,0:0|0:0,0:0:0:0:
170,245,51587,6,0,P|113:215|82:144,2,135,4|2|2,0:0|0:0|0:0,0:0:0:0:
185,156,52818,2,0,P|237:64|315:166,1,270
342,245,54049,6,0,P|399:215|430:144,2,135,2|2|2,0:0|0:0|0:0,0:0:0:0:
319,157,55279,2,0,P|251:63|185:158,1,270
101,192,56510,6,0,P|66:292|102:358,1,180,4|8,0:0|0:0,0:0:0:0:
266,279,57741,2,0,L|259:82,1,180,0|8,0:0|0:0,0:0:0:0:
383,44,58818,6,0,L|409:282,1,225,12|8,0:0|0:0,0:0:0:0:
477,101,60203,2,0,P|428:122|292:117,1,180,0|8,1:0|0:0,0:0:0:0:
90,34,62049,6,0,L|61:184,1,135,6|2,3:2|0:0,0:0:0:0:
141,277,62972,2,0,L|175:125,1,135,8|2,0:0|0:0,0:0:0:0:
305,154,63895,2,0,L|317:247,1,90,8|8,0:0|0:0,0:0:0:0:
403,268,64510,6,0,L|421:115,1,135,2|2,0:0|0:0,0:0:0:0:
326,34,65433,2,0,P|286:49|189:17,2,135,8|2|8,0:0|0:0|0:0,0:0:0:0:
415,40,66664,1,8,0:0:0:0:
494,81,66972,6,0,L|508:271,1,180,2|0,0:0|0:0,0:0:0:0:
357,360,68202,2,0,L|332:167,1,180,0|8,0:0|0:0,0:0:0:0:
156,148,69433,6,0,L|137:341,1,180,2|0,0:0|0:0,0:0:0:0:
22,189,70664,2,0,P|102:233|290:216,1,270,2|8,0:1|1:3,0:0:0:0:
287,133,71895,6,0,P|280:107|191:129,1,135,6|2,3:2|0:0,0:0:0:0:
275,223,72818,2,0,P|347:229|410:181,1,135,8|2,0:0|0:0,0:0:0:0:
490,98,73741,2,0,L|501:208,1,90,8|8,0:0|0:0,0:0:0:0:
500,277,74356,6,0,L|354:318,1,135,2|2,0:0|0:0,0:0:0:0:
236,332,75279,2,0,P|179:319|114:275,2,135,8|2|8,0:0|0:0|0:0,0:0:0:0:
290,260,76510,1,8,0:0:0:0:
264,174,76818,6,0,P|221:134|167:16,1,180,2|0,0:0|0:0,0:0:0:0:
348,16,78049,2,0,P|400:74|354:160,1,180,0|8,0:0|0:0,0:0:0:0:
191,217,79279,6,0,L|4:230,1,180,2|0,0:0|0:0,0:0:0:0:
141,354,80510,2,0,L|329:344,1,180,0|8,0:0|0:0,0:0:0:0:
486,273,81741,1,6,0:0:0:0:
91,63,91587,6,0,L|87:208,1,135,4|0,0:0|0:0,0:0:0:0:
204,264,92510,2,0,L|216:119,1,135,0|0,0:0|0:0,0:0:0:0:
342,85,93433,2,0,L|349:224,1,135,0|0,0:0|0:0,0:0:0:0:
463,290,94356,2,0,L|481:143,1,135,0|8,0:0|1:3,0:0:0:0:
438,27,95279,6,0,L|291:41,1,135,6|8,0:0|0:0,0:0:0:0:
186,108,96202,2,0,L|41:118,1,135,2|8,0:0|0:0,0:0:0:0:
51,252,97125,2,0,L|202:269,1,135,6|6,0:0|0:0,0:0:0:0:
307,323,98048,2,0,L|443:341,1,135,6|6,0:0|0:0,0:0:0:0:
427,206,98971,1,6,0:0:0:0:
104,97,101433,6,0,L|82:286,1,180,2|2,0:0|0:0,0:0:0:0:
263,276,102663,2,0,L|241:81,1,180,2|2,0:0|0:0,0:0:0:0:
422,87,103894,2,0,P|476:162|442:252,1,180,2|2,0:0|0:0,0:0:0:0:
276,273,105125,2,0,L|85:278,1,180,2|2,0:0|0:0,0:0:0:0:
97,97,106356,6,0,L|292:109,1,180,2|2,0:0|0:0,0:0:0:0:
409,229,107586,2,0,P|450:268|413:374,1,180,2|2,0:0|0:0,0:0:0:0:
234,368,108817,2,0,L|253:231,2,135,2|0|2,0:0|0:0|0:0,0:0:0:0:
144,376,110048,2,0,L|128:186,1,180,2|2,0:0|0:0,0:0:0:0:
52,33,111279,6,0,P|19:75|27:198,1,180,4|8,0:0|0:0,0:0:0:0:
160,209,112356,2,0,B|157:96|157:96|259:16,1,225,0|8,0:0|0:0,0:0:0:0:
424,21,113740,2,0,P|470:60|447:168,1,180,0|8,0:0|0:0,0:0:0:0:
313,165,114817,2,0,B|312:298|312:298|230:362,1,225,0|8,0:0|0:0,0:0:0:0:
59,362,116202,6,0,P|17:311|63:204,1,180,0|8,0:0|0:0,0:0:0:0:
185,199,117279,2,0,L|423:216,1,225,0|8,0:0|0:0,0:0:0:0:
473,47,118663,2,0,L|288:56,1,180,0|8,0:0|0:0,0:0:0:0:
145,158,119894,2,0,P|160:103|68:20,1,180,0|8,0:0|0:3,0:0:0:0:
68,200,121125,6,0,L|82:345,2,135,6|2|0,0:0|0:0|0:0,0:0:0:0:
158,203,122356,2,0,P|251:278|356:189,1,270
444,200,123586,6,0,L|430:345,2,135,2|2|2,0:0|0:0|0:0,0:0:0:0:
354,198,124817,2,0,P|258:278|158:203,1,270
132,116,126048,6,0,L|316:108,1,180,4|8,0:0|0:0,0:0:0:0:
487,67,127279,2,0,L|494:265,1,180,8|8,0:0|0:0,0:0:0:0:
367,197,128356,6,0,L|134:140,1,225,4|8,0:0|0:0,0:0:0:0:
200,317,129740,2,0,L|387:297,1,180,2|8,0:0|0:0,0:0:0:0:
99,70,131586,6,0,P|88:129|154:137,1,135,6|2,3:2|0:0,0:0:0:0:
268,77,132509,2,0,L|414:86,1,135,8|2,0:0|0:0,0:0:0:0:
475,199,133432,2,0,L|377:193,1,90,8|8,0:0|0:0,0:0:0:0:
295,194,134047,6,0,L|316:343,1,135,2|2,0:0|0:0,0:0:0:0:
182,359,134970,2,0,L|136:220,2,135,8|2|8,0:0|0:0|0:0,0:0:0:0:
92,366,136201,1,8,0:0:0:0:
25,304,136509,6,0,P|15:234|64:128,1,180,2|0,0:0|0:0,0:0:0:0:
221,64,137739,2,0,L|415:96,1,180,0|8,0:0|0:0,0:0:0:0:
303,246,138970,6,0,L|110:211,1,180,2|0,0:0|0:0,0:0:0:0:
298,161,140201,2,0,B|377:155|417:221|417:221|425:298|350:339,1,270,2|8,0:1|0:3,0:0:0:0:
278,359,141432,6,0,L|130:365,1,135,6|2,3:2|0:0,0:0:0:0:
36,281,142355,2,0,L|180:275,1,135,8|2,0:0|0:0,0:0:0:0:
226,152,143278,6,0,L|132:156,1,90,8|8,0:0|0:0,0:0:0:0:
39,163,143893,2,0,P|13:116|37:41,1,135,0|2,0:0|0:0,0:0:0:0:
173,27,144816,2,0,L|233:169,2,135,8|2|8,0:0|0:0|0:0,0:0:0:0:
262,14,146047,1,8,0:0:0:0:
349,34,146355,6,0,B|395:129|395:129|471:153,1,180,2|0,0:0|0:0,0:0:0:0:
482,330,147586,2,0,B|426:311|426:311|301:349,1,180,0|8,0:0|0:0,0:0:0:0:
131,364,148816,6,0,P|82:321|122:218,1,180,2|0,0:0|0:0,0:0:0:0:
293,216,150047,2,0,P|325:165|259:75,1,180,0|8,0:0|0:0,0:0:0:0:
85,57,151278,1,6,0:1:0:0:
63,307,161124,6,0,L|215:295,1,135,6|8,0:0|0:0,0:0:0:0:
449,77,162355,6,0,L|297:89,1,135,0|8,0:0|0:0,0:0:0:0:
63,77,163586,6,0,L|215:89,1,135,2|8,0:0|0:0,0:0:0:0:
449,307,164816,6,0,L|297:295,1,135,0|8,0:0|0:0,0:0:0:0:
152,139,166047,6,0,P|115:197|158:246,1,135,4|2,0:0|0:0,0:0:0:0:
284,245,166970,2,0,L|299:95,1,135,8|2,0:0|0:0,0:0:0:0:
432,111,167893,2,0,L|439:209,1,90,2|8,0:0|1:3,0:0:0:0:
436,291,168509,6,0,L|258:342,1,180,2|0,0:0|0:0,0:0:0:0:
144,205,169739,2,0,L|326:152,1,180,0|8,0:0|0:0,0:0:0:0:
205,13,170970,5,4,0:0:0:0:
373,278,172046,2,0,L|135:293,1,225,8|8,0:1|0:1,0:0:0:0:
61,315,173123,5,8,0:1:0:0:
322,139,174200,2,0,P|419:180|484:81,1,225,8|8,0:1|0:1,0:0:0:0:
395,87,175277,5,8,0:1:0:0:
86,184,176354,2,0,P|162:213|246:116,1,225,8|8,0:1|0:1,0:0:0:0:
156,122,177431,5,8,0:1:0:0:
373,348,178508,2,0,L|337:109,1,225,8|8,0:1|0:1,0:0:0:0:
337,35,179585,5,8,0:1:0:0:
37,132,180662,2,0,L|12:375,1,225,8|8,0:1|0:1,0:0:0:0:
104,355,181739,5,8,0:1:0:0:
215,31,182816,2,0,P|178:101|188:246,1,225,8|8,0:1|0:1,0:0:0:0:
275,260,183893,6,0,P|305:216|295:133,1,135,6|2,0:0|0:0,0:0:0:0:
425,95,184816,2,0,L|440:245,1,135,6|2,0:0|0:0,0:0:0:0:
450,363,185739,2,0,L|317:334,1,135,2|6,0:0|0:0,0:0:0:0:
189,292,186662,2,0,L|49:331,1,135,6|6,0:0|0:0,0:0:0:0:
22,198,187585,1,4,0:0:0:0:
256,192,192508,12,0,197431,0:0:0:0:
88,312,199892,6,0,L|97:177,1,135,2|2,0:0|0:0,0:0:0:0:
175,287,200815,2,0,L|185:141,1,135,2|2,0:0|0:0,0:0:0:0:
267,259,201738,2,0,L|259:348,1,90,2|2,0:0|0:0,0:0:0:0:
348,331,202354,6,0,P|359:291|439:233,1,135,2|2,0:0|0:0,0:0:0:0:
493,115,203277,2,0,P|435:106|383:44,1,135,2|2,0:0|0:0,0:0:0:0:
251,35,204200,2,0,L|235:140,1,90,2|2,0:0|0:0,0:0:0:0:
147,127,204815,5,2,0:0:0:0:
130,261,205277,1,2,0:0:0:0:
235,345,205738,1,2,0:0:0:0:
362,300,206200,1,2,0:0:0:0:
398,170,206661,2,0,L|306:182,1,90,2|2,0:0|0:0,0:0:0:0:
218,191,207277,5,2,0:0:0:0:
284,73,207738,1,2,0:0:0:0:
419,78,208200,1,2,0:0:0:0:
500,185,208661,1,2,0:0:0:0:
485,319,209123,2,0,P|446:314|394:295,1,90,2|2,0:0|0:0,0:0:0:0:
321,249,209738,6,0,P|262:240|165:325,1,180,4|0,0:0|0:0,0:0:0:0:
28,197,210969,2,0,L|57:12,1,180,0|8,0:0|0:0,0:0:0:0:
235,26,212200,6,0,L|253:214,1,180,0|0,0:0|0:0,0:0:0:0:
432,208,213431,2,0,L|457:26,1,180,0|8,0:0|0:0,0:0:0:0:
300,119,214661,6,0,P|342:180|339:243,2,135
164,120,216046,2,0,L|187:264,1,135,0|8,0:0|0:0,0:0:0:0:
105,295,216815,1,8,0:0:0:0:
28,246,217123,6,0,L|62:94,1,135,0|0,0:0|0:0,0:0:0:0:
192,110,218046,2,0,L|215:255,1,135
348,244,218969,2,0,L|365:146,1,90,2|8,0:0|0:0,0:0:0:0:
425,89,219585,6,0,P|459:120|482:217,1,135,6|2,3:2|0:0,0:0:0:0:
396,306,220508,2,0,L|250:323,1,135,8|2,0:0|0:0,0:0:0:0:
134,275,221431,2,0,P|87:273|54:302,1,90,8|8,0:0|0:0,0:0:0:0:
16,218,222046,6,0,L|34:67,1,135,2|2,0:0|0:0,0:0:0:0:
147,153,222969,2,0,L|163:8,2,135,8|2|8,0:0|0:0|0:0,0:0:0:0:
222,201,224200,1,8,0:0:0:0:
287,139,224508,6,0,P|338:77|449:67,1,180,2|0,0:0|0:0,0:0:0:0:
504,226,225738,2,0,P|467:278|350:300,1,180,0|8,0:0|0:0,0:0:0:0:
190,236,226969,2,0,P|147:210|21:241,1,180,2|0,0:0|0:0,0:0:0:0:
186,318,228200,2,0,L|200:37,1,270,2|8,0:1|1:3,0:0:0:0:
280,87,229431,6,0,P|360:97|406:57,1,135,6|2,3:2|0:0,0:0:0:0:
482,173,230354,2,0,P|415:199|390:269,1,135,8|2,0:0|0:0,0:0:0:0:
477,357,231277,2,0,P|490:320|477:269,1,90,8|8,0:0|0:0,0:0:0:0:
389,253,231892,6,0,P|314:231|256:266,1,135,2|2,0:0|0:0,0:0:0:0:
137,296,232815,2,0,P|72:307|24:249,1,135,8|2,0:0|0:0,0:0:0:0:
46,128,233738,2,0,L|66:32,1,90,8|8,0:0|0:0,0:0:0:0:
152,20,234354,6,0,L|168:201,1,180,2|0,0:0|0:0,0:0:0:0:
341,246,235585,2,0,L|361:54,1,180,0|8,0:0|0:0,0:0:0:0:
461,215,236815,6,0,P|417:276|417:378,1,180,2|0,0:0|0:0,0:0:0:0:
238,373,238046,2,0,P|239:321|154:219,1,180,0|8,0:0|0:0,0:0:0:0:
28,104,239277,6,0,L|217:113,1,180,2|2,0:1|0:1,0:0:0:0:
363,22,240508,2,0,P|417:57|429:170,1,180,2|2,0:1|0:1,0:0:0:0:
264,233,241738,6,0,P|249:273|333:360,1,180,2|2,0:1|0:1,0:0:0:0:
348,180,242969,2,0,B|381:250|381:250|482:309,1,180,2|2,0:1|0:1,0:0:0:0:
447,122,244200,6,0,L|254:135,1,180,2|2,0:1|0:1,0:0:0:0:
105,213,245431,2,0,P|76:181|96:45,1,180,2|8,0:1|0:0,0:0:0:0:
234,157,246661,6,0,L|215:305,2,135,2|2|8,0:1|0:1|0:0,0:0:0:0:
362,216,248046,2,0,P|401:149|332:31,1,225,2|8,0:1|0:3,0:0:0:0:
244,43,249123,6,0,P|217:51|241:167,1,180,6|2,0:1|0:1,0:0:0:0:
416,161,250354,2,0,P|460:187|446:315,1,180,2|2,0:1|0:1,0:0:0:0:
284,349,251585,6,0,L|95:338,1,180,2|2,0:1|0:1,0:0:0:0:
23,177,252815,2,0,L|220:189,1,180,2|2,0:1|0:1,0:0:0:0:
382,202,254046,6,0,P|408:137|348:32,1,180,2|2,0:1|0:1,0:0:0:0:
293,207,255277,2,0,P|277:259|349:359,1,180,2|2,0:1|0:1,0:0:0:0:
482,244,256508,6,0,L|359:167,1,135,2|2,0:1|0:1,0:0:0:0:
283,139,257277,2,0,P|267:109|263:51,1,90,2|2,0:1|0:1,0:0:0:0:
349,77,257892,2,0,L|121:122,1,225,2|2,0:1|0:0,0:0:0:0:
38,125,258969,6,0,P|4:168|0:293,1,180,6|0,0:0|0:0,0:0:0:0:
116,353,260046,2,0,L|170:216,1,135,2|8,0:0|0:0,0:0:0:0:
344,206,261123,1,8,0:0:0:0:
428,237,261431,6,0,L|420:102,2,135,2|2|8,0:0|0:0|0:0,0:0:0:0:
253,281,262969,1,8,0:0:0:0:
166,305,263277,2,0,L|172:201,1,90,2|8,0:0|0:0,0:0:0:0:
100,159,263892,6,0,P|105:97|9:21,2,180,4|2|0,0:0|0:0|0:0,0:0:0:0:
275,197,265738,2,0,P|318:248|428:241,1,180,2|0,0:0|0:0,0:0:0:0:
270,342,266969,6,0,P|187:317|175:224,1,180,2|0,0:0|0:0,0:0:0:0:
265,80,268200,2,0,L|277:181,1,90,2|8,0:0|0:0,0:0:0:0:
351,218,268815,6,0,P|326:326|252:340,1,180,6|0,0:0|0:0,0:0:0:0:
136,365,269892,2,0,L|155:173,1,180,2|2,0:0|0:0,0:0:0:0:
53,95,270969,1,8,0:0:0:0:
143,91,271277,6,0,L|287:84,1,135,2|2,0:0|0:0,0:0:0:0:
368,71,272046,1,2,0:0:0:0:
444,23,272354,2,0,P|494:92|496:145,1,135,2|8,0:0|0:0,0:0:0:0:
412,171,273123,2,0,P|400:221|407:266,1,90,2|8,0:0|0:0,0:0:0:0:
445,339,273738,6,0,L|349:352,1,90,4|8,0:0|0:0,0:0:0:0:
267,342,274354,2,0,L|217:262,1,90,0|8,0:0|0:0,0:0:0:0:
175,272,274815,2,0,L|30:306,1,135,2|8,0:0|0:0,0:0:0:0:
17,216,275585,2,0,L|115:168,1,90,2|8,0:0|0:0,0:0:0:0:
150,103,276200,5,4,0:0:0:0:
327,134,276815,1,0,0:0:0:0:
226,224,277277,2,0,L|209:360,1,135,0|0,0:0|0:0,0:0:0:0:
296,335,278046,1,0,0:0:0:0:
338,267,278354,6,0,L|395:275,1,45,0|0,0:0|0:0,0:0:0:0:
